osu file format v14

[General]
AudioFilename: fire fire.mp3
AudioLeadIn: 0
PreviewTime: 57371
Countdown: 0
SampleSet: Normal
StackLeniency: 0.7
Mode: 1
LetterboxInBreaks: 0
SkinPreference:taiko
WidescreenStoryboard: 0

[Editor]
DistanceSpacing: 0.8
BeatDivisor: 4
GridSize: 32
TimelineZoom: 2.699999

[Metadata]
Title:FIRE FIRE -DARK BLAZE REMIX-
TitleUnicode:FIRE FIRE -DARK BLAZE REMIX-
Artist:Yooh
ArtistUnicode:Yooh
Creator:Nwolf
Version:Muzukashii
Source:SOUND VOLTEX II -infinite infection-
Tags:SDVX StripE Backfire
BeatmapID:939283
BeatmapSetID:436045

[Difficulty]
HPDrainRate:6
CircleSize:4
OverallDifficulty:5
ApproachRate:9
SliderMultiplier:1.4
SliderTickRate:1

[Events]
//Background and Video events
0,0,"BG2.jpg",0,30
//Break Periods
//Storyboard Layer 0 (Background)
//Storyboard Layer 1 (Fail)
//Storyboard Layer 2 (Pass)
//Storyboard Layer 3 (Foreground)
//Storyboard Sound Samples

[TimingPoints]
677,338.983050847458,4,1,0,95,1,0
1948,-100,4,1,0,50,0,0
3219,-100,4,1,0,95,0,0
25168,-100,4,1,0,60,0,0
35846,-100,4,1,0,75,0,0
57626,-100,4,1,0,95,0,1
79321,-100,4,1,0,95,0,0
79490,-100,4,1,0,60,0,0
81354,-100,4,1,0,62,0,0
81524,-100,4,1,0,66,0,0
81693,-100,4,1,0,70,0,0
81948,-100,4,1,0,76,0,0
82117,-100,4,1,0,78,0,0
82456,-100,4,1,0,80,0,0
82626,-100,4,1,0,82,0,0
82965,-100,4,1,0,84,0,0
83304,-100,4,1,0,88,0,0
83473,-100,4,1,0,90,0,0
83727,-100,4,1,0,92,0,0
84744,-100,4,1,0,95,0,1
99660,-100,4,1,0,95,0,0
101015,-100,4,1,0,95,0,1
106439,-100,4,1,0,95,0,0

[HitObjects]
224,224,677,5,4,0:0:0:0:
224,224,1015,1,4,0:0:0:0:
224,224,1354,1,4,0:0:0:0:
224,160,1693,1,0,0:0:0:0:
224,160,1863,1,0,0:0:0:0:
288,160,2032,1,8,0:0:0:0:
288,160,2371,1,8,0:0:0:0:
288,160,2710,1,8,0:0:0:0:
288,160,3049,1,8,0:0:0:0:
224,224,3388,1,4,0:0:0:0:
224,160,3643,1,0,0:0:0:0:
224,160,3897,1,0,0:0:0:0:
224,160,4066,1,0,0:0:0:0:
288,160,4321,1,8,0:0:0:0:
224,160,4575,1,0,0:0:0:0:
224,160,4744,1,0,0:0:0:0:
288,160,4999,1,8,0:0:0:0:
288,160,5253,1,8,0:0:0:0:
288,160,5592,1,8,0:0:0:0:
288,160,5677,1,8,0:0:0:0:
288,160,5761,1,8,0:0:0:0:
288,160,6100,1,8,0:0:0:0:
288,160,6354,1,8,0:0:0:0:
288,160,6609,1,8,0:0:0:0:
288,160,6778,1,8,0:0:0:0:
224,160,7032,1,0,0:0:0:0:
288,160,7287,1,8,0:0:0:0:
288,160,7456,1,8,0:0:0:0:
224,160,7710,1,0,0:0:0:0:
288,160,7965,1,8,0:0:0:0:
224,160,8304,1,0,0:0:0:0:
224,160,8388,1,0,0:0:0:0:
224,160,8473,1,0,0:0:0:0:
224,160,8812,1,0,0:0:0:0:
224,160,9066,1,0,0:0:0:0:
224,160,9321,1,0,0:0:0:0:
224,160,9490,1,0,0:0:0:0:
288,160,9744,1,8,0:0:0:0:
288,160,9999,1,8,0:0:0:0:
288,160,10083,1,8,0:0:0:0:
288,160,10168,1,8,0:0:0:0:
224,160,10338,1,0,0:0:0:0:
288,160,10508,1,8,0:0:0:0:
224,160,10677,1,0,0:0:0:0:
288,160,11015,1,8,0:0:0:0:
288,160,11100,1,8,0:0:0:0:
288,160,11185,1,8,0:0:0:0:
288,160,11524,1,8,0:0:0:0:
288,160,11778,1,8,0:0:0:0:
288,160,12032,1,8,0:0:0:0:
288,160,12202,1,8,0:0:0:0:
224,160,12456,1,0,0:0:0:0:
288,160,12710,1,8,0:0:0:0:
224,160,12880,1,0,0:0:0:0:
224,160,13049,1,0,0:0:0:0:
224,160,13219,1,0,0:0:0:0:
224,160,13558,1,0,0:0:0:0:
224,160,13727,1,0,0:0:0:0:
288,160,13897,1,8,0:0:0:0:
224,224,14236,5,4,0:0:0:0:
224,160,14490,1,0,0:0:0:0:
288,160,14744,1,8,0:0:0:0:
224,160,14914,1,0,0:0:0:0:
288,160,15168,1,8,0:0:0:0:
288,160,15422,1,8,0:0:0:0:
224,160,15592,1,0,0:0:0:0:
288,160,15846,1,8,0:0:0:0:
288,160,16100,1,8,0:0:0:0:
288,160,16439,1,8,0:0:0:0:
288,160,16524,1,8,0:0:0:0:
288,160,16609,1,8,0:0:0:0:
288,160,16948,1,8,0:0:0:0:
288,160,17202,1,8,0:0:0:0:
224,160,17456,1,0,0:0:0:0:
288,160,17626,1,8,0:0:0:0:
224,160,17880,1,0,0:0:0:0:
224,160,18134,1,0,0:0:0:0:
288,160,18304,1,8,0:0:0:0:
224,160,18558,1,0,0:0:0:0:
288,160,18812,1,8,0:0:0:0:
224,160,19151,1,0,0:0:0:0:
224,160,19236,1,0,0:0:0:0:
224,160,19321,1,0,0:0:0:0:
224,224,19660,1,4,0:0:0:0:
224,224,19829,1,4,0:0:0:0:
224,224,20083,1,4,0:0:0:0:
224,224,20338,1,4,0:0:0:0:
224,224,20592,1,4,0:0:0:0:
224,224,21015,1,4,0:0:0:0:
224,224,21185,1,4,0:0:0:0:
224,224,21439,1,4,0:0:0:0:
224,224,21693,1,4,0:0:0:0:
224,224,21948,1,4,0:0:0:0:
224,224,22202,1,4,0:0:0:0:
288,160,22371,1,8,0:0:0:0:
288,160,22710,1,8,0:0:0:0:
288,160,23049,1,8,0:0:0:0:
288,160,23388,1,8,0:0:0:0:
224,160,23558,1,0,0:0:0:0:
224,160,23643,1,0,0:0:0:0:
224,160,23727,1,0,0:0:0:0:
288,160,24066,1,8,0:0:0:0:
288,160,24236,1,8,0:0:0:0:
288,160,24405,1,8,0:0:0:0:
224,160,24575,1,0,0:0:0:0:
224,224,25083,5,4,0:0:0:0:
224,160,25761,1,0,0:0:0:0:
224,160,26439,1,0,0:0:0:0:
288,160,26778,1,8,0:0:0:0:
288,160,27117,1,8,0:0:0:0:
224,160,27456,1,0,0:0:0:0:
224,160,27795,1,0,0:0:0:0:
288,160,28134,1,8,0:0:0:0:
288,160,28812,1,8,0:0:0:0:
288,160,29490,1,8,0:0:0:0:
288,160,30168,1,8,0:0:0:0:
224,160,30507,1,0,0:0:0:0:
224,160,31185,1,0,0:0:0:0:
224,160,31863,1,0,0:0:0:0:
288,160,32202,1,8,0:0:0:0:
288,160,32541,1,8,0:0:0:0:
288,160,32880,1,8,0:0:0:0:
224,160,33219,1,0,0:0:0:0:
288,160,33558,1,8,0:0:0:0:
288,160,34236,1,8,0:0:0:0:
224,160,34575,1,0,0:0:0:0:
288,160,34914,1,8,0:0:0:0:
224,160,35083,1,0,0:0:0:0:
224,160,35422,1,0,0:0:0:0:
224,160,35592,1,0,0:0:0:0:
288,224,35931,1,12,0:0:0:0:
288,160,36270,1,8,0:0:0:0:
288,160,36609,1,8,0:0:0:0:
288,160,36778,1,8,0:0:0:0:
288,160,36948,1,8,0:0:0:0:
288,160,37117,1,8,0:0:0:0:
224,160,37287,1,0,0:0:0:0:
224,160,37626,1,0,0:0:0:0:
224,160,37795,1,0,0:0:0:0:
288,160,37965,1,8,0:0:0:0:
288,160,38134,1,8,0:0:0:0:
224,160,38304,1,0,0:0:0:0:
224,160,38643,1,0,0:0:0:0:
224,160,39151,1,0,0:0:0:0:
288,160,39321,1,8,0:0:0:0:
288,160,39660,1,8,0:0:0:0:
224,160,39999,1,0,0:0:0:0:
224,160,40253,1,0,0:0:0:0:
224,160,40507,1,0,0:0:0:0:
288,160,40677,1,8,0:0:0:0:
224,160,40846,1,0,0:0:0:0:
224,160,41354,1,0,0:0:0:0:
288,160,41693,1,8,0:0:0:0:
288,160,42032,1,8,0:0:0:0:
288,160,42202,1,8,0:0:0:0:
288,160,42371,1,8,0:0:0:0:
288,160,42541,1,8,0:0:0:0:
224,160,42710,1,0,0:0:0:0:
288,160,43049,1,8,0:0:0:0:
224,160,43219,1,0,0:0:0:0:
288,160,43388,1,8,0:0:0:0:
288,160,43558,1,8,0:0:0:0:
224,160,43727,1,0,0:0:0:0:
224,160,44066,1,0,0:0:0:0:
224,160,44575,1,0,0:0:0:0:
288,160,44744,1,8,0:0:0:0:
288,160,45083,1,8,0:0:0:0:
224,160,45422,1,0,0:0:0:0:
224,160,45677,1,0,0:0:0:0:
224,160,45931,1,0,0:0:0:0:
224,160,46100,1,0,0:0:0:0:
224,224,46778,5,4,0:0:0:0:
224,160,48134,1,0,0:0:0:0:
224,224,49490,1,4,0:0:0:0:
224,160,50168,1,0,0:0:0:0:
224,160,50846,1,0,0:0:0:0:
224,160,51524,1,0,0:0:0:0:
224,160,51863,1,0,0:0:0:0:
224,160,52032,1,0,0:0:0:0:
288,224,52202,1,12,0:0:0:0:
288,160,52541,1,8,0:0:0:0:
288,160,52880,1,8,0:0:0:0:
224,160,53049,1,0,0:0:0:0:
288,160,53219,1,8,0:0:0:0:
288,224,53558,1,12,0:0:0:0:
288,160,53897,1,8,0:0:0:0:
288,160,54236,1,8,0:0:0:0:
224,160,54405,1,0,0:0:0:0:
288,160,54575,1,8,0:0:0:0:
288,224,54914,1,12,0:0:0:0:
224,160,55083,1,0,0:0:0:0:
288,160,55253,1,8,0:0:0:0:
224,160,55422,1,0,0:0:0:0:
288,160,55592,1,8,0:0:0:0:
224,160,55761,1,0,0:0:0:0:
288,160,55931,1,8,0:0:0:0:
288,160,56270,1,8,0:0:0:0:
288,160,56439,1,8,0:0:0:0:
288,160,56609,1,8,0:0:0:0:
288,160,56948,1,8,0:0:0:0:
224,224,57626,5,4,0:0:0:0:
288,160,57795,1,8,0:0:0:0:
288,160,57880,1,8,0:0:0:0:
288,160,57965,1,8,0:0:0:0:
224,160,58134,1,0,0:0:0:0:
224,160,58304,1,0,0:0:0:0:
288,160,58473,1,8,0:0:0:0:
288,160,58643,1,8,0:0:0:0:
224,160,58982,1,0,0:0:0:0:
288,160,59151,1,8,0:0:0:0:
288,160,59321,1,8,0:0:0:0:
224,160,59490,1,0,0:0:0:0:
224,160,59660,1,0,0:0:0:0:
288,160,59829,1,8,0:0:0:0:
224,160,59999,1,0,0:0:0:0:
288,160,60338,1,8,0:0:0:0:
288,160,60507,1,8,0:0:0:0:
288,160,60592,1,8,0:0:0:0:
288,160,60677,1,8,0:0:0:0:
288,160,60846,1,8,0:0:0:0:
224,160,61015,1,0,0:0:0:0:
224,160,61185,1,0,0:0:0:0:
224,160,61354,1,0,0:0:0:0:
224,160,61693,1,0,0:0:0:0:
224,160,61863,1,0,0:0:0:0:
224,160,61948,1,0,0:0:0:0:
224,160,62032,1,0,0:0:0:0:
224,160,62202,1,0,0:0:0:0:
288,160,62371,1,8,0:0:0:0:
288,160,62541,1,8,0:0:0:0:
288,160,62710,1,8,0:0:0:0:
224,160,63049,1,0,0:0:0:0:
288,160,63219,1,8,0:0:0:0:
288,160,63304,1,8,0:0:0:0:
288,160,63388,1,8,0:0:0:0:
224,160,63558,1,0,0:0:0:0:
224,160,63727,1,0,0:0:0:0:
288,160,63897,1,8,0:0:0:0:
288,160,64066,1,8,0:0:0:0:
288,160,64405,1,8,0:0:0:0:
224,160,64575,1,0,0:0:0:0:
224,160,64660,1,0,0:0:0:0:
224,160,64744,1,0,0:0:0:0:
224,160,64914,1,0,0:0:0:0:
288,160,65083,1,8,0:0:0:0:
288,160,65253,1,8,0:0:0:0:
288,160,65422,1,8,0:0:0:0:
288,160,65761,1,8,0:0:0:0:
224,160,65931,1,0,0:0:0:0:
224,160,66100,1,0,0:0:0:0:
288,160,66270,1,8,0:0:0:0:
224,160,66609,1,0,0:0:0:0:
288,160,66778,1,8,0:0:0:0:
288,160,67117,1,8,0:0:0:0:
224,160,67287,1,0,0:0:0:0:
224,160,67371,1,0,0:0:0:0:
224,160,67456,1,0,0:0:0:0:
224,160,67626,1,0,0:0:0:0:
288,160,67795,1,8,0:0:0:0:
288,160,67965,1,8,0:0:0:0:
288,160,68134,1,8,0:0:0:0:
224,224,68473,1,4,0:0:0:0:
288,160,68643,1,8,0:0:0:0:
288,160,68727,1,8,0:0:0:0:
288,160,68812,1,8,0:0:0:0:
224,160,68982,1,0,0:0:0:0:
224,160,69151,1,0,0:0:0:0:
288,160,69321,1,8,0:0:0:0:
288,160,69490,1,8,0:0:0:0:
224,160,69829,1,0,0:0:0:0:
288,160,69999,1,8,0:0:0:0:
288,160,70168,1,8,0:0:0:0:
224,160,70338,1,0,0:0:0:0:
224,160,70507,1,0,0:0:0:0:
288,160,70677,1,8,0:0:0:0:
224,160,70846,1,0,0:0:0:0:
224,160,71185,1,0,0:0:0:0:
288,160,71354,1,8,0:0:0:0:
288,160,71439,1,8,0:0:0:0:
288,160,71524,1,8,0:0:0:0:
224,160,71693,1,0,0:0:0:0:
288,160,71863,1,8,0:0:0:0:
288,160,72032,1,8,0:0:0:0:
224,160,72202,1,0,0:0:0:0:
288,160,72541,1,8,0:0:0:0:
224,160,72710,1,0,0:0:0:0:
224,160,72795,1,0,0:0:0:0:
224,160,72880,1,0,0:0:0:0:
288,160,73049,1,8,0:0:0:0:
224,224,73219,1,4,0:0:0:0:
224,224,73388,1,4,0:0:0:0:
288,224,73558,1,12,0:0:0:0:
224,224,73897,1,4,0:0:0:0:
288,160,74066,1,8,0:0:0:0:
288,160,74151,1,8,0:0:0:0:
288,160,74236,1,8,0:0:0:0:
224,160,74405,1,0,0:0:0:0:
224,160,74575,1,0,0:0:0:0:
288,160,74744,1,8,0:0:0:0:
288,160,74914,1,8,0:0:0:0:
288,224,75253,1,12,0:0:0:0:
224,160,75422,1,0,0:0:0:0:
224,160,75592,1,0,0:0:0:0:
288,160,75761,1,8,0:0:0:0:
288,160,75931,1,8,0:0:0:0:
224,160,76100,1,0,0:0:0:0:
224,160,76270,1,0,0:0:0:0:
288,224,76609,1,12,0:0:0:0:
224,160,76778,1,0,0:0:0:0:
224,160,76948,1,0,0:0:0:0:
288,224,77287,1,12,0:0:0:0:
224,160,77456,1,0,0:0:0:0:
224,160,77626,1,0,0:0:0:0:
288,224,77965,1,12,0:0:0:0:
288,160,78134,1,8,0:0:0:0:
288,160,78304,1,8,0:0:0:0:
224,160,78473,1,0,0:0:0:0:
288,160,78643,1,8,0:0:0:0:
224,224,79321,5,4,0:0:0:0:
224,160,79829,1,0,0:0:0:0:
288,160,79999,1,8,0:0:0:0:
224,160,80677,1,0,0:0:0:0:
224,160,80931,1,0,0:0:0:0:
224,160,81185,1,0,0:0:0:0:
288,160,81354,1,8,0:0:0:0:
288,160,81524,1,8,0:0:0:0:
288,160,81693,1,8,0:0:0:0:
224,224,82032,1,4,0:0:0:0:
288,160,82202,1,8,0:0:0:0:
288,160,82371,1,8,0:0:0:0:
224,224,82541,1,4,0:0:0:0:
288,160,82710,1,8,0:0:0:0:
288,160,82880,1,8,0:0:0:0:
224,224,83049,1,4,0:0:0:0:
224,224,83388,1,4,0:0:0:0:
224,224,83643,1,4,0:0:0:0:
224,224,83897,1,4,0:0:0:0:
224,224,84744,5,4,0:0:0:0:
288,160,84914,1,8,0:0:0:0:
288,160,84999,1,8,0:0:0:0:
288,160,85083,1,8,0:0:0:0:
224,160,85253,1,0,0:0:0:0:
224,160,85422,1,0,0:0:0:0:
288,160,85592,1,8,0:0:0:0:
288,160,85761,1,8,0:0:0:0:
288,160,86100,1,8,0:0:0:0:
224,160,86270,1,0,0:0:0:0:
224,160,86355,1,0,0:0:0:0:
224,160,86439,1,0,0:0:0:0:
288,160,86609,1,8,0:0:0:0:
288,160,86778,1,8,0:0:0:0:
224,160,86948,1,0,0:0:0:0:
288,160,87117,1,8,0:0:0:0:
288,224,87456,1,12,0:0:0:0:
288,160,87795,1,8,0:0:0:0:
224,160,87965,1,0,0:0:0:0:
288,160,88134,1,8,0:0:0:0:
288,224,88473,1,12,0:0:0:0:
288,160,88812,1,8,0:0:0:0:
224,160,88982,1,0,0:0:0:0:
288,160,89151,1,8,0:0:0:0:
288,224,89490,1,12,0:0:0:0:
288,224,89660,1,12,0:0:0:0:
288,224,89829,1,12,0:0:0:0:
224,224,90168,1,4,0:0:0:0:
288,160,90338,1,8,0:0:0:0:
288,160,90422,1,8,0:0:0:0:
288,160,90507,1,8,0:0:0:0:
224,160,90677,1,0,0:0:0:0:
288,160,90846,1,8,0:0:0:0:
224,160,91015,1,0,0:0:0:0:
288,160,91185,1,8,0:0:0:0:
288,160,91524,1,8,0:0:0:0:
224,160,91693,1,0,0:0:0:0:
224,160,91778,1,0,0:0:0:0:
224,160,91863,1,0,0:0:0:0:
288,160,92032,1,8,0:0:0:0:
224,160,92202,1,0,0:0:0:0:
288,160,92371,1,8,0:0:0:0:
224,160,92541,1,0,0:0:0:0:
224,160,92710,1,0,0:0:0:0:
288,224,92880,1,12,0:0:0:0:
288,160,93219,1,8,0:0:0:0:
224,224,93388,1,4,0:0:0:0:
224,160,93727,1,0,0:0:0:0:
288,224,93897,1,12,0:0:0:0:
224,160,94066,1,0,0:0:0:0:
288,160,94236,1,8,0:0:0:0:
288,160,94405,1,8,0:0:0:0:
288,160,94575,1,8,0:0:0:0:
288,160,94744,1,8,0:0:0:0:
288,160,94914,1,8,0:0:0:0:
224,224,95592,1,4,0:0:0:0:
288,160,95761,1,8,0:0:0:0:
288,160,95846,1,8,0:0:0:0:
288,160,95931,1,8,0:0:0:0:
224,160,96100,1,0,0:0:0:0:
224,160,96270,1,0,0:0:0:0:
288,160,96439,1,8,0:0:0:0:
288,160,96609,1,8,0:0:0:0:
288,160,96948,1,8,0:0:0:0:
224,160,97117,1,0,0:0:0:0:
224,160,97202,1,0,0:0:0:0:
224,160,97287,1,0,0:0:0:0:
288,160,97456,1,8,0:0:0:0:
288,160,97626,1,8,0:0:0:0:
224,160,97795,1,0,0:0:0:0:
224,160,97965,1,0,0:0:0:0:
288,224,98304,1,12,0:0:0:0:
288,160,98643,1,8,0:0:0:0:
224,160,98812,1,0,0:0:0:0:
288,160,98982,1,8,0:0:0:0:
288,224,99321,1,12,0:0:0:0:
224,160,99490,1,0,0:0:0:0:
32,32,99660,2,0,L|224:32,2,175
288,224,100677,1,12,0:0:0:0:
224,224,101015,1,4,0:0:0:0:
288,160,101185,1,8,0:0:0:0:
288,160,101270,1,8,0:0:0:0:
288,160,101354,1,8,0:0:0:0:
224,160,101524,1,0,0:0:0:0:
224,160,101693,1,0,0:0:0:0:
288,160,101863,1,8,0:0:0:0:
288,160,102032,1,8,0:0:0:0:
288,160,102371,1,8,0:0:0:0:
224,160,102541,1,0,0:0:0:0:
224,160,102626,1,0,0:0:0:0:
224,160,102710,1,0,0:0:0:0:
288,160,102880,1,8,0:0:0:0:
288,160,103049,1,8,0:0:0:0:
224,160,103219,1,0,0:0:0:0:
224,160,103388,1,0,0:0:0:0:
288,224,103727,1,12,0:0:0:0:
224,160,103897,1,0,0:0:0:0:
288,160,104066,1,8,0:0:0:0:
224,160,104236,1,0,0:0:0:0:
288,224,104405,1,12,0:0:0:0:
288,160,104744,1,8,0:0:0:0:
224,160,104914,1,0,0:0:0:0:
288,224,105083,1,12,0:0:0:0:
224,160,105253,1,0,0:0:0:0:
288,160,105422,1,8,0:0:0:0:
288,160,105592,1,8,0:0:0:0:
288,160,105761,1,8,0:0:0:0:
288,160,106100,1,8,0:0:0:0:
224,224,106439,1,4,0:0:0:0:
224,224,107117,1,4,0:0:0:0:
224,224,107795,1,4,0:0:0:0:
224,224,108134,1,4,0:0:0:0:
224,224,108473,1,4,0:0:0:0:
224,224,109151,5,4,0:0:0:0:
288,160,109321,1,8,0:0:0:0:
224,160,109490,1,0,0:0:0:0:
288,160,109660,1,8,0:0:0:0:
224,160,109829,1,0,0:0:0:0:
288,160,109999,1,8,0:0:0:0:
288,160,110338,1,8,0:0:0:0:
224,224,110507,1,4,0:0:0:0:
288,160,110677,1,8,0:0:0:0:
224,160,110847,1,0,0:0:0:0:
288,160,111016,1,8,0:0:0:0:
224,160,111185,1,0,0:0:0:0:
288,160,111354,1,8,0:0:0:0:
288,160,111524,1,8,0:0:0:0:
224,224,111863,1,4,0:0:0:0:
224,160,112032,1,0,0:0:0:0:
224,160,112202,1,0,0:0:0:0:
288,160,112372,1,8,0:0:0:0:
288,160,112541,1,8,0:0:0:0:
288,160,112710,1,8,0:0:0:0:
224,160,112880,1,0,0:0:0:0:
224,160,112965,1,0,0:0:0:0:
224,160,113049,1,0,0:0:0:0:
288,224,113219,1,12,0:0:0:0:
288,224,113558,1,12,0:0:0:0:
288,224,113897,1,12,0:0:0:0:
224,224,114236,1,4,0:0:0:0:
