osu file format v14

[General]
AudioFilename: audio.mp3
AudioLeadIn: 0
PreviewTime: 57382
Countdown: 0
SampleSet: None
StackLeniency: 0.7
Mode: 1
LetterboxInBreaks: 0
WidescreenStoryboard: 1

[Editor]
Bookmarks: 603,3314,14162,25009,35857,46704,57552,68399,79247,90094,100941,106365,109077,114501
DistanceSpacing: 1.1
BeatDivisor: 4
GridSize: 32
TimelineZoom: 1.8

[Metadata]
Title:FIRE FIRE -DARK BLAZE REMIX-
TitleUnicode:FIRE FIRE -DARK BLAZE REMIX-
Artist:Yooh
ArtistUnicode:Yooh
Creator:Kantan
Version:Oni
Source:SOUND VOLTEX II -infinite infection-
Tags:StripE kors k楽曲REMIXコンテスト Song REMIX Contest
BeatmapID:1394310
BeatmapSetID:658260

[Difficulty]
HPDrainRate:5
CircleSize:7
OverallDifficulty:5
ApproachRate:10
SliderMultiplier:1.4
SliderTickRate:1

[Events]
//Background and Video events
0,0,"05.jpg",0,0
//Break Periods
//Storyboard Layer 0 (Background)
//Storyboard Layer 1 (Fail)
//Storyboard Layer 2 (Pass)
//Storyboard Layer 3 (Foreground)
//Storyboard Sound Samples

[TimingPoints]
603,338.983050847458,4,1,0,80,1,0
57552,-100,4,1,0,80,0,1
79247,-100,4,1,0,80,0,0
84670,-100,4,1,0,80,0,1
106365,-100,4,1,0,80,0,0
109077,-100,4,1,0,80,0,1
114162,-100,4,1,0,80,0,0

[HitObjects]
256,192,603,12,0,1789,0:0:0:0:
256,192,1958,12,0,2975,0:0:0:0:
256,192,3314,5,4,0:0:0:0:
256,192,3569,1,8,0:0:0:0:
256,192,3653,1,0,0:0:0:0:
256,192,3823,1,0,0:0:0:0:
256,192,3908,1,8,0:0:0:0:
256,192,3992,1,0,0:0:0:0:
256,192,4077,1,8,0:0:0:0:
256,192,4247,1,0,0:0:0:0:
256,192,4331,1,8,0:0:0:0:
256,192,4501,1,0,0:0:0:0:
256,192,4586,1,0,0:0:0:0:
256,192,4670,1,0,0:0:0:0:
256,192,4925,1,8,0:0:0:0:
256,192,5009,1,0,0:0:0:0:
256,192,5179,1,8,0:0:0:0:
256,192,5264,1,8,0:0:0:0:
256,192,5348,1,0,0:0:0:0:
256,192,5433,1,0,0:0:0:0:
256,192,5518,1,8,0:0:0:0:
256,192,5603,1,8,0:0:0:0:
256,192,5687,1,8,0:0:0:0:
256,192,6026,1,0,0:0:0:0:
256,192,6280,1,8,0:0:0:0:
256,192,6365,1,0,0:0:0:0:
256,192,6535,1,0,0:0:0:0:
256,192,6619,1,8,0:0:0:0:
256,192,6704,1,0,0:0:0:0:
256,192,6789,1,8,0:0:0:0:
256,192,6958,1,0,0:0:0:0:
256,192,7043,1,8,0:0:0:0:
256,192,7213,1,0,0:0:0:0:
256,192,7297,1,0,0:0:0:0:
256,192,7382,1,0,0:0:0:0:
256,192,7636,1,8,0:0:0:0:
256,192,7721,1,0,0:0:0:0:
256,192,7891,1,0,0:0:0:0:
256,192,7975,1,0,0:0:0:0:
256,192,8060,1,8,0:0:0:0:
256,192,8145,1,8,0:0:0:0:
256,192,8230,1,0,0:0:0:0:
256,192,8314,1,0,0:0:0:0:
256,192,8399,1,8,0:0:0:0:
256,192,8569,1,0,0:0:0:0:
256,192,8738,1,0,0:0:0:0:
256,192,8992,1,8,0:0:0:0:
256,192,9077,1,0,0:0:0:0:
256,192,9247,1,0,0:0:0:0:
256,192,9331,1,8,0:0:0:0:
256,192,9416,1,0,0:0:0:0:
256,192,9501,1,8,0:0:0:0:
256,192,9670,1,0,0:0:0:0:
256,192,9755,1,8,0:0:0:0:
256,192,9925,1,0,0:0:0:0:
256,192,10009,1,0,0:0:0:0:
256,192,10094,1,0,0:0:0:0:
256,192,10264,1,0,0:0:0:0:
256,192,10433,1,0,0:0:0:0:
256,192,10603,1,8,0:0:0:0:
256,192,10687,1,8,0:0:0:0:
256,192,10772,1,0,0:0:0:0:
256,192,10857,1,0,0:0:0:0:
256,192,10941,1,8,0:0:0:0:
256,192,11026,1,8,0:0:0:0:
256,192,11111,1,8,0:0:0:0:
256,192,11450,1,0,0:0:0:0:
256,192,11704,1,8,0:0:0:0:
256,192,11789,1,0,0:0:0:0:
256,192,11958,1,0,0:0:0:0:
256,192,12043,1,8,0:0:0:0:
256,192,12128,1,0,0:0:0:0:
256,192,12213,1,8,0:0:0:0:
256,192,12382,1,0,0:0:0:0:
256,192,12467,1,8,0:0:0:0:
256,192,12636,1,0,0:0:0:0:
256,192,12806,1,0,0:0:0:0:
256,192,12975,1,0,0:0:0:0:
256,192,13145,1,8,0:0:0:0:
256,192,13230,1,0,0:0:0:0:
256,192,13399,1,0,0:0:0:0:
256,192,13569,1,0,0:0:0:0:
256,192,13653,1,0,0:0:0:0:
256,192,13738,1,0,0:0:0:0:
256,192,13823,1,8,0:0:0:0:
256,192,13908,1,8,0:0:0:0:
256,192,13992,1,0,0:0:0:0:
256,192,14077,1,0,0:0:0:0:
256,192,14162,1,0,0:0:0:0:
256,192,14416,1,8,0:0:0:0:
256,192,14501,1,0,0:0:0:0:
256,192,14670,1,0,0:0:0:0:
256,192,14755,1,8,0:0:0:0:
256,192,14840,1,0,0:0:0:0:
256,192,14925,1,8,0:0:0:0:
256,192,15094,1,0,0:0:0:0:
256,192,15179,1,8,0:0:0:0:
256,192,15348,1,0,0:0:0:0:
256,192,15433,1,0,0:0:0:0:
256,192,15518,1,0,0:0:0:0:
256,192,15772,1,8,0:0:0:0:
256,192,15857,1,0,0:0:0:0:
256,192,16026,1,8,0:0:0:0:
256,192,16111,1,8,0:0:0:0:
256,192,16196,1,0,0:0:0:0:
256,192,16280,1,0,0:0:0:0:
256,192,16365,1,8,0:0:0:0:
256,192,16450,1,8,0:0:0:0:
256,192,16535,1,8,0:0:0:0:
256,192,16874,1,0,0:0:0:0:
256,192,17128,1,8,0:0:0:0:
256,192,17213,1,0,0:0:0:0:
256,192,17382,1,0,0:0:0:0:
256,192,17467,1,8,0:0:0:0:
256,192,17552,1,0,0:0:0:0:
256,192,17636,1,8,0:0:0:0:
256,192,17806,1,0,0:0:0:0:
256,192,17891,1,8,0:0:0:0:
256,192,18060,1,0,0:0:0:0:
256,192,18145,1,0,0:0:0:0:
256,192,18230,1,0,0:0:0:0:
256,192,18484,1,8,0:0:0:0:
256,192,18569,1,0,0:0:0:0:
256,192,18738,1,0,0:0:0:0:
256,192,18823,1,0,0:0:0:0:
256,192,18908,1,8,0:0:0:0:
256,192,18992,1,8,0:0:0:0:
256,192,19077,1,0,0:0:0:0:
256,192,19162,1,0,0:0:0:0:
256,192,19247,1,8,0:0:0:0:
256,192,19416,1,0,0:0:0:0:
256,192,19586,1,0,0:0:0:0:
256,192,19755,1,0,0:0:0:0:
256,192,20009,1,0,0:0:0:0:
256,192,20264,1,8,0:0:0:0:
256,192,20518,1,8,0:0:0:0:
256,192,20772,1,0,0:0:0:0:
256,192,20857,1,0,0:0:0:0:
256,192,20941,1,0,0:0:0:0:
256,192,21111,1,0,0:0:0:0:
256,192,21365,1,0,0:0:0:0:
256,192,21450,1,8,0:0:0:0:
256,192,21619,1,0,0:0:0:0:
256,192,21704,1,8,0:0:0:0:
256,192,21874,1,0,0:0:0:0:
256,192,21958,1,8,0:0:0:0:
256,192,22128,1,0,0:0:0:0:
256,192,22213,1,0,0:0:0:0:
256,192,22297,1,0,0:0:0:0:
256,192,22636,1,8,0:0:0:0:
256,192,22975,1,0,0:0:0:0:
256,192,23060,1,0,0:0:0:0:
256,192,23145,1,0,0:0:0:0:
256,192,23230,1,0,0:0:0:0:
256,192,23314,1,8,0:0:0:0:
256,192,23399,1,8,0:0:0:0:
256,192,23484,1,8,0:0:0:0:
256,192,23569,1,8,0:0:0:0:
256,192,23653,1,0,0:0:0:0:
256,192,23992,1,8,0:0:0:0:
256,192,24077,1,8,0:0:0:0:
256,192,24162,1,8,0:0:0:0:
256,192,24247,1,8,0:0:0:0:
256,192,24331,1,8,0:0:0:0:
256,192,24501,1,0,0:0:0:0:
256,192,24586,1,0,0:0:0:0:
256,192,24670,1,0,0:0:0:0:
256,192,24755,1,0,0:0:0:0:
256,192,24840,1,0,0:0:0:0:
256,192,25009,1,4,0:0:0:0:
256,192,25518,1,0,0:0:0:0:
256,192,25603,1,0,0:0:0:0:
256,192,25687,1,8,0:0:0:0:
256,192,25857,1,8,0:0:0:0:
256,192,26026,1,8,0:0:0:0:
256,192,26365,1,0,0:0:0:0:
256,192,26535,1,8,0:0:0:0:
256,192,26704,1,8,0:0:0:0:
256,192,26874,1,8,0:0:0:0:
256,192,26958,1,8,0:0:0:0:
256,192,27043,1,8,0:0:0:0:
256,192,27213,1,8,0:0:0:0:
256,192,27382,1,8,0:0:0:0:
256,192,27721,1,0,0:0:0:0:
256,192,27806,1,0,0:0:0:0:
256,192,27891,1,0,0:0:0:0:
256,192,27975,1,0,0:0:0:0:
256,192,28060,1,0,0:0:0:0:
256,192,28314,1,8,0:0:0:0:
256,192,28399,1,0,0:0:0:0:
256,192,28738,1,8,0:0:0:0:
256,192,29077,1,0,0:0:0:0:
256,192,29162,1,0,0:0:0:0:
256,192,29247,1,0,0:0:0:0:
256,192,29331,1,0,0:0:0:0:
256,192,29416,1,0,0:0:0:0:
256,192,29755,1,8,0:0:0:0:
256,192,29925,1,0,0:0:0:0:
256,192,30094,1,8,0:0:0:0:
256,192,30433,1,0,0:0:0:0:
256,192,30518,1,0,0:0:0:0:
256,192,30603,1,0,0:0:0:0:
256,192,30687,1,0,0:0:0:0:
256,192,30772,1,0,0:0:0:0:
256,192,30941,1,0,0:0:0:0:
256,192,31026,1,0,0:0:0:0:
256,192,31111,1,8,0:0:0:0:
256,192,31280,1,8,0:0:0:0:
256,192,31450,1,8,0:0:0:0:
256,192,31619,1,8,0:0:0:0:
256,192,31704,1,8,0:0:0:0:
256,192,31789,1,8,0:0:0:0:
256,192,31958,1,8,0:0:0:0:
256,192,32128,1,8,0:0:0:0:
256,192,32297,1,0,0:0:0:0:
256,192,32467,1,8,0:0:0:0:
256,192,32636,1,0,0:0:0:0:
256,192,32806,1,8,0:0:0:0:
256,192,32975,1,8,0:0:0:0:
256,192,33060,1,8,0:0:0:0:
256,192,33145,1,0,0:0:0:0:
256,192,33230,1,0,0:0:0:0:
256,192,33314,1,0,0:0:0:0:
256,192,33399,1,0,0:0:0:0:
256,192,33484,1,8,0:0:0:0:
256,192,33653,1,8,0:0:0:0:
256,192,33738,1,8,0:0:0:0:
256,192,33823,1,0,0:0:0:0:
256,192,33908,1,0,0:0:0:0:
256,192,33992,1,0,0:0:0:0:
256,192,34077,1,0,0:0:0:0:
256,192,34162,1,8,0:0:0:0:
256,192,34331,1,0,0:0:0:0:
256,192,34416,1,8,0:0:0:0:
256,192,34501,1,0,0:0:0:0:
256,192,34670,1,0,0:0:0:0:
256,192,34840,1,8,0:0:0:0:
256,192,35179,1,8,0:0:0:0:
256,192,35348,1,0,0:0:0:0:
256,192,35433,1,0,0:0:0:0:
256,192,35518,1,8,0:0:0:0:
256,192,35687,1,0,0:0:0:0:
256,192,35857,1,4,0:0:0:0:
256,192,36365,1,0,0:0:0:0:
256,192,36535,1,12,0:0:0:0:
256,192,36704,1,8,0:0:0:0:
256,192,36789,1,8,0:0:0:0:
256,192,36874,1,8,0:0:0:0:
256,192,36958,1,8,0:0:0:0:
256,192,37043,1,8,0:0:0:0:
256,192,37213,1,0,0:0:0:0:
256,192,37382,1,8,0:0:0:0:
256,192,37467,1,0,0:0:0:0:
256,192,37636,1,8,0:0:0:0:
256,192,37721,1,0,0:0:0:0:
256,192,37891,1,8,0:0:0:0:
256,192,38004,1,8,0:0:0:0:
256,192,38117,1,8,0:0:0:0:
256,192,38230,1,8,0:0:0:0:
256,192,38569,1,0,0:0:0:0:
256,192,38738,1,8,0:0:0:0:
256,192,38823,1,8,0:0:0:0:
256,192,38908,1,8,0:0:0:0:
256,192,39077,1,0,0:0:0:0:
256,192,39247,1,12,0:0:0:0:
256,192,39586,1,8,0:0:0:0:
256,192,39925,1,0,0:0:0:0:
256,192,40179,1,0,0:0:0:0:
256,192,40433,1,0,0:0:0:0:
256,192,40603,1,8,0:0:0:0:
256,192,40772,1,0,0:0:0:0:
256,192,40941,1,8,0:0:0:0:
256,192,41111,1,0,0:0:0:0:
256,192,41196,1,0,0:0:0:0:
256,192,41280,1,0,0:0:0:0:
256,192,41365,1,8,0:0:0:0:
256,192,41450,1,8,0:0:0:0:
256,192,41535,1,8,0:0:0:0:
256,192,41619,1,8,0:0:0:0:
256,192,41789,1,0,0:0:0:0:
256,192,41958,1,12,0:0:0:0:
256,192,42128,1,8,0:0:0:0:
256,192,42213,1,8,0:0:0:0:
256,192,42297,1,8,0:0:0:0:
256,192,42382,1,8,0:0:0:0:
256,192,42467,1,8,0:0:0:0:
256,192,42636,1,0,0:0:0:0:
256,192,42806,1,8,0:0:0:0:
256,192,42891,1,0,0:0:0:0:
256,192,42975,1,0,0:0:0:0:
256,192,43060,1,8,0:0:0:0:
256,192,43230,1,0,0:0:0:0:
256,192,43314,1,8,0:0:0:0:
256,192,43484,1,8,0:0:0:0:
256,192,43569,1,8,0:0:0:0:
256,192,43653,1,8,0:0:0:0:
256,192,43992,1,0,0:0:0:0:
256,192,44162,1,0,0:0:0:0:
256,192,44247,1,0,0:0:0:0:
256,192,44331,1,8,0:0:0:0:
256,192,44501,1,0,0:0:0:0:
256,192,44670,1,12,0:0:0:0:
256,192,45009,1,0,0:0:0:0:
256,192,45094,1,0,0:0:0:0:
256,192,45179,1,0,0:0:0:0:
256,192,45264,1,0,0:0:0:0:
256,192,45348,1,0,0:0:0:0:
256,192,45603,1,0,0:0:0:0:
256,192,45687,1,8,0:0:0:0:
256,192,45857,1,0,0:0:0:0:
256,192,46026,1,8,0:0:0:0:
256,192,46365,1,0,0:0:0:0:
256,192,46704,1,0,0:0:0:0:
256,192,46874,1,0,0:0:0:0:
256,192,46958,1,0,0:0:0:0:
256,192,47043,1,8,0:0:0:0:
256,192,47213,1,0,0:0:0:0:
256,192,47297,1,0,0:0:0:0:
256,192,47382,1,8,0:0:0:0:
256,192,47552,1,0,0:0:0:0:
256,192,47721,1,8,0:0:0:0:
256,192,47891,1,0,0:0:0:0:
256,192,47975,1,0,0:0:0:0:
256,192,48060,1,0,0:0:0:0:
256,192,48230,1,0,0:0:0:0:
256,192,48314,1,0,0:0:0:0:
256,192,48399,1,8,0:0:0:0:
256,192,48569,1,0,0:0:0:0:
256,192,48653,1,0,0:0:0:0:
256,192,48738,1,8,0:0:0:0:
256,192,48908,1,8,0:0:0:0:
256,192,49077,1,8,0:0:0:0:
256,192,49247,1,8,0:0:0:0:
256,192,49331,1,8,0:0:0:0:
256,192,49416,1,0,0:0:0:0:
256,192,49586,1,0,0:0:0:0:
256,192,49670,1,0,0:0:0:0:
256,192,49755,1,8,0:0:0:0:
256,192,49925,1,0,0:0:0:0:
256,192,50009,1,0,0:0:0:0:
256,192,50094,1,8,0:0:0:0:
256,192,50264,1,0,0:0:0:0:
256,192,50433,1,8,0:0:0:0:
256,192,50603,1,8,0:0:0:0:
256,192,50687,1,8,0:0:0:0:
256,192,50772,1,0,0:0:0:0:
256,192,50941,1,0,0:0:0:0:
256,192,51026,1,0,0:0:0:0:
256,192,51111,1,8,0:0:0:0:
256,192,51280,1,0,0:0:0:0:
256,192,51365,1,0,0:0:0:0:
256,192,51450,1,0,0:0:0:0:
256,192,51619,1,0,0:0:0:0:
256,192,51704,1,0,0:0:0:0:
256,192,51789,1,8,0:0:0:0:
256,192,51958,1,0,0:0:0:0:
256,192,52128,1,0,0:0:0:0:
256,192,52213,1,0,0:0:0:0:
256,192,52297,1,0,0:0:0:0:
256,192,52382,1,0,0:0:0:0:
256,192,52467,1,8,0:0:0:0:
256,192,52636,1,0,0:0:0:0:
256,192,52806,1,0,0:0:0:0:
256,192,52891,1,0,0:0:0:0:
256,192,52975,1,0,0:0:0:0:
256,192,53060,1,0,0:0:0:0:
256,192,53145,1,8,0:0:0:0:
256,192,53314,1,0,0:0:0:0:
256,192,53484,1,0,0:0:0:0:
256,192,53569,1,0,0:0:0:0:
256,192,53653,1,0,0:0:0:0:
256,192,53738,1,0,0:0:0:0:
256,192,53823,1,8,0:0:0:0:
256,192,53992,1,0,0:0:0:0:
256,192,54162,1,0,0:0:0:0:
256,192,54247,1,0,0:0:0:0:
256,192,54331,1,0,0:0:0:0:
256,192,54416,1,0,0:0:0:0:
256,192,54501,1,8,0:0:0:0:
256,192,54670,1,0,0:0:0:0:
256,192,54840,1,4,0:0:0:0:
256,192,55009,1,4,0:0:0:0:
256,192,55179,1,4,0:0:0:0:
256,192,55348,1,4,0:0:0:0:
256,192,55518,1,0,0:0:0:0:
256,192,55603,1,0,0:0:0:0:
256,192,55687,1,0,0:0:0:0:
256,192,55772,1,0,0:0:0:0:
256,192,55857,1,0,0:0:0:0:
256,192,55941,1,0,0:0:0:0:
256,192,56026,1,0,0:0:0:0:
256,192,56111,1,0,0:0:0:0:
256,192,56196,12,0,57213,0:0:0:0:
256,192,57552,5,0,0:0:0:0:
256,192,57636,1,0,0:0:0:0:
256,192,57721,1,0,0:0:0:0:
256,192,57806,1,0,0:0:0:0:
256,192,57891,1,8,0:0:0:0:
256,192,58060,1,8,0:0:0:0:
256,192,58145,1,8,0:0:0:0:
256,192,58230,1,0,0:0:0:0:
256,192,58399,1,0,0:0:0:0:
256,192,58569,1,8,0:0:0:0:
256,192,58738,1,8,0:0:0:0:
256,192,58823,1,8,0:0:0:0:
256,192,58908,1,0,0:0:0:0:
256,192,59077,1,8,0:0:0:0:
256,192,59247,1,8,0:0:0:0:
256,192,59416,1,8,0:0:0:0:
256,192,59501,1,8,0:0:0:0:
256,192,59586,1,0,0:0:0:0:
256,192,59755,1,0,0:0:0:0:
256,192,59925,1,8,0:0:0:0:
256,192,60179,1,8,0:0:0:0:
256,192,60264,1,0,0:0:0:0:
256,192,60348,1,8,0:0:0:0:
256,192,60433,1,0,0:0:0:0:
256,192,60518,1,0,0:0:0:0:
256,192,60603,1,8,0:0:0:0:
256,192,60772,1,8,0:0:0:0:
256,192,60857,1,8,0:0:0:0:
256,192,60941,1,0,0:0:0:0:
256,192,61111,1,0,0:0:0:0:
256,192,61280,1,8,0:0:0:0:
256,192,61450,1,8,0:0:0:0:
256,192,61619,1,0,0:0:0:0:
256,192,61704,1,0,0:0:0:0:
256,192,61789,1,0,0:0:0:0:
256,192,61874,1,0,0:0:0:0:
256,192,61958,1,8,0:0:0:0:
256,192,62043,1,8,0:0:0:0:
256,192,62128,1,8,0:0:0:0:
256,192,62213,1,8,0:0:0:0:
256,192,62297,1,0,0:0:0:0:
256,192,62467,1,0,0:0:0:0:
256,192,62552,1,0,0:0:0:0:
256,192,62636,1,8,0:0:0:0:
256,192,62806,1,0,0:0:0:0:
256,192,62975,1,0,0:0:0:0:
256,192,63060,1,0,0:0:0:0:
256,192,63145,1,0,0:0:0:0:
256,192,63230,1,0,0:0:0:0:
256,192,63314,1,8,0:0:0:0:
256,192,63484,1,8,0:0:0:0:
256,192,63569,1,8,0:0:0:0:
256,192,63653,1,0,0:0:0:0:
256,192,63823,1,0,0:0:0:0:
256,192,63992,1,8,0:0:0:0:
256,192,64162,1,8,0:0:0:0:
256,192,64247,1,8,0:0:0:0:
256,192,64331,1,0,0:0:0:0:
256,192,64416,1,0,0:0:0:0:
256,192,64501,1,0,0:0:0:0:
256,192,64586,1,0,0:0:0:0:
256,192,64670,1,8,0:0:0:0:
256,192,64840,1,8,0:0:0:0:
256,192,64925,1,8,0:0:0:0:
256,192,65009,1,0,0:0:0:0:
256,192,65094,1,0,0:0:0:0:
256,192,65179,1,8,0:0:0:0:
256,192,65348,1,8,0:0:0:0:
256,192,65518,1,8,0:0:0:0:
256,192,65603,1,8,0:0:0:0:
256,192,65687,1,0,0:0:0:0:
256,192,65772,1,0,0:0:0:0:
256,192,65857,1,0,0:0:0:0:
256,192,65941,1,0,0:0:0:0:
256,192,66026,1,8,0:0:0:0:
256,192,66196,1,8,0:0:0:0:
256,192,66365,1,0,0:0:0:0:
256,192,66535,1,0,0:0:0:0:
256,192,66619,1,0,0:0:0:0:
256,192,66704,1,8,0:0:0:0:
256,192,66874,1,8,0:0:0:0:
256,192,67043,1,0,0:0:0:0:
256,192,67213,1,0,0:0:0:0:
256,192,67382,1,8,0:0:0:0:
256,192,67552,1,8,0:0:0:0:
256,192,67721,1,0,0:0:0:0:
256,192,67806,1,0,0:0:0:0:
256,192,67891,1,8,0:0:0:0:
256,192,68060,1,8,0:0:0:0:
256,192,68230,1,0,0:0:0:0:
256,192,68399,1,0,0:0:0:0:
256,192,68484,1,0,0:0:0:0:
256,192,68569,1,0,0:0:0:0:
256,192,68653,1,0,0:0:0:0:
256,192,68738,1,8,0:0:0:0:
256,192,68908,1,8,0:0:0:0:
256,192,68992,1,8,0:0:0:0:
256,192,69077,1,0,0:0:0:0:
256,192,69247,1,0,0:0:0:0:
256,192,69416,1,8,0:0:0:0:
256,192,69586,1,8,0:0:0:0:
256,192,69670,1,8,0:0:0:0:
256,192,69755,1,0,0:0:0:0:
256,192,69925,1,8,0:0:0:0:
256,192,70094,1,8,0:0:0:0:
256,192,70264,1,0,0:0:0:0:
256,192,70348,1,0,0:0:0:0:
256,192,70433,1,8,0:0:0:0:
256,192,70603,1,0,0:0:0:0:
256,192,70772,1,8,0:0:0:0:
256,192,71026,1,8,0:0:0:0:
256,192,71111,1,0,0:0:0:0:
256,192,71196,1,8,0:0:0:0:
256,192,71280,1,0,0:0:0:0:
256,192,71365,1,0,0:0:0:0:
256,192,71450,1,8,0:0:0:0:
256,192,71619,1,8,0:0:0:0:
256,192,71704,1,8,0:0:0:0:
256,192,71789,1,0,0:0:0:0:
256,192,71958,1,0,0:0:0:0:
256,192,72128,1,8,0:0:0:0:
256,192,72297,1,8,0:0:0:0:
256,192,72467,1,0,0:0:0:0:
256,192,72552,1,0,0:0:0:0:
256,192,72636,1,0,0:0:0:0:
256,192,72721,1,0,0:0:0:0:
256,192,72806,1,8,0:0:0:0:
256,192,72891,1,8,0:0:0:0:
256,192,72975,1,8,0:0:0:0:
256,192,73060,1,8,0:0:0:0:
256,192,73145,1,0,0:0:0:0:
256,192,73314,1,0,0:0:0:0:
256,192,73484,1,8,0:0:0:0:
256,192,73653,1,8,0:0:0:0:
256,192,73823,1,0,0:0:0:0:
256,192,73908,1,0,0:0:0:0:
256,192,73992,1,0,0:0:0:0:
256,192,74077,1,0,0:0:0:0:
256,192,74162,1,8,0:0:0:0:
256,192,74331,1,8,0:0:0:0:
256,192,74416,1,8,0:0:0:0:
256,192,74501,1,0,0:0:0:0:
256,192,74670,1,0,0:0:0:0:
256,192,74840,1,8,0:0:0:0:
256,192,75009,1,8,0:0:0:0:
256,192,75094,1,8,0:0:0:0:
256,192,75179,1,0,0:0:0:0:
256,192,75348,1,8,0:0:0:0:
256,192,75518,1,8,0:0:0:0:
256,192,75687,1,8,0:0:0:0:
256,192,75857,1,0,0:0:0:0:
256,192,75941,1,0,0:0:0:0:
256,192,76026,1,0,0:0:0:0:
256,192,76111,1,0,0:0:0:0:
256,192,76196,1,8,0:0:0:0:
256,192,76365,1,8,0:0:0:0:
256,192,76535,1,8,0:0:0:0:
256,192,76619,1,8,0:0:0:0:
256,192,76704,1,0,0:0:0:0:
256,192,76789,1,0,0:0:0:0:
256,192,76874,1,8,0:0:0:0:
256,192,77043,1,8,0:0:0:0:
256,192,77128,1,8,0:0:0:0:
256,192,77213,1,0,0:0:0:0:
256,192,77382,1,0,0:0:0:0:
256,192,77467,1,0,0:0:0:0:
256,192,77552,1,8,0:0:0:0:
256,192,77636,1,8,0:0:0:0:
256,192,77721,1,0,0:0:0:0:
256,192,77806,1,0,0:0:0:0:
256,192,77891,1,8,0:0:0:0:
256,192,78060,1,8,0:0:0:0:
256,192,78145,1,0,0:0:0:0:
256,192,78230,1,8,0:0:0:0:
256,192,78399,1,8,0:0:0:0:
256,192,78484,1,0,0:0:0:0:
256,192,78569,1,8,0:0:0:0:
256,192,78908,1,0,0:0:0:0:
256,192,79247,1,0,0:0:0:0:
256,192,79416,1,0,0:0:0:0:
256,192,79501,1,0,0:0:0:0:
256,192,79586,1,0,0:0:0:0:
256,192,79755,1,0,0:0:0:0:
256,192,79925,1,8,0:0:0:0:
256,192,80094,1,8,0:0:0:0:
256,192,80264,1,8,0:0:0:0:
256,192,80433,1,8,0:0:0:0:
256,192,80518,1,8,0:0:0:0:
256,192,80603,1,0,0:0:0:0:
256,192,80772,1,0,0:0:0:0:
256,192,80857,1,0,0:0:0:0:
256,192,80941,1,8,0:0:0:0:
256,192,81111,1,0,0:0:0:0:
256,192,81280,1,8,0:0:0:0:
256,192,81450,1,0,0:0:0:0:
256,192,81535,1,0,0:0:0:0:
256,192,81619,1,0,0:0:0:0:
256,192,81789,1,0,0:0:0:0:
256,192,81958,1,4,0:0:0:0:
256,192,82128,1,8,0:0:0:0:
256,192,82297,1,0,0:0:0:0:
256,192,82467,1,4,0:0:0:0:
256,192,82636,1,8,0:0:0:0:
256,192,82806,1,0,0:0:0:0:
256,192,82975,1,4,0:0:0:0:
256,192,83145,1,8,0:0:0:0:
256,192,83314,1,12,0:0:0:0:
256,192,83569,1,12,0:0:0:0:
256,192,83823,1,12,0:0:0:0:
256,192,83992,1,0,0:0:0:0:
256,192,84162,1,0,0:0:0:0:
256,192,84289,1,0,0:0:0:0:
256,192,84416,1,8,0:0:0:0:
256,192,84670,1,4,0:0:0:0:
256,192,84840,1,0,0:0:0:0:
256,192,84925,1,0,0:0:0:0:
256,192,85009,1,8,0:0:0:0:
256,192,85179,1,8,0:0:0:0:
256,192,85264,1,8,0:0:0:0:
256,192,85348,1,0,0:0:0:0:
256,192,85518,1,0,0:0:0:0:
256,192,85687,1,8,0:0:0:0:
256,192,85857,1,8,0:0:0:0:
256,192,85941,1,8,0:0:0:0:
256,192,86026,1,0,0:0:0:0:
256,192,86111,1,0,0:0:0:0:
256,192,86196,1,0,0:0:0:0:
256,192,86280,1,0,0:0:0:0:
256,192,86365,1,8,0:0:0:0:
256,192,86535,1,8,0:0:0:0:
256,192,86619,1,8,0:0:0:0:
256,192,86704,1,0,0:0:0:0:
256,192,86874,1,0,0:0:0:0:
256,192,87043,1,8,0:0:0:0:
256,192,87213,1,0,0:0:0:0:
256,192,87297,1,0,0:0:0:0:
256,192,87382,1,0,0:0:0:0:
256,192,87552,1,8,0:0:0:0:
256,192,87636,1,0,0:0:0:0:
256,192,87721,1,0,0:0:0:0:
256,192,87891,1,0,0:0:0:0:
256,192,88060,1,8,0:0:0:0:
256,192,88230,1,0,0:0:0:0:
256,192,88399,1,4,0:0:0:0:
256,192,88569,1,8,0:0:0:0:
256,192,88653,1,0,0:0:0:0:
256,192,88738,1,0,0:0:0:0:
256,192,88908,1,0,0:0:0:0:
256,192,89077,1,8,0:0:0:0:
256,192,89247,1,0,0:0:0:0:
256,192,89416,1,0,0:0:0:0:
256,192,89501,1,0,0:0:0:0:
256,192,89586,1,0,0:0:0:0:
256,192,89670,1,0,0:0:0:0:
256,192,89755,1,8,0:0:0:0:
256,192,89925,1,0,0:0:0:0:
256,192,90094,1,4,0:0:0:0:
256,192,90264,1,0,0:0:0:0:
256,192,90348,1,0,0:0:0:0:
256,192,90433,1,8,0:0:0:0:
256,192,90603,1,8,0:0:0:0:
256,192,90687,1,8,0:0:0:0:
256,192,90772,1,0,0:0:0:0:
256,192,90941,1,0,0:0:0:0:
256,192,91111,1,8,0:0:0:0:
256,192,91280,1,8,0:0:0:0:
256,192,91365,1,8,0:0:0:0:
256,192,91450,1,0,0:0:0:0:
256,192,91535,1,0,0:0:0:0:
256,192,91619,1,0,0:0:0:0:
256,192,91704,1,0,0:0:0:0:
256,192,91789,1,8,0:0:0:0:
256,192,91958,1,8,0:0:0:0:
256,192,92043,1,8,0:0:0:0:
256,192,92128,1,0,0:0:0:0:
256,192,92297,1,0,0:0:0:0:
256,192,92467,1,8,0:0:0:0:
256,192,92636,1,0,0:0:0:0:
256,192,92721,1,8,0:0:0:0:
256,192,92806,1,8,0:0:0:0:
256,192,92975,1,0,0:0:0:0:
256,192,93060,1,8,0:0:0:0:
256,192,93145,1,8,0:0:0:0:
256,192,93314,1,4,0:0:0:0:
256,192,93484,1,0,0:0:0:0:
256,192,93569,1,8,0:0:0:0:
256,192,93653,1,8,0:0:0:0:
256,192,93823,1,4,0:0:0:0:
256,192,93992,1,8,0:0:0:0:
256,192,94077,1,8,0:0:0:0:
256,192,94162,1,0,0:0:0:0:
256,192,94247,1,8,0:0:0:0:
256,192,94331,1,8,0:0:0:0:
256,192,94416,1,8,0:0:0:0:
256,192,94501,1,0,0:0:0:0:
256,192,94586,1,8,0:0:0:0:
256,192,94670,1,8,0:0:0:0:
256,192,94755,1,8,0:0:0:0:
256,192,94840,1,0,0:0:0:0:
256,192,95009,1,0,0:0:0:0:
256,192,95094,1,0,0:0:0:0:
256,192,95179,1,8,0:0:0:0:
256,192,95348,1,0,0:0:0:0:
256,192,95518,1,4,0:0:0:0:
256,192,95687,1,0,0:0:0:0:
256,192,95772,1,0,0:0:0:0:
256,192,95857,1,8,0:0:0:0:
256,192,96026,1,8,0:0:0:0:
256,192,96111,1,8,0:0:0:0:
256,192,96196,1,0,0:0:0:0:
256,192,96365,1,0,0:0:0:0:
256,192,96535,1,8,0:0:0:0:
256,192,96704,1,8,0:0:0:0:
256,192,96789,1,8,0:0:0:0:
256,192,96874,1,0,0:0:0:0:
256,192,96958,1,0,0:0:0:0:
256,192,97043,1,0,0:0:0:0:
256,192,97128,1,0,0:0:0:0:
256,192,97213,1,8,0:0:0:0:
256,192,97382,1,8,0:0:0:0:
256,192,97467,1,8,0:0:0:0:
256,192,97552,1,0,0:0:0:0:
256,192,97721,1,0,0:0:0:0:
256,192,97891,1,8,0:0:0:0:
256,192,98060,1,0,0:0:0:0:
256,192,98230,1,4,0:0:0:0:
256,192,98399,1,8,0:0:0:0:
256,192,98484,1,0,0:0:0:0:
256,192,98569,1,0,0:0:0:0:
256,192,98738,1,0,0:0:0:0:
256,192,98908,1,8,0:0:0:0:
256,192,99077,1,0,0:0:0:0:
256,192,99247,1,4,0:0:0:0:
256,192,99416,1,8,0:0:0:0:
256,192,99501,1,0,0:0:0:0:
256,192,99586,1,0,0:0:0:0:
256,192,99755,1,0,0:0:0:0:
256,192,99925,12,0,100433,0:0:0:0:
256,192,100603,5,12,0:0:0:0:
256,192,100941,1,4,0:0:0:0:
256,192,101111,1,0,0:0:0:0:
256,192,101196,1,0,0:0:0:0:
256,192,101280,1,8,0:0:0:0:
256,192,101450,1,8,0:0:0:0:
256,192,101535,1,8,0:0:0:0:
256,192,101619,1,0,0:0:0:0:
256,192,101789,1,0,0:0:0:0:
256,192,101958,1,8,0:0:0:0:
256,192,102128,1,8,0:0:0:0:
256,192,102213,1,8,0:0:0:0:
256,192,102297,1,0,0:0:0:0:
256,192,102382,1,0,0:0:0:0:
256,192,102467,1,0,0:0:0:0:
256,192,102552,1,0,0:0:0:0:
256,192,102636,1,8,0:0:0:0:
256,192,102806,1,8,0:0:0:0:
256,192,102891,1,8,0:0:0:0:
256,192,102975,1,0,0:0:0:0:
256,192,103145,1,0,0:0:0:0:
256,192,103314,1,8,0:0:0:0:
256,192,103484,1,8,0:0:0:0:
256,192,103569,1,8,0:0:0:0:
256,192,103653,1,0,0:0:0:0:
256,192,103823,1,0,0:0:0:0:
256,192,103908,1,0,0:0:0:0:
256,192,103992,1,8,0:0:0:0:
256,192,104162,1,8,0:0:0:0:
256,192,104247,1,8,0:0:0:0:
256,192,104331,1,0,0:0:0:0:
256,192,104501,1,0,0:0:0:0:
256,192,104586,1,0,0:0:0:0:
256,192,104670,1,8,0:0:0:0:
256,192,104840,1,8,0:0:0:0:
256,192,104925,1,8,0:0:0:0:
256,192,105009,1,0,0:0:0:0:
256,192,105094,1,0,0:0:0:0:
256,192,105179,1,8,0:0:0:0:
256,192,105264,1,8,0:0:0:0:
256,192,105348,1,0,0:0:0:0:
256,192,105433,1,0,0:0:0:0:
256,192,105518,1,8,0:0:0:0:
256,192,105603,1,8,0:0:0:0:
256,192,105687,1,0,0:0:0:0:
256,192,105772,1,0,0:0:0:0:
256,192,105857,1,0,0:0:0:0:
256,192,105941,1,0,0:0:0:0:
256,192,106026,1,8,0:0:0:0:
256,192,106111,1,8,0:0:0:0:
256,192,106196,1,8,0:0:0:0:
256,192,106280,1,8,0:0:0:0:
256,192,106365,1,0,0:0:0:0:
256,192,106535,1,0,0:0:0:0:
256,192,106619,1,0,0:0:0:0:
256,192,106704,1,8,0:0:0:0:
256,192,106874,1,8,0:0:0:0:
256,192,106958,1,8,0:0:0:0:
256,192,107043,1,4,0:0:0:0:
256,192,107213,1,0,0:0:0:0:
256,192,107297,1,0,0:0:0:0:
256,192,107382,1,8,0:0:0:0:
256,192,107552,1,0,0:0:0:0:
256,192,107636,1,0,0:0:0:0:
256,192,107721,1,4,0:0:0:0:
256,192,108060,1,4,0:0:0:0:
256,192,108399,1,4,0:0:0:0:
256,192,108738,1,8,0:0:0:0:
256,192,109077,1,4,0:0:0:0:
256,192,109331,1,8,0:0:0:0:
256,192,109416,1,0,0:0:0:0:
256,192,109586,1,0,0:0:0:0:
256,192,109670,1,8,0:0:0:0:
256,192,109755,1,0,0:0:0:0:
256,192,109840,1,8,0:0:0:0:
256,192,110009,1,0,0:0:0:0:
256,192,110094,1,8,0:0:0:0:
256,192,110264,1,0,0:0:0:0:
256,192,110348,1,0,0:0:0:0:
256,192,110433,1,0,0:0:0:0:
256,192,110687,1,8,0:0:0:0:
256,192,110772,1,0,0:0:0:0:
256,192,110941,1,8,0:0:0:0:
256,192,111026,1,8,0:0:0:0:
256,192,111111,1,0,0:0:0:0:
256,192,111196,1,0,0:0:0:0:
256,192,111280,1,8,0:0:0:0:
256,192,111365,1,8,0:0:0:0:
256,192,111450,1,8,0:0:0:0:
256,192,111619,1,0,0:0:0:0:
256,192,111789,1,0,0:0:0:0:
256,192,111874,1,0,0:0:0:0:
256,192,111958,1,8,0:0:0:0:
256,192,112043,1,8,0:0:0:0:
256,192,112128,1,0,0:0:0:0:
256,192,112213,1,0,0:0:0:0:
256,192,112297,1,8,0:0:0:0:
256,192,112382,1,8,0:0:0:0:
256,192,112467,1,0,0:0:0:0:
256,192,112552,1,0,0:0:0:0:
256,192,112636,1,8,0:0:0:0:
256,192,112721,1,8,0:0:0:0:
256,192,112806,1,0,0:0:0:0:
256,192,112891,1,0,0:0:0:0:
256,192,112975,1,0,0:0:0:0:
256,192,113060,1,0,0:0:0:0:
256,192,113145,1,12,0:0:0:0:
256,192,113484,1,12,0:0:0:0:
256,192,113823,1,12,0:0:0:0:
256,192,114162,1,4,0:0:0:0:
