osu file format v14

[General]
AudioFilename: audio.mp3
AudioLeadIn: 0
PreviewTime: 57382
Countdown: 0
SampleSet: None
StackLeniency: 0.7
Mode: 1
LetterboxInBreaks: 0
WidescreenStoryboard: 0

[Editor]
Bookmarks: 603,3314,14162,25009,35857,46704,57552,68399,79247,90094,100941,106365,109077,114501
DistanceSpacing: 1.2
BeatDivisor: 2
GridSize: 32
TimelineZoom: 0.5

[Metadata]
Title:FIRE FIRE -DARK BLAZE REMIX-
TitleUnicode:FIRE FIRE -DARK BLAZE REMIX-
Artist:Yooh
ArtistUnicode:Yooh
Creator:Kantan
Version:Kantan
Source:SOUND VOLTEX II -infinite infection-
Tags:StripE kors k楽曲REMIXコンテスト Song REMIX Contest
BeatmapID:1394308
BeatmapSetID:658260

[Difficulty]
HPDrainRate:8
CircleSize:7
OverallDifficulty:2
ApproachRate:10
SliderMultiplier:1.4
SliderTickRate:1

[Events]
//Background and Video events
0,0,"05.jpg",0,0
//Break Periods
//Storyboard Layer 0 (Background)
//Storyboard Layer 1 (Fail)
//Storyboard Layer 2 (Pass)
//Storyboard Layer 3 (Foreground)
//Storyboard Sound Samples

[TimingPoints]
603,338.983050847458,4,1,0,80,1,0
57552,-100,4,1,0,80,0,1
79247,-100,4,1,0,80,0,0
84670,-100,4,1,0,80,0,1
106365,-100,4,1,0,80,0,0
109077,-100,4,1,0,80,0,1
114162,-100,4,1,0,80,0,0

[HitObjects]
256,192,603,12,0,1958,0:0:0:0:
256,192,3314,5,4,0:0:0:0:
256,192,3992,1,0,0:0:0:0:
256,192,4331,1,8,0:0:0:0:
256,192,4670,1,0,0:0:0:0:
256,192,5348,1,8,0:0:0:0:
256,192,5687,1,8,0:0:0:0:
256,192,6026,1,0,0:0:0:0:
256,192,6704,1,0,0:0:0:0:
256,192,7043,1,8,0:0:0:0:
256,192,7382,1,0,0:0:0:0:
256,192,8060,1,8,0:0:0:0:
256,192,8399,1,8,0:0:0:0:
256,192,8738,1,0,0:0:0:0:
256,192,9416,1,0,0:0:0:0:
256,192,9755,1,8,0:0:0:0:
256,192,10094,1,0,0:0:0:0:
256,192,10772,1,8,0:0:0:0:
256,192,11111,1,8,0:0:0:0:
256,192,11450,1,0,0:0:0:0:
256,192,12128,1,0,0:0:0:0:
256,192,12467,1,8,0:0:0:0:
256,192,12806,1,0,0:0:0:0:
256,192,13484,1,8,0:0:0:0:
256,192,13823,1,8,0:0:0:0:
256,192,14162,1,4,0:0:0:0:
256,192,14840,1,0,0:0:0:0:
256,192,15179,1,8,0:0:0:0:
256,192,15518,1,0,0:0:0:0:
256,192,16196,1,8,0:0:0:0:
256,192,16535,1,8,0:0:0:0:
256,192,16874,1,0,0:0:0:0:
256,192,17552,1,0,0:0:0:0:
256,192,17891,1,8,0:0:0:0:
256,192,18230,1,0,0:0:0:0:
256,192,18908,1,8,0:0:0:0:
256,192,19247,1,8,0:0:0:0:
256,192,19586,1,0,0:0:0:0:
256,192,20264,1,8,0:0:0:0:
256,192,20941,1,0,0:0:0:0:
256,192,21619,1,8,0:0:0:0:
256,192,22297,1,0,0:0:0:0:
256,192,22636,1,8,0:0:0:0:
256,192,22975,1,0,0:0:0:0:
256,192,23314,1,8,0:0:0:0:
256,192,23653,1,0,0:0:0:0:
256,192,24331,1,8,0:0:0:0:
256,192,25009,1,4,0:0:0:0:
256,192,27721,1,0,0:0:0:0:
256,192,28399,1,8,0:0:0:0:
256,192,29077,1,0,0:0:0:0:
256,192,29755,1,8,0:0:0:0:
256,192,30094,1,8,0:0:0:0:
256,192,30433,1,0,0:0:0:0:
256,192,33145,1,0,0:0:0:0:
256,192,33823,1,8,0:0:0:0:
256,192,34501,1,0,0:0:0:0:
256,192,35179,1,8,0:0:0:0:
256,192,35518,1,0,0:0:0:0:
256,192,35857,1,0,0:0:0:0:
256,192,36535,1,12,0:0:0:0:
256,192,37213,1,0,0:0:0:0:
256,192,37891,1,8,0:0:0:0:
256,192,38569,1,0,0:0:0:0:
256,192,39247,1,12,0:0:0:0:
256,192,39925,1,0,0:0:0:0:
256,192,40603,1,8,0:0:0:0:
256,192,40941,1,0,0:0:0:0:
256,192,41280,1,0,0:0:0:0:
256,192,41958,1,12,0:0:0:0:
256,192,42636,1,0,0:0:0:0:
256,192,43314,1,8,0:0:0:0:
256,192,43992,1,0,0:0:0:0:
256,192,44670,1,12,0:0:0:0:
256,192,45348,1,0,0:0:0:0:
256,192,46026,1,8,0:0:0:0:
256,192,46365,1,0,0:0:0:0:
256,192,46704,1,0,0:0:0:0:
256,192,49416,1,0,0:0:0:0:
256,192,50772,1,0,0:0:0:0:
256,192,51450,1,0,0:0:0:0:
256,192,52128,1,4,0:0:0:0:
256,192,53484,1,4,0:0:0:0:
256,192,54840,1,4,0:0:0:0:
256,192,55518,1,4,0:0:0:0:
256,192,56196,12,0,57213,0:0:0:0:
256,192,57552,5,4,0:0:0:0:
256,192,58230,1,0,0:0:0:0:
256,192,58569,1,8,0:0:0:0:
256,192,58908,1,0,0:0:0:0:
256,192,59586,1,0,0:0:0:0:
256,192,59925,1,8,0:0:0:0:
256,192,60264,1,0,0:0:0:0:
256,192,60941,1,0,0:0:0:0:
256,192,61619,1,0,0:0:0:0:
256,192,61958,1,8,0:0:0:0:
256,192,62297,1,0,0:0:0:0:
256,192,62636,1,8,0:0:0:0:
256,192,62975,1,0,0:0:0:0:
256,192,63653,1,0,0:0:0:0:
256,192,63992,1,8,0:0:0:0:
256,192,64331,1,0,0:0:0:0:
256,192,65009,1,0,0:0:0:0:
256,192,65348,1,8,0:0:0:0:
256,192,65687,1,0,0:0:0:0:
256,192,66365,1,0,0:0:0:0:
256,192,67043,1,0,0:0:0:0:
256,192,67382,1,8,0:0:0:0:
256,192,67721,1,0,0:0:0:0:
256,192,68060,1,8,0:0:0:0:
256,192,68399,1,4,0:0:0:0:
256,192,69077,1,0,0:0:0:0:
256,192,69416,1,8,0:0:0:0:
256,192,69755,1,0,0:0:0:0:
256,192,70433,1,0,0:0:0:0:
256,192,70772,1,8,0:0:0:0:
256,192,71111,1,0,0:0:0:0:
256,192,71789,1,0,0:0:0:0:
256,192,72467,1,0,0:0:0:0:
256,192,72806,1,8,0:0:0:0:
256,192,73145,1,0,0:0:0:0:
256,192,73484,1,8,0:0:0:0:
256,192,73823,1,4,0:0:0:0:
256,192,74501,1,0,0:0:0:0:
256,192,74840,1,8,0:0:0:0:
256,192,75179,1,4,0:0:0:0:
256,192,75857,1,0,0:0:0:0:
256,192,76196,1,8,0:0:0:0:
256,192,76535,1,4,0:0:0:0:
256,192,77213,1,4,0:0:0:0:
256,192,77891,1,4,0:0:0:0:
256,192,78569,1,12,0:0:0:0:
256,192,79247,1,0,0:0:0:0:
256,192,79925,1,8,0:0:0:0:
256,192,80603,1,0,0:0:0:0:
256,192,81280,1,8,0:0:0:0:
256,192,81958,1,4,0:0:0:0:
256,192,83314,1,12,0:0:0:0:
256,192,84670,1,4,0:0:0:0:
256,192,85348,1,0,0:0:0:0:
256,192,85687,1,8,0:0:0:0:
256,192,86026,1,0,0:0:0:0:
256,192,86704,1,0,0:0:0:0:
256,192,87043,1,8,0:0:0:0:
256,192,87382,1,4,0:0:0:0:
256,192,88399,1,4,0:0:0:0:
256,192,89416,1,4,0:0:0:0:
256,192,90094,1,4,0:0:0:0:
256,192,90772,1,0,0:0:0:0:
256,192,91111,1,8,0:0:0:0:
256,192,91450,1,0,0:0:0:0:
256,192,92128,1,0,0:0:0:0:
256,192,92467,1,8,0:0:0:0:
256,192,92806,1,4,0:0:0:0:
256,192,94162,1,12,0:0:0:0:
256,192,95518,1,4,0:0:0:0:
256,192,96196,1,0,0:0:0:0:
256,192,96535,1,8,0:0:0:0:
256,192,96874,1,0,0:0:0:0:
256,192,97552,1,0,0:0:0:0:
256,192,97891,1,8,0:0:0:0:
256,192,98230,1,4,0:0:0:0:
256,192,99247,1,4,0:0:0:0:
256,192,100603,1,12,0:0:0:0:
256,192,100941,1,4,0:0:0:0:
256,192,101619,1,0,0:0:0:0:
256,192,101958,1,8,0:0:0:0:
256,192,102297,1,0,0:0:0:0:
256,192,102975,1,0,0:0:0:0:
256,192,103314,1,8,0:0:0:0:
256,192,103653,1,0,0:0:0:0:
256,192,104331,1,0,0:0:0:0:
256,192,105009,1,0,0:0:0:0:
256,192,105348,1,8,0:0:0:0:
256,192,105687,1,0,0:0:0:0:
256,192,106026,1,8,0:0:0:0:
256,192,106365,1,4,0:0:0:0:
256,192,107043,1,4,0:0:0:0:
256,192,107721,1,4,0:0:0:0:
256,192,108060,1,4,0:0:0:0:
256,192,108399,1,4,0:0:0:0:
256,192,109077,1,4,0:0:0:0:
256,192,109755,1,0,0:0:0:0:
256,192,110094,1,8,0:0:0:0:
256,192,110433,1,0,0:0:0:0:
256,192,111111,1,8,0:0:0:0:
256,192,111450,1,8,0:0:0:0:
256,192,111789,1,4,0:0:0:0:
256,192,113145,1,12,0:0:0:0:
256,192,113484,1,12,0:0:0:0:
256,192,113823,1,12,0:0:0:0:
256,192,114162,1,4,0:0:0:0:
