osu file format v14

[General]
AudioFilename: audio.mp3
AudioLeadIn: 0
PreviewTime: 130088
Countdown: 0
SampleSet: Soft
StackLeniency: 0.7
Mode: 3
LetterboxInBreaks: 0
SpecialStyle: 0
WidescreenStoryboard: 0

[Editor]
Bookmarks: 162588,194588,228072
DistanceSpacing: 0.8
BeatDivisor: 8
GridSize: 8
TimelineZoom: 1.6

[Metadata]
Title:Eutopia
TitleUnicode:Eutopia
Artist:Yooh
ArtistUnicode:Yooh
Creator:Wonki
Version:Heaven
Source:
Tags:
BeatmapID:1788540
BeatmapSetID:856023

[Difficulty]
HPDrainRate:8
CircleSize:7
OverallDifficulty:8
ApproachRate:5
SliderMultiplier:1.4
SliderTickRate:1

[Events]
//Background and Video events
0,0,"BG.jpeg",0,0
//Break Periods
//Storyboard Layer 0 (Background)
//Storyboard Layer 1 (Fail)
//Storyboard Layer 2 (Pass)
//Storyboard Layer 3 (Foreground)
//Storyboard Sound Samples

[TimingPoints]
1136,710.059171597633,4,2,1,30,1,0
1136,-70.4225352112676,4,2,1,30,0,0
3976,722.89156626506,4,2,1,30,1,0
3976,-68.9655172413793,4,2,1,30,0,0
6867,851.063829787234,4,2,1,30,1,0
6867,-58.8235294117647,4,2,1,30,0,0
10271,923.076923076923,4,2,1,30,1,0
10271,-54.054054054054,4,2,1,30,0,0
12117,1061.94690265487,4,2,1,30,1,0
12117,-47.1698113207547,4,2,1,30,0,0
14240,693.64161849711,4,2,1,30,1,0
14240,-71.9424460431655,4,2,1,30,0,0
17014,727.272727272727,4,2,1,30,1,0
17014,-68.9655172413793,4,2,1,30,0,0
18468,784.313725490196,4,2,1,30,1,0
18468,-63.6942675159236,4,2,1,30,0,0
19252,1224.48979591837,4,2,1,30,1,0
19252,-40.8163265306122,4,2,1,30,0,0
20476,916.030534351145,4,2,1,30,1,0
20476,-54.6448087431694,4,2,1,30,0,0
24140,1121.4953271028,4,2,1,30,1,0
24140,-44.6428571428571,4,2,1,30,0,0
29046,1875,4,2,1,30,1,0
29046,-26.6666666666667,4,2,1,30,0,0
32796,1034.48275862069,4,2,1,30,1,0
32796,-48.3091787439614,4,2,1,30,0,0
33313,1000,4,2,1,30,1,0
33313,-50,4,2,1,30,0,0
33813,882.352941176471,4,2,1,30,1,0
33813,-56.8181818181818,4,2,1,30,0,0
34254,960,4,2,1,30,1,0
34254,-52.0833333333333,4,2,1,30,0,0
89934,930.232558139535,4,2,1,30,1,0
89934,-53.763440860215,4,2,1,30,0,0
91794,923.076923076923,4,2,1,30,1,0
91794,-54.054054054054,4,2,1,30,0,0
93640,857.142857142857,4,2,1,30,1,0
93640,-58.4795321637427,4,2,1,30,0,0
94282,1000,4,2,1,30,1,0
94282,-50,4,2,1,30,0,0
94532,1276.59574468085,4,2,1,30,1,0
94532,-39.2156862745098,4,2,1,30,0,0
95489,1200,4,2,1,30,1,0
95489,-41.6666666666667,4,2,1,30,0,0
95789,500,4,2,1,30,1,0
95789,-100,4,2,1,30,0,0
96039,400,4,2,1,30,1,0
96039,-125,4,2,1,30,0,0
96239,379.746835443038,4,2,1,30,1,0
96239,-131.578947368421,4,2,1,30,0,0
97378,379.746835443038,4,2,1,30,1,0
97378,-131.578947368421,4,2,1,30,0,0
101934,400,4,2,1,30,1,0
101934,-125,4,2,1,30,0,0
103534,428.571428571429,4,2,1,30,1,0
103534,-116.279069767442,4,2,1,30,0,0
104391,413.793103448276,4,2,1,30,1,0
104391,-120.481927710843,4,2,1,30,0,0
104597,400,4,2,1,30,1,0
104597,-125,4,2,1,30,0,0
104797,387.096774193548,4,2,1,30,1,0
104797,-129.87012987013,4,2,1,30,0,0
104990,363.636363636364,4,2,1,30,1,0
104990,-136.986301369863,4,2,1,30,0,0
105171,375,4,2,1,30,1,0
105171,-133.333333333333,4,2,1,30,0,0
105358,400,4,2,1,30,1,0
105358,-125,4,2,1,30,0,0
105558,406.779661016949,4,2,1,30,1,0
105558,-123.456790123457,4,2,1,30,0,0
105761,413.793103448276,4,2,1,30,1,0
105761,-120.481927710843,4,2,1,30,0,0
105967,421.052631578947,4,2,1,30,1,0
105967,-119.047619047619,4,2,1,30,0,0
106177,428.571428571429,4,2,1,30,1,0
106177,-116.279069767442,4,2,1,30,0,0
106819,379.746835443038,4,2,1,30,1,0
106819,-131.578947368421,4,2,1,30,0,0
108337,375,4,2,1,30,1,0
108337,-133.333333333333,4,2,1,30,0,0
109087,369.230769230769,4,2,1,30,1,0
109087,-135.135135135135,4,2,1,30,0,0
109825,363.636363636364,4,2,1,30,1,0
109825,-136.986301369863,4,2,1,30,0,0
110552,358.208955223881,4,2,1,30,1,0
110552,-138.888888888889,4,2,1,30,0,0
111268,352.941176470588,4,2,1,30,1,0
111268,-140.845070422535,4,2,1,30,0,0
111620,375,4,2,1,30,1,0
111620,-133.333333333333,4,2,1,30,0,0
111995,400,4,2,1,30,1,0
111995,-125,4,2,1,30,0,0
112395,500,4,2,1,30,1,0
112395,-100,4,2,1,30,0,0
112645,600,4,2,1,30,1,0
112645,-83.3333333333333,4,2,1,30,0,0
112945,681.818181818182,4,2,1,30,1,0
112945,-73.5294117647059,4,2,1,30,0,0
114308,718.562874251497,4,2,1,30,1,0
114308,-69.4444444444444,4,2,1,30,0,0
115745,521.739130434783,4,2,1,30,1,0
115745,-96.1538461538461,4,2,1,30,0,0
116788,545.454545454546,4,2,1,30,1,0
116788,-91.743119266055,4,2,1,30,0,0
117878,600,4,2,1,30,1,0
117878,-83.3333333333333,4,2,1,30,0,0
118478,631.578947368421,4,2,1,30,1,0
118478,-79.3650793650794,4,2,1,30,0,0
119109,666.666666666667,4,2,1,30,1,0
119109,-75.187969924812,4,2,1,30,0,0
119775,705.882352941176,4,2,1,30,1,0
119775,-70.9219858156028,4,2,1,30,0,0
120833,727.272727272727,4,2,1,30,1,0
120833,-68.9655172413793,4,2,1,30,0,0
121196,750,4,2,1,30,1,0
121196,-66.6666666666667,4,2,1,30,0,0
121571,774.193548387097,4,2,1,30,1,0
121571,-64.5161290322581,4,2,1,30,0,0
121958,800,4,2,1,30,1,0
121958,-62.5,4,2,1,30,0,0
122358,827.586206896552,4,2,1,30,1,0
122358,-60.2409638554217,4,2,1,30,0,0
124013,759.493670886076,4,2,1,30,1,0
124013,-65.7894736842105,4,2,1,30,0,0
130088,500,4,2,1,30,1,0
130588,-100,4,2,1,30,0,1
228088,1000,4,2,1,30,1,0
228088,-50,4,2,1,30,0,0
234088,1043.47826086957,4,2,1,30,1,0
234088,-47.8468899521531,4,2,1,30,0,0
235653,1071.42857142857,4,2,1,30,1,0
235653,-46.7289719626168,4,2,1,30,0,0
236724,1153.84615384615,4,2,1,30,1,0
236724,-43.2900432900433,4,2,1,30,0,0
237300,1200,4,2,1,30,1,0
237300,-41.6666666666667,4,2,1,30,0,0
237900,1333.33333333333,4,2,1,30,1,0
237900,-37.4531835205993,4,2,1,30,0,0
238566,1395.3488372093,4,2,1,30,1,0
238566,-35.84229390681,4,2,1,30,0,0
239263,1463.41463414634,4,2,1,30,1,0
239263,-34.1296928327645,4,2,1,30,0,0
239994,1500,4,2,1,30,1,0
239994,-33.3333333333333,4,2,1,30,0,0
240744,2083.33333333333,4,2,1,30,1,0
240744,-23.9808153477218,4,2,1,30,0,0
242827,745.341614906832,4,2,1,30,1,0
242827,-67.1140939597315,4,2,1,30,0,0
245808,759.493670886076,4,2,1,30,1,0
245808,-65.7894736842105,4,2,1,30,0,0
248845,902.255639097744,4,2,1,30,1,0
248845,-55.5555555555556,4,2,1,30,0,0
252454,1000,4,2,1,30,1,0
252454,-50,4,2,1,30,0,0
254454,1188.11881188119,4,2,1,30,1,0
254454,-42.0168067226891,4,2,1,30,0,0
256830,882.352941176471,4,2,1,30,1,0
256830,-56.8181818181818,4,2,1,30,0,0
258594,833.333333333333,4,2,1,30,1,0
258594,-59.8802395209581,4,2,1,30,0,0
259427,600,4,2,1,30,1,0
259427,-83.3333333333333,4,2,1,30,0,0
260027,869.565217391304,4,2,1,30,1,0
260027,-57.4712643678161,4,2,1,30,0,0
261766,937.5,4,2,1,30,1,0
261766,-53.1914893617021,4,2,1,30,0,0
262703,1428.57142857143,4,2,1,30,1,0
262703,-34.965034965035,4,2,1,30,0,0
264131,800,4,2,1,30,1,0
264131,-62.5,4,2,1,30,0,0
265731,750,4,2,1,30,1,0
265731,-66.6666666666667,4,2,1,30,0,0
266481,618.556701030928,4,2,1,30,1,0
266481,-80.6451612903226,4,2,1,30,0,0
267099,461.538461538462,4,2,1,30,1,0
267099,-108.695652173913,4,2,1,30,0,0
267560,666.666666666667,4,2,1,30,1,0
267560,-75.187969924812,4,2,1,30,0,0
268226,1600,4,2,1,30,1,0
268226,-31.25,4,2,1,30,0,0
269826,1500,4,2,1,30,1,0
269826,-33.3333333333333,4,2,1,30,0,0
270294,1333.33333333333,4,2,1,30,1,0
270294,-37.4531835205993,4,2,1,30,0,0
270544,1379.31034482759,4,2,1,30,1,0
270544,-36.231884057971,4,2,1,30,0,0
273992,1923.07692307692,4,2,1,30,1,0
273992,-25.974025974026,4,2,1,30,0,0
275915,3478.26086956522,4,2,1,30,1,0
275915,-14.367816091954,4,2,1,30,0,0
279393,750,4,2,1,30,1,0
279393,-66.6666666666667,4,2,1,30,0,0

[HitObjects]
36,192,1136,128,0,3887:0:0:0:0:
256,192,1269,1,0,0:0:0:0:
329,192,1313,1,0,0:0:0:0:
402,192,1357,1,0,0:0:0:0:
475,192,1402,128,0,3887:0:0:0:0:
36,192,3976,128,0,6777:0:0:0:0:
182,192,4111,1,0,0:0:0:0:
256,192,4156,1,0,0:0:0:0:
329,192,4201,1,0,0:0:0:0:
402,192,4247,128,0,6777:0:0:0:0:
36,192,6867,128,0,10164:0:0:0:0:
109,192,6973,1,0,0:0:0:0:
182,192,7026,1,0,0:0:0:0:
256,192,7079,1,0,0:0:0:0:
329,192,7132,1,0,0:0:0:0:
402,192,7186,128,0,10164:0:0:0:0:
182,192,8569,128,0,10164:0:0:0:0:
36,192,10271,128,0,14108:0:0:0:0:
182,192,10386,1,0,0:0:0:0:
256,192,10444,1,0,0:0:0:0:
329,192,10501,1,0,0:0:0:0:
402,192,10559,1,0,0:0:0:0:
475,192,10617,128,0,14108:0:0:0:0:
256,192,12117,128,0,14108:0:0:0:0:
109,192,14240,128,0,16927:0:0:0:0:
182,192,14326,1,0,0:0:0:0:
256,192,14370,1,0,0:0:0:0:
329,192,14413,1,0,0:0:0:0:
402,192,14500,1,0,0:0:0:0:
475,192,14586,128,0,16927:0:0:0:0:
36,192,17014,128,0,20323:0:0:0:0:
182,192,17104,1,0,0:0:0:0:
256,192,17150,1,0,0:0:0:0:
329,192,17241,1,0,0:0:0:0:
402,192,17332,128,0,20323:0:0:0:0:
475,192,18468,128,0,20323:0:0:0:0:
109,192,19252,128,0,20323:0:0:0:0:
36,192,20476,128,0,24025:0:0:0:0:
182,192,20590,1,0,0:0:0:0:
256,192,20647,1,0,0:0:0:0:
329,192,20705,1,0,0:0:0:0:
402,192,20819,1,0,0:0:0:0:
475,192,20876,128,0,24025:0:0:0:0:
182,192,22308,128,0,24025:0:0:0:0:
109,192,24140,128,0,31858:0:0:0:0:
256,192,24280,1,0,0:0:0:0:
329,192,24350,1,0,0:0:0:0:
402,192,24490,128,0,31858:0:0:0:0:
182,192,24700,1,0,0:0:0:0:
256,192,24981,1,0,0:0:0:0:
329,192,25261,1,0,0:0:0:0:
475,192,25541,1,0,0:0:0:0:
36,192,25822,1,0,0:0:0:0:
182,192,26102,1,0,0:0:0:0:
256,192,26523,1,0,0:0:0:0:
475,192,27434,128,0,31858:0:0:0:0:
182,192,29046,128,0,31858:0:0:0:0:
182,192,32796,1,0,0:0:0:0:
475,192,33313,1,0,0:0:0:0:
182,192,33813,1,0,0:0:0:0:
256,192,34254,1,0,0:0:0:0:
36,192,34254,128,0,35694:0:0:0:0:
329,192,34734,1,0,0:0:0:0:
402,192,35214,128,0,36174:0:0:0:0:
109,192,35694,1,0,0:0:0:0:
256,192,36174,1,0,0:0:0:0:
36,192,36174,1,0,0:0:0:0:
109,192,36654,1,0,0:0:0:0:
329,192,36654,1,0,0:0:0:0:
182,192,37134,1,0,0:0:0:0:
475,192,37134,128,0,38094:0:0:0:0:
109,192,37614,1,0,0:0:0:0:
36,192,38094,128,0,40494:0:0:0:0:
256,192,38094,1,0,0:0:0:0:
329,192,38574,1,0,0:0:0:0:
475,192,39054,128,0,40494:0:0:0:0:
182,192,39534,128,0,40494:0:0:0:0:
329,192,40014,128,0,40494:0:0:0:0:
256,192,40494,1,0,0:0:0:0:
475,192,40974,1,0,0:0:0:0:
256,192,41454,1,0,0:0:0:0:
329,192,41934,1,0,0:0:0:0:
109,192,41934,128,0,43374:0:0:0:0:
402,192,42414,1,0,0:0:0:0:
475,192,42894,128,0,43854:0:0:0:0:
36,192,43374,1,0,0:0:0:0:
256,192,43854,1,0,0:0:0:0:
109,192,43854,128,0,44574:0:0:0:0:
329,192,44334,1,0,0:0:0:0:
182,192,44574,1,0,0:0:0:0:
109,192,44694,1,0,0:0:0:0:
36,192,44814,1,0,0:0:0:0:
475,192,44814,128,0,45774:0:0:0:0:
182,192,45294,1,0,0:0:0:0:
182,192,45774,128,0,48174:0:0:0:0:
36,192,45774,1,0,0:0:0:0:
109,192,46254,1,0,0:0:0:0:
475,192,46734,128,0,48174:0:0:0:0:
256,192,46734,1,0,0:0:0:0:
329,192,47214,1,0,0:0:0:0:
402,192,47694,1,0,0:0:0:0:
109,192,48174,1,0,0:0:0:0:
475,192,48654,1,0,0:0:0:0:
109,192,49134,1,0,0:0:0:0:
256,192,49614,1,0,0:0:0:0:
36,192,49614,128,0,51054:0:0:0:0:
329,192,50094,1,0,0:0:0:0:
475,192,50574,128,0,51534:0:0:0:0:
182,192,51054,1,0,0:0:0:0:
329,192,51534,1,0,0:0:0:0:
36,192,51534,1,0,0:0:0:0:
402,192,52014,1,0,0:0:0:0:
109,192,52014,1,0,0:0:0:0:
475,192,52494,1,0,0:0:0:0:
182,192,52494,128,0,53454:0:0:0:0:
109,192,52974,1,0,0:0:0:0:
256,192,53454,1,0,0:0:0:0:
36,192,53454,128,0,56334:0:0:0:0:
329,192,53934,1,0,0:0:0:0:
475,192,54414,128,0,56334:0:0:0:0:
329,192,54894,128,0,56334:0:0:0:0:
182,192,55374,128,0,56334:0:0:0:0:
256,192,56334,1,0,0:0:0:0:
329,192,56814,1,0,0:0:0:0:
402,192,57294,128,0,58734:0:0:0:0:
36,192,57294,1,0,0:0:0:0:
109,192,57774,1,0,0:0:0:0:
182,192,58254,128,0,59214:0:0:0:0:
475,192,58734,1,0,0:0:0:0:
36,192,59214,1,0,0:0:0:0:
329,192,59214,128,0,60654:0:0:0:0:
109,192,59694,1,0,0:0:0:0:
475,192,60174,128,0,61134:0:0:0:0:
36,192,60654,1,0,0:0:0:0:
182,192,61134,1,0,0:0:0:0:
36,192,61134,128,0,64974:0:0:0:0:
329,192,61614,1,0,0:0:0:0:
475,192,62094,128,0,63894:0:0:0:0:
182,192,62574,128,0,63414:0:0:0:0:
329,192,63054,128,0,64974:0:0:0:0:
182,192,63534,128,0,64374:0:0:0:0:
475,192,64014,128,0,64974:0:0:0:0:
182,192,64494,128,0,64974:0:0:0:0:
109,192,64974,1,0,0:0:0:0:
256,192,64974,1,0,0:0:0:0:
402,192,64974,1,0,0:0:0:0:
475,192,65034,1,0,0:0:0:0:
36,192,65454,1,0,0:0:0:0:
256,192,65454,1,0,0:0:0:0:
109,192,65934,128,0,66894:0:0:0:0:
329,192,65934,128,0,66894:0:0:0:0:
36,192,66414,128,0,66894:0:0:0:0:
182,192,66894,1,0,0:0:0:0:
256,192,66894,1,0,0:0:0:0:
475,192,66894,1,0,0:0:0:0:
256,192,67374,1,0,0:0:0:0:
329,192,67374,1,0,0:0:0:0:
36,192,67374,1,0,0:0:0:0:
109,192,67854,1,0,0:0:0:0:
329,192,67854,128,0,68814:0:0:0:0:
402,192,67854,128,0,68814:0:0:0:0:
36,192,68334,128,0,68814:0:0:0:0:
256,192,68814,1,0,0:0:0:0:
475,192,68814,1,0,0:0:0:0:
109,192,68814,128,0,71214:0:0:0:0:
182,192,68874,1,0,0:0:0:0:
36,192,69294,1,0,0:0:0:0:
256,192,69294,1,0,0:0:0:0:
475,192,69774,128,0,71214:0:0:0:0:
182,192,69774,1,0,0:0:0:0:
402,192,69774,1,0,0:0:0:0:
256,192,70254,1,0,0:0:0:0:
329,192,70254,1,0,0:0:0:0:
329,192,70734,128,0,72654:0:0:0:0:
402,192,70734,128,0,72654:0:0:0:0:
36,192,71214,1,0,0:0:0:0:
256,192,71694,1,0,0:0:0:0:
36,192,72174,1,0,0:0:0:0:
256,192,72654,1,0,0:0:0:0:
475,192,72654,1,0,0:0:0:0:
109,192,72654,128,0,74094:0:0:0:0:
182,192,73134,1,0,0:0:0:0:
402,192,73134,1,0,0:0:0:0:
329,192,73614,128,0,74574:0:0:0:0:
475,192,73614,128,0,74574:0:0:0:0:
36,192,74094,128,0,74574:0:0:0:0:
109,192,74574,1,0,0:0:0:0:
256,192,74574,1,0,0:0:0:0:
402,192,74574,1,0,0:0:0:0:
329,192,75054,1,0,0:0:0:0:
475,192,75054,1,0,0:0:0:0:
402,192,75294,1,0,0:0:0:0:
329,192,75414,1,0,0:0:0:0:
36,192,75534,128,0,76494:0:0:0:0:
475,192,75534,128,0,76494:0:0:0:0:
256,192,75534,128,0,76014:0:0:0:0:
329,192,76014,128,0,76494:0:0:0:0:
182,192,76494,1,0,0:0:0:0:
109,192,76494,1,0,0:0:0:0:
402,192,76494,128,0,77454:0:0:0:0:
256,192,76974,1,0,0:0:0:0:
182,192,76974,1,0,0:0:0:0:
329,192,77454,1,0,0:0:0:0:
256,192,77454,1,0,0:0:0:0:
475,192,77454,128,0,80334:0:0:0:0:
109,192,77934,1,0,0:0:0:0:
329,192,77934,1,0,0:0:0:0:
182,192,78414,128,0,79854:0:0:0:0:
402,192,78414,128,0,79854:0:0:0:0:
36,192,78894,1,0,0:0:0:0:
329,192,79374,1,0,0:0:0:0:
36,192,79854,1,0,0:0:0:0:
109,192,80334,1,0,0:0:0:0:
256,192,80334,1,0,0:0:0:0:
329,192,80334,1,0,0:0:0:0:
182,192,80814,1,0,0:0:0:0:
402,192,80814,1,0,0:0:0:0:
256,192,81294,128,0,82254:0:0:0:0:
475,192,81294,128,0,82254:0:0:0:0:
329,192,81774,128,0,82254:0:0:0:0:
402,192,82254,1,0,0:0:0:0:
36,192,82254,1,0,0:0:0:0:
182,192,82254,1,0,0:0:0:0:
109,192,82734,1,0,0:0:0:0:
256,192,82734,1,0,0:0:0:0:
475,192,82734,1,0,0:0:0:0:
36,192,83214,1,0,0:0:0:0:
182,192,83214,128,0,84174:0:0:0:0:
329,192,83214,128,0,84174:0:0:0:0:
256,192,83694,128,0,84174:0:0:0:0:
36,192,84174,1,0,0:0:0:0:
109,192,84174,1,0,0:0:0:0:
402,192,84174,128,0,85134:0:0:0:0:
109,192,84654,1,0,0:0:0:0:
182,192,84654,1,0,0:0:0:0:
36,192,85134,1,0,0:0:0:0:
256,192,85134,1,0,0:0:0:0:
475,192,85134,128,0,87054:0:0:0:0:
109,192,85614,1,0,0:0:0:0:
329,192,85614,1,0,0:0:0:0:
182,192,86094,128,0,87054:0:0:0:0:
402,192,86094,128,0,87054:0:0:0:0:
36,192,87054,1,0,0:0:0:0:
256,192,87534,1,0,0:0:0:0:
109,192,88014,1,0,0:0:0:0:
329,192,88014,1,0,0:0:0:0:
402,192,88014,1,0,0:0:0:0:
182,192,88494,1,0,0:0:0:0:
256,192,88494,1,0,0:0:0:0:
256,192,88974,128,0,89934:0:0:0:0:
329,192,88974,128,0,89934:0:0:0:0:
475,192,89454,128,0,89934:0:0:0:0:
182,192,89934,1,0,0:0:0:0:
109,192,89934,1,0,0:0:0:0:
402,192,89934,128,0,91329:0:0:0:0:
182,192,90399,1,0,0:0:0:0:
256,192,90399,1,0,0:0:0:0:
256,192,90864,128,0,91794:0:0:0:0:
329,192,90864,128,0,91794:0:0:0:0:
36,192,91329,128,0,91794:0:0:0:0:
109,192,91794,1,0,0:0:0:0:
182,192,91794,1,0,0:0:0:0:
475,192,91794,128,0,93640:0:0:0:0:
182,192,92255,1,0,0:0:0:0:
256,192,92255,1,0,0:0:0:0:
109,192,92717,1,0,0:0:0:0:
256,192,92717,1,0,0:0:0:0:
182,192,93178,1,0,0:0:0:0:
329,192,93178,1,0,0:0:0:0:
256,192,93640,1,0,0:0:0:0:
402,192,93640,1,0,0:0:0:0:
36,192,93640,128,0,94532:0:0:0:0:
182,192,93854,1,0,0:0:0:0:
329,192,93854,1,0,0:0:0:0:
256,192,94068,1,0,0:0:0:0:
402,192,94068,1,0,0:0:0:0:
329,192,94282,1,0,0:0:0:0:
475,192,94282,1,0,0:0:0:0:
256,192,94532,1,0,0:0:0:0:
402,192,94532,1,0,0:0:0:0:
109,192,94532,1,0,0:0:0:0:
475,192,94532,1,0,0:0:0:0:
182,192,94851,1,0,0:0:0:0:
329,192,94851,1,0,0:0:0:0:
256,192,95170,1,0,0:0:0:0:
475,192,95170,1,0,0:0:0:0:
36,192,95170,1,0,0:0:0:0:
182,192,95170,1,0,0:0:0:0:
109,192,95489,1,0,0:0:0:0:
329,192,95489,1,0,0:0:0:0:
182,192,95789,1,0,0:0:0:0:
402,192,95789,1,0,0:0:0:0:
36,192,95789,1,0,0:0:0:0:
475,192,95789,128,0,96428:0:0:0:0:
109,192,96039,1,0,0:0:0:0:
256,192,96039,1,0,0:0:0:0:
182,192,96239,1,0,0:0:0:0:
329,192,96239,1,0,0:0:0:0:
256,192,96428,1,0,0:0:0:0:
402,192,96428,1,0,0:0:0:0:
36,192,96618,128,0,97188:0:0:0:0:
329,192,96618,1,0,0:0:0:0:
475,192,96618,1,0,0:0:0:0:
182,192,96808,1,0,0:0:0:0:
256,192,96808,1,0,0:0:0:0:
256,192,96998,1,0,0:0:0:0:
329,192,96998,1,0,0:0:0:0:
329,192,97188,1,0,0:0:0:0:
402,192,97188,1,0,0:0:0:0:
36,192,97378,1,0,0:0:0:0:
256,192,97378,1,0,0:0:0:0:
182,192,97378,128,0,97947:0:0:0:0:
109,192,97567,1,0,0:0:0:0:
329,192,97567,1,0,0:0:0:0:
256,192,97757,1,0,0:0:0:0:
402,192,97757,1,0,0:0:0:0:
329,192,97947,1,0,0:0:0:0:
475,192,97947,1,0,0:0:0:0:
182,192,98137,1,0,0:0:0:0:
36,192,98137,1,0,0:0:0:0:
402,192,98137,128,0,98707:0:0:0:0:
109,192,98327,1,0,0:0:0:0:
256,192,98327,1,0,0:0:0:0:
182,192,98517,1,0,0:0:0:0:
329,192,98517,1,0,0:0:0:0:
256,192,98707,1,0,0:0:0:0:
475,192,98707,1,0,0:0:0:0:
402,192,98896,1,0,0:0:0:0:
329,192,98896,1,0,0:0:0:0:
182,192,98896,128,0,99276:0:0:0:0:
36,192,99086,1,0,0:0:0:0:
256,192,99086,1,0,0:0:0:0:
109,192,99276,128,0,99656:0:0:0:0:
329,192,99276,1,0,0:0:0:0:
475,192,99276,1,0,0:0:0:0:
182,192,99466,1,0,0:0:0:0:
402,192,99466,1,0,0:0:0:0:
36,192,99656,128,0,100036:0:0:0:0:
256,192,99656,1,0,0:0:0:0:
329,192,99656,1,0,0:0:0:0:
182,192,99846,1,0,0:0:0:0:
475,192,99846,1,0,0:0:0:0:
109,192,100036,128,0,100415:0:0:0:0:
329,192,100036,1,0,0:0:0:0:
402,192,100036,1,0,0:0:0:0:
256,192,100226,1,0,0:0:0:0:
475,192,100226,1,0,0:0:0:0:
182,192,100415,128,0,101175:0:0:0:0:
36,192,100415,1,0,0:0:0:0:
329,192,100415,1,0,0:0:0:0:
109,192,100605,1,0,0:0:0:0:
402,192,100605,1,0,0:0:0:0:
256,192,100795,1,0,0:0:0:0:
329,192,100795,1,0,0:0:0:0:
329,192,100985,1,0,0:0:0:0:
402,192,100985,1,0,0:0:0:0:
36,192,101175,128,0,101934:0:0:0:0:
402,192,101175,1,0,0:0:0:0:
475,192,101175,1,0,0:0:0:0:
109,192,101365,1,0,0:0:0:0:
329,192,101365,1,0,0:0:0:0:
182,192,101555,1,0,0:0:0:0:
402,192,101555,1,0,0:0:0:0:
256,192,101745,1,0,0:0:0:0:
475,192,101745,1,0,0:0:0:0:
182,192,101934,1,0,0:0:0:0:
109,192,101934,1,0,0:0:0:0:
329,192,101934,128,0,102534:0:0:0:0:
182,192,102134,1,0,0:0:0:0:
256,192,102134,1,0,0:0:0:0:
36,192,102334,1,0,0:0:0:0:
109,192,102334,1,0,0:0:0:0:
182,192,102534,1,0,0:0:0:0:
256,192,102534,1,0,0:0:0:0:
475,192,102734,128,0,103334:0:0:0:0:
109,192,102734,1,0,0:0:0:0:
329,192,102734,1,0,0:0:0:0:
182,192,102934,1,0,0:0:0:0:
402,192,102934,1,0,0:0:0:0:
36,192,103134,1,0,0:0:0:0:
256,192,103134,1,0,0:0:0:0:
109,192,103334,1,0,0:0:0:0:
329,192,103334,1,0,0:0:0:0:
402,192,103534,128,0,104176:0:0:0:0:
182,192,103534,1,0,0:0:0:0:
256,192,103534,1,0,0:0:0:0:
36,192,103748,1,0,0:0:0:0:
109,192,103748,1,0,0:0:0:0:
109,192,103962,1,0,0:0:0:0:
256,192,103962,1,0,0:0:0:0:
182,192,104176,1,0,0:0:0:0:
329,192,104176,1,0,0:0:0:0:
475,192,104391,128,0,104797:0:0:0:0:
36,192,104391,1,0,0:0:0:0:
402,192,104391,1,0,0:0:0:0:
329,192,104597,1,0,0:0:0:0:
109,192,104597,1,0,0:0:0:0:
36,192,104797,128,0,105171:0:0:0:0:
182,192,104797,1,0,0:0:0:0:
402,192,104797,1,0,0:0:0:0:
329,192,104990,1,0,0:0:0:0:
256,192,104990,1,0,0:0:0:0:
182,192,105171,1,0,0:0:0:0:
109,192,105171,1,0,0:0:0:0:
402,192,105171,1,0,0:0:0:0:
475,192,105171,1,0,0:0:0:0:
36,192,105358,1,0,0:0:0:0:
329,192,105358,1,0,0:0:0:0:
182,192,105558,1,0,0:0:0:0:
256,192,105558,1,0,0:0:0:0:
475,192,105558,1,0,0:0:0:0:
109,192,105558,1,0,0:0:0:0:
329,192,105761,1,0,0:0:0:0:
402,192,105761,1,0,0:0:0:0:
109,192,105967,1,0,0:0:0:0:
182,192,105967,1,0,0:0:0:0:
475,192,105967,1,0,0:0:0:0:
36,192,105967,1,0,0:0:0:0:
256,192,106177,1,0,0:0:0:0:
329,192,106177,1,0,0:0:0:0:
36,192,106391,1,0,0:0:0:0:
402,192,106391,1,0,0:0:0:0:
475,192,106391,1,0,0:0:0:0:
182,192,106391,1,0,0:0:0:0:
109,192,106605,1,0,0:0:0:0:
256,192,106605,1,0,0:0:0:0:
182,192,106819,128,0,107578:0:0:0:0:
329,192,106819,128,0,107578:0:0:0:0:
36,192,106819,1,0,0:0:0:0:
109,192,106819,1,0,0:0:0:0:
475,192,106819,1,0,0:0:0:0:
256,192,107008,1,0,0:0:0:0:
402,192,107198,1,0,0:0:0:0:
475,192,107198,1,0,0:0:0:0:
36,192,107388,1,0,0:0:0:0:
109,192,107388,1,0,0:0:0:0:
256,192,107578,128,0,108337:0:0:0:0:
402,192,107578,1,0,0:0:0:0:
475,192,107578,1,0,0:0:0:0:
329,192,107768,1,0,0:0:0:0:
182,192,107768,1,0,0:0:0:0:
109,192,107958,1,0,0:0:0:0:
36,192,107958,1,0,0:0:0:0:
402,192,108148,1,0,0:0:0:0:
475,192,108148,1,0,0:0:0:0:
329,192,108337,128,0,109087:0:0:0:0:
36,192,108337,1,0,0:0:0:0:
182,192,108337,1,0,0:0:0:0:
109,192,108524,1,0,0:0:0:0:
256,192,108524,1,0,0:0:0:0:
182,192,108712,1,0,0:0:0:0:
475,192,108712,1,0,0:0:0:0:
109,192,108899,1,0,0:0:0:0:
402,192,108899,1,0,0:0:0:0:
256,192,109087,128,0,109640:0:0:0:0:
182,192,109087,1,0,0:0:0:0:
36,192,109087,1,0,0:0:0:0:
329,192,109271,128,0,109640:0:0:0:0:
36,192,109271,1,0,0:0:0:0:
475,192,109271,1,0,0:0:0:0:
402,192,109456,128,0,109640:0:0:0:0:
109,192,109456,1,0,0:0:0:0:
182,192,109456,1,0,0:0:0:0:
475,192,109640,1,0,0:0:0:0:
36,192,109640,1,0,0:0:0:0:
329,192,109825,1,0,0:0:0:0:
402,192,109825,1,0,0:0:0:0:
256,192,109825,1,0,0:0:0:0:
475,192,109825,1,0,0:0:0:0:
109,192,110006,1,0,0:0:0:0:
182,192,110188,1,0,0:0:0:0:
256,192,110188,1,0,0:0:0:0:
329,192,110188,1,0,0:0:0:0:
109,192,110370,1,0,0:0:0:0:
256,192,110552,1,0,0:0:0:0:
329,192,110552,1,0,0:0:0:0:
402,192,110552,1,0,0:0:0:0:
36,192,110731,1,0,0:0:0:0:
402,192,110910,1,0,0:0:0:0:
329,192,110910,1,0,0:0:0:0:
475,192,110910,1,0,0:0:0:0:
36,192,111089,1,0,0:0:0:0:
109,192,111268,1,0,0:0:0:0:
182,192,111268,1,0,0:0:0:0:
329,192,111268,1,0,0:0:0:0:
475,192,111268,1,0,0:0:0:0:
36,192,111444,1,0,0:0:0:0:
182,192,111620,1,0,0:0:0:0:
256,192,111620,1,0,0:0:0:0:
402,192,111620,1,0,0:0:0:0:
36,192,111807,1,0,0:0:0:0:
109,192,111995,1,0,0:0:0:0:
329,192,111995,1,0,0:0:0:0:
402,192,111995,1,0,0:0:0:0:
256,192,112195,1,0,0:0:0:0:
182,192,112395,1,0,0:0:0:0:
402,192,112395,1,0,0:0:0:0:
475,192,112395,1,0,0:0:0:0:
109,192,112645,1,0,0:0:0:0:
36,192,112945,128,0,115655:0:0:0:0:
182,192,112945,128,0,115655:0:0:0:0:
329,192,112945,128,0,115655:0:0:0:0:
475,192,112945,128,0,115655:0:0:0:0:
256,192,113030,128,0,114223:0:0:0:0:
256,192,114308,128,0,115655:0:0:0:0:
36,192,115745,1,0,0:0:0:0:
256,192,115745,1,0,0:0:0:0:
329,192,115745,1,0,0:0:0:0:
475,192,115745,1,0,0:0:0:0:
109,192,115788,1,0,0:0:0:0:
182,192,115875,128,0,116788:0:0:0:0:
402,192,115875,128,0,117878:0:0:0:0:
36,192,116005,1,0,0:0:0:0:
109,192,116266,1,0,0:0:0:0:
256,192,116527,1,0,0:0:0:0:
329,192,116788,1,0,0:0:0:0:
36,192,116788,128,0,117878:0:0:0:0:
475,192,117060,1,0,0:0:0:0:
109,192,117333,1,0,0:0:0:0:
256,192,117606,1,0,0:0:0:0:
109,192,117878,1,0,0:0:0:0:
182,192,117878,1,0,0:0:0:0:
329,192,117878,1,0,0:0:0:0:
475,192,117953,1,0,0:0:0:0:
36,192,118178,1,0,0:0:0:0:
109,192,118478,1,0,0:0:0:0:
182,192,118478,1,0,0:0:0:0:
256,192,118478,1,0,0:0:0:0:
402,192,118793,1,0,0:0:0:0:
109,192,119109,1,0,0:0:0:0:
182,192,119109,1,0,0:0:0:0:
36,192,119109,128,0,120480:0:0:0:0:
475,192,119775,128,0,120480:0:0:0:0:
109,192,120480,1,0,0:0:0:0:
329,192,120480,1,0,0:0:0:0:
182,192,120480,128,0,129899:0:0:0:0:
402,192,120525,1,0,0:0:0:0:
475,192,120569,128,0,123702:0:0:0:0:
36,192,120833,1,0,0:0:0:0:
109,192,121196,1,0,0:0:0:0:
256,192,121571,1,0,0:0:0:0:
329,192,121958,1,0,0:0:0:0:
402,192,122358,1,0,0:0:0:0:
109,192,122771,1,0,0:0:0:0:
256,192,123185,1,0,0:0:0:0:
329,192,123599,1,0,0:0:0:0:
402,192,123702,128,0,125247:0:0:0:0:
402,192,125389,1,0,0:0:0:0:
475,192,125437,128,0,129899:0:0:0:0:
36,192,126576,128,0,129899:0:0:0:0:
256,192,127050,128,0,129899:0:0:0:0:
182,192,130588,128,0,131088:0:0:0:0:
475,192,131088,128,0,131588:0:0:0:0:
182,192,131588,128,0,132088:0:0:0:0:
109,192,132088,128,0,133588:0:0:0:0:
36,192,132088,1,0,0:0:0:0:
256,192,132088,1,0,0:0:0:0:
475,192,132088,1,0,0:0:0:0:
402,192,132088,1,0,0:0:0:0:
329,192,132213,1,0,0:0:0:0:
402,192,132338,1,0,0:0:0:0:
329,192,132463,1,0,0:0:0:0:
36,192,132588,1,0,0:0:0:0:
475,192,132588,1,0,0:0:0:0:
182,192,132588,1,0,0:0:0:0:
402,192,132838,1,0,0:0:0:0:
329,192,132963,1,0,0:0:0:0:
256,192,133088,1,0,0:0:0:0:
475,192,133088,1,0,0:0:0:0:
402,192,133088,1,0,0:0:0:0:
36,192,133088,1,0,0:0:0:0:
256,192,133338,1,0,0:0:0:0:
36,192,133588,128,0,134088:0:0:0:0:
182,192,133588,1,0,0:0:0:0:
329,192,133588,1,0,0:0:0:0:
475,192,133588,1,0,0:0:0:0:
256,192,133838,1,0,0:0:0:0:
109,192,134088,128,0,134588:0:0:0:0:
182,192,134088,1,0,0:0:0:0:
402,192,134088,1,0,0:0:0:0:
475,192,134088,1,0,0:0:0:0:
329,192,134213,1,0,0:0:0:0:
256,192,134338,1,0,0:0:0:0:
329,192,134463,1,0,0:0:0:0:
182,192,134588,128,0,135088:0:0:0:0:
402,192,134588,1,0,0:0:0:0:
475,192,134588,1,0,0:0:0:0:
36,192,134588,1,0,0:0:0:0:
256,192,134838,1,0,0:0:0:0:
329,192,134963,1,0,0:0:0:0:
475,192,135088,128,0,135588:0:0:0:0:
402,192,135088,1,0,0:0:0:0:
256,192,135088,1,0,0:0:0:0:
109,192,135088,1,0,0:0:0:0:
36,192,135088,1,0,0:0:0:0:
329,192,135338,1,0,0:0:0:0:
256,192,135588,128,0,136088:0:0:0:0:
402,192,135588,1,0,0:0:0:0:
109,192,135588,1,0,0:0:0:0:
36,192,135588,1,0,0:0:0:0:
182,192,135713,1,0,0:0:0:0:
109,192,135838,1,0,0:0:0:0:
182,192,135963,1,0,0:0:0:0:
329,192,136088,128,0,137088:0:0:0:0:
109,192,136088,1,0,0:0:0:0:
36,192,136088,1,0,0:0:0:0:
475,192,136088,1,0,0:0:0:0:
402,192,136213,1,0,0:0:0:0:
182,192,136338,1,0,0:0:0:0:
256,192,136463,1,0,0:0:0:0:
109,192,136588,1,0,0:0:0:0:
36,192,136588,1,0,0:0:0:0:
475,192,136588,1,0,0:0:0:0:
182,192,136838,1,0,0:0:0:0:
182,192,136963,1,0,0:0:0:0:
402,192,137088,128,0,138588:0:0:0:0:
109,192,137088,1,0,0:0:0:0:
36,192,137088,1,0,0:0:0:0:
256,192,137088,1,0,0:0:0:0:
475,192,137088,1,0,0:0:0:0:
329,192,137338,1,0,0:0:0:0:
256,192,137588,1,0,0:0:0:0:
36,192,137588,1,0,0:0:0:0:
475,192,137588,1,0,0:0:0:0:
109,192,137713,1,0,0:0:0:0:
182,192,137838,1,0,0:0:0:0:
109,192,137963,1,0,0:0:0:0:
36,192,138088,1,0,0:0:0:0:
329,192,138088,1,0,0:0:0:0:
256,192,138088,1,0,0:0:0:0:
182,192,138213,1,0,0:0:0:0:
475,192,138338,1,0,0:0:0:0:
329,192,138463,1,0,0:0:0:0:
182,192,138588,128,0,139088:0:0:0:0:
109,192,138588,1,0,0:0:0:0:
36,192,138588,1,0,0:0:0:0:
475,192,138588,1,0,0:0:0:0:
329,192,138838,1,0,0:0:0:0:
329,192,138963,1,0,0:0:0:0:
475,192,139088,128,0,139588:0:0:0:0:
402,192,139088,1,0,0:0:0:0:
109,192,139088,1,0,0:0:0:0:
36,192,139088,1,0,0:0:0:0:
256,192,139088,1,0,0:0:0:0:
109,192,139338,1,0,0:0:0:0:
182,192,139588,128,0,140088:0:0:0:0:
36,192,139588,1,0,0:0:0:0:
329,192,139588,1,0,0:0:0:0:
402,192,139588,1,0,0:0:0:0:
329,192,139838,1,0,0:0:0:0:
109,192,140088,128,0,141588:0:0:0:0:
36,192,140088,1,0,0:0:0:0:
256,192,140088,1,0,0:0:0:0:
402,192,140088,1,0,0:0:0:0:
329,192,140213,1,0,0:0:0:0:
182,192,140338,1,0,0:0:0:0:
256,192,140463,1,0,0:0:0:0:
329,192,140588,1,0,0:0:0:0:
475,192,140588,1,0,0:0:0:0:
36,192,140588,1,0,0:0:0:0:
256,192,140838,1,0,0:0:0:0:
256,192,140963,1,0,0:0:0:0:
182,192,141088,1,0,0:0:0:0:
402,192,141088,1,0,0:0:0:0:
475,192,141088,1,0,0:0:0:0:
36,192,141088,1,0,0:0:0:0:
329,192,141338,1,0,0:0:0:0:
36,192,141588,128,0,142088:0:0:0:0:
256,192,141588,1,0,0:0:0:0:
402,192,141588,1,0,0:0:0:0:
475,192,141588,1,0,0:0:0:0:
329,192,141713,1,0,0:0:0:0:
256,192,141838,1,0,0:0:0:0:
182,192,141963,1,0,0:0:0:0:
256,192,142088,1,0,0:0:0:0:
329,192,142088,1,0,0:0:0:0:
475,192,142088,1,0,0:0:0:0:
109,192,142088,128,0,142838:0:0:0:0:
402,192,142213,1,0,0:0:0:0:
182,192,142338,1,0,0:0:0:0:
329,192,142463,1,0,0:0:0:0:
36,192,142588,1,0,0:0:0:0:
402,192,142588,1,0,0:0:0:0:
475,192,142588,1,0,0:0:0:0:
329,192,142838,1,0,0:0:0:0:
182,192,142879,1,0,0:0:0:0:
109,192,142963,1,0,0:0:0:0:
402,192,142963,1,0,0:0:0:0:
36,192,143088,128,0,143588:0:0:0:0:
475,192,143088,1,0,0:0:0:0:
256,192,143088,1,0,0:0:0:0:
182,192,143088,1,0,0:0:0:0:
329,192,143088,1,0,0:0:0:0:
329,192,143338,1,0,0:0:0:0:
256,192,143588,128,0,143963:0:0:0:0:
109,192,143588,1,0,0:0:0:0:
182,192,143588,1,0,0:0:0:0:
475,192,143588,1,0,0:0:0:0:
402,192,143713,1,0,0:0:0:0:
329,192,143838,1,0,0:0:0:0:
402,192,143963,1,0,0:0:0:0:
256,192,144088,128,0,145088:0:0:0:0:
475,192,144088,1,0,0:0:0:0:
182,192,144088,1,0,0:0:0:0:
36,192,144088,1,0,0:0:0:0:
329,192,144213,1,0,0:0:0:0:
109,192,144338,1,0,0:0:0:0:
182,192,144463,1,0,0:0:0:0:
329,192,144588,1,0,0:0:0:0:
475,192,144588,1,0,0:0:0:0:
36,192,144588,1,0,0:0:0:0:
182,192,144838,1,0,0:0:0:0:
182,192,144963,1,0,0:0:0:0:
475,192,145088,128,0,146588:0:0:0:0:
109,192,145088,1,0,0:0:0:0:
36,192,145088,1,0,0:0:0:0:
329,192,145088,1,0,0:0:0:0:
402,192,145088,1,0,0:0:0:0:
256,192,145338,1,0,0:0:0:0:
182,192,145588,1,0,0:0:0:0:
36,192,145588,1,0,0:0:0:0:
329,192,145588,1,0,0:0:0:0:
256,192,145838,1,0,0:0:0:0:
109,192,146088,1,0,0:0:0:0:
329,192,146088,1,0,0:0:0:0:
402,192,146088,1,0,0:0:0:0:
256,192,146213,1,0,0:0:0:0:
36,192,146338,1,0,0:0:0:0:
182,192,146463,1,0,0:0:0:0:
256,192,146588,128,0,147088:0:0:0:0:
109,192,146588,1,0,0:0:0:0:
402,192,146588,1,0,0:0:0:0:
329,192,146588,1,0,0:0:0:0:
36,192,146838,1,0,0:0:0:0:
36,192,146963,1,0,0:0:0:0:
475,192,147088,128,0,147588:0:0:0:0:
109,192,147088,1,0,0:0:0:0:
182,192,147088,1,0,0:0:0:0:
329,192,147088,1,0,0:0:0:0:
402,192,147088,1,0,0:0:0:0:
256,192,147338,1,0,0:0:0:0:
256,192,147588,128,0,148088:0:0:0:0:
182,192,147588,1,0,0:0:0:0:
36,192,147588,1,0,0:0:0:0:
402,192,147588,1,0,0:0:0:0:
329,192,147713,1,0,0:0:0:0:
109,192,147838,1,0,0:0:0:0:
182,192,148088,128,0,149588:0:0:0:0:
36,192,148088,1,0,0:0:0:0:
402,192,148088,1,0,0:0:0:0:
475,192,148088,1,0,0:0:0:0:
329,192,148213,1,0,0:0:0:0:
475,192,148338,1,0,0:0:0:0:
329,192,148463,1,0,0:0:0:0:
109,192,148588,1,0,0:0:0:0:
36,192,148588,1,0,0:0:0:0:
256,192,148588,1,0,0:0:0:0:
329,192,148838,1,0,0:0:0:0:
329,192,148963,1,0,0:0:0:0:
402,192,149088,1,0,0:0:0:0:
475,192,149088,1,0,0:0:0:0:
256,192,149088,1,0,0:0:0:0:
36,192,149088,1,0,0:0:0:0:
329,192,149338,1,0,0:0:0:0:
109,192,149588,128,0,150088:0:0:0:0:
36,192,149588,1,0,0:0:0:0:
256,192,149588,1,0,0:0:0:0:
402,192,149588,1,0,0:0:0:0:
475,192,149713,1,0,0:0:0:0:
329,192,149838,1,0,0:0:0:0:
256,192,149963,1,0,0:0:0:0:
182,192,150088,128,0,150588:0:0:0:0:
36,192,150088,1,0,0:0:0:0:
402,192,150088,1,0,0:0:0:0:
475,192,150088,1,0,0:0:0:0:
329,192,150213,1,0,0:0:0:0:
109,192,150338,1,0,0:0:0:0:
256,192,150463,1,0,0:0:0:0:
329,192,150588,128,0,151088:0:0:0:0:
402,192,150588,1,0,0:0:0:0:
475,192,150588,1,0,0:0:0:0:
36,192,150588,1,0,0:0:0:0:
182,192,150838,1,0,0:0:0:0:
182,192,150963,1,0,0:0:0:0:
475,192,151088,128,0,151588:0:0:0:0:
109,192,151088,1,0,0:0:0:0:
36,192,151088,1,0,0:0:0:0:
256,192,151088,1,0,0:0:0:0:
402,192,151088,1,0,0:0:0:0:
182,192,151338,1,0,0:0:0:0:
402,192,151588,128,0,152088:0:0:0:0:
109,192,151588,1,0,0:0:0:0:
36,192,151588,1,0,0:0:0:0:
329,192,151588,1,0,0:0:0:0:
256,192,151713,1,0,0:0:0:0:
182,192,151838,1,0,0:0:0:0:
109,192,151963,1,0,0:0:0:0:
256,192,152088,128,0,153088:0:0:0:0:
36,192,152088,1,0,0:0:0:0:
329,192,152088,1,0,0:0:0:0:
475,192,152088,1,0,0:0:0:0:
182,192,152213,1,0,0:0:0:0:
402,192,152338,1,0,0:0:0:0:
329,192,152463,1,0,0:0:0:0:
182,192,152588,1,0,0:0:0:0:
36,192,152588,1,0,0:0:0:0:
475,192,152588,1,0,0:0:0:0:
109,192,152838,1,0,0:0:0:0:
109,192,152963,1,0,0:0:0:0:
402,192,153088,128,0,155088:0:0:0:0:
182,192,153088,1,0,0:0:0:0:
36,192,153088,1,0,0:0:0:0:
329,192,153088,1,0,0:0:0:0:
475,192,153088,1,0,0:0:0:0:
256,192,153338,1,0,0:0:0:0:
109,192,153588,1,0,0:0:0:0:
36,192,153588,1,0,0:0:0:0:
329,192,153588,1,0,0:0:0:0:
182,192,153713,1,0,0:0:0:0:
329,192,153838,1,0,0:0:0:0:
256,192,153963,1,0,0:0:0:0:
182,192,154088,1,0,0:0:0:0:
36,192,154088,1,0,0:0:0:0:
475,192,154088,1,0,0:0:0:0:
329,192,154213,1,0,0:0:0:0:
109,192,154338,1,0,0:0:0:0:
256,192,154463,1,0,0:0:0:0:
182,192,154588,1,0,0:0:0:0:
36,192,154588,1,0,0:0:0:0:
329,192,154588,1,0,0:0:0:0:
256,192,154838,1,0,0:0:0:0:
256,192,154963,1,0,0:0:0:0:
109,192,155088,128,0,155588:0:0:0:0:
182,192,155088,1,0,0:0:0:0:
329,192,155088,1,0,0:0:0:0:
475,192,155088,1,0,0:0:0:0:
36,192,155088,1,0,0:0:0:0:
402,192,155338,1,0,0:0:0:0:
182,192,155588,128,0,156088:0:0:0:0:
329,192,155588,1,0,0:0:0:0:
475,192,155588,1,0,0:0:0:0:
36,192,155588,1,0,0:0:0:0:
109,192,155838,1,0,0:0:0:0:
256,192,156088,128,0,157588:0:0:0:0:
36,192,156088,1,0,0:0:0:0:
402,192,156088,1,0,0:0:0:0:
475,192,156088,1,0,0:0:0:0:
329,192,156213,1,0,0:0:0:0:
109,192,156338,1,0,0:0:0:0:
182,192,156463,1,0,0:0:0:0:
36,192,156588,1,0,0:0:0:0:
329,192,156588,1,0,0:0:0:0:
475,192,156588,1,0,0:0:0:0:
182,192,156838,1,0,0:0:0:0:
182,192,156963,1,0,0:0:0:0:
109,192,157088,1,0,0:0:0:0:
36,192,157088,1,0,0:0:0:0:
402,192,157088,1,0,0:0:0:0:
475,192,157088,1,0,0:0:0:0:
329,192,157338,1,0,0:0:0:0:
402,192,157588,128,0,158088:0:0:0:0:
475,192,157588,1,0,0:0:0:0:
182,192,157588,1,0,0:0:0:0:
36,192,157588,1,0,0:0:0:0:
109,192,157713,1,0,0:0:0:0:
256,192,157838,1,0,0:0:0:0:
182,192,157963,1,0,0:0:0:0:
36,192,158088,128,0,159588:0:0:0:0:
109,192,158088,1,0,0:0:0:0:
329,192,158088,1,0,0:0:0:0:
475,192,158088,1,0,0:0:0:0:
256,192,158213,1,0,0:0:0:0:
182,192,158338,1,0,0:0:0:0:
329,192,158463,1,0,0:0:0:0:
256,192,158588,1,0,0:0:0:0:
109,192,158588,1,0,0:0:0:0:
402,192,158588,1,0,0:0:0:0:
329,192,158838,1,0,0:0:0:0:
329,192,158963,1,0,0:0:0:0:
402,192,159088,1,0,0:0:0:0:
475,192,159088,1,0,0:0:0:0:
256,192,159088,1,0,0:0:0:0:
109,192,159088,1,0,0:0:0:0:
329,192,159338,1,0,0:0:0:0:
182,192,159588,128,0,159963:0:0:0:0:
109,192,159588,1,0,0:0:0:0:
256,192,159588,1,0,0:0:0:0:
475,192,159588,1,0,0:0:0:0:
402,192,159713,1,0,0:0:0:0:
329,192,159838,1,0,0:0:0:0:
402,192,159963,1,0,0:0:0:0:
182,192,160088,128,0,162588:0:0:0:0:
475,192,160088,1,0,0:0:0:0:
36,192,160088,1,0,0:0:0:0:
256,192,160088,1,0,0:0:0:0:
329,192,160213,1,0,0:0:0:0:
402,192,160338,1,0,0:0:0:0:
256,192,160463,1,0,0:0:0:0:
329,192,160588,1,0,0:0:0:0:
475,192,160588,1,0,0:0:0:0:
36,192,160588,1,0,0:0:0:0:
256,192,160838,1,0,0:0:0:0:
256,192,160963,1,0,0:0:0:0:
402,192,161088,1,0,0:0:0:0:
475,192,161088,1,0,0:0:0:0:
109,192,161088,1,0,0:0:0:0:
36,192,161088,1,0,0:0:0:0:
329,192,161338,1,0,0:0:0:0:
256,192,161588,1,0,0:0:0:0:
475,192,161588,1,0,0:0:0:0:
36,192,161588,1,0,0:0:0:0:
109,192,161713,1,0,0:0:0:0:
329,192,161838,1,0,0:0:0:0:
109,192,161963,1,0,0:0:0:0:
402,192,162088,1,0,0:0:0:0:
256,192,162088,1,0,0:0:0:0:
109,192,162338,1,0,0:0:0:0:
329,192,162338,1,0,0:0:0:0:
36,192,162588,128,0,163088:0:0:0:0:
256,192,162588,128,0,163088:0:0:0:0:
475,192,162588,1,0,0:0:0:0:
402,192,162588,1,0,0:0:0:0:
329,192,162838,1,0,0:0:0:0:
182,192,163088,128,0,163588:0:0:0:0:
402,192,163088,128,0,163588:0:0:0:0:
109,192,163088,1,0,0:0:0:0:
475,192,163088,1,0,0:0:0:0:
329,192,163338,1,0,0:0:0:0:
36,192,163588,128,0,164088:0:0:0:0:
256,192,163588,128,0,164088:0:0:0:0:
109,192,163588,1,0,0:0:0:0:
475,192,163588,1,0,0:0:0:0:
329,192,163838,1,0,0:0:0:0:
109,192,164088,128,0,165588:0:0:0:0:
402,192,164088,128,0,165588:0:0:0:0:
182,192,164088,1,0,0:0:0:0:
329,192,164088,1,0,0:0:0:0:
475,192,164088,1,0,0:0:0:0:
256,192,164213,1,0,0:0:0:0:
36,192,164338,1,0,0:0:0:0:
182,192,164463,1,0,0:0:0:0:
256,192,164588,1,0,0:0:0:0:
475,192,164588,1,0,0:0:0:0:
329,192,164838,1,0,0:0:0:0:
256,192,164963,1,0,0:0:0:0:
182,192,165088,1,0,0:0:0:0:
36,192,165088,1,0,0:0:0:0:
475,192,165088,1,0,0:0:0:0:
256,192,165338,1,0,0:0:0:0:
329,192,165588,128,0,166088:0:0:0:0:
36,192,165588,128,0,166088:0:0:0:0:
182,192,165588,1,0,0:0:0:0:
475,192,165588,1,0,0:0:0:0:
182,192,165838,1,0,0:0:0:0:
109,192,166088,128,0,166588:0:0:0:0:
402,192,166088,128,0,166588:0:0:0:0:
256,192,166088,1,0,0:0:0:0:
475,192,166088,1,0,0:0:0:0:
182,192,166213,1,0,0:0:0:0:
256,192,166338,1,0,0:0:0:0:
329,192,166463,1,0,0:0:0:0:
182,192,166588,128,0,167088:0:0:0:0:
475,192,166588,128,0,167088:0:0:0:0:
36,192,166588,1,0,0:0:0:0:
256,192,166588,1,0,0:0:0:0:
329,192,166838,1,0,0:0:0:0:
402,192,166963,1,0,0:0:0:0:
256,192,167088,128,0,167588:0:0:0:0:
36,192,167088,128,0,167588:0:0:0:0:
109,192,167088,1,0,0:0:0:0:
329,192,167088,1,0,0:0:0:0:
402,192,167338,1,0,0:0:0:0:
109,192,167588,128,0,168088:0:0:0:0:
329,192,167588,128,0,168088:0:0:0:0:
182,192,167588,1,0,0:0:0:0:
475,192,167588,1,0,0:0:0:0:
475,192,167838,1,0,0:0:0:0:
36,192,168088,128,0,169088:0:0:0:0:
256,192,168088,128,0,169088:0:0:0:0:
402,192,168088,1,0,0:0:0:0:
182,192,168088,1,0,0:0:0:0:
109,192,168213,1,0,0:0:0:0:
329,192,168338,1,0,0:0:0:0:
402,192,168463,1,0,0:0:0:0:
475,192,168588,1,0,0:0:0:0:
109,192,168588,1,0,0:0:0:0:
475,192,168838,1,0,0:0:0:0:
329,192,168963,1,0,0:0:0:0:
182,192,169088,128,0,170588:0:0:0:0:
402,192,169088,128,0,170588:0:0:0:0:
475,192,169088,1,0,0:0:0:0:
109,192,169088,1,0,0:0:0:0:
329,192,169338,1,0,0:0:0:0:
256,192,169588,1,0,0:0:0:0:
36,192,169588,1,0,0:0:0:0:
329,192,169838,1,0,0:0:0:0:
475,192,170088,1,0,0:0:0:0:
36,192,170088,1,0,0:0:0:0:
256,192,170088,1,0,0:0:0:0:
109,192,170213,1,0,0:0:0:0:
329,192,170338,1,0,0:0:0:0:
256,192,170463,1,0,0:0:0:0:
109,192,170588,128,0,171088:0:0:0:0:
329,192,170588,128,0,171088:0:0:0:0:
36,192,170588,1,0,0:0:0:0:
475,192,170588,1,0,0:0:0:0:
182,192,170838,1,0,0:0:0:0:
256,192,171088,128,0,171588:0:0:0:0:
475,192,171088,128,0,171588:0:0:0:0:
36,192,171088,1,0,0:0:0:0:
402,192,171088,1,0,0:0:0:0:
182,192,171338,1,0,0:0:0:0:
329,192,171588,128,0,172088:0:0:0:0:
109,192,171588,128,0,172088:0:0:0:0:
36,192,171588,1,0,0:0:0:0:
402,192,171588,1,0,0:0:0:0:
182,192,171838,1,0,0:0:0:0:
36,192,172088,128,0,173588:0:0:0:0:
256,192,172088,128,0,173588:0:0:0:0:
402,192,172088,1,0,0:0:0:0:
475,192,172088,1,0,0:0:0:0:
329,192,172213,1,0,0:0:0:0:
109,192,172338,1,0,0:0:0:0:
182,192,172463,1,0,0:0:0:0:
329,192,172588,1,0,0:0:0:0:
475,192,172588,1,0,0:0:0:0:
109,192,172838,1,0,0:0:0:0:
182,192,172963,1,0,0:0:0:0:
109,192,173088,1,0,0:0:0:0:
329,192,173088,1,0,0:0:0:0:
402,192,173088,1,0,0:0:0:0:
475,192,173088,1,0,0:0:0:0:
475,192,173338,1,0,0:0:0:0:
182,192,173588,128,0,174088:0:0:0:0:
329,192,173588,128,0,174088:0:0:0:0:
402,192,173588,1,0,0:0:0:0:
109,192,173588,1,0,0:0:0:0:
402,192,173838,1,0,0:0:0:0:
475,192,174088,128,0,174838:0:0:0:0:
36,192,174088,128,0,174838:0:0:0:0:
256,192,174088,1,0,0:0:0:0:
109,192,174088,1,0,0:0:0:0:
182,192,174213,1,0,0:0:0:0:
256,192,174338,1,0,0:0:0:0:
402,192,174463,1,0,0:0:0:0:
329,192,174588,1,0,0:0:0:0:
182,192,174588,1,0,0:0:0:0:
182,192,174879,1,0,0:0:0:0:
329,192,174879,1,0,0:0:0:0:
109,192,174963,1,0,0:0:0:0:
402,192,174963,1,0,0:0:0:0:
36,192,175088,128,0,175588:0:0:0:0:
475,192,175088,128,0,175588:0:0:0:0:
182,192,175088,1,0,0:0:0:0:
329,192,175088,1,0,0:0:0:0:
182,192,175338,1,0,0:0:0:0:
109,192,175588,128,0,175963:0:0:0:0:
256,192,175588,128,0,175963:0:0:0:0:
329,192,175588,1,0,0:0:0:0:
402,192,175588,1,0,0:0:0:0:
402,192,175838,1,0,0:0:0:0:
329,192,175963,1,0,0:0:0:0:
256,192,176088,128,0,177088:0:0:0:0:
109,192,176088,128,0,177088:0:0:0:0:
475,192,176088,1,0,0:0:0:0:
36,192,176088,1,0,0:0:0:0:
329,192,176213,1,0,0:0:0:0:
182,192,176338,1,0,0:0:0:0:
329,192,176463,1,0,0:0:0:0:
36,192,176588,1,0,0:0:0:0:
402,192,176588,1,0,0:0:0:0:
475,192,176838,1,0,0:0:0:0:
402,192,176963,1,0,0:0:0:0:
36,192,177088,128,0,178588:0:0:0:0:
329,192,177088,128,0,178588:0:0:0:0:
475,192,177088,1,0,0:0:0:0:
182,192,177088,1,0,0:0:0:0:
256,192,177338,1,0,0:0:0:0:
109,192,177588,1,0,0:0:0:0:
402,192,177588,1,0,0:0:0:0:
256,192,177838,1,0,0:0:0:0:
109,192,178088,1,0,0:0:0:0:
475,192,178088,1,0,0:0:0:0:
182,192,178213,1,0,0:0:0:0:
402,192,178338,1,0,0:0:0:0:
256,192,178463,1,0,0:0:0:0:
109,192,178588,128,0,179088:0:0:0:0:
402,192,178588,128,0,179088:0:0:0:0:
182,192,178588,1,0,0:0:0:0:
475,192,178588,1,0,0:0:0:0:
36,192,178838,1,0,0:0:0:0:
182,192,178963,1,0,0:0:0:0:
256,192,179088,128,0,179588:0:0:0:0:
475,192,179088,128,0,179588:0:0:0:0:
36,192,179088,1,0,0:0:0:0:
329,192,179088,1,0,0:0:0:0:
109,192,179338,1,0,0:0:0:0:
402,192,179588,128,0,180088:0:0:0:0:
182,192,179588,128,0,180088:0:0:0:0:
36,192,179588,1,0,0:0:0:0:
329,192,179588,1,0,0:0:0:0:
109,192,179838,1,0,0:0:0:0:
329,192,180088,128,0,181588:0:0:0:0:
36,192,180088,128,0,181588:0:0:0:0:
109,192,180088,1,0,0:0:0:0:
256,192,180088,1,0,0:0:0:0:
475,192,180088,1,0,0:0:0:0:
182,192,180213,1,0,0:0:0:0:
402,192,180338,1,0,0:0:0:0:
256,192,180463,1,0,0:0:0:0:
109,192,180588,1,0,0:0:0:0:
475,192,180588,1,0,0:0:0:0:
182,192,180838,1,0,0:0:0:0:
256,192,180963,1,0,0:0:0:0:
109,192,181088,1,0,0:0:0:0:
402,192,181088,1,0,0:0:0:0:
475,192,181088,1,0,0:0:0:0:
182,192,181338,1,0,0:0:0:0:
109,192,181588,128,0,182088:0:0:0:0:
256,192,181588,128,0,182088:0:0:0:0:
402,192,181588,1,0,0:0:0:0:
475,192,181588,1,0,0:0:0:0:
402,192,181838,1,0,0:0:0:0:
182,192,182088,128,0,182588:0:0:0:0:
329,192,182088,128,0,182588:0:0:0:0:
475,192,182088,1,0,0:0:0:0:
36,192,182088,1,0,0:0:0:0:
402,192,182213,1,0,0:0:0:0:
36,192,182338,1,0,0:0:0:0:
256,192,182463,1,0,0:0:0:0:
402,192,182588,128,0,183088:0:0:0:0:
109,192,182588,128,0,183088:0:0:0:0:
475,192,182588,1,0,0:0:0:0:
36,192,182588,1,0,0:0:0:0:
182,192,182838,1,0,0:0:0:0:
256,192,182963,1,0,0:0:0:0:
36,192,183088,128,0,183588:0:0:0:0:
475,192,183088,128,0,183588:0:0:0:0:
329,192,183088,1,0,0:0:0:0:
182,192,183088,1,0,0:0:0:0:
256,192,183338,1,0,0:0:0:0:
109,192,183588,128,0,184088:0:0:0:0:
329,192,183588,128,0,184088:0:0:0:0:
402,192,183588,1,0,0:0:0:0:
182,192,183588,1,0,0:0:0:0:
182,192,183838,1,0,0:0:0:0:
36,192,184088,128,0,185088:0:0:0:0:
256,192,184088,128,0,185088:0:0:0:0:
475,192,184088,1,0,0:0:0:0:
402,192,184088,1,0,0:0:0:0:
182,192,184213,1,0,0:0:0:0:
329,192,184338,1,0,0:0:0:0:
402,192,184463,1,0,0:0:0:0:
475,192,184588,1,0,0:0:0:0:
109,192,184588,1,0,0:0:0:0:
329,192,184838,1,0,0:0:0:0:
402,192,184963,1,0,0:0:0:0:
182,192,185088,128,0,187088:0:0:0:0:
475,192,185088,128,0,187088:0:0:0:0:
329,192,185088,1,0,0:0:0:0:
109,192,185088,1,0,0:0:0:0:
256,192,185338,1,0,0:0:0:0:
329,192,185588,1,0,0:0:0:0:
36,192,185588,1,0,0:0:0:0:
109,192,185838,1,0,0:0:0:0:
256,192,186088,1,0,0:0:0:0:
402,192,186088,1,0,0:0:0:0:
36,192,186213,1,0,0:0:0:0:
329,192,186338,1,0,0:0:0:0:
109,192,186463,1,0,0:0:0:0:
256,192,186588,1,0,0:0:0:0:
402,192,186588,1,0,0:0:0:0:
109,192,186838,1,0,0:0:0:0:
256,192,186963,1,0,0:0:0:0:
36,192,187088,128,0,187588:0:0:0:0:
329,192,187088,128,0,187588:0:0:0:0:
109,192,187088,1,0,0:0:0:0:
402,192,187088,1,0,0:0:0:0:
256,192,187338,1,0,0:0:0:0:
109,192,187588,128,0,188088:0:0:0:0:
402,192,187588,128,0,188088:0:0:0:0:
182,192,187588,1,0,0:0:0:0:
475,192,187588,1,0,0:0:0:0:
256,192,187838,1,0,0:0:0:0:
182,192,188088,128,0,189588:0:0:0:0:
475,192,188088,128,0,189588:0:0:0:0:
329,192,188088,1,0,0:0:0:0:
36,192,188088,1,0,0:0:0:0:
256,192,188213,1,0,0:0:0:0:
109,192,188338,1,0,0:0:0:0:
329,192,188463,1,0,0:0:0:0:
256,192,188588,1,0,0:0:0:0:
36,192,188588,1,0,0:0:0:0:
402,192,188838,1,0,0:0:0:0:
329,192,188963,1,0,0:0:0:0:
402,192,189088,1,0,0:0:0:0:
109,192,189088,1,0,0:0:0:0:
36,192,189088,1,0,0:0:0:0:
329,192,189338,1,0,0:0:0:0:
402,192,189588,128,0,190088:0:0:0:0:
256,192,189588,128,0,190088:0:0:0:0:
36,192,189588,1,0,0:0:0:0:
109,192,189588,1,0,0:0:0:0:
109,192,189838,1,0,0:0:0:0:
36,192,190088,128,0,191588:0:0:0:0:
329,192,190088,128,0,191588:0:0:0:0:
182,192,190088,1,0,0:0:0:0:
475,192,190088,1,0,0:0:0:0:
256,192,190213,1,0,0:0:0:0:
402,192,190338,1,0,0:0:0:0:
182,192,190463,1,0,0:0:0:0:
109,192,190588,1,0,0:0:0:0:
475,192,190588,1,0,0:0:0:0:
182,192,190838,1,0,0:0:0:0:
256,192,190963,1,0,0:0:0:0:
182,192,191088,1,0,0:0:0:0:
109,192,191088,1,0,0:0:0:0:
475,192,191088,1,0,0:0:0:0:
402,192,191338,1,0,0:0:0:0:
256,192,191588,128,0,191963:0:0:0:0:
109,192,191588,128,0,191963:0:0:0:0:
475,192,191588,1,0,0:0:0:0:
182,192,191588,1,0,0:0:0:0:
402,192,191838,1,0,0:0:0:0:
109,192,192088,128,0,194588:0:0:0:0:
256,192,192088,128,0,194588:0:0:0:0:
329,192,192088,1,0,0:0:0:0:
36,192,192088,1,0,0:0:0:0:
475,192,192213,1,0,0:0:0:0:
182,192,192338,1,0,0:0:0:0:
402,192,192463,1,0,0:0:0:0:
329,192,192588,1,0,0:0:0:0:
36,192,192588,1,0,0:0:0:0:
475,192,192838,1,0,0:0:0:0:
329,192,192963,1,0,0:0:0:0:
475,192,193088,1,0,0:0:0:0:
182,192,193088,1,0,0:0:0:0:
36,192,193088,1,0,0:0:0:0:
329,192,193338,1,0,0:0:0:0:
402,192,193588,1,0,0:0:0:0:
182,192,193588,1,0,0:0:0:0:
36,192,193838,1,0,0:0:0:0:
475,192,194088,1,0,0:0:0:0:
329,192,194088,1,0,0:0:0:0:
182,192,194338,1,0,0:0:0:0:
402,192,194338,1,0,0:0:0:0:
329,192,194588,128,0,194838:0:0:0:0:
36,192,194588,128,0,195088:0:0:0:0:
182,192,194588,128,0,194838:0:0:0:0:
475,192,194588,128,0,194838:0:0:0:0:
109,192,194838,1,0,0:0:0:0:
402,192,194838,1,0,0:0:0:0:
475,192,195088,128,0,195588:0:0:0:0:
109,192,195088,128,0,195338:0:0:0:0:
256,192,195088,128,0,195338:0:0:0:0:
402,192,195088,128,0,195338:0:0:0:0:
329,192,195338,1,0,0:0:0:0:
182,192,195338,1,0,0:0:0:0:
182,192,195588,128,0,195838:0:0:0:0:
402,192,195588,128,0,196088:0:0:0:0:
329,192,195588,128,0,195838:0:0:0:0:
36,192,195588,128,0,195838:0:0:0:0:
109,192,195838,1,0,0:0:0:0:
256,192,195838,1,0,0:0:0:0:
36,192,196088,128,0,197088:0:0:0:0:
256,192,196088,128,0,196213:0:0:0:0:
475,192,196088,128,0,196213:0:0:0:0:
109,192,196213,128,0,196963:0:0:0:0:
329,192,196213,128,0,196338:0:0:0:0:
182,192,196338,128,0,196838:0:0:0:0:
402,192,196338,128,0,196463:0:0:0:0:
256,192,196463,128,0,196713:0:0:0:0:
475,192,196463,128,0,196588:0:0:0:0:
329,192,196588,128,0,197088:0:0:0:0:
256,192,196838,1,0,0:0:0:0:
182,192,196963,1,0,0:0:0:0:
109,192,197088,1,0,0:0:0:0:
256,192,197088,1,0,0:0:0:0:
402,192,197088,1,0,0:0:0:0:
475,192,197088,1,0,0:0:0:0:
182,192,197338,1,0,0:0:0:0:
329,192,197338,1,0,0:0:0:0:
36,192,197588,128,0,197713:0:0:0:0:
256,192,197588,128,0,197713:0:0:0:0:
475,192,197588,128,0,197713:0:0:0:0:
109,192,197588,128,0,197713:0:0:0:0:
182,192,197838,1,0,0:0:0:0:
329,192,197838,1,0,0:0:0:0:
475,192,198088,128,0,199088:0:0:0:0:
256,192,198088,128,0,198213:0:0:0:0:
36,192,198088,128,0,198213:0:0:0:0:
402,192,198213,128,0,198963:0:0:0:0:
182,192,198213,128,0,198338:0:0:0:0:
329,192,198338,128,0,198838:0:0:0:0:
109,192,198338,128,0,198463:0:0:0:0:
256,192,198463,128,0,198713:0:0:0:0:
36,192,198463,128,0,198588:0:0:0:0:
182,192,198588,128,0,199088:0:0:0:0:
256,192,198838,1,0,0:0:0:0:
329,192,198963,1,0,0:0:0:0:
402,192,199088,1,0,0:0:0:0:
36,192,199088,1,0,0:0:0:0:
109,192,199088,1,0,0:0:0:0:
256,192,199088,1,0,0:0:0:0:
182,192,199338,1,0,0:0:0:0:
329,192,199338,1,0,0:0:0:0:
36,192,199588,128,0,199713:0:0:0:0:
109,192,199588,128,0,199713:0:0:0:0:
256,192,199588,128,0,199713:0:0:0:0:
475,192,199588,128,0,199713:0:0:0:0:
329,192,199838,1,0,0:0:0:0:
182,192,199838,1,0,0:0:0:0:
36,192,200088,128,0,202588:0:0:0:0:
109,192,200088,128,0,200213:0:0:0:0:
256,192,200088,128,0,200213:0:0:0:0:
402,192,200088,128,0,200213:0:0:0:0:
475,192,200088,128,0,200213:0:0:0:0:
329,192,200213,1,0,0:0:0:0:
182,192,200213,1,0,0:0:0:0:
256,192,200338,1,0,0:0:0:0:
402,192,200338,1,0,0:0:0:0:
329,192,200463,1,0,0:0:0:0:
182,192,200463,1,0,0:0:0:0:
109,192,200588,1,0,0:0:0:0:
256,192,200588,1,0,0:0:0:0:
402,192,200588,1,0,0:0:0:0:
475,192,200588,1,0,0:0:0:0:
182,192,200838,1,0,0:0:0:0:
329,192,200838,1,0,0:0:0:0:
329,192,200963,1,0,0:0:0:0:
182,192,200963,1,0,0:0:0:0:
475,192,201088,128,0,202588:0:0:0:0:
109,192,201088,128,0,201213:0:0:0:0:
256,192,201088,128,0,201213:0:0:0:0:
402,192,201088,128,0,201213:0:0:0:0:
182,192,201338,1,0,0:0:0:0:
109,192,201338,1,0,0:0:0:0:
256,192,201588,1,0,0:0:0:0:
402,192,201588,1,0,0:0:0:0:
182,192,201838,1,0,0:0:0:0:
329,192,201838,1,0,0:0:0:0:
109,192,202088,1,0,0:0:0:0:
256,192,202088,1,0,0:0:0:0:
402,192,202088,1,0,0:0:0:0:
329,192,202338,1,0,0:0:0:0:
182,192,202338,1,0,0:0:0:0:
329,192,202588,128,0,202838:0:0:0:0:
109,192,202588,128,0,203088:0:0:0:0:
182,192,202588,128,0,202838:0:0:0:0:
402,192,202588,128,0,202838:0:0:0:0:
475,192,202838,1,0,0:0:0:0:
256,192,202838,1,0,0:0:0:0:
256,192,203088,128,0,203338:0:0:0:0:
475,192,203088,128,0,203588:0:0:0:0:
36,192,203088,128,0,203338:0:0:0:0:
402,192,203088,128,0,203338:0:0:0:0:
109,192,203338,1,0,0:0:0:0:
329,192,203338,1,0,0:0:0:0:
182,192,203588,128,0,203838:0:0:0:0:
36,192,203588,128,0,203838:0:0:0:0:
329,192,203588,128,0,203838:0:0:0:0:
402,192,203588,128,0,204088:0:0:0:0:
109,192,203838,1,0,0:0:0:0:
256,192,203838,1,0,0:0:0:0:
475,192,204088,128,0,205088:0:0:0:0:
256,192,204088,128,0,204213:0:0:0:0:
36,192,204088,128,0,204213:0:0:0:0:
402,192,204213,128,0,204963:0:0:0:0:
182,192,204213,128,0,204338:0:0:0:0:
329,192,204338,128,0,204838:0:0:0:0:
109,192,204338,128,0,204463:0:0:0:0:
256,192,204463,128,0,204713:0:0:0:0:
36,192,204463,128,0,204588:0:0:0:0:
182,192,204588,128,0,205088:0:0:0:0:
256,192,204838,1,0,0:0:0:0:
329,192,204963,1,0,0:0:0:0:
402,192,205088,1,0,0:0:0:0:
36,192,205088,1,0,0:0:0:0:
109,192,205088,1,0,0:0:0:0:
256,192,205088,1,0,0:0:0:0:
182,192,205338,1,0,0:0:0:0:
329,192,205338,1,0,0:0:0:0:
36,192,205588,128,0,205713:0:0:0:0:
256,192,205588,128,0,205713:0:0:0:0:
475,192,205588,128,0,205713:0:0:0:0:
109,192,205588,128,0,205713:0:0:0:0:
182,192,205838,1,0,0:0:0:0:
329,192,205838,1,0,0:0:0:0:
36,192,206088,128,0,207088:0:0:0:0:
256,192,206088,128,0,206213:0:0:0:0:
475,192,206088,128,0,206213:0:0:0:0:
109,192,206213,128,0,206963:0:0:0:0:
329,192,206213,128,0,206338:0:0:0:0:
182,192,206338,128,0,206838:0:0:0:0:
402,192,206338,128,0,206463:0:0:0:0:
256,192,206463,128,0,206713:0:0:0:0:
475,192,206463,128,0,206588:0:0:0:0:
329,192,206588,128,0,206838:0:0:0:0:
256,192,206838,1,0,0:0:0:0:
475,192,206879,128,0,207088:0:0:0:0:
182,192,206963,1,0,0:0:0:0:
402,192,206963,128,0,207088:0:0:0:0:
329,192,207088,1,0,0:0:0:0:
109,192,207088,1,0,0:0:0:0:
256,192,207088,1,0,0:0:0:0:
182,192,207338,1,0,0:0:0:0:
329,192,207338,1,0,0:0:0:0:
256,192,207588,128,0,207713:0:0:0:0:
402,192,207588,128,0,207713:0:0:0:0:
475,192,207588,128,0,207713:0:0:0:0:
36,192,207588,128,0,207713:0:0:0:0:
329,192,207838,1,0,0:0:0:0:
182,192,207838,1,0,0:0:0:0:
36,192,208088,128,0,210338:0:0:0:0:
109,192,208088,128,0,208213:0:0:0:0:
256,192,208088,128,0,208213:0:0:0:0:
402,192,208088,128,0,208213:0:0:0:0:
475,192,208088,128,0,208213:0:0:0:0:
329,192,208213,1,0,0:0:0:0:
182,192,208213,1,0,0:0:0:0:
109,192,208338,1,0,0:0:0:0:
402,192,208338,1,0,0:0:0:0:
329,192,208463,1,0,0:0:0:0:
182,192,208463,1,0,0:0:0:0:
109,192,208588,1,0,0:0:0:0:
256,192,208588,1,0,0:0:0:0:
402,192,208588,1,0,0:0:0:0:
182,192,208838,1,0,0:0:0:0:
329,192,208838,1,0,0:0:0:0:
329,192,208963,1,0,0:0:0:0:
182,192,208963,1,0,0:0:0:0:
475,192,209088,128,0,210338:0:0:0:0:
109,192,209088,128,0,209213:0:0:0:0:
256,192,209088,128,0,209213:0:0:0:0:
402,192,209088,128,0,209213:0:0:0:0:
329,192,209338,1,0,0:0:0:0:
109,192,209338,1,0,0:0:0:0:
256,192,209588,1,0,0:0:0:0:
402,192,209588,1,0,0:0:0:0:
182,192,209838,1,0,0:0:0:0:
329,192,209838,1,0,0:0:0:0:
109,192,210088,1,0,0:0:0:0:
256,192,210088,1,0,0:0:0:0:
402,192,210088,1,0,0:0:0:0:
329,192,210338,1,0,0:0:0:0:
182,192,210338,1,0,0:0:0:0:
36,192,210588,128,0,211088:0:0:0:0:
182,192,210588,128,0,210838:0:0:0:0:
329,192,210588,128,0,210838:0:0:0:0:
475,192,210588,128,0,210838:0:0:0:0:
109,192,210838,1,0,0:0:0:0:
256,192,210838,1,0,0:0:0:0:
475,192,211088,128,0,211588:0:0:0:0:
256,192,211088,128,0,211338:0:0:0:0:
402,192,211088,128,0,211338:0:0:0:0:
109,192,211088,128,0,211338:0:0:0:0:
182,192,211338,1,0,0:0:0:0:
329,192,211338,1,0,0:0:0:0:
402,192,211588,128,0,212088:0:0:0:0:
182,192,211588,128,0,211838:0:0:0:0:
329,192,211588,128,0,211838:0:0:0:0:
36,192,211588,128,0,211838:0:0:0:0:
109,192,211838,1,0,0:0:0:0:
256,192,211838,1,0,0:0:0:0:
36,192,212088,1,0,0:0:0:0:
109,192,212088,1,0,0:0:0:0:
256,192,212088,1,0,0:0:0:0:
475,192,212088,1,0,0:0:0:0:
182,192,212213,1,0,0:0:0:0:
329,192,212213,1,0,0:0:0:0:
109,192,212338,1,0,0:0:0:0:
36,192,212338,1,0,0:0:0:0:
475,192,212338,1,0,0:0:0:0:
256,192,212338,1,0,0:0:0:0:
182,192,212463,1,0,0:0:0:0:
329,192,212463,1,0,0:0:0:0:
109,192,212588,1,0,0:0:0:0:
36,192,212588,1,0,0:0:0:0:
256,192,212588,1,0,0:0:0:0:
475,192,212588,1,0,0:0:0:0:
109,192,212838,1,0,0:0:0:0:
475,192,212838,1,0,0:0:0:0:
36,192,212838,1,0,0:0:0:0:
402,192,212838,1,0,0:0:0:0:
182,192,212963,1,0,0:0:0:0:
329,192,212963,1,0,0:0:0:0:
109,192,213088,1,0,0:0:0:0:
36,192,213088,1,0,0:0:0:0:
402,192,213088,1,0,0:0:0:0:
475,192,213088,1,0,0:0:0:0:
256,192,213088,1,0,0:0:0:0:
256,192,213338,128,0,213588:0:0:0:0:
182,192,213588,1,0,0:0:0:0:
36,192,213588,1,0,0:0:0:0:
329,192,213588,1,0,0:0:0:0:
402,192,213588,1,0,0:0:0:0:
256,192,213838,128,0,214088:0:0:0:0:
109,192,214088,1,0,0:0:0:0:
36,192,214088,1,0,0:0:0:0:
475,192,214088,1,0,0:0:0:0:
402,192,214088,1,0,0:0:0:0:
182,192,214213,1,0,0:0:0:0:
329,192,214213,1,0,0:0:0:0:
109,192,214338,1,0,0:0:0:0:
36,192,214338,1,0,0:0:0:0:
402,192,214338,1,0,0:0:0:0:
475,192,214338,1,0,0:0:0:0:
182,192,214463,1,0,0:0:0:0:
329,192,214463,1,0,0:0:0:0:
109,192,214588,1,0,0:0:0:0:
36,192,214588,1,0,0:0:0:0:
402,192,214588,1,0,0:0:0:0:
475,192,214588,1,0,0:0:0:0:
402,192,214838,1,0,0:0:0:0:
329,192,214838,1,0,0:0:0:0:
36,192,214838,1,0,0:0:0:0:
109,192,214838,1,0,0:0:0:0:
182,192,214963,1,0,0:0:0:0:
256,192,214963,1,0,0:0:0:0:
402,192,215088,1,0,0:0:0:0:
475,192,215088,1,0,0:0:0:0:
329,192,215088,1,0,0:0:0:0:
109,192,215088,1,0,0:0:0:0:
36,192,215088,1,0,0:0:0:0:
256,192,215338,128,0,215588:0:0:0:0:
182,192,215588,1,0,0:0:0:0:
36,192,215588,1,0,0:0:0:0:
109,192,215588,1,0,0:0:0:0:
329,192,215588,1,0,0:0:0:0:
256,192,215838,128,0,216088:0:0:0:0:
329,192,215963,1,0,0:0:0:0:
36,192,216088,1,0,0:0:0:0:
109,192,216088,1,0,0:0:0:0:
402,192,216088,1,0,0:0:0:0:
475,192,216088,1,0,0:0:0:0:
182,192,216213,1,0,0:0:0:0:
256,192,216213,1,0,0:0:0:0:
329,192,216338,1,0,0:0:0:0:
402,192,216338,1,0,0:0:0:0:
109,192,216338,1,0,0:0:0:0:
36,192,216338,1,0,0:0:0:0:
256,192,216463,1,0,0:0:0:0:
182,192,216463,1,0,0:0:0:0:
109,192,216588,1,0,0:0:0:0:
36,192,216588,1,0,0:0:0:0:
402,192,216588,1,0,0:0:0:0:
475,192,216588,1,0,0:0:0:0:
329,192,216838,1,0,0:0:0:0:
475,192,216838,1,0,0:0:0:0:
36,192,216838,1,0,0:0:0:0:
182,192,216838,1,0,0:0:0:0:
109,192,216963,1,0,0:0:0:0:
402,192,216963,1,0,0:0:0:0:
329,192,217088,1,0,0:0:0:0:
475,192,217088,1,0,0:0:0:0:
182,192,217088,1,0,0:0:0:0:
36,192,217088,1,0,0:0:0:0:
256,192,217088,1,0,0:0:0:0:
256,192,217338,128,0,217588:0:0:0:0:
109,192,217588,1,0,0:0:0:0:
329,192,217588,1,0,0:0:0:0:
475,192,217588,1,0,0:0:0:0:
256,192,217838,128,0,218088:0:0:0:0:
402,192,218088,1,0,0:0:0:0:
475,192,218088,1,0,0:0:0:0:
182,192,218088,1,0,0:0:0:0:
36,192,218088,1,0,0:0:0:0:
256,192,218213,1,0,0:0:0:0:
329,192,218213,1,0,0:0:0:0:
182,192,218338,1,0,0:0:0:0:
36,192,218338,1,0,0:0:0:0:
402,192,218338,1,0,0:0:0:0:
475,192,218338,1,0,0:0:0:0:
256,192,218463,1,0,0:0:0:0:
329,192,218463,1,0,0:0:0:0:
182,192,218588,1,0,0:0:0:0:
36,192,218588,1,0,0:0:0:0:
475,192,218588,1,0,0:0:0:0:
402,192,218588,1,0,0:0:0:0:
109,192,218838,1,0,0:0:0:0:
36,192,218838,1,0,0:0:0:0:
475,192,218838,1,0,0:0:0:0:
402,192,218838,1,0,0:0:0:0:
182,192,218963,1,0,0:0:0:0:
329,192,218963,1,0,0:0:0:0:
36,192,219088,1,0,0:0:0:0:
109,192,219088,1,0,0:0:0:0:
402,192,219088,1,0,0:0:0:0:
475,192,219088,1,0,0:0:0:0:
256,192,219088,1,0,0:0:0:0:
256,192,219338,128,0,219588:0:0:0:0:
109,192,219588,1,0,0:0:0:0:
182,192,219588,1,0,0:0:0:0:
402,192,219588,1,0,0:0:0:0:
475,192,219588,1,0,0:0:0:0:
256,192,219838,128,0,220088:0:0:0:0:
36,192,220088,1,0,0:0:0:0:
109,192,220088,1,0,0:0:0:0:
182,192,220088,1,0,0:0:0:0:
329,192,220088,1,0,0:0:0:0:
475,192,220088,1,0,0:0:0:0:
329,192,220213,1,0,0:0:0:0:
475,192,220213,1,0,0:0:0:0:
36,192,220338,1,0,0:0:0:0:
182,192,220338,1,0,0:0:0:0:
256,192,220338,1,0,0:0:0:0:
36,192,220463,1,0,0:0:0:0:
182,192,220463,1,0,0:0:0:0:
109,192,220588,1,0,0:0:0:0:
329,192,220588,1,0,0:0:0:0:
402,192,220588,1,0,0:0:0:0:
475,192,220588,1,0,0:0:0:0:
256,192,220588,1,0,0:0:0:0:
182,192,220838,1,0,0:0:0:0:
329,192,220838,1,0,0:0:0:0:
36,192,220838,1,0,0:0:0:0:
402,192,220838,1,0,0:0:0:0:
329,192,220963,1,0,0:0:0:0:
402,192,220963,1,0,0:0:0:0:
329,192,221088,1,0,0:0:0:0:
402,192,221088,1,0,0:0:0:0:
475,192,221088,1,0,0:0:0:0:
182,192,221088,1,0,0:0:0:0:
109,192,221088,1,0,0:0:0:0:
36,192,221088,1,0,0:0:0:0:
256,192,221338,128,0,221588:0:0:0:0:
36,192,221588,1,0,0:0:0:0:
182,192,221588,1,0,0:0:0:0:
329,192,221588,1,0,0:0:0:0:
475,192,221588,1,0,0:0:0:0:
256,192,221838,128,0,222088:0:0:0:0:
475,192,222088,1,0,0:0:0:0:
402,192,222088,1,0,0:0:0:0:
329,192,222088,1,0,0:0:0:0:
182,192,222088,1,0,0:0:0:0:
36,192,222088,1,0,0:0:0:0:
182,192,222213,1,0,0:0:0:0:
36,192,222213,1,0,0:0:0:0:
475,192,222338,1,0,0:0:0:0:
329,192,222338,1,0,0:0:0:0:
256,192,222338,1,0,0:0:0:0:
475,192,222463,1,0,0:0:0:0:
329,192,222463,1,0,0:0:0:0:
402,192,222588,1,0,0:0:0:0:
182,192,222588,1,0,0:0:0:0:
109,192,222588,1,0,0:0:0:0:
36,192,222588,1,0,0:0:0:0:
256,192,222588,1,0,0:0:0:0:
329,192,222838,1,0,0:0:0:0:
182,192,222838,1,0,0:0:0:0:
475,192,222838,1,0,0:0:0:0:
109,192,222838,1,0,0:0:0:0:
109,192,222963,1,0,0:0:0:0:
182,192,222963,1,0,0:0:0:0:
182,192,223088,1,0,0:0:0:0:
109,192,223088,1,0,0:0:0:0:
36,192,223088,1,0,0:0:0:0:
329,192,223088,1,0,0:0:0:0:
402,192,223088,1,0,0:0:0:0:
475,192,223088,1,0,0:0:0:0:
256,192,223338,128,0,223588:0:0:0:0:
182,192,223588,1,0,0:0:0:0:
36,192,223588,1,0,0:0:0:0:
329,192,223588,1,0,0:0:0:0:
475,192,223588,1,0,0:0:0:0:
256,192,223838,1,0,0:0:0:0:
36,192,224088,128,0,227213:0:0:0:0:
475,192,224088,128,0,227213:0:0:0:0:
109,192,224088,1,0,0:0:0:0:
182,192,224088,1,0,0:0:0:0:
329,192,224088,1,0,0:0:0:0:
402,192,224088,1,0,0:0:0:0:
109,192,224213,1,0,0:0:0:0:
182,192,224213,1,0,0:0:0:0:
402,192,224338,1,0,0:0:0:0:
256,192,224338,1,0,0:0:0:0:
402,192,224463,1,0,0:0:0:0:
256,192,224463,1,0,0:0:0:0:
182,192,224588,1,0,0:0:0:0:
109,192,224588,1,0,0:0:0:0:
329,192,224588,1,0,0:0:0:0:
109,192,224838,1,0,0:0:0:0:
329,192,224838,1,0,0:0:0:0:
109,192,224963,1,0,0:0:0:0:
329,192,224963,1,0,0:0:0:0:
109,192,225088,128,0,225213:0:0:0:0:
182,192,225088,128,0,225213:0:0:0:0:
256,192,225088,128,0,225213:0:0:0:0:
402,192,225088,128,0,225213:0:0:0:0:
182,192,225338,1,0,0:0:0:0:
402,192,225338,1,0,0:0:0:0:
109,192,225588,1,0,0:0:0:0:
182,192,225588,1,0,0:0:0:0:
329,192,225588,1,0,0:0:0:0:
402,192,225588,1,0,0:0:0:0:
109,192,225838,1,0,0:0:0:0:
329,192,225838,1,0,0:0:0:0:
109,192,226088,1,0,0:0:0:0:
329,192,226088,1,0,0:0:0:0:
402,192,226088,1,0,0:0:0:0:
182,192,226088,1,0,0:0:0:0:
402,192,226213,1,0,0:0:0:0:
329,192,226213,1,0,0:0:0:0:
109,192,226338,1,0,0:0:0:0:
182,192,226338,1,0,0:0:0:0:
109,192,226463,1,0,0:0:0:0:
182,192,226463,1,0,0:0:0:0:
402,192,226588,1,0,0:0:0:0:
329,192,226588,1,0,0:0:0:0:
256,192,226588,1,0,0:0:0:0:
182,192,226838,1,0,0:0:0:0:
329,192,226838,1,0,0:0:0:0:
182,192,226963,1,0,0:0:0:0:
329,192,226963,1,0,0:0:0:0:
109,192,227088,128,0,227213:0:0:0:0:
182,192,227088,128,0,227213:0:0:0:0:
256,192,227088,128,0,227213:0:0:0:0:
329,192,227088,128,0,227213:0:0:0:0:
402,192,227088,128,0,227213:0:0:0:0:
256,192,227338,1,0,0:0:0:0:
182,192,227588,1,0,0:0:0:0:
329,192,227588,1,0,0:0:0:0:
402,192,227588,1,0,0:0:0:0:
475,192,227588,1,0,0:0:0:0:
256,192,227838,1,0,0:0:0:0:
36,192,228088,1,0,0:0:0:0:
182,192,228088,1,0,0:0:0:0:
475,192,228088,1,0,0:0:0:0:
329,192,228150,1,0,0:0:0:0:
256,192,228588,1,0,0:0:0:0:
329,192,229088,1,0,0:0:0:0:
475,192,229588,1,0,0:0:0:0:
36,192,229588,1,0,0:0:0:0:
109,192,230088,1,0,0:0:0:0:
329,192,230088,1,0,0:0:0:0:
182,192,230150,1,0,0:0:0:0:
256,192,230588,1,0,0:0:0:0:
329,192,231088,1,0,0:0:0:0:
182,192,231588,1,0,0:0:0:0:
256,192,231588,1,0,0:0:0:0:
36,192,232088,1,0,0:0:0:0:
329,192,232088,1,0,0:0:0:0:
182,192,232150,1,0,0:0:0:0:
256,192,232588,1,0,0:0:0:0:
329,192,233088,1,0,0:0:0:0:
402,192,233588,1,0,0:0:0:0:
475,192,234088,128,0,235131:0:0:0:0:
36,192,235131,1,0,0:0:0:0:
256,192,235131,1,0,0:0:0:0:
109,192,235653,1,0,0:0:0:0:
329,192,235653,1,0,0:0:0:0:
182,192,236188,1,0,0:0:0:0:
475,192,236188,1,0,0:0:0:0:
402,192,236255,1,0,0:0:0:0:
256,192,236724,1,0,0:0:0:0:
329,192,237300,1,0,0:0:0:0:
475,192,237900,1,0,0:0:0:0:
182,192,237900,1,0,0:0:0:0:
109,192,238566,1,0,0:0:0:0:
402,192,238566,1,0,0:0:0:0:
329,192,238653,1,0,0:0:0:0:
182,192,239263,1,0,0:0:0:0:
256,192,239994,1,0,0:0:0:0:
182,192,240744,1,0,0:0:0:0:
329,192,240744,1,0,0:0:0:0:
36,192,242827,128,0,245715:0:0:0:0:
182,192,242827,1,0,0:0:0:0:
256,192,242966,1,0,0:0:0:0:
329,192,243013,1,0,0:0:0:0:
402,192,243059,1,0,0:0:0:0:
475,192,243106,128,0,245715:0:0:0:0:
36,192,245808,128,0,248751:0:0:0:0:
182,192,245950,1,0,0:0:0:0:
256,192,245997,1,0,0:0:0:0:
329,192,246045,1,0,0:0:0:0:
402,192,246092,128,0,248751:0:0:0:0:
36,192,248845,128,0,252341:0:0:0:0:
109,192,248957,1,0,0:0:0:0:
182,192,249014,1,0,0:0:0:0:
256,192,249070,1,0,0:0:0:0:
329,192,249126,1,0,0:0:0:0:
402,192,249183,128,0,252341:0:0:0:0:
182,192,250649,128,0,252341:0:0:0:0:
36,192,252454,128,0,256681:0:0:0:0:
182,192,252579,1,0,0:0:0:0:
256,192,252641,1,0,0:0:0:0:
329,192,252704,1,0,0:0:0:0:
402,192,252766,1,0,0:0:0:0:
475,192,252829,128,0,256681:0:0:0:0:
256,192,254454,128,0,256681:0:0:0:0:
109,192,256830,128,0,259877:0:0:0:0:
182,192,256940,1,0,0:0:0:0:
256,192,256995,1,0,0:0:0:0:
329,192,257105,1,0,0:0:0:0:
402,192,257271,128,0,259877:0:0:0:0:
475,192,258594,128,0,259877:0:0:0:0:
36,192,259427,128,0,259877:0:0:0:0:
36,192,260027,128,0,264012:0:0:0:0:
182,192,260171,1,0,0:0:0:0:
256,192,260244,1,0,0:0:0:0:
329,192,260316,1,0,0:0:0:0:
402,192,260389,128,0,264012:0:0:0:0:
475,192,261766,128,0,264012:0:0:0:0:
109,192,262703,1,0,0:0:0:0:
182,192,262822,128,0,264012:0:0:0:0:
36,192,264131,128,0,269726:0:0:0:0:
182,192,264281,1,0,0:0:0:0:
256,192,264331,1,0,0:0:0:0:
329,192,264397,1,0,0:0:0:0:
402,192,264531,1,0,0:0:0:0:
475,192,264664,128,0,265597:0:0:0:0:
475,192,265731,1,0,0:0:0:0:
402,192,266481,1,0,0:0:0:0:
329,192,267099,1,0,0:0:0:0:
256,192,267560,1,0,0:0:0:0:
182,192,268226,128,0,269726:0:0:0:0:
36,192,269826,128,0,279175:0:0:0:0:
182,192,270013,1,0,0:0:0:0:
256,192,270107,1,0,0:0:0:0:
402,192,270294,128,0,273762:0:0:0:0:
182,192,270544,1,0,0:0:0:0:
256,192,270888,1,0,0:0:0:0:
329,192,271233,1,0,0:0:0:0:
475,192,271578,1,0,0:0:0:0:
109,192,271923,1,0,0:0:0:0:
182,192,272268,1,0,0:0:0:0:
256,192,272785,1,0,0:0:0:0:
402,192,273877,1,0,0:0:0:0:
475,192,273992,128,0,279175:0:0:0:0:
256,192,275915,128,0,279175:0:0:0:0:
36,192,279393,128,0,288768:0:0:0:0:
402,192,279393,128,0,288768:0:0:0:0:
182,192,279439,128,0,288768:0:0:0:0:
