osu file format v14

[General]
AudioFilename: audio.mp3
AudioLeadIn: 0
PreviewTime: 51321
Countdown: 0
SampleSet: Soft
StackLeniency: 0.7
Mode: 3
LetterboxInBreaks: 0
SpecialStyle: 0
WidescreenStoryboard: 1

[Editor]
DistanceSpacing: 0.8
BeatDivisor: 4
GridSize: 16
TimelineZoom: 1.3

[Metadata]
Title:Enter The Fire
TitleUnicode:Enter The Fire
Artist:Yooh
ArtistUnicode:Yooh
Creator:Shima Rin
Version:EXHAUST
Source:SOUND VOLTEX EXCEED GEAR
Tags:Tofu1222 SDVX 6 VI BEMANI Electronic EDM Video Game Instrumental
BeatmapID:2999753
BeatmapSetID:1459163

[Difficulty]
HPDrainRate:7.5
CircleSize:4
OverallDifficulty:7.5
ApproachRate:5
SliderMultiplier:1.4
SliderTickRate:1

[Events]
//Background and Video events
0,0,"BG.jpg",0,0
//Break Periods
//Storyboard Layer 0 (Background)
//Storyboard Layer 1 (Fail)
//Storyboard Layer 2 (Pass)
//Storyboard Layer 3 (Foreground)
//Storyboard Layer 4 (Overlay)
//Storyboard Sound Samples

[TimingPoints]
0,428.571428571429,4,2,1,50,1,0
51428,-100,4,2,1,50,0,1
78857,-100,4,2,1,50,0,0
92571,-100,4,2,1,50,0,1
120000,-100,4,2,1,50,0,0

[HitObjects]
64,192,1714,5,4,0:0:0:0:
448,192,1714,1,0,0:0:0:0:
192,192,1928,1,0,0:0:0:0:
320,192,2142,1,0,0:0:0:0:
448,192,2357,1,0,0:0:0:0:
64,192,2571,1,0,0:0:0:0:
192,192,2571,1,0,0:0:0:0:
320,192,2678,1,0,0:0:0:0:
64,192,2785,1,0,0:0:0:0:
320,192,3000,1,0,0:0:0:0:
448,192,3000,1,0,0:0:0:0:
192,192,3107,1,0,0:0:0:0:
64,192,3214,1,0,0:0:0:0:
320,192,3321,1,0,0:0:0:0:
64,192,3428,1,2,0:0:0:0:
192,192,3428,1,4,0:0:0:0:
448,192,3428,1,0,0:0:0:0:
448,192,3642,1,0,0:0:0:0:
192,192,3857,1,2,0:0:0:0:
320,192,3857,1,0,0:0:0:0:
64,192,4071,1,0,0:0:0:0:
192,192,4178,1,0,0:0:0:0:
320,192,4285,1,2,0:0:0:0:
448,192,4285,1,0,0:0:0:0:
192,192,4500,1,0,0:0:0:0:
64,192,4714,1,2,0:0:0:0:
448,192,4714,1,0,0:0:0:0:
320,192,4928,1,0,0:0:0:0:
64,192,5142,1,2,0:0:0:0:
192,192,5142,1,0,0:0:0:0:
320,192,5250,1,0,0:0:0:0:
64,192,5357,128,0,5571:0:0:0:0:
192,192,5571,1,2,0:0:0:0:
320,192,5571,1,0,0:0:0:0:
448,192,5678,1,0,0:0:0:0:
448,192,5892,1,0,0:0:0:0:
64,192,6000,1,2,0:0:0:0:
192,192,6000,1,0,0:0:0:0:
320,192,6107,1,0,0:0:0:0:
64,192,6214,128,0,6428:0:0:0:0:
320,192,6428,1,2,0:0:0:0:
448,192,6428,1,0,0:0:0:0:
192,192,6535,1,0,0:0:0:0:
448,192,6642,128,0,6857:0:0:0:0:
64,192,6857,1,2,0:0:0:0:
192,192,6857,1,0,0:0:0:0:
448,192,7071,1,0,0:0:0:0:
192,192,7285,1,2,0:0:0:0:
320,192,7285,1,0,0:0:0:0:
64,192,7500,1,0,0:0:0:0:
192,192,7607,1,0,0:0:0:0:
320,192,7714,1,2,0:0:0:0:
448,192,7714,1,0,0:0:0:0:
64,192,7928,1,0,0:0:0:0:
192,192,8142,1,2,0:0:0:0:
320,192,8142,1,0,0:0:0:0:
448,192,8357,1,0,0:0:0:0:
64,192,8571,1,2,0:0:0:0:
192,192,8571,1,0,0:0:0:0:
320,192,8678,1,0,0:0:0:0:
64,192,8785,128,0,9000:0:0:0:0:
320,192,9000,1,2,0:0:0:0:
448,192,9000,1,0,0:0:0:0:
192,192,9107,1,0,0:0:0:0:
448,192,9214,128,0,9428:0:0:0:0:
192,192,9428,1,2,0:0:0:0:
320,192,9428,1,0,0:0:0:0:
320,192,9642,128,0,9857:0:0:0:0:
64,192,9857,1,2,0:0:0:0:
192,192,9857,1,0,0:0:0:0:
448,192,9964,1,0,0:0:0:0:
64,192,10071,1,2,0:0:0:0:
192,192,10071,1,0,0:0:0:0:
320,192,10178,1,0,0:0:0:0:
64,192,10285,1,2,0:0:0:0:
192,192,10285,1,0,0:0:0:0:
448,192,10500,1,0,0:0:0:0:
64,192,10714,1,2,0:0:0:0:
320,192,10714,1,8,0:0:0:0:
192,192,10928,1,0,0:0:0:0:
320,192,11035,1,0,0:0:0:0:
64,192,11142,1,2,0:0:0:0:
448,192,11142,1,0,0:0:0:0:
192,192,11357,1,0,0:0:0:0:
320,192,11571,1,8,0:0:0:0:
448,192,11571,1,2,0:0:0:0:
192,192,11785,1,0,0:0:0:0:
64,192,12000,1,2,0:0:0:0:
320,192,12000,1,0,0:0:0:0:
192,192,12107,1,0,0:0:0:0:
64,192,12214,128,0,12428:0:0:0:0:
192,192,12428,1,2,0:0:0:0:
320,192,12428,1,8,0:0:0:0:
448,192,12535,1,0,0:0:0:0:
448,192,12750,1,0,0:0:0:0:
64,192,12857,1,2,0:0:0:0:
320,192,12857,1,0,0:0:0:0:
192,192,12964,1,0,0:0:0:0:
64,192,13071,128,0,13285:0:0:0:0:
192,192,13285,1,2,0:0:0:0:
448,192,13285,1,8,0:0:0:0:
320,192,13392,1,0,0:0:0:0:
448,192,13500,128,0,13714:0:0:0:0:
64,192,13714,1,2,0:0:0:0:
192,192,13714,1,0,0:0:0:0:
448,192,13928,1,0,0:0:0:0:
64,192,14142,1,8,0:0:0:0:
320,192,14142,1,2,0:0:0:0:
192,192,14357,1,0,0:0:0:0:
320,192,14464,1,0,0:0:0:0:
64,192,14571,1,2,0:0:0:0:
448,192,14571,1,0,0:0:0:0:
192,192,14785,1,0,0:0:0:0:
320,192,15000,1,8,0:0:0:0:
448,192,15000,1,2,0:0:0:0:
192,192,15214,1,0,0:0:0:0:
64,192,15428,1,2,0:0:0:0:
320,192,15428,1,0,0:0:0:0:
448,192,15428,1,0,0:0:0:0:
64,192,15642,1,0,0:0:0:0:
192,192,15857,1,2,0:0:0:0:
320,192,15857,1,0,0:0:0:0:
448,192,15857,1,0,0:0:0:0:
448,192,16071,1,0,0:0:0:0:
64,192,16285,1,2,0:0:0:0:
192,192,16285,1,0,0:0:0:0:
320,192,16285,1,0,0:0:0:0:
192,192,16500,1,0,0:0:0:0:
64,192,16714,1,8,0:0:0:0:
320,192,16714,1,0,0:0:0:0:
448,192,16714,1,0,0:0:0:0:
320,192,16928,1,0,0:0:0:0:
64,192,17142,1,2,0:0:0:0:
192,192,17142,1,4,0:0:0:0:
448,192,17142,1,0,0:0:0:0:
320,192,17357,1,0,0:0:0:0:
64,192,17571,1,2,0:0:0:0:
448,192,17571,1,8,0:0:0:0:
320,192,17785,1,0,0:0:0:0:
192,192,17892,1,0,0:0:0:0:
64,192,18000,1,2,0:0:0:0:
320,192,18000,1,0,0:0:0:0:
192,192,18214,1,0,0:0:0:0:
320,192,18321,1,0,0:0:0:0:
192,192,18428,1,2,0:0:0:0:
448,192,18428,1,8,0:0:0:0:
64,192,18642,1,0,0:0:0:0:
320,192,18857,1,2,0:0:0:0:
448,192,18857,1,0,0:0:0:0:
192,192,19071,1,0,0:0:0:0:
64,192,19285,1,2,0:0:0:0:
320,192,19285,1,8,0:0:0:0:
192,192,19500,1,0,0:0:0:0:
320,192,19714,1,2,0:0:0:0:
448,192,19714,1,0,0:0:0:0:
192,192,19928,1,0,0:0:0:0:
64,192,20142,1,2,0:0:0:0:
320,192,20142,1,8,0:0:0:0:
448,192,20357,1,0,0:0:0:0:
64,192,20571,1,2,0:0:0:0:
192,192,20571,1,0,0:0:0:0:
320,192,20785,1,0,0:0:0:0:
64,192,21000,1,8,0:0:0:0:
448,192,21000,1,2,0:0:0:0:
192,192,21214,1,0,0:0:0:0:
320,192,21321,1,0,0:0:0:0:
64,192,21428,1,2,0:0:0:0:
448,192,21428,1,0,0:0:0:0:
192,192,21642,1,0,0:0:0:0:
320,192,21857,1,8,0:0:0:0:
448,192,21857,1,2,0:0:0:0:
192,192,22071,1,0,0:0:0:0:
64,192,22285,1,2,0:0:0:0:
448,192,22285,1,0,0:0:0:0:
320,192,22500,1,0,0:0:0:0:
64,192,22714,1,2,0:0:0:0:
192,192,22714,1,8,0:0:0:0:
448,192,22928,1,0,0:0:0:0:
320,192,23035,1,0,0:0:0:0:
64,192,23142,1,2,0:0:0:0:
448,192,23142,1,0,0:0:0:0:
192,192,23357,1,0,0:0:0:0:
320,192,23571,1,2,0:0:0:0:
448,192,23571,1,0,0:0:0:0:
64,192,23678,1,0,0:0:0:0:
320,192,23785,1,2,0:0:0:0:
448,192,23785,1,0,0:0:0:0:
192,192,23892,1,0,0:0:0:0:
320,192,24000,1,2,0:0:0:0:
448,192,24000,1,8,0:0:0:0:
192,192,24214,1,0,0:0:0:0:
64,192,24428,1,2,0:0:0:0:
448,192,24428,1,8,0:0:0:0:
192,192,24642,1,0,0:0:0:0:
320,192,24750,1,0,0:0:0:0:
192,192,24857,1,2,0:0:0:0:
448,192,24857,1,8,0:0:0:0:
320,192,25071,1,0,0:0:0:0:
192,192,25178,1,0,0:0:0:0:
64,192,25285,1,2,0:0:0:0:
320,192,25285,1,8,0:0:0:0:
448,192,25500,1,0,0:0:0:0:
64,192,25714,1,2,0:0:0:0:
192,192,25714,1,8,0:0:0:0:
320,192,25928,1,0,0:0:0:0:
192,192,26142,1,2,0:0:0:0:
448,192,26142,1,8,0:0:0:0:
320,192,26357,1,0,0:0:0:0:
64,192,26571,1,2,0:0:0:0:
192,192,26571,1,8,0:0:0:0:
320,192,26785,1,0,0:0:0:0:
192,192,27000,1,2,0:0:0:0:
448,192,27000,1,8,0:0:0:0:
64,192,27214,1,0,0:0:0:0:
192,192,27428,1,2,0:0:0:0:
320,192,27428,1,4,0:0:0:0:
448,192,27428,1,0,0:0:0:0:
448,192,27642,1,0,0:0:0:0:
320,192,27750,1,0,0:0:0:0:
64,192,27857,1,0,0:0:0:0:
192,192,27857,1,0,0:0:0:0:
64,192,28071,1,0,0:0:0:0:
192,192,28285,1,2,0:0:0:0:
320,192,28285,1,4,0:0:0:0:
448,192,28285,1,0,0:0:0:0:
448,192,28500,1,0,0:0:0:0:
320,192,28607,1,0,0:0:0:0:
64,192,28714,1,2,0:0:0:0:
192,192,28714,1,0,0:0:0:0:
320,192,28821,1,2,0:0:0:0:
448,192,28821,1,0,0:0:0:0:
64,192,28928,1,2,0:0:0:0:
192,192,28928,1,0,0:0:0:0:
320,192,29035,1,2,0:0:0:0:
448,192,29035,1,0,0:0:0:0:
64,192,29142,1,2,0:0:0:0:
192,192,29142,1,0,0:0:0:0:
320,192,29357,1,0,0:0:0:0:
192,192,29571,1,0,0:0:0:0:
320,192,29785,1,0,0:0:0:0:
192,192,29892,1,0,0:0:0:0:
448,192,30000,1,0,0:0:0:0:
320,192,30214,1,0,0:0:0:0:
64,192,30428,1,8,0:0:0:0:
192,192,30428,128,0,30857:0:0:0:0:
64,192,30857,1,2,0:0:0:0:
320,192,30857,1,4,0:0:0:0:
448,192,30857,1,0,0:0:0:0:
192,192,31178,1,0,0:0:0:0:
448,192,31500,1,0,0:0:0:0:
64,192,31714,1,0,0:0:0:0:
320,192,32142,1,0,0:0:0:0:
192,192,32250,1,0,0:0:0:0:
64,192,32357,1,0,0:0:0:0:
320,192,32464,1,0,0:0:0:0:
448,192,32571,1,0,0:0:0:0:
64,192,32892,1,0,0:0:0:0:
320,192,33214,1,0,0:0:0:0:
192,192,33428,1,0,0:0:0:0:
448,192,33857,1,0,0:0:0:0:
320,192,33964,1,0,0:0:0:0:
64,192,34071,1,0,0:0:0:0:
192,192,34178,1,0,0:0:0:0:
320,192,34285,1,0,0:0:0:0:
192,192,34607,1,0,0:0:0:0:
448,192,34928,1,0,0:0:0:0:
320,192,35142,1,0,0:0:0:0:
192,192,35464,1,0,0:0:0:0:
64,192,35785,1,0,0:0:0:0:
64,192,36000,1,0,0:0:0:0:
320,192,36321,1,0,0:0:0:0:
448,192,36642,1,0,0:0:0:0:
192,192,36857,128,0,37285:0:0:0:0:
448,192,37285,1,0,0:0:0:0:
320,192,37392,1,0,0:0:0:0:
64,192,37500,1,0,0:0:0:0:
192,192,37607,1,0,0:0:0:0:
320,192,37714,1,0,0:0:0:0:
64,192,37928,1,0,0:0:0:0:
192,192,38035,1,0,0:0:0:0:
320,192,38250,1,0,0:0:0:0:
448,192,38357,1,0,0:0:0:0:
192,192,38464,1,0,0:0:0:0:
64,192,38571,1,0,0:0:0:0:
320,192,39000,1,0,0:0:0:0:
192,192,39107,1,0,0:0:0:0:
64,192,39214,1,0,0:0:0:0:
320,192,39321,1,0,0:0:0:0:
448,192,39428,1,0,0:0:0:0:
192,192,39642,1,0,0:0:0:0:
64,192,39750,1,0,0:0:0:0:
448,192,39964,1,0,0:0:0:0:
320,192,40071,1,0,0:0:0:0:
64,192,40178,1,0,0:0:0:0:
192,192,40285,1,0,0:0:0:0:
448,192,40714,1,0,0:0:0:0:
320,192,40821,1,0,0:0:0:0:
64,192,40928,1,0,0:0:0:0:
192,192,41035,1,0,0:0:0:0:
320,192,41142,1,0,0:0:0:0:
64,192,41357,1,0,0:0:0:0:
448,192,41464,1,0,0:0:0:0:
320,192,41678,1,0,0:0:0:0:
192,192,41785,1,0,0:0:0:0:
64,192,41892,1,0,0:0:0:0:
448,192,42000,1,0,0:0:0:0:
192,192,42214,1,0,0:0:0:0:
320,192,42321,1,0,0:0:0:0:
64,192,42535,1,0,0:0:0:0:
192,192,42642,1,0,0:0:0:0:
320,192,42750,1,0,0:0:0:0:
64,192,42857,1,2,0:0:0:0:
192,192,42857,1,4,0:0:0:0:
448,192,42857,1,0,0:0:0:0:
64,192,43178,1,2,0:0:0:0:
192,192,43178,1,4,0:0:0:0:
320,192,43178,1,0,0:0:0:0:
192,192,43500,1,2,0:0:0:0:
320,192,43500,1,4,0:0:0:0:
448,192,43500,1,0,0:0:0:0:
64,192,43714,1,4,0:0:0:0:
320,192,43714,128,2,44035:0:0:0:0:
448,192,43714,128,0,44035:0:0:0:0:
320,192,44142,1,0,0:0:0:0:
448,192,44142,1,0,0:0:0:0:
192,192,44250,1,0,0:0:0:0:
320,192,44357,1,0,0:0:0:0:
192,192,44464,1,0,0:0:0:0:
64,192,44571,1,2,0:0:0:0:
448,192,44571,1,4,0:0:0:0:
320,192,44892,1,2,0:0:0:0:
448,192,44892,1,0,0:0:0:0:
64,192,45000,1,8,0:0:0:0:
192,192,45000,1,0,0:0:0:0:
320,192,45214,1,2,0:0:0:0:
448,192,45214,1,0,0:0:0:0:
192,192,45321,1,0,0:0:0:0:
64,192,45428,1,2,0:0:0:0:
448,192,45428,1,4,0:0:0:0:
64,192,45750,1,2,0:0:0:0:
192,192,45750,1,0,0:0:0:0:
320,192,45857,1,8,0:0:0:0:
448,192,45857,1,0,0:0:0:0:
64,192,46071,1,2,0:0:0:0:
192,192,46071,1,0,0:0:0:0:
320,192,46178,1,8,0:0:0:0:
64,192,46285,1,2,0:0:0:0:
448,192,46285,1,4,0:0:0:0:
320,192,46607,1,2,0:0:0:0:
448,192,46607,1,0,0:0:0:0:
64,192,46714,1,8,0:0:0:0:
192,192,46714,1,4,0:0:0:0:
320,192,46928,1,2,0:0:0:0:
448,192,46928,1,0,0:0:0:0:
192,192,47035,1,8,0:0:0:0:
64,192,47142,1,2,0:0:0:0:
320,192,47142,1,4,0:0:0:0:
192,192,47357,1,8,0:0:0:0:
448,192,47357,1,0,0:0:0:0:
320,192,47464,1,2,0:0:0:0:
64,192,47571,1,8,0:0:0:0:
192,192,47571,1,0,0:0:0:0:
320,192,47785,1,2,0:0:0:0:
448,192,47785,1,0,0:0:0:0:
64,192,48000,1,2,0:0:0:0:
192,192,48000,1,4,0:0:0:0:
320,192,48107,1,2,0:0:0:0:
64,192,48214,1,2,0:0:0:0:
192,192,48214,1,0,0:0:0:0:
448,192,48321,1,2,0:0:0:0:
64,192,48428,1,2,0:0:0:0:
192,192,48428,1,4,0:0:0:0:
320,192,48535,1,2,0:0:0:0:
64,192,48642,1,2,0:0:0:0:
192,192,48642,1,0,0:0:0:0:
448,192,48750,1,2,0:0:0:0:
64,192,48857,1,2,0:0:0:0:
192,192,48857,1,4,0:0:0:0:
320,192,48964,1,2,0:0:0:0:
448,192,48964,1,0,0:0:0:0:
64,192,49071,1,2,0:0:0:0:
192,192,49071,1,0,0:0:0:0:
320,192,49178,1,2,0:0:0:0:
448,192,49178,1,0,0:0:0:0:
192,192,49285,1,2,0:0:0:0:
320,192,49392,1,2,0:0:0:0:
192,192,49500,1,2,0:0:0:0:
320,192,49607,1,2,0:0:0:0:
64,192,49714,1,0,0:0:0:0:
64,192,49928,1,0,0:0:0:0:
192,192,50142,1,0,0:0:0:0:
192,192,50357,1,0,0:0:0:0:
64,192,50571,1,0,0:0:0:0:
320,192,50571,128,0,51000:0:0:0:0:
64,192,51000,1,8,0:0:0:0:
192,192,51000,1,0,0:0:0:0:
448,192,51000,128,0,51428:0:0:0:0:
64,192,51428,1,2,0:0:0:0:
192,192,51428,128,4,51642:0:0:0:0:
320,192,51428,128,0,51642:0:0:0:0:
64,192,51750,128,0,51964:0:0:0:0:
192,192,51750,128,0,51964:0:0:0:0:
320,192,52071,128,0,52285:0:0:0:0:
448,192,52071,128,0,52285:0:0:0:0:
64,192,52285,1,2,0:0:0:0:
192,192,52285,128,0,52500:0:0:0:0:
448,192,52500,128,0,52714:0:0:0:0:
64,192,52714,1,2,0:0:0:0:
320,192,52714,1,8,0:0:0:0:
192,192,52821,1,0,0:0:0:0:
448,192,52928,1,0,0:0:0:0:
64,192,53035,1,0,0:0:0:0:
192,192,53142,128,2,53357:0:0:0:0:
320,192,53142,128,0,53357:0:0:0:0:
320,192,53464,128,0,53678:0:0:0:0:
448,192,53464,128,0,53678:0:0:0:0:
64,192,53785,128,0,54000:0:0:0:0:
192,192,53785,128,0,54000:0:0:0:0:
320,192,54000,128,2,54214:0:0:0:0:
448,192,54000,1,0,0:0:0:0:
64,192,54214,128,0,54428:0:0:0:0:
192,192,54428,1,2,0:0:0:0:
448,192,54428,1,8,0:0:0:0:
320,192,54535,1,0,0:0:0:0:
64,192,54642,1,0,0:0:0:0:
448,192,54750,1,0,0:0:0:0:
192,192,54857,128,2,55071:0:0:0:0:
320,192,54857,128,0,55071:0:0:0:0:
64,192,55178,128,0,55392:0:0:0:0:
192,192,55178,128,0,55392:0:0:0:0:
320,192,55500,128,0,55714:0:0:0:0:
448,192,55500,128,0,55714:0:0:0:0:
64,192,55714,128,2,55928:0:0:0:0:
192,192,55714,128,0,55928:0:0:0:0:
320,192,56035,128,0,56250:0:0:0:0:
448,192,56035,128,0,56250:0:0:0:0:
192,192,56357,128,0,56571:0:0:0:0:
320,192,56357,128,0,56571:0:0:0:0:
64,192,56571,128,2,56785:0:0:0:0:
448,192,56571,128,0,56785:0:0:0:0:
64,192,56892,128,0,57107:0:0:0:0:
192,192,56892,128,0,57107:0:0:0:0:
320,192,57214,128,0,57428:0:0:0:0:
448,192,57214,128,0,57428:0:0:0:0:
64,192,57428,128,2,57642:0:0:0:0:
192,192,57428,128,0,57642:0:0:0:0:
192,192,57857,1,2,0:0:0:0:
448,192,57857,1,8,0:0:0:0:
320,192,57964,1,0,0:0:0:0:
192,192,58071,1,2,0:0:0:0:
448,192,58071,1,0,0:0:0:0:
64,192,58178,1,0,0:0:0:0:
192,192,58285,128,2,58500:0:0:0:0:
320,192,58285,128,0,58500:0:0:0:0:
64,192,58607,128,0,58821:0:0:0:0:
192,192,58607,128,0,58821:0:0:0:0:
320,192,58928,128,0,59142:0:0:0:0:
448,192,58928,128,0,59142:0:0:0:0:
64,192,59142,1,2,0:0:0:0:
192,192,59142,128,0,59357:0:0:0:0:
448,192,59357,128,0,59571:0:0:0:0:
64,192,59571,1,8,0:0:0:0:
320,192,59571,1,2,0:0:0:0:
192,192,59678,1,0,0:0:0:0:
448,192,59785,1,0,0:0:0:0:
64,192,59892,1,0,0:0:0:0:
192,192,60000,128,2,60214:0:0:0:0:
320,192,60000,128,0,60214:0:0:0:0:
320,192,60321,128,0,60535:0:0:0:0:
448,192,60321,128,0,60535:0:0:0:0:
64,192,60642,128,0,60857:0:0:0:0:
192,192,60642,128,0,60857:0:0:0:0:
320,192,60857,128,2,61071:0:0:0:0:
448,192,60857,1,0,0:0:0:0:
64,192,61071,128,0,61285:0:0:0:0:
192,192,61285,1,2,0:0:0:0:
448,192,61285,1,8,0:0:0:0:
320,192,61392,1,0,0:0:0:0:
64,192,61500,1,0,0:0:0:0:
448,192,61607,1,0,0:0:0:0:
192,192,61714,128,2,61928:0:0:0:0:
320,192,61714,128,0,61928:0:0:0:0:
320,192,62035,128,0,62250:0:0:0:0:
448,192,62035,128,0,62250:0:0:0:0:
64,192,62357,128,0,62571:0:0:0:0:
192,192,62357,128,0,62571:0:0:0:0:
320,192,62571,128,2,62785:0:0:0:0:
448,192,62571,128,0,62785:0:0:0:0:
192,192,62892,128,0,63107:0:0:0:0:
320,192,62892,128,0,63107:0:0:0:0:
64,192,63214,128,0,63428:0:0:0:0:
192,192,63214,128,0,63428:0:0:0:0:
320,192,63428,128,2,63642:0:0:0:0:
448,192,63428,128,0,63642:0:0:0:0:
64,192,63750,128,2,63964:0:0:0:0:
192,192,63750,128,0,63964:0:0:0:0:
192,192,64071,128,2,64285:0:0:0:0:
320,192,64071,128,0,64285:0:0:0:0:
64,192,64285,128,2,64500:0:0:0:0:
448,192,64285,128,0,64500:0:0:0:0:
320,192,64500,1,0,0:0:0:0:
64,192,64714,1,8,0:0:0:0:
448,192,64714,1,0,0:0:0:0:
192,192,65142,1,2,0:0:0:0:
320,192,65142,128,4,65357:0:0:0:0:
448,192,65142,1,0,0:0:0:0:
64,192,65357,1,0,0:0:0:0:
192,192,65464,128,0,65678:0:0:0:0:
320,192,65571,1,8,0:0:0:0:
448,192,65571,1,2,0:0:0:0:
448,192,65785,128,0,66000:0:0:0:0:
64,192,66000,1,2,0:0:0:0:
192,192,66000,1,0,0:0:0:0:
320,192,66107,1,0,0:0:0:0:
448,192,66214,1,0,0:0:0:0:
64,192,66321,1,0,0:0:0:0:
320,192,66428,1,2,0:0:0:0:
448,192,66428,1,8,0:0:0:0:
192,192,66535,1,0,0:0:0:0:
64,192,66642,1,0,0:0:0:0:
448,192,66750,1,0,0:0:0:0:
192,192,66857,128,2,67071:0:0:0:0:
320,192,66857,1,0,0:0:0:0:
448,192,67071,1,0,0:0:0:0:
320,192,67178,128,0,67392:0:0:0:0:
64,192,67285,1,2,0:0:0:0:
192,192,67285,1,8,0:0:0:0:
64,192,67500,128,0,67714:0:0:0:0:
320,192,67714,1,2,0:0:0:0:
448,192,67714,1,0,0:0:0:0:
192,192,67821,1,0,0:0:0:0:
64,192,67928,1,0,0:0:0:0:
448,192,68035,1,0,0:0:0:0:
64,192,68142,1,8,0:0:0:0:
192,192,68142,1,2,0:0:0:0:
320,192,68250,1,0,0:0:0:0:
448,192,68357,1,0,0:0:0:0:
64,192,68464,1,0,0:0:0:0:
192,192,68571,1,2,0:0:0:0:
320,192,68571,128,0,68785:0:0:0:0:
64,192,68785,1,0,0:0:0:0:
192,192,68892,128,0,69107:0:0:0:0:
320,192,69000,1,2,0:0:0:0:
448,192,69000,1,8,0:0:0:0:
64,192,69107,1,0,0:0:0:0:
448,192,69214,128,0,69428:0:0:0:0:
320,192,69321,1,0,0:0:0:0:
64,192,69428,1,2,0:0:0:0:
192,192,69428,128,0,69642:0:0:0:0:
448,192,69642,1,0,0:0:0:0:
320,192,69750,128,0,69964:0:0:0:0:
64,192,69857,1,8,0:0:0:0:
192,192,69857,1,2,0:0:0:0:
448,192,69964,1,0,0:0:0:0:
64,192,70071,128,0,70285:0:0:0:0:
192,192,70178,1,0,0:0:0:0:
320,192,70285,1,2,0:0:0:0:
448,192,70285,128,0,70500:0:0:0:0:
64,192,70500,1,0,0:0:0:0:
192,192,70607,128,0,70821:0:0:0:0:
320,192,70714,1,8,0:0:0:0:
448,192,70714,1,2,0:0:0:0:
64,192,70821,1,0,0:0:0:0:
320,192,70928,128,0,71142:0:0:0:0:
448,192,71035,1,0,0:0:0:0:
64,192,71142,128,2,71357:0:0:0:0:
192,192,71142,1,0,0:0:0:0:
192,192,71571,1,2,0:0:0:0:
448,192,71571,1,8,0:0:0:0:
320,192,71678,1,0,0:0:0:0:
192,192,71785,1,2,0:0:0:0:
448,192,71785,1,0,0:0:0:0:
64,192,71892,1,0,0:0:0:0:
192,192,72000,1,2,0:0:0:0:
320,192,72000,128,0,72214:0:0:0:0:
64,192,72214,1,0,0:0:0:0:
192,192,72321,128,0,72535:0:0:0:0:
320,192,72428,1,8,0:0:0:0:
448,192,72428,1,2,0:0:0:0:
448,192,72642,128,0,72857:0:0:0:0:
64,192,72857,1,2,0:0:0:0:
192,192,72857,1,0,0:0:0:0:
320,192,72964,1,0,0:0:0:0:
448,192,73071,1,0,0:0:0:0:
64,192,73178,1,0,0:0:0:0:
320,192,73285,1,2,0:0:0:0:
448,192,73285,1,8,0:0:0:0:
192,192,73392,1,0,0:0:0:0:
64,192,73500,1,0,0:0:0:0:
448,192,73607,1,0,0:0:0:0:
192,192,73714,128,2,73928:0:0:0:0:
320,192,73714,1,0,0:0:0:0:
448,192,73928,1,0,0:0:0:0:
320,192,74035,128,0,74250:0:0:0:0:
64,192,74142,1,2,0:0:0:0:
192,192,74142,1,8,0:0:0:0:
64,192,74357,128,0,74571:0:0:0:0:
320,192,74571,1,2,0:0:0:0:
448,192,74571,1,0,0:0:0:0:
192,192,74678,1,0,0:0:0:0:
64,192,74785,1,0,0:0:0:0:
448,192,74892,1,0,0:0:0:0:
192,192,75000,1,0,0:0:0:0:
64,192,75000,1,2,0:0:0:0:
320,192,75107,1,0,0:0:0:0:
192,192,75214,1,2,0:0:0:0:
448,192,75214,1,0,0:0:0:0:
64,192,75321,1,0,0:0:0:0:
320,192,75428,1,4,0:0:0:0:
192,192,75428,128,2,75642:0:0:0:0:
448,192,75642,1,0,0:0:0:0:
64,192,75750,1,4,0:0:0:0:
320,192,75750,128,2,75964:0:0:0:0:
192,192,75964,1,0,0:0:0:0:
64,192,76071,1,2,0:0:0:0:
448,192,76071,128,4,76285:0:0:0:0:
192,192,76285,1,4,0:0:0:0:
320,192,76285,128,2,76500:0:0:0:0:
448,192,76500,1,0,0:0:0:0:
64,192,76607,1,2,0:0:0:0:
192,192,76607,128,4,76821:0:0:0:0:
320,192,76821,1,0,0:0:0:0:
64,192,76928,128,2,77142:0:0:0:0:
448,192,76928,1,4,0:0:0:0:
192,192,77142,1,4,0:0:0:0:
320,192,77142,1,2,0:0:0:0:
448,192,77464,1,0,0:0:0:0:
192,192,77571,1,4,0:0:0:0:
320,192,77571,1,2,0:0:0:0:
64,192,77785,1,0,0:0:0:0:
192,192,78000,1,4,0:0:0:0:
320,192,78000,1,0,0:0:0:0:
448,192,78107,1,0,0:0:0:0:
64,192,78214,1,0,0:0:0:0:
192,192,78321,1,0,0:0:0:0:
64,192,78428,1,8,0:0:0:0:
320,192,78428,128,0,78857:0:0:0:0:
448,192,78428,1,0,0:0:0:0:
64,192,78857,1,2,0:0:0:0:
192,192,78857,1,4,0:0:0:0:
448,192,78857,1,0,0:0:0:0:
320,192,79071,1,0,0:0:0:0:
64,192,79285,1,0,0:0:0:0:
192,192,79500,1,0,0:0:0:0:
320,192,79714,1,0,0:0:0:0:
448,192,79928,1,0,0:0:0:0:
192,192,80142,1,0,0:0:0:0:
64,192,80357,1,0,0:0:0:0:
448,192,80571,1,0,0:0:0:0:
192,192,80785,1,0,0:0:0:0:
320,192,81000,1,0,0:0:0:0:
64,192,81214,1,0,0:0:0:0:
448,192,81428,1,0,0:0:0:0:
320,192,81642,1,0,0:0:0:0:
192,192,81857,1,0,0:0:0:0:
64,192,82071,1,0,0:0:0:0:
448,192,82285,1,0,0:0:0:0:
320,192,82500,1,0,0:0:0:0:
64,192,82714,1,0,0:0:0:0:
192,192,82928,1,0,0:0:0:0:
320,192,83142,1,0,0:0:0:0:
448,192,83357,1,0,0:0:0:0:
192,192,83571,1,0,0:0:0:0:
64,192,83785,1,0,0:0:0:0:
448,192,84000,1,0,0:0:0:0:
192,192,84214,1,0,0:0:0:0:
320,192,84428,1,0,0:0:0:0:
64,192,84642,1,0,0:0:0:0:
448,192,84857,1,0,0:0:0:0:
192,192,85071,1,0,0:0:0:0:
320,192,85071,1,0,0:0:0:0:
64,192,85285,1,0,0:0:0:0:
192,192,85392,1,0,0:0:0:0:
320,192,85500,1,0,0:0:0:0:
64,192,85714,1,4,0:0:0:0:
448,192,85714,1,2,0:0:0:0:
192,192,85821,1,0,0:0:0:0:
64,192,85928,1,0,0:0:0:0:
192,192,86035,1,0,0:0:0:0:
320,192,86142,1,0,0:0:0:0:
448,192,86250,1,0,0:0:0:0:
320,192,86357,1,0,0:0:0:0:
448,192,86464,1,0,0:0:0:0:
64,192,86571,1,0,0:0:0:0:
192,192,86678,1,0,0:0:0:0:
64,192,86785,1,0,0:0:0:0:
192,192,86892,1,0,0:0:0:0:
320,192,87000,1,0,0:0:0:0:
448,192,87107,1,0,0:0:0:0:
320,192,87214,1,0,0:0:0:0:
448,192,87321,1,0,0:0:0:0:
64,192,87428,1,2,0:0:0:0:
192,192,87428,1,4,0:0:0:0:
320,192,87535,1,0,0:0:0:0:
64,192,87642,1,0,0:0:0:0:
320,192,87750,1,0,0:0:0:0:
192,192,87857,1,0,0:0:0:0:
448,192,87964,1,0,0:0:0:0:
192,192,88071,1,0,0:0:0:0:
448,192,88178,1,0,0:0:0:0:
64,192,88285,1,0,0:0:0:0:
320,192,88392,1,0,0:0:0:0:
64,192,88500,1,0,0:0:0:0:
320,192,88607,1,0,0:0:0:0:
192,192,88714,1,0,0:0:0:0:
448,192,88821,1,0,0:0:0:0:
192,192,88928,1,0,0:0:0:0:
448,192,89035,1,0,0:0:0:0:
64,192,89142,1,4,0:0:0:0:
320,192,89142,1,2,0:0:0:0:
192,192,89250,1,0,0:0:0:0:
448,192,89357,1,0,0:0:0:0:
320,192,89464,1,0,0:0:0:0:
64,192,89571,128,0,90000:0:0:0:0:
192,192,90000,1,2,0:0:0:0:
448,192,90000,1,4,0:0:0:0:
320,192,90107,1,0,0:0:0:0:
64,192,90214,1,0,0:0:0:0:
192,192,90321,1,0,0:0:0:0:
320,192,90428,1,0,0:0:0:0:
448,192,90571,1,0,0:0:0:0:
320,192,90714,1,0,0:0:0:0:
64,192,90857,1,0,0:0:0:0:
192,192,90964,1,0,0:0:0:0:
320,192,91071,1,0,0:0:0:0:
448,192,91178,1,0,0:0:0:0:
64,192,91285,1,0,0:0:0:0:
192,192,91500,1,0,0:0:0:0:
320,192,91714,128,0,92142:0:0:0:0:
64,192,92142,1,8,0:0:0:0:
192,192,92142,128,0,92571:0:0:0:0:
448,192,92142,1,0,0:0:0:0:
64,192,92571,1,2,0:0:0:0:
320,192,92571,1,4,0:0:0:0:
448,192,92571,1,0,0:0:0:0:
192,192,92678,1,0,0:0:0:0:
320,192,92785,128,0,93000:0:0:0:0:
64,192,93000,1,2,0:0:0:0:
448,192,93000,1,8,0:0:0:0:
192,192,93107,1,0,0:0:0:0:
320,192,93214,1,0,0:0:0:0:
64,192,93428,1,2,0:0:0:0:
192,192,93428,1,0,0:0:0:0:
320,192,93535,128,0,93750:0:0:0:0:
448,192,93535,128,0,93750:0:0:0:0:
320,192,93857,128,2,94071:0:0:0:0:
448,192,93857,128,8,94071:0:0:0:0:
192,192,94071,1,0,0:0:0:0:
64,192,94285,1,2,0:0:0:0:
448,192,94285,1,0,0:0:0:0:
320,192,94392,1,0,0:0:0:0:
192,192,94500,128,0,94714:0:0:0:0:
64,192,94714,1,8,0:0:0:0:
448,192,94714,1,2,0:0:0:0:
320,192,94821,1,0,0:0:0:0:
192,192,94928,1,0,0:0:0:0:
320,192,95142,1,2,0:0:0:0:
448,192,95142,1,0,0:0:0:0:
64,192,95250,128,0,95464:0:0:0:0:
192,192,95250,128,0,95464:0:0:0:0:
320,192,95571,128,8,95785:0:0:0:0:
448,192,95571,128,2,95785:0:0:0:0:
64,192,95785,128,0,96000:0:0:0:0:
192,192,95785,128,0,96000:0:0:0:0:
320,192,96000,1,2,0:0:0:0:
448,192,96000,1,0,0:0:0:0:
64,192,96107,1,0,0:0:0:0:
448,192,96214,1,0,0:0:0:0:
320,192,96321,1,0,0:0:0:0:
64,192,96428,1,2,0:0:0:0:
192,192,96428,1,8,0:0:0:0:
320,192,96642,1,0,0:0:0:0:
64,192,96857,1,2,0:0:0:0:
192,192,96857,1,0,0:0:0:0:
448,192,96964,1,0,0:0:0:0:
64,192,97071,1,0,0:0:0:0:
192,192,97178,1,0,0:0:0:0:
320,192,97285,1,2,0:0:0:0:
448,192,97285,1,8,0:0:0:0:
192,192,97500,1,0,0:0:0:0:
320,192,97714,1,2,0:0:0:0:
448,192,97714,1,0,0:0:0:0:
64,192,97821,1,0,0:0:0:0:
448,192,97928,1,0,0:0:0:0:
320,192,98035,1,0,0:0:0:0:
64,192,98142,1,8,0:0:0:0:
192,192,98142,1,2,0:0:0:0:
320,192,98357,1,0,0:0:0:0:
64,192,98571,1,2,0:0:0:0:
448,192,98571,1,0,0:0:0:0:
192,192,98785,1,0,0:0:0:0:
64,192,99000,1,8,0:0:0:0:
448,192,99000,1,2,0:0:0:0:
64,192,99214,1,2,0:0:0:0:
448,192,99214,1,0,0:0:0:0:
320,192,99321,1,0,0:0:0:0:
64,192,99428,1,2,0:0:0:0:
448,192,99428,1,0,0:0:0:0:
192,192,99535,1,0,0:0:0:0:
320,192,99642,128,0,99857:0:0:0:0:
64,192,99857,1,2,0:0:0:0:
448,192,99857,1,8,0:0:0:0:
192,192,99964,1,0,0:0:0:0:
320,192,100071,1,0,0:0:0:0:
64,192,100285,1,2,0:0:0:0:
192,192,100285,1,0,0:0:0:0:
320,192,100392,128,0,100607:0:0:0:0:
448,192,100392,128,0,100607:0:0:0:0:
320,192,100714,128,2,100928:0:0:0:0:
448,192,100714,128,8,100928:0:0:0:0:
192,192,100928,1,0,0:0:0:0:
64,192,101142,1,2,0:0:0:0:
448,192,101142,1,0,0:0:0:0:
320,192,101250,1,0,0:0:0:0:
192,192,101357,128,0,101571:0:0:0:0:
64,192,101571,1,8,0:0:0:0:
448,192,101571,1,2,0:0:0:0:
320,192,101678,1,0,0:0:0:0:
192,192,101785,1,0,0:0:0:0:
320,192,102000,1,2,0:0:0:0:
448,192,102000,1,0,0:0:0:0:
64,192,102107,128,0,102321:0:0:0:0:
192,192,102107,128,0,102321:0:0:0:0:
320,192,102428,128,8,102642:0:0:0:0:
448,192,102428,128,2,102642:0:0:0:0:
64,192,102642,128,0,102857:0:0:0:0:
192,192,102642,128,0,102857:0:0:0:0:
320,192,102857,1,2,0:0:0:0:
448,192,102857,1,0,0:0:0:0:
192,192,102964,1,0,0:0:0:0:
448,192,103071,1,0,0:0:0:0:
64,192,103285,1,2,0:0:0:0:
320,192,103285,1,8,0:0:0:0:
320,192,103500,1,0,0:0:0:0:
64,192,103714,1,2,0:0:0:0:
192,192,103714,1,0,0:0:0:0:
320,192,103821,1,0,0:0:0:0:
64,192,103928,1,0,0:0:0:0:
192,192,104142,1,2,0:0:0:0:
448,192,104142,1,8,0:0:0:0:
192,192,104357,1,2,0:0:0:0:
320,192,104357,1,0,0:0:0:0:
64,192,104571,1,2,0:0:0:0:
320,192,104571,1,8,0:0:0:0:
448,192,104571,1,0,0:0:0:0:
448,192,104785,1,0,0:0:0:0:
64,192,105000,1,2,0:0:0:0:
192,192,105000,1,8,0:0:0:0:
320,192,105000,1,0,0:0:0:0:
320,192,105214,1,0,0:0:0:0:
64,192,105428,1,2,0:0:0:0:
192,192,105428,1,8,0:0:0:0:
448,192,105428,1,0,0:0:0:0:
64,192,105642,1,0,0:0:0:0:
192,192,105857,1,2,0:0:0:0:
320,192,105857,1,8,0:0:0:0:
448,192,105857,1,0,0:0:0:0:
192,192,106071,1,0,0:0:0:0:
64,192,106285,1,4,0:0:0:0:
320,192,106285,1,2,0:0:0:0:
448,192,106285,1,0,0:0:0:0:
192,192,106392,1,0,0:0:0:0:
320,192,106500,128,0,106714:0:0:0:0:
64,192,106714,1,2,0:0:0:0:
448,192,106714,1,8,0:0:0:0:
192,192,106821,1,0,0:0:0:0:
320,192,106928,1,0,0:0:0:0:
448,192,107035,1,0,0:0:0:0:
64,192,107142,1,2,0:0:0:0:
192,192,107142,1,0,0:0:0:0:
320,192,107250,128,0,107464:0:0:0:0:
448,192,107250,128,0,107464:0:0:0:0:
192,192,107357,1,0,0:0:0:0:
320,192,107571,128,2,107785:0:0:0:0:
448,192,107571,128,8,107785:0:0:0:0:
192,192,107785,1,0,0:0:0:0:
64,192,108000,1,2,0:0:0:0:
448,192,108000,1,0,0:0:0:0:
320,192,108107,1,0,0:0:0:0:
192,192,108214,128,0,108428:0:0:0:0:
64,192,108428,1,8,0:0:0:0:
448,192,108428,1,2,0:0:0:0:
320,192,108535,1,0,0:0:0:0:
192,192,108642,1,0,0:0:0:0:
64,192,108750,1,0,0:0:0:0:
320,192,108857,1,2,0:0:0:0:
448,192,108857,1,0,0:0:0:0:
64,192,108964,128,0,109178:0:0:0:0:
192,192,108964,128,0,109178:0:0:0:0:
320,192,109071,1,0,0:0:0:0:
320,192,109285,128,8,109500:0:0:0:0:
448,192,109285,128,2,109500:0:0:0:0:
64,192,109500,128,0,109714:0:0:0:0:
192,192,109500,128,0,109714:0:0:0:0:
320,192,109714,1,2,0:0:0:0:
448,192,109714,1,0,0:0:0:0:
64,192,109821,1,0,0:0:0:0:
448,192,109928,1,0,0:0:0:0:
320,192,110035,1,0,0:0:0:0:
64,192,110142,1,2,0:0:0:0:
192,192,110142,1,8,0:0:0:0:
320,192,110357,1,0,0:0:0:0:
64,192,110571,1,2,0:0:0:0:
192,192,110571,1,0,0:0:0:0:
448,192,110678,1,0,0:0:0:0:
64,192,110785,1,0,0:0:0:0:
192,192,110892,1,0,0:0:0:0:
320,192,111000,1,2,0:0:0:0:
448,192,111000,1,8,0:0:0:0:
192,192,111214,1,0,0:0:0:0:
320,192,111428,1,2,0:0:0:0:
448,192,111428,1,0,0:0:0:0:
64,192,111535,1,0,0:0:0:0:
448,192,111642,1,0,0:0:0:0:
320,192,111750,1,0,0:0:0:0:
64,192,111857,1,8,0:0:0:0:
192,192,111857,1,2,0:0:0:0:
320,192,112071,1,0,0:0:0:0:
192,192,112178,1,0,0:0:0:0:
64,192,112285,1,2,0:0:0:0:
448,192,112285,1,0,0:0:0:0:
192,192,112500,1,0,0:0:0:0:
64,192,112714,1,2,0:0:0:0:
448,192,112714,1,0,0:0:0:0:
64,192,112928,1,2,0:0:0:0:
448,192,112928,1,0,0:0:0:0:
320,192,113035,1,0,0:0:0:0:
64,192,113142,1,2,0:0:0:0:
448,192,113142,1,8,0:0:0:0:
192,192,113250,1,0,0:0:0:0:
320,192,113357,128,0,113571:0:0:0:0:
64,192,113571,1,8,0:0:0:0:
448,192,113571,1,2,0:0:0:0:
192,192,113678,1,0,0:0:0:0:
320,192,113785,1,0,0:0:0:0:
448,192,113892,1,0,0:0:0:0:
64,192,114000,1,2,0:0:0:0:
192,192,114000,1,8,0:0:0:0:
320,192,114107,128,0,114321:0:0:0:0:
192,192,114214,1,0,0:0:0:0:
320,192,114428,128,8,114642:0:0:0:0:
448,192,114428,1,2,0:0:0:0:
192,192,114642,1,0,0:0:0:0:
64,192,114857,1,8,0:0:0:0:
448,192,114857,1,2,0:0:0:0:
320,192,114964,1,0,0:0:0:0:
192,192,115071,128,0,115285:0:0:0:0:
64,192,115285,1,2,0:0:0:0:
448,192,115285,1,8,0:0:0:0:
320,192,115392,1,0,0:0:0:0:
192,192,115500,1,0,0:0:0:0:
64,192,115607,1,0,0:0:0:0:
320,192,115714,1,8,0:0:0:0:
448,192,115714,1,2,0:0:0:0:
192,192,115821,128,0,116035:0:0:0:0:
320,192,115928,1,0,0:0:0:0:
192,192,116142,1,2,0:0:0:0:
448,192,116142,128,8,116357:0:0:0:0:
320,192,116250,1,0,0:0:0:0:
64,192,116357,128,0,116571:0:0:0:0:
192,192,116571,1,2,0:0:0:0:
448,192,116571,1,4,0:0:0:0:
320,192,116785,1,0,0:0:0:0:
64,192,116892,1,4,0:0:0:0:
192,192,116892,1,2,0:0:0:0:
448,192,117000,1,0,0:0:0:0:
320,192,117214,1,0,0:0:0:0:
192,192,117321,1,0,0:0:0:0:
64,192,117428,1,2,0:0:0:0:
448,192,117428,1,4,0:0:0:0:
192,192,117642,1,0,0:0:0:0:
320,192,117750,1,4,0:0:0:0:
448,192,117750,1,2,0:0:0:0:
64,192,117857,1,2,0:0:0:0:
192,192,117857,1,0,0:0:0:0:
320,192,117964,1,2,0:0:0:0:
448,192,117964,1,0,0:0:0:0:
64,192,118071,1,2,0:0:0:0:
192,192,118071,1,0,0:0:0:0:
320,192,118178,1,2,0:0:0:0:
448,192,118178,1,0,0:0:0:0:
64,192,118285,1,2,0:0:0:0:
192,192,118285,1,0,0:0:0:0:
320,192,118500,1,0,0:0:0:0:
192,192,118714,1,0,0:0:0:0:
320,192,118928,1,0,0:0:0:0:
192,192,119035,1,0,0:0:0:0:
64,192,119142,1,0,0:0:0:0:
448,192,119142,1,0,0:0:0:0:
320,192,119285,1,0,0:0:0:0:
192,192,119428,1,0,0:0:0:0:
64,192,119571,1,8,0:0:0:0:
320,192,119571,128,0,120000:0:0:0:0:
448,192,119571,1,0,0:0:0:0:
64,192,120000,1,2,0:0:0:0:
192,192,120000,1,4,0:0:0:0:
448,192,120000,1,0,0:0:0:0:
