osu file format v14

[General]
AudioFilename: Electronic Sound Lab.mp3
AudioLeadIn: 0
PreviewTime: 64347
Countdown: 0
SampleSet: Soft
StackLeniency: 0.7
Mode: 0
LetterboxInBreaks: 0
WidescreenStoryboard: 1

[Editor]
Bookmarks: 37608
DistanceSpacing: 3.7
BeatDivisor: 8
GridSize: 16
TimelineZoom: 3.4

[Metadata]
Title:Electronic Sound Lab
TitleUnicode:Electronic Sound Lab
Artist:Yooh
ArtistUnicode:Yooh
Creator:kjlfaklf
Version:ESL
Source:sv change yooh
Tags:
BeatmapID:1090436
BeatmapSetID:513150

[Difficulty]
HPDrainRate:5
CircleSize:4
OverallDifficulty:7.8
ApproachRate:9.6
SliderMultiplier:1.90000000596046
SliderTickRate:1

[Events]
//Background and Video events
0,0,"1500x1500sr.jpg",0,0
//Break Periods
//Storyboard Layer 0 (Background)
//Storyboard Layer 1 (Fail)
//Storyboard Layer 2 (Pass)
//Storyboard Layer 3 (Foreground)
//Storyboard Sound Samples

[TimingPoints]
0,434.782608695652,4,2,0,100,1,0
0,-100,4,2,0,100,0,0
108,-200,4,2,0,100,0,0
217,-50,4,2,0,100,0,0
326,-200,4,2,0,100,0,0
434,-50,4,2,0,100,0,0
543,-200,4,2,0,100,0,0
652,-50,4,2,0,100,0,0
760,-200,4,2,0,100,0,0
869,-50,4,2,0,100,0,0
978,-200,4,2,0,100,0,0
1086,-50,4,2,0,100,0,0
1195,-200,4,2,0,100,0,0
1304,-50,4,2,0,100,0,0
1413,-200,4,2,0,100,0,0
1521,-50,4,2,0,100,0,0
1630,-200,4,2,0,100,0,0
1739,-50,4,2,0,100,0,0
1847,-200,4,2,0,100,0,0
1956,-50,4,2,0,100,0,0
2065,-200,4,2,0,100,0,0
2173,-50,4,2,0,100,0,0
2282,-200,4,2,0,100,0,0
2391,-50,4,2,0,100,0,0
2499,-200,4,2,0,100,0,0
2608,-50,4,2,0,100,0,0
2717,-200,4,2,0,100,0,0
2826,-50,4,2,0,100,0,0
2934,-200,4,2,0,100,0,0
3043,-50,4,2,0,100,0,0
3152,-200,4,2,0,100,0,0
3260,-50,4,2,0,100,0,0
3369,-200,4,2,0,100,0,0
3478,-50,4,2,0,100,0,0
3586,-200,4,2,0,100,0,0
3695,-50,4,2,0,100,0,0
3804,-200,4,2,0,100,0,0
3913,-50,4,2,0,100,0,0
4021,-200,4,2,0,100,0,0
4130,-50,4,2,0,100,0,0
4239,-200,4,2,0,100,0,0
4347,-50,4,2,0,100,0,0
4456,-200,4,2,0,100,0,0
4565,-50,4,2,0,100,0,0
4673,-200,4,2,0,100,0,0
4782,-50,4,2,0,100,0,0
4891,-200,4,2,0,100,0,0
4999,-50,4,2,0,100,0,0
5108,-200,4,2,0,100,0,0
5217,-1000,4,2,0,100,0,0
6304,-100,4,2,0,100,0,0
6521,-50,4,2,0,100,0,0
6847,-500,4,2,0,100,0,0
6956,-100,4,2,0,100,0,0
7173,-50,4,2,0,100,0,0
7282,-500,4,2,0,100,0,0
7391,-100,4,2,0,100,0,0
7608,-50,4,2,0,100,0,0
7717,-500,4,2,0,100,0,0
7826,-100,4,2,0,100,0,0
8043,-50,4,2,0,100,0,0
8152,-500,4,2,0,100,0,0
8260,-100,4,2,0,100,0,0
8478,-50,4,2,0,100,0,0
8586,-500,4,2,0,100,0,0
8695,-100,4,2,0,100,0,0
8913,-50,4,2,0,100,0,0
9021,-500,4,2,0,100,0,0
9130,-100,4,2,0,100,0,0
9347,-50,4,2,0,100,0,0
9456,-500,4,2,0,100,0,0
9565,-100,4,2,0,100,0,0
9782,-50,4,2,0,100,0,0
9891,-500,4,2,0,100,0,0
9999,-100,4,2,0,100,0,0
10217,-50,4,2,0,100,0,0
10326,-500,4,2,0,100,0,0
10434,-100,4,2,0,100,0,0
10652,-50,4,2,0,100,0,0
10760,-500,4,2,0,100,0,0
10869,-100,4,2,0,100,0,0
11086,-50,4,2,0,100,0,0
11195,-500,4,2,0,100,0,0
11304,-100,4,2,0,100,0,0
11521,-50,4,2,0,100,0,0
11630,-500,4,2,0,100,0,0
11739,-100,4,2,0,100,0,0
11956,-50,4,2,0,100,0,0
12065,-500,4,2,0,100,0,0
12173,-100,4,2,0,100,0,0
12391,-50,4,2,0,100,0,0
12499,-500,4,2,0,100,0,0
12608,-100,4,2,0,100,0,0
12826,-50,4,2,0,100,0,0
12934,-500,4,2,0,100,0,0
13043,-100,4,2,0,100,0,0
13260,-50,4,2,0,100,0,0
13368,-500,4,2,0,100,0,0
13478,-100,4,2,0,100,0,0
13696,-50,4,2,0,100,0,0
13804,-500,4,2,0,100,0,0
13913,-100,4,2,0,100,0,0
14130,-50,4,2,0,100,0,0
14239,-500,4,2,0,100,0,0
14347,-100,4,2,0,100,0,0
14565,-50,4,2,0,100,0,0
14673,-500,4,2,0,100,0,0
14782,-100,4,2,0,100,0,0
14999,-50,4,2,0,100,0,0
15108,-500,4,2,0,100,0,0
15217,-100,4,2,0,100,0,0
15434,-50,4,2,0,100,0,0
15543,-500,4,2,0,100,0,0
15652,-100,4,2,0,100,0,0
15869,-50,4,2,0,100,0,0
15978,-500,4,2,0,100,0,0
16086,-100,4,2,0,100,0,0
16304,-50,4,2,0,100,0,0
16413,-500,4,2,0,100,0,0
16521,-100,4,2,0,100,0,0
16739,-50,4,2,0,100,0,0
16847,-500,4,2,0,100,0,0
16956,-100,4,2,0,100,0,0
17173,-50,4,2,0,100,0,0
17282,-500,4,2,0,100,0,0
17391,-100,4,2,0,100,0,0
17608,-50,4,2,0,100,0,0
17717,-500,4,2,0,100,0,0
17826,-100,4,2,0,100,0,0
18043,-50,4,2,0,100,0,0
18152,-500,4,2,0,100,0,0
18260,-100,4,2,0,100,0,0
18478,-50,4,2,0,100,0,0
18586,-500,4,2,0,100,0,0
18695,-100,4,2,0,100,0,0
18913,-50,4,2,0,100,0,0
19021,-500,4,2,0,100,0,0
19130,-50,4,2,0,100,0,0
19239,-200,4,2,0,100,0,0
19347,-50,4,2,0,100,0,0
19456,-200,4,2,0,100,0,0
19565,-50,4,2,0,100,0,0
19673,-200,4,2,0,100,0,0
19782,-50,4,2,0,100,0,0
19999,-1000,4,2,0,100,0,0
20108,-100,4,2,0,100,0,0
34782,-50,4,2,0,100,0,0
34891,-200,4,2,0,100,0,0
34999,-50,4,2,0,100,0,0
35108,-200,4,2,0,100,0,0
35217,-50,4,2,0,100,0,0
35326,-200,4,2,0,100,0,0
35434,-50,4,2,0,100,0,0
35543,-200,4,2,0,100,0,0
35652,-50,4,2,0,100,0,0
35978,-500,4,2,0,100,0,0
36086,-50,4,2,0,100,0,0
36195,-200,4,2,0,100,0,0
36304,-50,4,2,0,100,0,0
36413,-200,4,2,0,100,0,0
36521,-50,4,2,0,100,0,0
36630,-200,4,2,0,100,0,0
36739,-50,4,2,0,100,0,0
36847,-200,4,2,0,100,0,0
36956,-50,4,2,0,100,0,0
37282,-500,4,2,0,100,0,0
37391,-50,4,2,0,100,0,0
37499,-200,4,2,0,100,0,0
37608,-50,4,2,0,100,0,0
37717,-200,4,2,0,100,0,0
37826,-50,4,2,0,100,0,0
37934,-200,4,2,0,100,0,0
38043,-100,4,2,0,100,0,0
38260,-50,4,2,0,100,0,0
38369,-200,4,2,0,100,0,0
38478,-50,4,2,0,100,0,0
38586,-200,4,2,0,100,0,0
38695,-50,4,2,0,100,0,0
38804,-200,4,2,0,100,0,0
38913,-50,4,2,0,100,0,0
39021,-200,4,2,0,100,0,0
39130,-50,4,2,0,100,0,0
39456,-500,4,2,0,100,0,0
39565,-50,4,2,0,100,0,0
39673,-200,4,2,0,100,0,0
39782,-50,4,2,0,100,0,0
39891,-200,4,2,0,100,0,0
39999,-50,4,2,0,100,0,0
40108,-200,4,2,0,100,0,0
40217,-50,4,2,0,100,0,0
40326,-200,4,2,0,100,0,0
40434,-50,4,2,0,100,0,0
40760,-500,4,2,0,100,0,0
40869,-50,4,2,0,100,0,0
40978,-200,4,2,0,100,0,0
41086,-50,4,2,0,100,0,0
41195,-200,4,2,0,100,0,0
41304,-100,4,2,0,100,0,0
41739,-50,4,2,0,100,0,0
41847,-200,4,2,0,100,0,0
41956,-50,4,2,0,100,0,0
42065,-200,4,2,0,100,0,0
42173,-50,4,2,0,100,0,0
42282,-200,4,2,0,100,0,0
42391,-50,4,2,0,100,0,0
42499,-200,4,2,0,100,0,0
42608,-50,4,2,0,100,0,0
42934,-500,4,2,0,100,0,0
43043,-50,4,2,0,100,0,0
43152,-200,4,2,0,100,0,0
43260,-50,4,2,0,100,0,0
43369,-200,4,2,0,100,0,0
43478,-50,4,2,0,100,0,0
43586,-200,4,2,0,100,0,0
43695,-50,4,2,0,100,0,0
43804,-200,4,2,0,100,0,0
43913,-50,4,2,0,100,0,0
44239,-500,4,2,0,100,0,0
44347,-50,4,2,0,100,0,0
44456,-200,4,2,0,100,0,0
44565,-50,4,2,0,100,0,0
44673,-200,4,2,0,100,0,0
44782,-100,4,2,0,100,0,0
45217,-50,4,2,0,100,0,0
45326,-200,4,2,0,100,0,0
45434,-50,4,2,0,100,0,0
45543,-200,4,2,0,100,0,0
45652,-50,4,2,0,100,0,0
45760,-200,4,2,0,100,0,0
45869,-50,4,2,0,100,0,0
45978,-200,4,2,0,100,0,0
46086,-50,4,2,0,100,0,0
46413,-500,4,2,0,100,0,0
46521,-50,4,2,0,100,0,0
46630,-200,4,2,0,100,0,0
46739,-50,4,2,0,100,0,0
46847,-200,4,2,0,100,0,0
46956,-50,4,2,0,100,0,0
47065,-200,4,2,0,100,0,0
47173,-50,4,2,0,100,0,0
47282,-200,4,2,0,100,0,0
47391,-50,4,2,0,100,0,0
47717,-500,4,2,0,100,0,0
47826,-50,4,2,0,100,0,0
47934,-200,4,2,0,100,0,0
48043,-50,4,2,0,100,0,0
48152,-200,4,2,0,100,0,0
48260,-100,4,2,0,100,0,0
48695,-50,4,2,0,100,0,0
48804,-200,4,2,0,100,0,0
48913,-50,4,2,0,100,0,0
49021,-200,4,2,0,100,0,0
49130,-50,4,2,0,100,0,0
49239,-200,4,2,0,100,0,0
49347,-100,4,2,0,100,0,0
49565,-50,4,2,0,100,0,0
49673,-200,4,2,0,100,0,0
49782,-50,4,2,0,100,0,0
49891,-200,4,2,0,100,0,0
49999,-50,4,2,0,100,0,0
50108,-200,4,2,0,100,0,0
50217,-50,4,2,0,100,0,0
50326,-200,4,2,0,100,0,0
50434,-50,4,2,0,100,0,0
50543,-200,4,2,0,100,0,0
50652,-100,4,2,0,100,0,0
50869,-50,4,2,0,100,0,0
50978,-200,4,2,0,100,0,0
51086,-50,4,2,0,100,0,0
51195,-200,4,2,0,100,0,0
51304,-50,4,2,0,100,0,0
51413,-200,4,2,0,100,0,0
51521,-50,4,2,0,100,0,0
51630,-200,4,2,0,100,0,0
51739,-50,4,2,0,100,0,0
51847,-200,4,2,0,100,0,0
51956,-100,4,2,0,100,0,0
52173,-50,4,2,0,100,0,0
52282,-200,4,2,0,100,0,0
52391,-50,4,2,0,100,0,0
52499,-200,4,2,0,100,0,0
52608,-50,4,2,0,100,0,0
52717,-200,4,2,0,100,0,0
52826,-100,4,2,0,100,0,0
53043,-50,4,2,0,100,0,0
53152,-200,4,2,0,100,0,0
53260,-50,4,2,0,100,0,0
53369,-200,4,2,0,100,0,0
53478,-50,4,2,0,100,0,0
53586,-200,4,2,0,100,0,0
53695,-50,4,2,0,100,0,0
53804,-200,4,2,0,100,0,0
53913,-50,4,2,0,100,0,0
54021,-200,4,2,0,100,0,0
54130,-100,4,2,0,100,0,0
54347,-50,4,2,0,100,0,0
54456,-200,4,2,0,100,0,0
54565,-50,4,2,0,100,0,0
54673,-200,4,2,0,100,0,0
54782,-50,4,2,0,100,0,0
54891,-200,4,2,0,100,0,0
54999,-100,4,2,0,100,0,0
55652,-50,4,2,0,100,0,0
55760,-200,4,2,0,100,0,0
55869,-50,4,2,0,100,0,0
55978,-200,4,2,0,100,0,0
56086,-50,4,2,0,100,0,0
56195,-200,4,2,0,100,0,0
56304,-100,4,2,0,100,0,0
56521,-50,4,2,0,100,0,0
56630,-200,4,2,0,100,0,0
56739,-50,4,2,0,100,0,0
56847,-200,4,2,0,100,0,0
56956,-50,4,2,0,100,0,0
57065,-200,4,2,0,100,0,0
57173,-50,4,2,0,100,0,0
57282,-200,4,2,0,100,0,0
57391,-50,4,2,0,100,0,0
57499,-200,4,2,0,100,0,0
57608,-100,4,2,0,100,0,0
57826,-50,4,2,0,100,0,0
57934,-200,4,2,0,100,0,0
58043,-50,4,2,0,100,0,0
58152,-200,4,2,0,100,0,0
58260,-50,4,2,0,100,0,0
58369,-200,4,2,0,100,0,0
58478,-50,4,2,0,100,0,0
58586,-200,4,2,0,100,0,0
58695,-50,4,2,0,100,0,0
58804,-200,4,2,0,100,0,0
58913,-100,4,2,0,100,0,0
59130,-50,4,2,0,100,0,0
59239,-200,4,2,0,100,0,0
59347,-50,4,2,0,100,0,0
59456,-200,4,2,0,100,0,0
59565,-50,4,2,0,100,0,0
59673,-200,4,2,0,100,0,0
59782,-100,4,2,0,100,0,0
59999,-50,4,2,0,100,0,0
60108,-200,4,2,0,100,0,0
60217,-50,4,2,0,100,0,0
60326,-200,4,2,0,100,0,0
60434,-50,4,2,0,100,0,0
60543,-200,4,2,0,100,0,0
60652,-50,4,2,0,100,0,0
60760,-200,4,2,0,100,0,0
60869,-50,4,2,0,100,0,0
60978,-200,4,2,0,100,0,0
61086,-100,4,2,0,100,0,0
61304,-50,4,2,0,100,0,0
61413,-200,4,2,0,100,0,0
61521,-50,4,2,0,100,0,0
61630,-200,4,2,0,100,0,0
61739,-100,4,2,0,100,0,0
64347,-50,4,2,0,100,0,0
65434,-50,4,2,0,100,0,0
65652,-50,4,2,0,100,0,0
65869,-200,4,2,0,100,0,0
66086,-100,4,2,0,100,0,1
93913,-50,4,2,0,100,0,0
94021,-200,4,2,0,100,0,0
94130,-50,4,2,0,100,0,0
94239,-200,4,2,0,100,0,0
94347,-50,4,2,0,100,0,0
94456,-200,4,2,0,100,0,0
94565,-50,4,2,0,100,0,0
94673,-200,4,2,0,100,0,0
94782,-50,4,2,0,100,0,0
94891,-200,4,2,0,100,0,0
94999,-50,4,2,0,100,0,0
95108,-200,4,2,0,100,0,0
95217,-50,4,2,0,100,0,0
95326,-200,4,2,0,100,0,0
95434,-50,4,2,0,100,0,0
95543,-200,4,2,0,100,0,0
95652,-50,4,2,0,100,0,0
95760,-200,4,2,0,100,0,0
95869,-50,4,2,0,100,0,0
95978,-200,4,2,0,100,0,0
96086,-50,4,2,0,100,0,0
96195,-200,4,2,0,100,0,0
96304,-50,4,2,0,100,0,0
96413,-200,4,2,0,100,0,0
96521,-50,4,2,0,100,0,0
96630,-200,4,2,0,100,0,0
96739,-50,4,2,0,100,0,0
96847,-200,4,2,0,100,0,0
96956,-50,4,2,0,100,0,0
97065,-200,4,2,0,100,0,0
97173,-50,4,2,0,100,0,0
97282,-200,4,2,0,100,0,0
97391,-50,4,2,0,100,0,0
97499,-200,4,2,0,100,0,0
97608,-50,4,2,0,100,0,0
97717,-200,4,2,0,100,0,0
97826,-50,4,2,0,100,0,0
97934,-200,4,2,0,100,0,0
98043,-50,4,2,0,100,0,0
98152,-200,4,2,0,100,0,0
98260,-50,4,2,0,100,0,0
98369,-200,4,2,0,100,0,0
98478,-50,4,2,0,100,0,0
98586,-200,4,2,0,100,0,0
98695,-50,4,2,0,100,0,0
98804,-200,4,2,0,100,0,0
98913,-50,4,2,0,100,0,0
99021,-200,4,2,0,100,0,0
99130,-50,4,2,0,100,0,0
99239,-200,4,2,0,100,0,0
99347,-50,4,2,0,100,0,0
99456,-200,4,2,0,100,0,0
99565,-50,4,2,0,100,0,0
99673,-200,4,2,0,100,0,0
99782,-50,4,2,0,100,0,0
99891,-200,4,2,0,100,0,0
99999,-100,4,2,0,100,0,0
100869,-50,4,2,0,100,0,0
101086,-250,4,2,0,100,0,0
101195,-100,4,2,0,100,0,0
101739,-50,4,2,0,100,0,0
101956,-250,4,2,0,100,0,0
102065,-100,4,2,0,100,0,0
102608,-50,4,2,0,100,0,0
102826,-250,4,2,0,100,0,0
102934,-100,4,2,0,100,0,0
106086,-50,4,2,0,100,0,0
106304,-500,4,2,0,100,0,0
106413,-50,4,2,0,100,0,0
106630,-500,4,2,0,100,0,0
106739,-50,4,2,0,100,0,0
106956,-500,4,2,0,100,0,0
107065,-50,4,2,0,100,0,0
107282,-500,4,2,0,100,0,0
107391,-50,4,2,0,100,0,0
107499,-200,4,2,0,100,0,0
107608,-50,4,2,0,100,0,0
107717,-200,4,2,0,100,0,0
107826,-100,4,2,0,100,0,0

[HitObjects]
116,224,0,6,0,P|151:255|182:258,1,47.5000001490115,4|0,0:0|0:0,0:0:0:0:
178,188,217,2,0,P|126:152|74:164,1,95.000000298023
195,102,434,2,0,P|305:99|317:86,1,95.000000298023
310,39,652,2,0,L|386:116,1,95.000000298023
310,269,869,2,0,P|293:177|308:155,1,95.000000298023
361,213,1086,2,0,P|415:221|461:203,1,95.000000298023
401,144,1304,2,0,B|388:124|388:124|309:100,1,95.000000298023
377,42,1521,2,0,L|485:47,1,95.000000298023
479,162,1739,6,0,L|488:279,1,95.000000298023,4|0,0:0|0:0,0:0:0:0:
400,145,1956,2,0,L|371:249,1,95.000000298023
297,71,2173,2,0,L|321:162,1,95.000000298023
108,189,2391,2,0,P|88:204|8:200,1,95.000000298023
197,269,2608,2,0,P|234:285|259:344,1,95.000000298023
185,342,2826,2,0,L|88:379,1,95.000000298023
289,242,3043,2,0,P|313:263|390:280,1,95.000000298023
374,170,3260,2,0,B|326:135|326:135|268:138,1,95.000000298023
373,2,3478,6,0,L|392:108,1,95.000000298023,4|0,0:0|0:0,0:0:0:0:
401,311,3695,2,0,L|456:196,1,95.000000298023
313,129,3913,2,0,P|267:146|239:201,1,95.000000298023
317,206,4130,2,0,L|337:310,1,95.000000298023
377,169,4347,2,0,P|385:107|360:69,1,95.000000298023,4|0,0:0|0:0,0:0:0:0:
404,246,4565,2,0,L|499:263,1,95.000000298023
255,269,4782,2,0,L|164:306,1,95.000000298023
142,227,4999,2,0,B|99:181|99:181|86:103,1,95.000000298023
43,231,5217,2,4,L|37:287,1,57.0000001788138,4|12,0:0|0:0,0:0:0:0:
294,104,6956,5,2,0:0:0:0:
333,201,7065,1,0,0:0:0:0:
323,121,7173,1,2,0:0:0:0:
362,218,7282,1,0,0:0:0:0:
265,87,7391,2,2,B|237:95|237:95|197:95,1,47.5000001490115
331,39,7608,2,0,P|400:88|408:141,1,95.000000298023
254,170,7826,1,2,0:0:0:0:
208,183,7934,1,0,0:0:0:0:
162,196,8043,1,0,0:0:0:0:
117,178,8152,1,2,0:0:0:0:
71,159,8260,2,2,L|42:224,1,47.5000001490115
153,106,8478,2,0,P|108:62|73:55,1,95.000000298023
8,101,8695,5,2,0:0:0:0:
232,61,8913,2,0,P|243:97|290:146,1,95.000000298023,2|0,0:0|0:0,0:0:0:0:
386,58,9130,2,2,L|300:45,1,47.5000001490115
311,217,9347,1,0,0:0:0:0:
304,244,9456,1,0,0:0:0:0:
162,292,9564,1,2,0:0:0:0:
297,271,9673,1,0,0:0:0:0:
290,298,9782,1,2,0:0:0:0:
155,319,9891,1,2,0:0:0:0:
264,163,9999,2,2,P|296:146|318:144,1,47.5000001490115
199,218,10217,2,0,L|159:104,1,95.000000298023,0|2,0:0|0:0,0:0:0:0:
234,82,10434,5,2,0:0:0:0:
84,224,10652,1,2,0:0:0:0:
36,296,10760,1,2,0:0:0:0:
0,219,10869,2,2,B|-12:187|-12:187|-11:142,1,47.5000001490115,2|2,0:0|0:0,0:0:0:0:
146,157,11086,2,2,L|172:279,1,95.000000298023
48,102,11304,2,0,L|124:77,1,47.5000001490115,0|2,0:0|0:0,0:0:0:0:
236,177,11521,2,0,P|277:192|343:182,1,95.000000298023,2|0,0:0|0:0,0:0:0:0:
430,105,11739,1,2,0:0:0:0:
450,173,11847,1,0,0:0:0:0:
470,241,11956,1,2,0:0:0:0:
366,304,12065,1,2,0:0:0:0:
342,294,12173,6,0,P|304:290|282:295,1,47.5000001490115,2|0,0:0|0:0,0:0:0:0:
196,223,12391,2,2,P|250:224|296:205,1,95.000000298023,2|0,0:0|0:0,0:0:0:0:
155,132,12608,1,2,0:0:0:0:
162,312,12826,1,2,0:0:0:0:
239,333,12934,1,2,0:0:0:0:
106,371,13043,1,2,0:0:0:0:
140,237,13152,1,2,0:0:0:0:
106,103,13260,2,2,P|66:82|3:98,1,95.000000298023
52,155,13478,1,8,0:0:0:0:
165,156,13586,1,8,0:0:0:0:
268,106,13695,2,8,L|291:54,1,47.5000001490115,10|8,0:0|0:0,0:0:0:0:
245,186,13913,1,8,0:0:0:0:
264,229,14021,1,0,0:0:0:0:
154,77,14130,2,2,L|59:64,1,95.000000298023
217,27,14347,5,2,0:0:0:0:
408,2,14565,2,0,P|385:71|397:108,1,95.000000298023,2|0,0:0|0:0,0:0:0:0:
338,186,14782,2,2,L|293:160,1,47.5000001490115
334,285,14999,2,2,P|402:266|423:242,1,95.000000298023
267,229,15217,2,0,P|232:245|195:238,1,47.5000001490115,2|0,0:0|0:0,0:0:0:0:
200,70,15434,2,0,L|234:200,1,95.000000298023
74,245,15652,2,0,L|121:237,1,47.5000001490115,10|0,0:0|0:0,0:0:0:0:
171,309,15869,2,0,L|273:335,1,95.000000298023,10|0,0:0|0:0,0:0:0:0:
439,234,16086,1,8,0:0:0:0:
347,339,16195,1,0,0:0:0:0:
393,327,16303,1,2,0:0:0:0:
439,315,16412,1,2,0:0:0:0:
381,176,16521,2,0,P|340:186|325:186,1,47.5000001490115,2|0,0:0|0:0,0:0:0:0:
261,139,16739,1,2,0:0:0:0:
72,315,16956,2,2,L|55:238,1,47.5000001490115
145,138,17173,2,2,L|129:235,1,95.000000298023
165,313,17391,5,10,0:0:0:0:
86,70,17499,1,0,0:0:0:0:
302,216,17608,2,0,P|320:213|392:168,1,95.000000298023
235,140,17826,2,0,L|214:211,1,47.5000001490115,2|0,0:0|0:0,0:0:0:0:
371,29,18043,2,0,P|353:32|281:77,1,95.000000298023,2|0,0:0|0:0,0:0:0:0:
205,59,18260,1,10,0:0:0:0:
159,46,18368,1,0,0:0:0:0:
113,33,18478,1,2,0:0:0:0:
0,100,18586,1,2,0:0:0:0:
46,113,18696,1,2,0:0:0:0:
92,126,18804,1,0,0:0:0:0:
239,144,18913,6,0,P|200:171|155:184,1,95.000000298023,2|0,0:0|0:0,0:0:0:0:
318,35,19130,2,2,P|317:91|330:143,1,95.000000298023,10|2,0:0|0:0,0:0:0:0:
244,238,19347,1,2,0:0:0:0:
210,254,19455,1,0,0:0:0:0:
176,271,19565,2,2,P|122:249|103:208,1,95.000000298023
47,136,19782,2,2,L|27:238,1,95.000000298023
179,196,19999,1,10,0:0:0:0:
283,160,20108,2,0,B|302:145|302:145|317:112,1,47.5000001490115
180,71,20326,1,0,0:0:0:0:
150,49,20434,2,8,P|116:39|74:38,2,47.5000001490115
313,186,20760,1,8,0:0:0:0:
343,208,20868,2,8,P|377:218|419:219,2,47.5000001490115
138,264,21304,6,8,L|50:281,1,47.5000001490115
166,182,21521,2,0,P|188:192|215:220,1,47.5000001490115,8|0,0:0|0:0,0:0:0:0:
119,111,21739,2,0,B|143:70|143:70|154:1,1,95.000000298023
296,135,22173,2,0,P|358:144|400:134,1,95.000000298023
444,78,22608,2,0,P|468:122|459:182,1,95.000000298023
267,257,23043,2,8,L|331:282,1,47.5000001490115
444,285,23260,2,0,L|399:267,1,47.5000001490115,8|0,0:0|0:0,0:0:0:0:
289,172,23478,2,0,L|188:132,1,95.000000298023
93,45,23913,1,0,0:0:0:0:
53,204,24130,1,8,0:0:0:0:
55,227,24238,1,8,0:0:0:0:
58,251,24347,1,8,0:0:0:0:
4,128,24565,5,0,0:0:0:0:
203,61,24782,2,8,P|238:47|261:47,1,47.5000001490115
360,72,24999,2,0,P|338:82|315:86,1,47.5000001490115,8|0,0:0|0:0,0:0:0:0:
125,36,25217,2,0,P|90:92|95:146,1,95.000000298023
184,333,25652,1,0,0:0:0:0:
326,143,25869,1,0,0:0:0:0:
75,198,26086,1,2,0:0:0:0:
99,216,26195,1,0,0:0:0:0:
129,138,26304,1,2,0:0:0:0:
105,120,26413,1,2,0:0:0:0:
81,102,26521,2,0,B|132:95|132:95|176:71,1,95.000000298023,2|0,0:0|0:0,0:0:0:0:
314,42,26956,2,8,P|335:73|335:88,1,47.5000001490115,10|8,0:0|0:0,0:0:0:0:
205,77,27173,2,0,P|221:43|234:35,1,47.5000001490115,10|0,0:0|0:0,0:0:0:0:
290,154,27391,1,10,0:0:0:0:
244,152,27499,1,8,0:0:0:0:
352,208,27608,2,8,L|405:209,2,47.5000001490115
336,224,27934,1,0,0:0:0:0:
320,240,28043,2,0,L|256:240,1,47.5000001490115,8|0,0:0|0:0,0:0:0:0:
126,248,28260,6,0,P|149:277|141:349,1,95.000000298023
69,308,28695,1,8,0:0:0:0:
42,269,28803,1,8,0:0:0:0:
45,222,28913,2,0,P|55:179|53:161,1,47.5000001490115,8|0,0:0|0:0,0:0:0:0:
63,92,29130,2,0,P|117:120|133:206,1,142.500000447034,8|0,0:0|0:0,0:0:0:0:
47,90,29565,2,0,B|70:88|92:100|92:100|112:69|151:69|151:69|167:47|195:40,1,142.500000447034,8|0,0:0|0:0,0:0:0:0:
244,22,29999,2,0,P|235:64|241:95,1,47.5000001490115,8|0,0:0|0:0,0:0:0:0:
322,208,30217,1,8,0:0:0:0:
316,136,30325,1,0,0:0:0:0:
311,65,30434,2,8,B|335:44|335:44|343:24,1,47.5000001490115
409,75,30652,1,8,0:0:0:0:
394,253,30869,2,8,P|345:289|297:289,1,95.000000298023
112,171,31304,6,0,L|184:179,1,47.5000001490115,8|0,0:0|0:0,0:0:0:0:
179,82,31521,1,0,0:0:0:0:
132,77,31630,1,0,0:0:0:0:
85,81,31739,1,8,0:0:0:0:
44,105,31847,1,0,0:0:0:0:
20,145,31956,1,8,0:0:0:0:
19,192,32065,1,0,0:0:0:0:
44,230,32173,5,8,0:0:0:0:
52,238,32227,1,0,0:0:0:0:
59,248,32282,1,8,0:0:0:0:
64,259,32336,1,0,0:0:0:0:
68,270,32390,1,8,0:0:0:0:
69,282,32445,1,0,0:0:0:0:
70,294,32499,1,8,0:0:0:0:
68,305,32553,1,0,0:0:0:0:
66,316,32608,6,8,L|43:355,8,23.7500000745057
311,113,34782,6,4,P|347:228|297:280,1,190.000000596046
220,109,35217,2,12,P|272:123|313:111,1,95.000000298023,14|12,0:0|0:0,0:0:0:0:
301,66,35434,1,8,0:0:0:0:
271,29,35543,1,0,0:0:0:0:
228,11,35652,2,8,B|175:35|175:35|129:40,1,95.000000298023,10|8,0:0|0:0,0:0:0:0:
29,115,35869,1,0,0:0:0:0:
23,162,35977,1,2,0:0:0:0:
18,209,36086,2,2,B|71:185|71:185|117:180,1,95.000000298023
221,306,36304,2,0,P|155:278|114:289,1,95.000000298023
234,217,36521,2,0,P|265:157|265:115,1,95.000000298023,2|0,0:0|0:0,0:0:0:0:
319,33,36739,2,2,L|350:155,1,95.000000298023
443,82,36956,2,2,L|433:197,1,95.000000298023
314,140,37173,2,0,L|345:262,1,95.000000298023
402,279,37391,2,2,P|446:264|493:269,1,95.000000298023
308,309,37608,2,0,P|263:323|217:317,1,95.000000298023,2|0,0:0|0:0,0:0:0:0:
252,231,37826,1,10,0:0:0:0:
208,215,37934,1,8,0:0:0:0:
163,199,38043,1,10,0:0:0:0:
119,182,38152,1,10,0:0:0:0:
83,97,38260,2,0,B|134:111|134:111|201:109,1,95.000000298023,2|0,0:0|0:0,0:0:0:0:
318,64,38478,2,0,L|363:181,1,95.000000298023
227,315,38695,6,8,P|297:242|392:264,1,190.000000596046
272,167,39130,2,8,L|162:155,1,95.000000298023
253,88,39347,2,0,L|363:100,1,95.000000298023,8|0,0:0|0:0,0:0:0:0:
201,201,39565,2,0,L|91:189,1,95.000000298023
324,54,39782,2,0,L|434:66,1,95.000000298023
290,180,39999,2,8,P|302:248|349:275,1,95.000000298023
271,326,40217,2,0,P|234:343|168:340,1,95.000000298023,8|0,0:0|0:0,0:0:0:0:
105,311,40434,1,2,0:0:0:0:
210,137,40652,1,2,0:0:0:0:
210,253,40869,1,2,0:0:0:0:
105,195,41086,1,2,0:0:0:0:
218,155,41304,2,2,L|277:159,2,47.5000001490115
74,117,41739,2,8,L|174:124,1,95.000000298023
186,105,41956,1,2,0:0:0:0:
290,28,42173,6,8,P|336:146|418:157,1,190.000000596046
216,238,42608,2,8,L|93:235,1,95.000000298023
268,306,42826,2,0,L|362:308,1,95.000000298023,8|0,0:0|0:0,0:0:0:0:
180,346,43043,2,8,B|139:248|139:248|166:134,1,190.000000596046
353,91,43478,1,8,0:0:0:0:
353,91,43586,1,0,0:0:0:0:
428,212,43695,1,8,0:0:0:0:
428,212,43803,1,0,0:0:0:0:
285,216,43913,1,8,0:0:0:0:
285,216,44021,2,8,B|246:228|246:228|203:278,1,95.000000298023
414,327,44347,2,8,B|400:239|400:239|414:112,1,190.000000596046
251,55,44782,5,2,0:0:0:0:
220,108,44890,1,0,0:0:0:0:
190,162,44999,1,2,0:0:0:0:
142,201,45108,1,2,0:0:0:0:
93,239,45217,2,0,P|32:232|0:202,1,95.000000298023,8|0,0:0|0:0,0:0:0:0:
89,69,45434,2,0,L|71:163,1,95.000000298023
98,322,45652,2,8,B|142:338|178:327|178:327|221:368|292:359,1,190.000000596046
398,102,46086,1,2,0:0:0:0:
146,221,46304,1,0,0:0:0:0:
408,310,46521,2,2,B|437:321|437:321|485:372,1,95.000000298023
338,349,46739,2,0,B|309:338|309:338|261:287,1,95.000000298023
258,234,46955,1,10,0:0:0:0:
252,178,47064,1,8,0:0:0:0:
245,121,47173,1,8,0:0:0:0:
126,51,47282,1,8,0:0:0:0:
132,107,47391,1,10,0:0:0:0:
139,164,47500,1,8,0:0:0:0:
146,221,47608,2,0,B|129:265|129:265|93:306,1,95.000000298023
206,346,47826,6,0,P|321:338|379:253,1,190.000000596046,0|2,0:0|0:0,0:0:0:0:
383,129,48152,1,8,0:0:0:0:
403,282,48260,1,2,0:0:0:0:
252,34,48478,1,2,0:0:0:0:
232,187,48586,1,8,0:0:0:0:
213,60,48695,1,2,0:0:0:0:
279,199,48803,1,2,0:0:0:0:
157,131,48913,2,2,B|129:148|129:148|99:144|46:153,1,95.000000298023
48,302,49130,1,0,0:0:0:0:
103,313,49238,1,0,0:0:0:0:
159,325,49347,1,0,0:0:0:0:
215,337,49456,1,0,0:0:0:0:
156,247,49565,2,8,L|419:302,1,190.000000596046
315,76,49999,2,8,P|182:135|188:239,1,190.000000596046
417,260,50434,2,0,B|444:267|444:267|495:258|495:258|526:267,2,95.000000298023
95,124,50869,2,0,B|68:117|68:117|17:126|17:126|-14:117,2,95.000000298023
263,343,51304,6,2,L|234:220,1,95.000000298023
168,337,51521,2,0,L|280:344,1,95.000000298023
314,239,51739,2,2,P|294:196|253:175,1,95.000000298023
254,176,51956,1,2,0:0:0:0:
301,178,52064,1,2,0:0:0:0:
348,181,52173,2,2,P|381:135|375:78,1,95.000000298023,2|10,0:0|0:0,0:0:0:0:
459,166,52391,1,2,0:0:0:0:
471,260,52499,1,8,0:0:0:0:
442,178,52608,5,2,0:0:0:0:
429,83,52716,1,8,0:0:0:0:
425,190,52826,2,0,L|368:231,1,47.5000001490115
274,113,53043,2,4,P|311:107|376:141,1,95.000000298023,6|4,0:0|0:0,0:0:0:0:
315,291,53260,2,4,L|308:186,1,95.000000298023,6|4,0:0|0:0,0:0:0:0:
208,337,53478,2,0,L|237:224,1,95.000000298023
365,146,53695,2,0,P|337:191|279:213,1,95.000000298023
419,285,53913,2,8,P|477:205|500:93,1,190.000000596046
316,58,54347,2,8,B|235:156|235:156|153:188,1,190.000000596046
60,37,54782,2,0,L|92:275,1,190.000000596046,8|0,0:0|0:0,0:0:0:0:
103,227,55072,1,8,0:0:0:0:
122,230,55144,1,8,0:0:0:0:
141,232,55217,1,8,0:0:0:0:
160,235,55289,1,8,0:0:0:0:
179,237,55362,1,0,0:0:0:0:
197,240,55434,1,2,0:0:0:0:
216,242,55507,1,2,0:0:0:0:
235,245,55579,1,2,0:0:0:0:
254,247,55652,6,0,B|285:291|285:291|349:322,1,95.000000298023,8|0,0:0|0:0,0:0:0:0:
205,347,55869,2,0,L|92:367,1,95.000000298023
119,135,56086,2,0,L|232:155,1,95.000000298023
75,250,56304,2,0,L|68:192,1,47.5000001490115,8|0,0:0|0:0,0:0:0:0:
166,70,56521,2,0,P|213:53|279:63,1,95.000000298023
33,29,56739,2,0,L|45:157,1,95.000000298023
229,163,56956,2,0,L|217:291,1,95.000000298023,8|0,0:0|0:0,0:0:0:0:
309,177,57173,2,0,P|300:118|225:84,1,95.000000298023
309,264,57391,2,0,L|416:299,1,95.000000298023
444,198,57608,2,0,L|375:222,1,47.5000001490115,8|0,0:0|0:0,0:0:0:0:
206,275,57826,2,0,B|185:284|185:284|83:257,1,95.000000298023
97,142,58043,2,0,B|129:188|129:188|178:201,1,95.000000298023
248,55,58260,5,8,0:0:0:0:
245,205,58369,1,0,0:0:0:0:
44,220,58478,2,0,P|27:247|-30:287,1,95.000000298023
189,126,58695,2,0,L|310:135,1,95.000000298023
459,201,58913,2,0,L|378:212,1,47.5000001490115,8|0,0:0|0:0,0:0:0:0:
198,286,59130,2,0,P|223:323|221:375,1,95.000000298023
297,271,59347,2,0,L|434:291,1,95.000000298023
379,205,59565,1,8,0:0:0:0:
357,162,59673,1,0,0:0:0:0:
336,120,59782,1,8,0:0:0:0:
244,139,59891,1,8,0:0:0:0:
222,96,59999,1,8,0:0:0:0:
201,54,60108,1,8,0:0:0:0:
80,160,60217,2,0,L|56:278,1,95.000000298023
223,306,60434,6,0,P|198:208|280:121,1,190.000000596046,2|8,0:0|0:0,0:0:0:0:
416,177,60760,1,0,0:0:0:0:
265,132,60869,1,8,0:0:0:0:
395,184,60978,1,0,0:0:0:0:
244,139,61086,2,0,B|227:139|227:139|175:131,1,47.5000001490115,8|0,0:0|0:0,0:0:0:0:
317,29,61304,2,0,L|350:145,1,95.000000298023,2|0,0:0|0:0,0:0:0:0:
264,236,61521,2,0,L|238:327,1,95.000000298023
120,306,61739,1,2,0:0:0:0:
238,327,61884,1,0,0:0:0:0:
99,322,62028,1,2,0:0:0:0:
190,200,62173,1,0,0:0:0:0:
76,336,62318,1,2,0:0:0:0:
67,158,62463,1,0,0:0:0:0:
217,64,62608,2,0,P|284:126|370:110,1,142.500000447034,2|8,0:0|0:0,0:0:0:0:
394,69,63043,1,8,0:0:0:0:
316,33,63152,2,8,L|338:177,1,142.500000447034
256,192,63586,12,0,64456,0:0:0:0:
188,161,64565,6,0,P|223:154|269:99,1,95.000000298023,4|0,0:0|0:0,0:0:0:0:
190,84,64782,1,0,0:0:0:0:
91,250,64891,2,0,P|57:163|88:75,1,190.000000596046,4|0,0:0|0:0,0:0:0:0:
186,238,65217,2,0,P|178:297|154:329,1,95.000000298023
190,84,65434,2,0,P|263:101|337:208,1,190.000000596046,0|2,0:0|0:0,0:0:0:0:
313,190,66086,5,8,0:0:0:0:
264,114,66195,1,8,0:0:0:0:
188,163,66304,1,8,0:0:0:0:
237,239,66413,1,0,0:0:0:0:
264,114,66521,2,0,P|326:100|379:126,1,95.000000298023,8|0,0:0|0:0,0:0:0:0:
200,43,66847,1,0,0:0:0:0:
189,54,66956,2,0,P|127:68|74:42,1,95.000000298023,8|0,0:0|0:0,0:0:0:0:
38,163,67391,2,8,L|45:249,1,47.5000001490115
116,289,67608,2,0,L|119:241,1,47.5000001490115,8|0,0:0|0:0,0:0:0:0:
194,163,67826,2,0,L|197:210,1,47.5000001490115,2|0,0:0|0:0,0:0:0:0:
378,5,68043,2,8,L|381:52,1,47.5000001490115
286,84,68260,2,8,L|289:131,1,47.5000001490115,10|8,0:0|0:0,0:0:0:0:
194,163,68478,5,8,0:0:0:0:
194,163,68586,1,8,0:0:0:0:
140,96,68695,1,8,0:0:0:0:
73,163,68804,1,0,0:0:0:0:
6,230,68913,1,8,0:0:0:0:
72,297,69021,1,0,0:0:0:0:
139,364,69130,2,8,P|168:342|201:335,1,47.5000001490115,10|8,0:0|0:0,0:0:0:0:
152,193,69347,2,0,P|156:156|146:124,1,47.5000001490115
207,260,69565,2,8,L|328:276,1,95.000000298023,10|8,0:0|0:0,0:0:0:0:
369,147,69999,2,8,P|303:171|272:221,1,95.000000298023
189,351,70434,5,2,0:0:0:0:
177,280,70542,1,0,0:0:0:0:
165,210,70651,1,0,0:0:0:0:
154,140,70760,1,8,0:0:0:0:
142,69,70869,2,0,B|105:36|105:36|41:28,1,95.000000298023,10|0,0:0|0:0,0:0:0:0:
339,41,71304,1,8,0:0:0:0:
219,93,71413,1,8,0:0:0:0:
339,145,71521,2,8,L|392:164,1,47.5000001490115
134,122,71739,1,8,0:0:0:0:
254,174,71848,1,8,0:0:0:0:
134,226,71956,2,8,L|81:245,1,47.5000001490115
18,319,72173,1,0,0:0:0:0:
111,335,72282,1,0,0:0:0:0:
27,311,72391,5,0,0:0:0:0:
120,327,72500,1,0,0:0:0:0:
36,303,72608,5,2,0:0:0:0:
129,319,72717,1,2,0:0:0:0:
222,335,72826,1,8,0:0:0:0:
408,367,73043,1,2,0:0:0:0:
315,351,73152,1,2,0:0:0:0:
299,258,73260,2,8,B|303:270|303:270|329:267|364:283,1,47.5000001490115
290,162,73478,6,0,P|231:185|206:242,1,95.000000298023
92,304,73913,1,4,0:0:0:0:
59,214,74021,1,0,0:0:0:0:
94,53,74130,1,4,0:0:0:0:
127,143,74238,1,8,0:0:0:0:
217,176,74347,2,0,L|286:180,1,47.5000001490115
389,118,74565,2,0,L|320:122,1,47.5000001490115
217,60,74782,2,0,L|286:64,1,47.5000001490115,2|0,0:0|0:0,0:0:0:0:
311,296,74999,2,0,L|380:300,1,47.5000001490115,2|0,0:0|0:0,0:0:0:0:
264,178,75217,2,0,L|333:182,1,47.5000001490115,2|0,0:0|0:0,0:0:0:0:
217,60,75434,1,2,0:0:0:0:
217,60,75543,1,2,0:0:0:0:
185,149,75652,5,2,0:0:0:0:
153,238,75760,1,8,0:0:0:0:
242,270,75869,1,2,0:0:0:0:
274,181,75978,1,2,0:0:0:0:
148,154,76086,1,2,0:0:0:0:
121,279,76195,1,2,0:0:0:0:
246,305,76304,1,0,0:0:0:0:
274,181,76413,1,0,0:0:0:0:
246,57,76521,6,0,P|261:30|288:11,1,47.5000001490115,8|0,0:0|0:0,0:0:0:0:
371,85,76739,2,0,L|310:93,1,47.5000001490115,8|0,0:0|0:0,0:0:0:0:
162,65,76956,2,0,L|114:58,1,47.5000001490115,8|0,0:0|0:0,0:0:0:0:
70,189,77173,1,2,0:0:0:0:
115,320,77282,1,2,0:0:0:0:
163,161,77391,2,0,P|209:180|276:175,1,95.000000298023,2|8,0:0|0:0,0:0:0:0:
134,72,77717,2,8,P|140:121|178:176,1,95.000000298023
16,226,78043,2,0,L|32:146,1,47.5000001490115,8|0,0:0|0:0,0:0:0:0:
118,199,78260,5,2,0:0:0:0:
88,113,78368,1,2,0:0:0:0:
59,28,78477,1,2,0:0:0:0:
118,199,78586,5,8,0:0:0:0:
177,28,78695,1,8,0:0:0:0:
0,63,78804,1,8,0:0:0:0:
119,198,78913,5,2,0:0:0:0:
199,207,79021,1,2,0:0:0:0:
279,216,79130,2,0,L|284:258,1,23.7500000745057,2|0,0:0|0:0,0:0:0:0:
367,167,79239,2,0,L|372:124,1,23.7500000745057
452,219,79347,2,0,L|454:242,1,23.7500000745057
455,119,79456,2,0,L|460:76,1,23.7500000745057
370,69,79565,1,8,0:0:0:0:
289,102,79673,1,8,0:0:0:0:
211,61,79782,1,8,0:0:0:0:
133,20,79891,1,0,0:0:0:0:
55,61,79999,2,0,L|26:83,1,23.7500000745057,8|0,0:0|0:0,0:0:0:0:
28,193,80108,2,0,L|57:171,1,23.7500000745057,8|0,0:0|0:0,0:0:0:0:
36,310,80217,5,2,0:0:0:0:
55,325,80325,1,2,0:0:0:0:
74,340,80434,2,8,P|117:354|164:342,1,95.000000298023
213,178,80869,2,0,L|209:237,1,47.5000001490115
261,360,81086,2,0,L|264:312,1,47.5000001490115
126,149,81304,1,0,0:0:0:0:
331,274,81521,1,8,0:0:0:0:
147,238,81739,5,8,0:0:0:0:
213,178,81848,1,0,0:0:0:0:
297,205,81956,1,8,0:0:0:0:
363,145,82065,1,0,0:0:0:0:
278,117,82173,2,0,B|261:95|261:95|247:63,1,47.5000001490115,2|0,0:0|0:0,0:0:0:0:
139,81,82391,2,0,L|134:156,1,47.5000001490115,2|0,0:0|0:0,0:0:0:0:
227,313,82608,1,8,0:0:0:0:
230,265,82716,1,8,0:0:0:0:
143,340,82826,2,0,L|76:331,1,47.5000001490115,8|0,0:0|0:0,0:0:0:0:
314,238,83043,2,0,L|381:247,1,47.5000001490115
315,118,83260,2,0,P|269:163|213:166,1,95.000000298023,0|2,0:0|0:0,0:0:0:0:
385,40,83695,2,0,L|406:149,1,95.000000298023,0|2,0:0|0:0,0:0:0:0:
235,78,84130,5,8,0:0:0:0:
206,287,84347,1,2,0:0:0:0:
186,194,84456,1,0,0:0:0:0:
228,296,84565,1,2,0:0:0:0:
164,185,84673,1,2,0:0:0:0:
281,214,84782,2,0,L|351:207,1,47.5000001490115,2|0,0:0|0:0,0:0:0:0:
161,99,84999,2,0,P|121:107|105:117,1,47.5000001490115
251,139,85217,5,2,0:0:0:0:
278,127,85325,2,0,P|318:135|334:145,1,47.5000001490115
428,47,85652,2,0,L|435:122,1,47.5000001490115,2|0,0:0|0:0,0:0:0:0:
405,188,85869,2,8,L|412:263,2,47.5000001490115
386,376,86195,2,8,L|382:329,1,47.5000001490115
151,72,86521,5,8,0:0:0:0:
181,237,86630,1,8,0:0:0:0:
76,124,86739,2,0,L|84:184,1,47.5000001490115,2|0,0:0|0:0,0:0:0:0:
236,313,86956,1,8,0:0:0:0:
206,148,87065,1,8,0:0:0:0:
311,261,87174,2,0,L|303:201,1,47.5000001490115,2|0,0:0|0:0,0:0:0:0:
106,199,87391,6,8,P|61:204|9:169,1,95.000000298023
109,43,87717,1,8,0:0:0:0:
136,50,87826,2,8,L|166:142,1,95.000000298023
148,304,88152,1,0,0:0:0:0:
172,289,88260,1,8,0:0:0:0:
197,275,88369,1,0,0:0:0:0:
222,261,88478,2,0,L|276:291,1,47.5000001490115,2|0,0:0|0:0,0:0:0:0:
435,354,88695,6,8,L|441:289,1,47.5000001490115
314,46,88913,2,0,L|308:111,1,47.5000001490115,8|0,0:0|0:0,0:0:0:0:
331,287,89130,1,8,0:0:0:0:
195,146,89239,1,8,0:0:0:0:
388,158,89347,2,0,L|435:153,1,47.5000001490115,2|0,0:0|0:0,0:0:0:0:
148,231,89565,1,8,0:0:0:0:
100,235,89673,1,0,0:0:0:0:
63,204,89782,1,8,0:0:0:0:
25,172,89891,5,0,0:0:0:0:
148,231,89999,1,2,0:0:0:0:
25,290,90108,1,0,0:0:0:0:
135,150,90217,2,0,P|164:149|200:169,1,47.5000001490115,8|0,0:0|0:0,0:0:0:0:
259,338,90434,6,8,L|143:348,1,95.000000298023
317,272,90869,2,8,L|433:282,1,95.000000298023
281,182,91195,1,0,0:0:0:0:
266,163,91304,2,0,P|247:103|267:52,1,95.000000298023
145,89,91630,1,0,0:0:0:0:
123,98,91739,2,0,B|72:114|72:114|20:107,1,95.000000298023
89,315,92173,1,8,0:0:0:0:
156,195,92282,1,8,0:0:0:0:
173,332,92391,1,0,0:0:0:0:
79,230,92500,1,0,0:0:0:0:
214,257,92608,1,8,0:0:0:0:
349,230,92717,1,8,0:0:0:0:
236,155,92826,1,0,0:0:0:0:
347,218,92934,5,0,0:0:0:0:
212,245,93043,1,8,0:0:0:0:
347,218,93152,1,8,0:0:0:0:
234,143,93260,2,8,B|210:122|210:122|194:95,1,47.5000001490115
350,17,93478,1,2,0:0:0:0:
346,40,93586,1,2,0:0:0:0:
405,105,93695,1,8,0:0:0:0:
401,128,93804,1,2,0:0:0:0:
397,151,93912,1,2,0:0:0:0:
188,276,94130,6,0,P|224:292|254:352,1,95.000000298023,2|0,0:0|0:0,0:0:0:0:
95,337,94347,2,0,L|74:207,1,95.000000298023,2|0,0:0|0:0,0:0:0:0:
164,101,94565,2,0,L|143:231,1,95.000000298023
312,175,94782,1,0,0:0:0:0:
302,155,94891,2,0,L|289:126,1,23.7500000745057
383,41,95108,2,0,L|379:78,1,23.7500000745057,0|2,0:0|0:0,0:0:0:0:
399,195,95326,1,0,0:0:0:0:
387,220,95434,2,0,P|350:257|286:258,1,95.000000298023
405,333,95652,6,0,B|432:340|432:340|472:368|472:368|492:371,1,95.000000298023
271,343,95869,2,0,B|244:336|244:336|204:308|204:308|184:305,1,95.000000298023
218,144,96086,2,0,P|215:208|237:257,1,95.000000298023,2|0,0:0|0:0,0:0:0:0:
138,237,96304,2,0,P|104:270|61:289,1,95.000000298023
48,175,96521,1,0,0:0:0:0:
309,181,96630,1,0,0:0:0:0:
374,113,96739,1,0,0:0:0:0:
400,203,96847,1,0,0:0:0:0:
374,113,96956,2,0,B|338:104|338:104|315:84|315:84|276:75,1,95.000000298023,2|0,0:0|0:0,0:0:0:0:
220,140,97173,1,0,0:0:0:0:
408,32,97282,1,0,0:0:0:0:
491,225,97391,6,0,P|475:270|476:325,1,95.000000298023
310,315,97608,2,0,P|357:305|404:277,1,95.000000298023
228,260,97826,2,0,P|180:250|133:222,1,95.000000298023,2|0,0:0|0:0,0:0:0:0:
216,50,98043,2,0,L|228:161,1,95.000000298023
352,160,98260,1,0,0:0:0:0:
306,88,98369,1,0,0:0:0:0:
304,233,98478,1,0,0:0:0:0:
323,77,98586,1,0,0:0:0:0:
287,244,98695,1,2,0:0:0:0:
185,124,98804,5,0,0:0:0:0:
352,160,98913,1,0,0:0:0:0:
158,136,99021,1,0,0:0:0:0:
379,148,99130,2,0,B|392:140|392:140|395:185|412:244,1,95.000000298023
336,369,99347,2,0,L|360:263,1,95.000000298023
180,282,99565,2,0,P|256:291|293:269,1,95.000000298023,2|0,0:0|0:0,0:0:0:0:
91,231,99782,2,0,P|81:305|98:343,1,95.000000298023
227,185,99999,2,0,L|235:126,1,47.5000001490115
50,69,100217,5,8,0:0:0:0:
91,70,100289,1,8,0:0:0:0:
131,62,100361,1,8,0:0:0:0:
168,45,100434,1,10,0:0:0:0:
206,30,100506,5,2,0:0:0:0:
247,30,100578,5,10,0:0:0:0:
285,46,100651,1,8,0:0:0:0:
314,74,100723,1,8,0:0:0:0:
331,112,100797,1,8,0:0:0:0:
338,152,100869,2,0,B|327:195|327:195|345:277,1,95.000000298023
416,200,101086,5,10,0:0:0:0:
171,273,101195,1,0,0:0:0:0:
182,52,101413,5,10,0:0:0:0:
255,297,101522,1,0,0:0:0:0:
132,155,101739,2,0,P|106:215|69:241,1,95.000000298023,10|0,0:0|0:0,0:0:0:0:
23,138,101956,2,0,L|42:145,1,19.0000000596046,0|10,0:0|0:0,0:0:0:0:
232,209,102173,2,0,L|301:193,1,47.5000001490115
323,68,102391,5,10,0:0:0:0:
369,272,102499,1,0,0:0:0:0:
246,120,102608,2,0,P|301:162|331:164,1,95.000000298023,0|10,0:0|0:0,0:0:0:0:
184,271,102826,2,0,L|154:278,1,19.0000000596046
76,107,103043,5,10,0:0:0:0:
181,180,103152,1,0,0:0:0:0:
31,235,103260,1,0,0:0:0:0:
31,235,103315,1,0,0:0:0:0:
31,235,103369,1,0,0:0:0:0:
259,222,103478,2,0,P|291:229|319:243,1,47.5000001490115,10|0,0:0|0:0,0:0:0:0:
294,72,103695,1,0,0:0:0:0:
276,91,103804,2,0,L|240:164,1,47.5000001490115,10|0,0:0|0:0,0:0:0:0:
218,327,104021,2,0,L|182:254,1,47.5000001490115,0|10,0:0|0:0,0:0:0:0:
326,162,104239,1,0,0:0:0:0:
434,299,104347,6,0,L|361:335,1,47.5000001490115,0|10,0:0|0:0,0:0:0:0:
216,179,104565,1,8,0:0:0:0:
127,200,104673,1,8,0:0:0:0:
280,99,104782,2,0,L|288:78,1,11.8750000372529
330,75,104836,2,0,L|326:87,1,11.8750000372529
372,76,104891,2,0,L|380:55,1,11.8750000372529
192,94,104999,6,8,P|171:74|152:36,1,47.5000001490115
75,128,105217,1,0,0:0:0:0:
62,150,105326,2,8,L|42:224,1,47.5000001490115
164,340,105543,2,0,L|143:332,1,11.8750000372529
140,289,105597,2,0,L|151:293,1,11.8750000372529
141,248,105652,2,0,L|120:240,1,11.8750000372529
291,212,105760,1,0,0:0:0:0:
304,217,105869,2,8,P|337:200|347:188,1,47.5000001490115
228,71,106086,6,0,P|165:123|57:150,1,190.000000596046,2|0,0:0|0:0,0:0:0:0:
210,197,106413,1,2,0:0:0:0:
222,211,106521,2,0,B|266:235|266:235|326:246,1,95.000000298023,2|0,0:0|0:0,0:0:0:0:
181,279,106739,2,0,B|135:304|135:304|45:300|45:300|-9:333,1,190.000000596046,2|0,0:0|0:0,0:0:0:0:
49,186,107065,2,0,P|105:89|205:90,1,190.000000596046,2|0,0:0|0:0,0:0:0:0:
439,230,107391,1,8,0:0:0:0:
298,207,107500,1,0,0:0:0:0:
158,185,107608,1,8,0:0:0:0:
209,318,107717,1,8,0:0:0:0:
255,37,107826,1,2,0:0:0:0:
