osu file format v14

[General]
AudioFilename: 05. Dynasty -da capo-.mp3
AudioLeadIn: 1000
PreviewTime: 130065
Countdown: 0
SampleSet: Soft
StackLeniency: 0.7
Mode: 0
LetterboxInBreaks: 0
WidescreenStoryboard: 0

[Editor]
Bookmarks: 19932,66906,87224,160874,244684,313890,317699,325318,332937
DistanceSpacing: 0.8
BeatDivisor: 4
GridSize: 4
TimelineZoom: 3.100005

[Metadata]
Title:Dynasty -da capo-
TitleUnicode:Dynasty -da capo-
Artist:Yooh
ArtistUnicode:Yooh
Creator:10nya
Version:Descendant
Source:SOUND VOLTEX BOOTH
Tags:sdvx -_t_e_n_n_y_a_- ULTIMATE TRACKS -LEGEND OF KAC-
BeatmapID:658120
BeatmapSetID:292418

[Difficulty]
HPDrainRate:5.7
CircleSize:4.2
OverallDifficulty:8
ApproachRate:9.3
SliderMultiplier:1.85
SliderTickRate:2

[Events]
//Background and Video events
0,0,"dynasty.jpg",0,0
//Break Periods
2,237248,244113
//Storyboard Layer 0 (Background)
//Storyboard Layer 1 (Fail)
//Storyboard Layer 2 (Pass)
//Storyboard Layer 3 (Foreground)
//Storyboard Sound Samples

[TimingPoints]
859,317.460317460317,4,1,1,70,1,0
1017,-133.333333333333,4,1,1,60,0,0
20461,-133.333333333333,4,1,1,60,0,0
20858,-100,4,1,1,70,0,0
21335,-100,4,1,2,70,0,0
40223,-66.6666666666667,4,1,2,70,0,0
41097,-66.6666666666667,4,1,2,30,0,0
41176,-66.6666666666667,4,1,2,70,0,0
41493,-100,4,1,1,70,0,0
60541,-200,4,1,1,70,0,0
66255,-125,4,1,1,70,0,0
66493,-125,4,1,1,30,0,0
66572,-66.6666666666667,4,1,1,70,0,0
66890,-133.333333333333,4,1,1,70,0,0
87207,-100,4,1,1,70,0,0
108636,-66.6666666666667,4,1,1,70,0,0
108794,-100,4,1,1,70,0,0
109905,-66.6666666666667,4,1,1,70,0,0
110064,-100,4,1,1,70,0,0
112445,-66.6666666666667,4,1,1,70,0,0
112604,-100,4,1,1,70,0,0
114985,-66.6666666666667,4,1,1,70,0,0
115144,-100,4,1,1,70,0,0
118636,-66.6666666666667,4,1,1,70,0,0
118953,-100,4,1,1,70,0,0
119827,-100,4,1,1,30,0,0
119905,-66.6666666666667,4,1,1,70,0,0
120223,-100,4,1,1,70,0,0
126652,-133.333333333333,4,2,1,70,0,0
130064,-133.333333333333,4,2,1,50,0,0
130382,317.460317460317,3,2,1,70,1,0
130382,-133.333333333333,3,2,1,70,0,0
162128,-100,4,2,1,70,0,0
162445,-133.333333333333,4,2,1,70,0,0
164032,-100,4,2,1,70,0,0
164350,-133.333333333333,4,2,1,70,0,0
165937,-100,4,2,1,70,0,0
166254,-133.333333333333,4,2,1,70,0,0
166572,-100,4,2,1,70,0,0
166889,-133.333333333333,4,2,1,70,0,0
167207,-100,4,2,1,70,0,0
167524,-133.333333333333,4,2,1,70,0,0
167842,-100,4,2,1,70,0,0
168477,-133.333333333333,4,1,1,70,0,0
174826,-100,4,1,1,70,0,0
175143,-200,4,1,1,70,0,0
175461,-100,4,1,1,70,0,0
175778,-66.6666666666667,4,1,1,70,0,0
176096,-83.3333333333333,4,1,3,70,0,1
206572,-100,4,1,1,70,0,0
244668,-100,4,2,1,70,0,0
251335,-100,4,1,1,70,0,0
279905,-100,4,1,1,70,0,0
281810,317.460317460317,5,1,1,70,1,0
283397,317.460317460317,3,2,1,70,1,0
283397,-133.333333333333,4,2,1,70,0,0
284349,-83.3333333333333,4,2,1,70,0,0
285301,-133.333333333333,4,2,1,70,0,0
286254,-83.3333333333333,4,2,1,70,0,0
287206,-133.333333333333,4,2,1,70,0,0
288158,-83.3333333333333,4,2,1,70,0,0
289111,-133.333333333333,4,2,1,70,0,0
289428,-100,4,2,1,70,0,0
289746,-66.6666666666667,4,2,1,70,0,0
290222,-66.6666666666667,4,1,1,70,0,0
290777,-100,4,1,1,70,0,0
298636,317.460317460317,3,1,1,70,1,1
298636,-83.3333333333333,3,1,1,70,0,1
312921,-83.3333333333333,3,1,1,70,0,0
313874,-83.3333333333333,3,1,1,70,0,1
343080,-66.6666666666667,3,1,1,70,0,1
343556,-83.3333333333333,3,1,1,70,0,1
344350,-100,3,1,1,70,0,0
360223,-66.6666666666667,3,1,1,70,0,0
360699,-100,3,1,1,70,0,0
369191,-66.6666666666667,3,1,1,40,0,0

[Colours]
Combo1 : 255,51,56
Combo2 : 155,151,232
Combo3 : 233,151,39
Combo4 : 142,206,253

[HitObjects]
336,336,859,5,4,0:0:0:0:
336,336,1176,6,0,L|340:244,1,69.3750026464463,0|0,0:0|2:0,0:0:0:0:
432,128,1493,2,0,L|436:220,1,69.3750026464463,0|0,0:0|2:0,0:0:0:0:
272,136,1811,2,0,P|204:152|138:96,1,138.750005292893
148,116,2287,1,0,2:0:0:0:
24,216,2446,6,0,L|108:212,1,69.3750026464463,0|0,0:0|2:0,0:0:0:0:
340,140,2763,2,0,L|256:136,1,69.3750026464463,0|0,0:0|2:0,0:0:0:0:
212,236,3081,2,0,B|240:344|240:344|248:300,1,138.750005292893
308,192,3557,1,0,2:0:0:0:
140,264,3716,22,0,L|160:352,1,69.3750026464463,0|0,0:0|2:0,0:0:0:0:
176,168,4033,2,0,P|141:158|106:166,1,69.3750026464463,0|0,0:0|2:0,0:0:0:0:
308,192,4351,2,0,P|343:203|378:195,1,69.3750026464463,0|2,0:0|0:0,0:0:0:0:
356,88,4668,5,0,0:0:0:0:
252,116,4827,1,0,2:0:0:0:
148,116,4985,2,0,L|78:113,1,69.3750026464463,0|0,0:0|2:0,0:0:0:0:
164,244,5303,2,0,L|233:246,1,69.3750026464463,0|0,0:0|2:0,0:0:0:0:
352,288,5620,2,0,P|357:237|348:193,1,69.3750026464463,0|2,0:0|0:0,0:0:0:0:
128,340,5938,5,2,0:0:0:0:
278,195,6097,1,0,2:0:0:0:
76,212,6255,2,0,P|128:200|160:212,1,69.3750026464463,0|0,0:0|2:0,0:0:0:0:
352,288,6573,2,0,P|300:300|268:288,1,69.3750026464463,0|0,0:0|2:0,0:0:0:0:
252,184,6890,2,0,P|264:132|252:100,1,69.3750026464463,0|2,0:0|1:0,0:0:0:0:
124,132,7208,5,0,0:0:0:0:
196,32,7366,1,0,2:0:0:0:
282,114,7525,2,0,P|330:114|362:102,1,69.3750026464463,0|0,0:0|2:0,0:0:0:0:
112,64,7843,2,0,P|64:64|32:52,1,69.3750026464463,0|0,0:0|2:0,0:0:0:0:
188,124,8160,2,0,L|196:216,1,69.3750026464463,0|2,0:0|0:0,0:0:0:0:
136,288,8478,5,0,0:0:0:0:
232,360,8636,1,0,2:0:0:0:
124,376,8795,2,0,L|28:380,1,69.3750026464463,0|0,0:0|2:0,0:0:0:0:
260,264,9112,2,0,L|329:266,1,69.3750026464463,0|0,0:0|2:0,0:0:0:0:
124,376,9430,2,0,L|55:374,1,69.3750026464463,0|2,0:0|0:0,0:0:0:0:
104,160,9747,5,0,0:0:0:0:
148,272,9906,1,0,2:0:0:0:
240,188,10065,2,0,L|320:180,1,69.3750026464463,0|0,0:0|2:0,0:0:0:0:
456,260,10382,2,0,L|376:252,1,69.3750026464463,0|0,0:0|2:0,0:0:0:0:
328,152,10700,2,0,P|320:108|328:76,1,69.3750026464463,0|0,0:0|2:0,0:0:0:0:
312,312,11017,38,0,P|248:296|180:328,1,138.750005292893,4|0,0:0|0:0,0:0:0:0:
183,324,11652,2,0,L|87:320,1,69.3750026464463,0|0,0:0|2:0,0:0:0:0:
352,384,11970,2,0,L|448:380,1,69.3750026464463,0|0,0:0|2:0,0:0:0:0:
348,236,12287,6,0,L|358:167,1,69.3750026464463,0|0,0:0|2:0,0:0:0:0:
172,255,12605,2,0,L|182:323,1,69.3750026464463,0|0,0:0|2:0,0:0:0:0:
284,112,12922,2,0,P|220:124|136:76,2,138.750005292893
284,112,13874,6,0,L|276:196,1,69.3750026464463,0|0,0:0|2:0,0:0:0:0:
400,156,14192,2,0,L|469:151,2,69.3750026464463,0|0|0,0:0|2:0|0:0,0:0:0:0:
296,264,14668,1,0,2:0:0:0:
296,264,14827,2,0,L|227:259,2,69.3750026464463,0|0|0,0:0|2:0|0:0,0:0:0:0:
373,203,15303,1,0,2:0:0:0:
364,332,15462,2,0,P|390:275|357:185,1,138.750005292893
316,120,15938,1,0,0:0:0:0:
196,260,16097,5,0,0:0:0:0:
196,260,16414,1,0,0:0:0:0:
264,176,16573,1,0,2:0:0:0:
152,160,16732,2,0,L|72:156,1,69.3750026464463,0|0,0:0|2:0,0:0:0:0:
280,200,17049,2,0,L|360:196,1,69.3750026464463,0|0,0:0|2:0,0:0:0:0:
184,312,17366,6,0,P|183:267|193:236,1,69.3750026464463,0|0,0:0|2:0,0:0:0:0:
272,104,17684,2,0,P|273:138|266:172,1,69.3750026464463,0|0,0:0|2:0,0:0:0:0:
156,152,18001,2,0,L|0:144,2,138.750005292893
240,352,18954,5,0,0:0:0:0:
240,352,19271,2,0,L|396:344,1,138.750005292893
300,236,19747,1,0,0:0:0:0:
84,296,19906,5,2,0:0:0:0:
72,272,19985,1,2,0:0:0:0:
72,244,20065,1,2,0:0:0:0:
76,216,20144,1,2,0:0:0:0:
80,188,20224,1,0,0:0:0:0:
76,160,20303,1,0,0:0:0:0:
72,132,20382,1,0,0:0:0:0:
64,104,20462,2,0,B|136:92|136:116|208:96,1,138.750005292893
324,128,20858,6,0,L|384:120,1,46.25
268,224,21017,2,0,L|328:216,1,46.25
228,308,21176,1,4,0:0:0:0:
201,97,21335,5,0,0:0:0:0:
201,97,21493,2,0,L|97:86,1,92.5,8|2,0:0|0:0,0:0:0:0:
160,188,21811,2,0,L|67:178,1,92.5,0|2,0:0|0:0,0:0:0:0:
104,272,22128,1,8,0:0:0:0:
201,97,22287,2,0,L|16:80,1,185,2|0,0:0|0:0,0:0:0:0:
240,224,22763,21,8,0:0:0:0:
292,108,22922,1,2,0:0:0:0:
384,192,23081,2,0,L|476:198,1,92.5,0|2,0:0|0:0,0:0:0:0:
240,224,23398,1,8,0:0:0:0:
247,39,23557,2,0,L|239:231,1,185,2|0,0:0|0:0,0:0:0:0:
316,212,24033,21,8,0:0:0:0:
168,132,24192,1,2,0:0:0:0:
324,44,24351,2,0,L|320:144,1,92.5,0|2,0:0|0:0,0:0:0:0:
160,320,24668,2,0,L|156:227,1,92.5,8|2,0:0|0:0,0:0:0:0:
148,56,24985,5,0,0:0:0:0:
104,140,25144,2,0,P|152:152|208:128,1,92.5,0|8,0:0|0:0,0:0:0:0:
360,48,25462,1,0,0:0:0:0:
360,48,25620,2,0,P|312:36|256:60,1,92.5
404,196,25938,1,8,0:0:0:0:
500,88,26097,1,0,0:0:0:0:
488,284,26255,5,4,0:0:0:0:
488,284,26414,2,0,P|442:287|399:270,1,92.5,2|8,0:0|0:0,0:0:0:0:
256,224,26732,1,2,0:0:0:0:
348,116,26890,2,0,L|336:236,1,92.5
440,172,27208,1,8,0:0:0:0:
320,296,27366,2,0,B|240:296|240:296|208:304|208:304|108:304,1,185,2|0,0:0|0:0,0:0:0:0:
347,175,27843,21,8,0:0:0:0:
347,175,28001,2,0,L|463:171,1,92.5,2|0,0:0|0:0,0:0:0:0:
304,264,28319,1,2,0:0:0:0:
224,120,28478,1,8,0:0:0:0:
320,292,28636,2,0,L|436:288,1,92.5
156,228,28954,5,0,0:0:0:0:
232,188,29112,2,0,P|244:236|228:276,1,92.5,8|0,0:0|0:0,0:0:0:0:
156,332,29430,1,0,0:0:0:0:
336,280,29589,1,0,0:0:0:0:
276,380,29747,1,8,0:0:0:0:
304,204,29906,6,0,P|364:204|408:316,1,185,2|2,0:0|0:0,0:0:0:0:
200,184,30382,1,8,0:0:0:0:
256,288,30541,1,2,0:0:0:0:
160,360,30700,2,0,L|48:348,1,92.5,0|2,0:0|0:0,0:0:0:0:
200,184,31017,1,8,0:0:0:0:
40,344,31176,1,0,0:0:0:0:
32,148,31335,21,4,0:0:0:0:
32,148,31493,2,0,L|40:252,1,92.5,0|8,0:0|0:0,0:0:0:0:
152,296,31811,1,0,0:0:0:0:
140,112,31970,1,0,0:0:0:0:
240,240,32128,1,2,0:0:0:0:
172,128,32287,1,8,0:0:0:0:
160,336,32446,1,2,0:0:0:0:
340,284,32605,5,0,0:0:0:0:
284,167,32763,2,0,P|295:123|288:78,1,92.5,2|8,0:0|0:0,0:0:0:0:
192,120,33081,1,0,0:0:0:0:
256,256,33239,2,0,P|312:244|352:260,1,92.5,0|2,0:0|0:0,0:0:0:0:
147,191,33557,1,8,0:0:0:0:
300,328,33716,1,2,0:0:0:0:
156,384,33874,5,0,0:0:0:0:
159,283,34033,2,0,L|147:183,1,92.5,2|8,0:0|0:0,0:0:0:0:
72,252,34351,1,2,0:0:0:0:
232,228,34509,1,0,0:0:0:0:
56,216,34668,1,2,0:0:0:0:
228,324,34827,1,8,0:0:0:0:
204,76,34985,6,0,P|144:124|44:104,1,185,2|2,0:0|0:0,0:0:0:0:
260,168,35462,2,0,P|320:148|352:156,1,92.5,8|0,0:0|0:0,0:0:0:0:
312,240,35779,1,0,0:0:0:0:
424,152,35938,1,2,0:0:0:0:
368,336,36097,1,8,0:0:0:0:
408,124,36255,1,2,0:0:0:0:
496,264,36414,5,4,0:0:0:0:
496,264,36573,2,0,L|392:248,1,92.5,0|8,0:0|0:0,0:0:0:0:
216,188,36890,1,2,0:0:0:0:
236,276,37049,1,0,0:0:0:0:
200,104,37208,1,2,0:0:0:0:
160,308,37366,1,8,0:0:0:0:
276,76,37525,1,2,0:0:0:0:
112,196,37684,5,0,0:0:0:0:
112,196,37843,2,0,L|228:184,1,92.5,2|8,0:0|0:0,0:0:0:0:
332,140,38160,1,2,0:0:0:0:
304,304,38319,2,0,P|280:252|284:204,1,92.5
312,96,38636,1,8,0:0:0:0:
448,132,38795,1,2,0:0:0:0:
360,244,38954,21,0,0:0:0:0:
360,244,39112,2,0,L|460:232,1,92.5,2|8,0:0|0:0,0:0:0:0:
368,160,39430,1,2,0:0:0:0:
312,332,39589,1,0,0:0:0:0:
312,332,39747,1,0,0:0:0:0:
248,192,39906,1,10,0:0:0:0:
136,268,40065,1,0,0:0:0:0:
344,240,40224,5,0,0:0:0:0:
364,196,40303,1,0,0:0:0:0:
364,148,40382,1,0,0:0:0:0:
360,100,40462,1,0,0:0:0:0:
340,56,40541,2,0,L|268:52,1,69.3750026464463
178,195,40700,2,0,L|250:191,1,69.3750026464463
52,108,40858,6,0,P|16:204|84:304,1,208.125007939339,2|0,0:0|0:0,0:0:0:0:
196,364,41176,6,0,L|180:284,1,69.3750026464463
300,88,41335,2,0,L|286:156,1,69.3750026464463
332,292,41493,6,0,P|396:256|496:312,1,185,4|2,0:0|0:0,0:0:0:0:
408,348,41970,1,0,0:0:0:0:
260,240,42128,2,0,P|232:196|260:72,1,185,0|2,0:0|0:0,0:0:0:0:
416,148,42763,2,0,P|341:141|257:70,1,185,0|2,0:0|0:0,0:0:0:0:
280,240,43239,1,2,0:0:0:0:
280,240,43398,22,0,L|388:232,1,92.5,0|2,0:0|0:0,0:0:0:0:
176,328,43716,2,0,L|68:320,1,92.5,0|2,0:0|0:0,0:0:0:0:
20,180,44033,22,0,P|76:208|180:132,1,185,0|2,0:0|0:0,0:0:0:0:
208,32,44509,1,2,0:0:0:0:
208,32,44668,2,0,B|200:104|200:104|212:152|212:152|208:220,1,185,0|2,0:0|0:0,0:0:0:0:
456,344,45303,2,0,P|400:320|280:368,1,185,0|2,0:0|0:0,0:0:0:0:
120,356,45779,1,2,0:0:0:0:
208,284,45938,6,0,L|212:188,1,92.5,0|2,0:0|0:0,0:0:0:0:
384,64,46255,2,0,L|388:160,1,92.5,2|2,0:0|0:0,0:0:0:0:
104,108,46573,6,0,L|324:120,1,185,4|2,0:0|0:0,0:0:0:0:
368,248,47049,1,2,0:0:0:0:
368,248,47208,2,0,P|308:216|200:280,1,185,0|2,0:0|0:0,0:0:0:0:
208,262,47843,2,0,B|200:184|200:184|208:116|208:116|200:36,1,185,0|2,0:0|0:0,0:0:0:0:
16,152,48319,1,2,0:0:0:0:
32,244,48478,22,0,L|144:228,1,92.5,0|2,0:0|0:0,0:0:0:0:
396,136,48795,2,0,L|284:120,1,92.5,2|2,0:0|0:0,0:0:0:0:
164,336,49112,6,0,P|240:300|320:356,1,185,0|2,0:0|0:0,0:0:0:0:
432,344,49589,1,2,0:0:0:0:
432,344,49747,2,0,P|359:321|318:221,1,185,0|2,0:0|0:0,0:0:0:0:
60,84,50382,2,0,B|148:84|148:84|176:92|176:92|256:92,1,185,0|2,0:0|0:0,0:0:0:0:
124,176,50858,1,2,0:0:0:0:
124,176,51017,6,0,L|8:184,1,92.5,0|2,0:0|0:0,0:0:0:0:
332,84,51335,2,0,L|448:92,1,92.5,2|2,0:0|0:0,0:0:0:0:
424,292,51652,22,0,P|352:256|256:308,1,185,4|8,0:0|0:0,0:0:0:0:
101,291,52287,2,0,P|183:255|263:297,1,185,0|8,0:0|0:0,0:0:0:0:
263,297,52922,2,0,P|303:245|295:105,1,185,0|8,0:0|0:0,0:0:0:0:
60,140,53398,1,8,0:0:0:0:
164,216,53557,2,0,P|184:160|180:92,1,92.5
40,236,53874,1,8,0:0:0:0:
137,37,54033,1,0,0:0:0:0:
40,236,54192,6,0,P|128:208|194:284,1,185,4|8,0:0|0:0,0:0:0:0:
370,262,54827,2,0,B|337:271|337:271|245:255|245:255|189:265,1,185,0|8,0:0|0:0,0:0:0:0:
188,265,55462,2,0,B|204:195|204:195|196:83,1,185,0|8,0:0|0:0,0:0:0:0:
264,8,55938,1,8,0:0:0:0:
284,96,56097,2,0,L|296:196,1,92.5,0|2,0:0|0:0,0:0:0:0:
60,240,56414,1,8,0:0:0:0:
136,172,56573,5,2,0:0:0:0:
164,172,56652,1,2,0:0:0:0:
192,176,56732,1,4,0:0:0:0:
60,240,56890,1,0,0:0:0:0:
96,88,57049,1,8,0:0:0:0:
172,272,57208,21,2,0:0:0:0:
198,281,57287,1,2,0:0:0:0:
223,294,57366,1,2,0:0:0:0:
72,368,57525,1,0,0:0:0:0:
88,216,57684,1,8,0:0:0:0:
260,312,57843,6,0,L|308:304,2,46.25,0|0|4,0:0|0:0|0:0,0:0:0:0:
428,288,58160,1,0,0:0:0:0:
416,144,58319,1,8,0:0:0:0:
304,208,58478,5,2,0:0:0:0:
280,176,58557,1,2,0:0:0:0:
284,136,58636,1,2,0:0:0:0:
496,216,58795,1,0,0:0:0:0:
364,288,58954,2,0,P|308:304|256:284,1,92.5,8|0,0:0|0:0,0:0:0:0:
104,344,59271,5,4,0:0:0:0:
120,300,59351,1,0,0:0:0:0:
128,256,59430,1,0,0:0:0:0:
124,212,59509,1,0,0:0:0:0:
116,168,59589,1,0,0:0:0:0:
88,132,59668,1,0,0:0:0:0:
56,100,59747,1,0,0:0:0:0:
40,56,59827,1,0,0:0:0:0:
32,12,59906,6,0,L|92:20,1,46.25
376,60,60065,2,0,L|331:67,1,46.25
184,152,60224,2,0,L|178:107,1,46.25
300,300,60382,2,0,L|294:345,1,46.25
280,204,60541,6,0,B|312:188|348:204|348:204|380:236|428:233|468:228|504:140|464:64|388:64|344:116|376:160|404:148,1,370,0|4,0:0|0:0,0:0:0:0:
256,192,61890,12,2,65620,2:0:0:0:
456,216,66255,6,0,B|400:208|400:208|324:224,1,111
315,127,66573,6,0,L|319:49,1,69.3750026464463
126,35,66732,2,0,L|130:113,1,69.3750026464463
23,209,66890,6,0,P|111:197|167:233,1,138.750005292893,4|0,0:0|2:0,0:0:0:0:
206,298,67366,2,0,B|266:310|266:310|374:298,1,138.750005292893,2|0,0:0|2:0,0:0:0:0:
400,228,67843,2,0,L|404:72,1,138.750005292893,0|0,0:0|2:0,0:0:0:0:
93,90,68319,2,0,L|96:228,1,138.750005292893,0|0,0:0|2:0,0:0:0:0:
96,236,68795,6,0,L|176:228,1,69.3750026464463,0|2,0:0|2:0,0:0:0:0:
392,172,69112,2,0,L|312:164,1,69.3750026464463,0|2,0:0|2:0,0:0:0:0:
456,244,69430,6,0,P|484:180|464:112,1,138.750005292893,4|0,0:3|2:0,0:0:0:0:
376,304,69906,2,0,B|444:296|444:296|520:320,1,138.750005292893,2|0,0:0|2:0,0:0:0:0:
264,360,70382,2,0,B|201:332|201:332|147:274,1,138.750005292893,0|0,0:0|2:0,0:0:0:0:
80,216,70858,2,0,P|152:236|216:196,1,138.750005292893,2|0,0:0|2:0,0:0:0:0:
211,201,71335,22,0,L|208:132,1,69.3750026464463,0|2,0:0|2:0,0:0:0:0:
404,32,71652,2,0,L|400:101,1,69.3750026464463,0|2,0:0|2:0,0:0:0:0:
468,304,71970,6,0,P|392:288|340:328,1,138.750005292893,4|0,0:3|2:0,0:0:0:0:
260,360,72446,2,0,P|248:284|260:212,1,138.750005292893,2|0,0:0|2:0,0:0:0:0:
352,184,72922,2,0,P|364:108|352:36,1,138.750005292893,0|0,0:0|2:0,0:0:0:0:
156,47,73398,2,0,P|148:115|160:184,1,138.750005292893,2|0,0:0|2:0,0:0:0:0:
164,200,73874,5,0,0:0:0:0:
312,276,74033,1,2,2:0:0:0:
144,360,74192,1,0,0:0:0:0:
204,288,74351,1,2,2:0:0:0:
256,208,74509,22,0,P|304:192|392:236,1,138.750005292893,4|0,0:3|2:0,0:0:0:0:
464,300,74985,2,0,B|448:232|448:232|456:148,1,138.750005292893,2|0,0:0|2:0,0:0:0:0:
400,80,75462,2,0,P|328:96|260:60,1,138.750005292893,2|0,0:0|2:0,0:0:0:0:
176,44,75938,2,0,P|104:28|36:64,1,138.750005292893,2|0,0:0|2:0,0:0:0:0:
36,220,76414,5,4,0:3:0:0:
116,112,76573,1,2,2:0:0:0:
160,284,76732,1,0,0:0:0:0:
116,112,76890,1,2,2:0:0:0:
92,304,77049,6,0,B|152:284|152:284|252:304,1,138.750005292893,4|0,0:0|0:0,0:0:0:0:
320,324,77525,2,0,B|380:344|380:344|480:324,1,138.750005292893,2|0,0:0|0:0,0:0:0:0:
288,220,78001,1,2,0:0:0:0:
288,220,78319,1,0,0:0:0:0:
168,204,78478,6,0,L|24:192,1,138.750005292893,2|0,0:0|0:0,0:0:0:0:
29,192,78954,2,0,L|28:100,1,69.3750026464463,2|0,0:0|2:0,0:0:0:0:
256,152,79271,2,0,L|254:244,1,69.3750026464463,2|0,0:0|2:0,0:0:0:0:
168,360,79589,21,2,0:0:0:0:
168,360,79747,1,0,2:0:0:0:
264,236,80065,1,2,0:0:0:0:
264,236,80224,2,0,L|112:232,1,138.750005292893,0|2,2:0|0:0,0:0:0:0:
312,152,80858,5,0,2:0:0:0:
312,152,81017,2,0,L|160:148,1,138.750005292893,2|0,0:0|2:0,0:0:0:0:
283,76,81493,2,0,L|208:72,1,69.3750026464463,2|0,0:0|2:0,0:0:0:0:
244,228,81811,2,0,L|313:231,1,69.3750026464463,2|0,0:0|2:0,0:0:0:0:
436,176,82128,5,2,0:0:0:0:
436,176,82287,2,0,P|400:116|428:44,1,138.750005292893,0|2,2:0|0:0,0:0:0:0:
308,120,82763,2,0,P|248:156|176:128,1,138.750005292893,0|2,2:0|0:0,0:0:0:0:
56,68,83239,1,0,2:0:0:0:
56,68,83557,5,2,0:0:0:0:
100,188,83716,1,0,2:0:0:0:
56,68,84033,2,0,L|144:60,1,69.3750026464463,2|0,0:0|2:0,0:0:0:0:
256,132,84351,2,0,L|344:124,1,69.3750026464463,2|0,0:0|2:0,0:0:0:0:
160,240,84668,5,2,0:0:0:0:
288,288,84827,1,0,0:0:0:0:
248,168,84985,1,0,0:0:0:0:
288,288,85144,2,0,P|344:300|412:236,1,138.750005292893,2|0,0:0|0:0,0:0:0:0:
201,211,85620,2,0,L|103:208,1,69.3750026464463,2|0,0:0|0:0,0:0:0:0:
296,136,85938,5,2,0:0:0:0:
296,136,86097,1,0,0:0:0:0:
228,328,86255,1,2,0:0:0:0:
228,328,86414,1,0,0:0:0:0:
192,88,86573,1,2,0:0:0:0:
192,88,86732,1,0,0:0:0:0:
320,244,86890,2,0,L|379:231,1,34.6875013232232
172,208,87049,2,0,L|113:195,1,34.6875013232232
132,324,87208,6,0,P|184:304|288:376,1,185,4|2,0:0|0:0,0:0:0:0:
476,232,87684,2,0,P|388:256|300:192,1,185,2|2,0:0|0:0,0:0:0:0:
260,128,88160,1,2,0:0:0:0:
260,128,88319,2,0,L|276:312,2,185,2|2|0,0:0|0:0|0:0,0:0:0:0:
184,84,89112,6,0,P|132:80|88:104,1,92.5,0|2,0:0|0:0,0:0:0:0:
76,316,89430,2,0,P|128:320|172:296,1,92.5,2|0,0:0|0:0,0:0:0:0:
284,200,89747,21,2,0:0:0:0:
284,200,89906,2,0,B|212:200|212:200|172:208|172:208|76:208,2,185,0|2|0,0:0|0:0|0:0,0:0:0:0:
412,184,90700,1,2,0:0:0:0:
356,320,90858,1,0,0:0:0:0:
356,320,91176,1,2,0:0:0:0:
356,320,91335,2,0,L|352:227,1,92.5
256,160,91652,5,2,0:0:0:0:
432,260,91811,1,0,0:0:0:0:
344,92,91970,1,2,0:0:0:0:
352,227,92128,1,0,0:0:0:0:
416,52,92287,6,0,P|356:80|244:20,1,185,4|0,0:0|0:0,0:0:0:0:
8,200,92763,2,0,B|72:184|72:184|196:184,1,185,2|2,0:0|0:0,0:0:0:0:
268,260,93239,1,2,0:0:0:0:
268,260,93398,2,0,P|228:208|284:104,2,185,2|2|0,0:0|0:0|0:0,0:0:0:0:
312,184,94192,21,2,0:0:0:0:
100,288,94351,1,0,0:0:0:0:
172,128,94509,1,2,0:0:0:0:
220,348,94668,1,0,0:0:0:0:
280,140,94827,5,2,0:0:0:0:
196,236,94985,2,0,L|392:224,1,185,2|2,0:0|0:0,0:0:0:0:
472,84,95462,2,0,P|420:104|320:16,1,185,0|2,0:0|0:0,0:0:0:0:
323,35,95938,1,2,0:0:0:0:
336,280,96255,1,0,0:0:0:0:
288,148,96414,1,2,0:0:0:0:
256,320,96573,1,2,0:0:0:0:
392,196,96732,6,0,L|500:208,1,92.5,0|2,0:0|0:0,0:0:0:0:
256,320,97049,1,2,0:0:0:0:
216,300,97128,1,2,0:0:0:0:
184,268,97208,1,2,0:0:0:0:
168,224,97287,1,2,0:0:0:0:
164,180,97366,22,0,P|180:128|300:84,1,185,4|0,0:0|0:0,0:0:0:0:
392,196,97843,1,2,0:0:0:0:
292,260,98001,2,0,P|264:200|256:156,1,92.5,2|0,0:0|0:0,0:0:0:0:
424,28,98319,1,2,0:0:0:0:
336,100,98478,2,0,P|264:140|168:72,2,185,2|2|0,0:0|0:0|0:0,0:0:0:0:
256,48,99271,5,2,0:0:0:0:
160,232,99430,1,0,0:0:0:0:
336,100,99589,2,0,L|344:193,1,92.5,2|0,0:0|0:0,0:0:0:0:
256,264,99906,5,2,0:0:0:0:
380,352,100065,2,0,B|342:337|282:357|282:357|238:365|198:349,1,185
84,184,100541,2,0,P|136:148|248:200,1,185,2|2,0:0|0:0,0:0:0:0:
256,280,101017,2,0,B|244:204|244:204|252:152|252:152|252:80,2,185,2|2|0,0:0|0:0|0:0,0:0:0:0:
352,192,101811,22,0,L|456:152,1,92.5,2|0,0:0|0:0,0:0:0:0:
160,192,102128,2,0,L|56:152,1,92.5,2|0,0:0|0:0,0:0:0:0:
344,72,102446,5,2,0:0:0:0:
256,160,102605,1,0,0:0:0:0:
168,72,102763,1,2,0:0:0:0:
226,234,102922,2,0,P|254:167|284:234,1,185,2|2,0:0|0:0,0:0:0:0:
256,384,103398,5,2,0:0:0:0:
140,272,103557,1,0,0:0:0:0:
372,272,103716,1,0,0:0:0:0:
144,376,103874,2,0,P|76:352|48:228,1,185,2|0,0:0|0:0,0:0:0:0:
232,275,104351,6,0,L|128:271,1,92.5,2|0,0:0|0:0,0:0:0:0:
20,124,104668,2,0,L|112:127,1,92.5,2|0,0:0|0:0,0:0:0:0:
260,76,104985,22,0,P|340:114|417:69,1,185,2|2,0:0|0:0,0:0:0:0:
180,200,105462,2,0,P|136:176|36:256,1,185,2|2,0:0|0:0,0:0:0:0:
344,308,105938,2,0,P|388:332|488:252,1,185,2|2,0:0|0:0,0:0:0:0:
372,24,106414,2,0,L|400:228,1,185,2|2,0:0|0:0,0:0:0:0:
152,116,106890,1,2,0:0:0:0:
268,68,107049,1,2,0:0:0:0:
180,200,107208,6,0,L|184:264,1,46.25,2|2,0:0|0:0,0:0:0:0:
100,360,107366,2,0,L|96:300,1,46.25,2|2,0:0|0:0,0:0:0:0:
244,308,107525,6,0,B|292:300|340:316|340:316|396:328|428:300,1,185,4|0,0:0|0:0,0:0:0:0:
372,224,108001,2,0,P|392:168|376:120,1,92.5
176,92,108319,1,0,0:0:0:0:
176,92,108636,6,0,L|168:176,1,69.3750026464463,0|2,0:0|0:0,0:0:0:0:
152,244,108795,5,0,0:0:0:0:
224,344,108954,1,0,0:0:0:0:
240,192,109112,1,0,0:0:0:0:
224,344,109271,1,0,0:0:0:0:
72,324,109430,2,0,P|52:252|40:136,1,185,2|2,0:0|0:0,0:0:0:0:
308,140,109906,38,0,L|314:209,1,69.3750026464463,2|2,0:0|0:0,0:0:0:0:
320,296,110065,5,0,0:0:0:0:
216,204,110224,1,0,0:0:0:0:
384,244,110382,1,0,0:0:0:0:
207,327,110541,1,0,0:0:0:0:
28,332,110700,2,0,B|76:324|124:340|124:340|180:352|212:324,1,185
160,252,111176,6,0,L|174:161,1,92.5
240,88,111493,2,0,P|304:76|388:164,1,185,2|2,0:0|0:0,0:0:0:0:
376,252,111970,1,0,0:0:0:0:
240,88,112128,1,0,0:0:0:0:
240,88,112446,6,0,L|232:164,1,69.3750026464463
216,248,112605,5,0,0:0:0:0:
140,136,112763,1,0,0:0:0:0:
216,288,112922,1,0,0:0:0:0:
64,196,113081,1,0,0:0:0:0:
220,328,113239,1,0,0:0:0:0:
220,328,113557,1,0,0:0:0:0:
216,288,113636,1,0,0:0:0:0:
208,252,113716,1,2,0:0:0:0:
200,216,113795,1,0,0:0:0:0:
192,180,113874,5,0,0:0:0:0:
312,232,114033,2,0,P|392:224|432:132,1,185
256,80,114509,1,2,0:0:0:0:
348,156,114668,1,0,0:0:0:0:
224,60,114827,1,2,0:0:0:0:
264,192,114985,22,0,L|272:272,1,69.3750026464463
312,336,115144,6,0,P|252:344|200:308,1,92.5,0|2,0:0|0:0,0:0:0:0:
68,252,115462,1,0,0:0:0:0:
144,364,115620,2,0,L|164:172,1,185,2|0,0:0|0:0,0:0:0:0:
72,144,116097,2,0,P|112:96|240:116,1,185
504,184,116573,6,0,P|464:232|336:216,1,185,2|2,0:0|0:0,0:0:0:0:
256,200,117049,1,0,0:0:0:0:
360,332,117208,1,0,0:0:0:0:
420,168,117366,1,0,0:0:0:0:
196,296,117525,1,0,0:0:0:0:
152,288,117605,1,0,0:0:0:0:
112,272,117684,6,0,P|104:216|120:184,1,92.5,4|0,0:0|0:0,0:0:0:0:
272,224,118001,1,0,0:0:0:0:
232,92,118160,2,0,P|152:112|76:36,1,185,2|2,0:0|0:0,0:0:0:0:
360,32,118636,1,0,0:0:0:0:
480,184,118795,6,0,L|488:80,1,69.3750026464463
408,216,118954,6,0,L|292:208,1,92.5,0|2,0:0|0:0,0:0:0:0:
107,310,119271,2,0,L|223:302,1,92.5,0|2,0:0|0:0,0:0:0:0:
232,220,119589,2,0,B|224:108|224:108|204:132,1,138.75,0|0,0:0|2:0,0:0:0:0:
200,304,119906,38,0,B|244:328|288:292|288:292|284:304|284:304|336:288|400:336,1,208.125007939339
374,160,120224,22,0,L|368:68,1,92.5,4|0,0:0|0:0,0:0:0:0:
496,240,120541,2,0,P|440:252|372:224,1,92.5,0|2,0:0|0:0,0:0:0:0:
40,308,120858,1,0,0:0:0:0:
256,232,121017,1,2,0:0:0:0:
40,308,121176,2,0,P|124:272|208:328,1,185,0|2,0:0|0:0,0:0:0:0:
472,200,121652,6,0,P|388:236|304:180,1,185,2|2,0:0|0:0,0:0:0:0:
272,124,122049,1,0,0:0:0:0:
272,124,122128,2,0,L|264:32,1,92.5,8|2,0:0|0:0,0:0:0:0:
208,240,122446,1,8,0:0:0:0:
376,104,122605,1,0,0:0:0:0:
376,104,122684,1,0,0:0:0:0:
376,104,122763,5,12,0:0:0:0:
192,232,122922,1,0,0:0:0:0:
204,52,123081,1,8,0:0:0:0:
312,136,123239,1,0,0:0:0:0:
324,184,123319,1,0,0:0:0:0:
336,236,123398,1,8,0:0:0:0:
120,296,123557,5,0,0:0:0:0:
232,168,123716,1,14,0:0:0:0:
232,168,123795,1,0,0:0:0:0:
232,168,123874,1,0,0:0:0:0:
252,332,124033,21,0,0:0:0:0:
420,168,124192,1,12,0:0:0:0:
380,320,124351,1,0,0:0:0:0:
324,184,124509,1,10,0:0:0:0:
416,68,124668,5,12,0:0:0:0:
392,80,124747,1,0,0:0:0:0:
364,88,124827,1,0,0:0:0:0:
336,80,124906,1,0,0:0:0:0:
312,72,124985,1,0,0:0:0:0:
284,64,125065,1,0,0:0:0:0:
256,56,125144,1,0,0:0:0:0:
228,56,125224,1,0,0:0:0:0:
184,68,125303,5,4,0:0:0:0:
144,92,125382,1,0,0:0:0:0:
116,128,125462,1,0,0:0:0:0:
108,172,125541,1,0,0:0:0:0:
112,216,125620,1,8,0:0:0:0:
128,260,125700,1,0,0:0:0:0:
156,296,125779,1,0,0:0:0:0:
200,316,125858,1,0,0:0:0:0:
248,320,125938,6,0,P|272:284|276:264,1,46.25
212,132,126097,2,0,P|216:175|226:192,1,46.25
352,192,126255,2,0,L|420:176,1,46.25,8|0,0:0|0:0,0:0:0:0:
480,92,126414,2,0,L|512:92,3,30.8333333333333,8|0|0|4,0:0|0:0|0:0|0:0,0:0:0:0:
256,192,126652,12,0,130224,0:0:0:0:
104,128,130382,6,0,L|100:88,3,23.1250008821488,2|0|0|0,0:0|0:0|0:0|0:0,0:0:0:0:
168,224,130699,2,0,L|252:216,1,69.3750026464463
404,144,131016,2,0,L|320:136,1,69.3750026464463,0|2,0:0|0:0,0:0:0:0:
472,96,131334,6,0,P|488:144|484:180,1,69.3750026464463,2|0,0:0|0:0,0:0:0:0:
256,100,131651,2,0,P|240:52|244:16,1,69.3750026464463,2|0,0:0|0:0,0:0:0:0:
352,56,131969,1,2,0:0:0:0:
256,244,132128,1,0,0:0:0:0:
444,232,132286,6,0,L|476:236,3,23.1250008821488,2|0|0|0,0:0|0:0|0:0|0:0,0:0:0:0:
344,200,132604,1,0,0:0:0:0:
364,336,132762,1,0,0:0:0:0:
444,232,132921,1,0,0:0:0:0:
256,244,133080,1,2,0:0:0:0:
272,52,133239,22,0,L|280:136,1,69.3750026464463,2|0,0:0|0:0,0:0:0:0:
112,312,133556,2,0,L|120:228,1,69.3750026464463,2|0,0:0|0:0,0:0:0:0:
16,104,133874,2,0,P|48:124|92:124,1,69.3750026464463,2|0,0:0|0:0,0:0:0:0:
176,68,134191,22,0,L|180:32,3,23.1250008821488,2|0|0|0,0:0|0:0|0:0|0:0,0:0:0:0:
196,156,134508,2,0,L|208:228,1,69.3750026464463
324,292,134826,2,0,L|312:364,1,69.3750026464463,0|2,0:0|0:0,0:0:0:0:
116,336,135143,22,0,P|160:344|208:332,1,69.3750026464463,2|0,0:0|0:0,0:0:0:0:
436,220,135461,2,0,P|392:212|344:224,1,69.3750026464463,2|0,0:0|0:0,0:0:0:0:
240,248,135778,2,0,L|236:160,1,69.3750026464463,2|0,0:0|0:0,0:0:0:0:
224,88,136096,5,0,0:0:0:0:
424,144,136413,1,0,0:0:0:0:
348,28,136731,5,2,0:0:0:0:
348,48,137048,1,2,0:0:0:0:
348,68,137366,5,0,0:0:0:0:
384,304,137524,1,2,0:0:0:0:
148,188,137683,1,2,0:0:0:0:
312,180,138001,22,0,L|320:144,3,23.1250008821488,2|0|0|0,0:0|0:0|0:0|0:0,0:0:0:0:
240,264,138318,1,0,0:0:0:0:
240,264,138477,1,0,0:0:0:0:
216,164,138635,1,0,0:0:0:0:
292,80,138794,1,2,0:0:0:0:
156,88,138953,6,0,L|80:76,1,69.3750026464463,2|0,0:0|0:0,0:0:0:0:
80,288,139270,2,0,L|156:276,1,69.3750026464463,2|0,0:0|0:0,0:0:0:0:
392,240,139588,2,0,P|384:184|392:148,1,69.3750026464463,2|0,0:0|0:0,0:0:0:0:
448,80,139905,6,0,L|452:48,3,23.1250008821488,2|0|2|0,0:0|0:0|0:0|0:0,0:0:0:0:
488,172,140223,1,0,0:0:0:0:
484,292,140382,1,0,0:0:0:0:
296,220,140540,2,0,L|384:228,1,69.3750026464463,0|2,0:0|0:0,0:0:0:0:
312,124,140858,21,2,0:0:0:0:
216,200,141016,1,0,0:0:0:0:
312,124,141175,1,2,0:0:0:0:
312,304,141334,1,0,0:0:0:0:
412,188,141493,2,0,L|416:264,1,69.3750026464463,2|0,0:0|0:0,0:0:0:0:
472,116,141810,6,0,P|428:100|356:116,1,104.06250396967,2|0,0:0|0:0,0:0:0:0:
336,132,142128,2,0,P|284:136|256:120,1,69.3750026464463,2|0,0:0|0:0,0:0:0:0:
128,12,142445,2,0,L|136:100,1,69.3750026464463,2|0,0:0|0:0,0:0:0:0:
68,256,142762,6,0,L|184:248,1,104.06250396967,2|0,0:0|0:0,0:0:0:0:
200,232,143080,2,0,L|208:144,1,69.3750026464463,2|0,0:0|0:0,0:0:0:0:
24,336,143397,2,0,L|152:340,1,104.06250396967,2|0,0:0|0:0,0:0:0:0:
160,328,143715,21,2,0:0:0:0:
160,328,144191,1,2,0:0:0:0:
264,192,144350,2,0,L|268:156,3,23.1250008821488,2|0|0|0,0:0|0:0|0:0|0:0,0:0:0:0:
124,216,144667,1,2,0:0:0:0:
216,264,144826,5,2,0:0:0:0:
216,264,144985,1,0,0:0:0:0:
188,96,145143,1,2,0:0:0:0:
352,136,145302,2,0,P|360:184|356:216,1,69.3750026464463,0|2,0:0|0:0,0:0:0:0:
312,308,145620,6,0,L|352:300,3,23.1250008821488,0|0|2|0,1:0|0:0|0:0|0:0,0:0:0:0:
216,264,145937,2,0,P|200:312|204:344,1,69.3750026464463,0|2,0:0|0:0,0:0:0:0:
312,224,146255,2,0,P|285:180|258:163,1,69.3750026464463,0|2,1:0|0:0,0:0:0:0:
64,192,146572,21,2,0:0:0:0:
232,236,146731,1,0,0:0:0:0:
72,292,146889,1,2,0:0:0:0:
164,140,147048,1,0,0:0:0:0:
188,332,147207,2,0,L|272:328,1,69.3750026464463,2|0,1:0|0:0,0:0:0:0:
368,268,147524,6,0,L|400:272,3,23.1250008821488,2|0|2|0,0:0|0:0|0:0|0:0,0:0:0:0:
232,236,147842,2,0,L|236:152,1,69.3750026464463,0|2,0:0|0:0,0:0:0:0:
288,316,148159,2,0,L|300:384,1,69.3750026464463,0|2,1:0|0:0,0:0:0:0:
304,128,148477,5,2,0:0:0:0:
332,252,148635,1,0,0:0:0:0:
412,152,148794,1,2,0:0:0:0:
416,328,148953,1,0,0:0:0:0:
512,208,149112,2,0,P|496:257|462:286,1,69.3750026464463,2|0,1:0|0:0,0:0:0:0:
332,252,149429,22,0,L|292:244,3,23.1250008821488,2|0|2|0,0:0|0:0|0:0|0:0,0:0:0:0:
236,348,149747,2,0,L|152:340,1,69.3750026464463,0|2,0:0|0:0,0:0:0:0:
76,200,150064,2,0,L|160:192,1,69.3750026464463,0|2,1:0|0:0,0:0:0:0:
304,180,150381,6,0,P|312:132|304:92,1,69.3750026464463,2|0,0:0|0:0,0:0:0:0:
196,292,150699,2,0,P|220:333|252:359,1,69.3750026464463,2|0,0:0|0:0,0:0:0:0:
388,252,151016,1,2,1:0:0:0:
240,76,151175,1,0,0:0:0:0:
240,76,151334,6,0,L|228:156,1,69.3750026464463,0|2,0:0|0:0,0:0:0:0:
296,308,151652,2,0,L|308:388,1,69.3750026464463,0|2,0:0|0:0,0:0:0:0:
300,204,151969,6,0,L|388:200,1,69.3750026464463,0|2,1:0|0:0,0:0:0:0:
136,288,152286,1,2,0:0:0:0:
136,288,152445,2,0,L|48:284,1,69.3750026464463,0|2,0:0|0:0,0:0:0:0:
148,124,152762,1,0,0:0:0:0:
240,256,152921,2,0,P|242:320|231:338,1,69.3750026464463,2|0,1:0|0:0,0:0:0:0:
132,368,153239,6,0,P|108:372|96:368,3,23.1250008821488,2|0|2|0,0:0|0:0|0:0|0:0,0:0:0:0:
184,192,153556,2,0,P|221:171|275:174,1,69.3750026464463,0|2,0:0|0:0,0:0:0:0:
400,268,153874,2,0,P|352:274|306:263,1,69.3750026464463,0|2,1:0|0:0,0:0:0:0:
324,156,154191,6,0,L|328:68,1,69.3750026464463,2|0,0:0|0:0,0:0:0:0:
248,264,154508,2,0,L|264:352,1,69.3750026464463,2|0,0:0|0:0,0:0:0:0:
184,192,154826,2,0,L|104:184,1,69.3750026464463,2|0,1:0|0:0,0:0:0:0:
324,156,155143,6,0,P|348:152|360:156,3,23.1250008821488,2|0|2|0,0:0|0:0|0:0|0:0,0:0:0:0:
181,122,155461,2,0,L|185:218,1,69.3750026464463,0|2,0:0|0:0,0:0:0:0:
312,332,155778,2,0,L|308:236,1,69.3750026464463,0|2,1:0|0:0,0:0:0:0:
196,280,156096,22,0,P|144:268|120:236,1,69.3750026464463,2|0,0:0|0:0,0:0:0:0:
312,128,156413,2,0,P|356:98|368:60,1,69.3750026464463,2|0,0:0|0:0,0:0:0:0:
120,80,156731,2,0,P|87:37|90:-2,1,69.3750026464463,2|0,1:0|0:0,0:0:0:0:
244,56,157048,5,2,0:0:0:0:
236,160,157366,1,0,0:0:0:0:
308,236,157683,5,2,1:0:0:0:
328,216,158001,1,0,0:0:0:0:
352,188,158318,5,0,0:0:0:0:
432,68,158477,1,2,0:0:0:0:
456,304,158635,1,2,1:0:0:0:
464,328,158953,6,0,P|396:308|336:340,1,138.750005292893,2|0,0:0|0:0,0:0:0:0:
264,376,159429,1,0,0:0:0:0:
192,264,159588,2,0,L|152:264,3,23.1250008821488,2|0|0|2,0:0|0:0|0:0|0:0,0:0:0:0:
280,160,159905,1,0,0:0:0:0:
392,248,160064,22,0,L|308:244,1,69.3750026464463
124,108,160381,1,2,0:0:0:0:
124,108,160540,2,0,L|208:104,1,69.3750026464463,0|2,0:0|0:0,0:0:0:0:
84,232,160858,6,0,L|40:228,3,23.1250008821488,6|0|2|0,1:0|0:0|0:0|0:0,0:0:0:0:
180,208,161175,2,0,P|184:264|172:292,1,69.3750026464463,0|2,1:0|0:0,0:0:0:0:
40,88,161493,2,0,P|36:32|48:4,1,69.3750026464463,0|2,1:0|0:0,0:0:0:0:
204,60,161810,22,0,L|320:60,1,104.06250396967,2|0,1:0|0:0,0:0:0:0:
364,120,162128,6,0,B|380:236|380:236|360:212,1,138.75,2|0,1:0|0:0,0:0:0:0:
304,288,162445,6,0,P|348:268|388:276,1,69.3750026464463,2|0,1:0|0:0,0:0:0:0:
488,280,162762,6,0,L|496:240,1,23.1250008821488,2|0,1:0|0:0,0:0:0:0:
480,236,162868,2,0,L|472:196,1,23.1250008821488,2|0,0:0|0:0,0:0:0:0:
376,364,163080,1,0,1:0:0:0:
148,276,163239,1,2,0:0:0:0:
264,152,163397,2,0,L|256:240,1,69.3750026464463,0|2,1:0|0:0,0:0:0:0:
192,88,163715,6,0,P|236:60|300:64,1,104.06250396967,2|0,1:0|0:0,0:0:0:0:
348,120,164032,6,0,B|464:108|464:108|440:96,1,138.75,2|0,1:0|0:0,0:0:0:0:
336,132,164350,22,0,L|344:224,1,69.3750026464463,2|0,1:0|0:0,0:0:0:0:
368,312,164667,22,0,L|364:356,1,23.1250008821488,2|0,1:0|0:0,0:0:0:0:
340,344,164773,2,0,L|337:367,1,23.1250008821488,2|0,0:0|0:0,0:0:0:0:
248,236,164985,2,0,L|236:160,1,69.3750026464463,0|0,1:0|0:0,0:0:0:0:
472,108,165302,2,0,L|460:184,1,69.3750026464463,0|2,1:0|0:0,0:0:0:0:
512,344,165620,6,0,L|388:340,1,104.06250396967,2|0,1:0|0:0,0:0:0:0:
368,276,165937,22,0,L|356:112,1,138.75,2|0,1:0|0:0,0:0:0:0:
368,300,166255,6,0,P|308:288|256:308,1,104.06250396967,2|0,1:0|0:0,0:0:0:0:
88,232,166572,6,0,P|156:248|224:208,1,138.75,0|0,1:0|0:0,0:0:0:0:
288,128,166889,22,0,B|212:128|212:128|240:112,1,104.06250396967,2|0,1:0|0:0,0:0:0:0:
92,8,167207,6,0,L|100:164,1,138.75,2|0,1:0|0:0,0:0:0:0:
48,244,167524,6,0,P|108:256|168:228,1,104.06250396967,2|0,1:0|0:0,0:0:0:0:
336,280,167842,22,0,P|276:268|216:352,1,138.75,2|0,1:0|0:0,0:0:0:0:
204,384,168159,5,0,1:0:0:0:
292,108,168318,1,0,1:0:0:0:
180,216,168477,6,0,L|184:260,3,23.1250008821488,4|0|0|0,1:0|0:0|0:0|0:0,0:0:0:0:
392,160,168794,1,0,0:0:0:0:
180,116,168953,1,0,0:0:0:0:
276,328,169112,1,0,0:0:0:0:
248,192,169270,1,0,0:0:0:0:
380,136,169429,6,0,P|400:72|396:40,1,69.3750026464463,2|0,0:0|0:0,0:0:0:0:
76,152,169747,2,0,P|101:213|125:235,1,69.3750026464463,2|0,0:0|0:0,0:0:0:0:
216,56,170064,1,0,0:0:0:0:
260,212,170223,1,0,0:0:0:0:
446,153,170381,22,0,L|424:156,1,23.1250008821488,4|0,0:0|0:0,0:0:0:0:
380,136,170487,2,0,L|348:132,1,23.1250008821488
188,152,170699,1,0,0:0:0:0:
288,300,170858,1,0,0:0:0:0:
256,80,171016,1,0,0:0:0:0:
272,316,171175,1,0,0:0:0:0:
357,206,171334,6,0,L|288:200,1,69.3750026464463,2|0,0:0|0:0,0:0:0:0:
104,288,171651,2,0,L|173:281,1,69.3750026464463,2|0,0:0|0:0,0:0:0:0:
288,328,171969,1,0,0:0:0:0:
220,196,172128,1,0,0:0:0:0:
152,68,172286,5,4,0:0:0:0:
4,204,172445,1,0,0:0:0:0:
232,184,172604,1,0,0:0:0:0:
76,336,172762,1,0,0:0:0:0:
112,128,172921,1,0,0:0:0:0:
208,312,173080,1,0,0:0:0:0:
428,308,173239,22,0,P|468:316|488:316,3,34.6875013232232,4|0|0|0,0:0|0:0|0:0|0:0,0:0:0:0:
500,288,173556,1,0,0:0:0:0:
508,240,173635,1,0,0:0:0:0:
496,192,173715,1,0,0:0:0:0:
452,172,173794,1,0,0:0:0:0:
404,172,173874,1,0,0:0:0:0:
364,200,173953,1,0,0:0:0:0:
344,244,174032,1,0,0:0:0:0:
352,292,174112,1,0,0:0:0:0:
320,328,174191,5,4,0:0:0:0:
272,336,174270,1,0,0:0:0:0:
228,316,174350,1,0,0:0:0:0:
216,268,174429,1,0,0:0:0:0:
240,228,174508,5,0,0:0:0:0:
264,184,174588,1,0,0:0:0:0:
264,136,174667,1,0,0:0:0:0:
248,88,174747,1,0,0:0:0:0:
200,64,174826,6,0,L|132:60,1,46.25
364,124,174985,2,0,L|432:120,1,46.25
120,176,175143,22,0,L|52:168,1,69.375,0|0,0:0|2:0,0:0:0:0:
256,304,175461,22,0,B|306:302|367:259|367:259|354:293,1,138.75,0|0,0:0|2:0,0:0:0:0:
184,272,175778,38,0,P|177:319|191:351,1,69.3750026464463
324,112,175937,2,0,P|331:65|317:33,1,69.3750026464463
444,272,176096,5,4,0:0:0:0:
368,352,176255,2,0,L|232:344,1,110.999996612549,8|8,0:0|0:0,0:0:0:0:
96,224,176572,2,0,P|168:240|264:128,1,221.999993225098,2|0,0:0|0:0,0:0:0:0:
148,32,177048,2,0,B|144:92|144:92|160:156,1,110.999996612549,0|0,0:0|2:0,0:0:0:0:
392,272,177366,2,0,B|416:216|416:216|423:151,1,110.999996612549,0|0,0:0|2:0,0:0:0:0:
296,64,177683,1,0,0:0:0:0:
296,224,177842,1,0,0:0:0:0:
156,141,178001,5,0,0:0:0:0:
72,328,178159,2,0,L|208:312,1,110.999996612549,8|8,0:0|0:0,0:0:0:0:
392,272,178477,2,0,P|320:244|328:108,1,221.999993225098,2|0,0:0|0:0,0:0:0:0:
496,176,178953,2,0,L|368:184,1,110.999996612549,0|0,0:0|2:0,0:0:0:0:
288,28,179270,2,0,L|195:116,1,110.999996612549,0|0,0:0|2:0,0:0:0:0:
196,264,179588,1,0,0:0:0:0:
385,182,179747,1,0,0:0:0:0:
202,374,179905,6,0,L|194:242,1,110.999996612549,0|8,0:0|0:0,0:0:0:0:
276,132,180223,1,8,0:0:0:0:
512,256,180381,2,0,B|464:280|416:260|416:260|452:284|360:256|288:312,1,221.999993225098,2|0,0:0|0:0,0:0:0:0:
317,293,180858,2,0,P|280:236|280:176,1,110.999996612549,0|0,0:0|2:0,0:0:0:0:
144,152,181175,2,0,P|152:83|191:37,1,110.999996612549,0|0,0:0|2:0,0:0:0:0:
476,108,181493,2,0,L|248:124,1,221.999993225098
144,152,181969,37,8,0:0:0:0:
368,208,182128,1,8,0:0:0:0:
244,288,182286,2,0,P|152:240|68:316,1,221.999993225098,2|0,0:0|0:0,0:0:0:0:
70,307,182762,2,0,L|66:187,1,110.999996612549
256,68,183080,1,0,0:0:0:0:
256,216,183239,1,0,0:0:0:0:
442,307,183397,2,0,L|446:187,1,110.999996612549
440,148,183635,1,0,0:0:0:0:
440,148,183715,5,4,0:0:0:0:
316,148,183874,1,8,0:0:0:0:
360,316,184032,1,8,0:0:0:0:
220,108,184191,2,0,P|272:60|408:108,1,221.999993225098,2|0,0:0|0:0,0:0:0:0:
168,196,184667,38,0,P|128:144|124:88,1,110.999996612549,0|0,0:0|2:0,0:0:0:0:
316,148,184985,2,0,L|300:292,1,110.999996612549,0|0,0:0|2:0,0:0:0:0:
368,368,185302,1,0,0:0:0:0:
192,296,185461,1,0,0:0:0:0:
392,212,185620,38,0,L|524:200,1,110.999996612549,0|8,0:0|0:0,0:0:0:0:
316,148,185937,1,8,0:0:0:0:
272,256,186096,2,0,P|196:244|132:156,1,166.499994918823,2|0,0:0|2:0,0:0:0:0:
132,148,186413,1,0,0:0:0:0:
256,44,186572,6,0,P|260:120|236:156,1,110.999996612549,0|0,0:0|2:0,0:0:0:0:
12,216,186889,2,0,P|76:208|136:248,1,110.999996612549,0|0,0:0|2:0,0:0:0:0:
224,300,187207,1,0,0:0:0:0:
144,104,187366,1,0,0:0:0:0:
52,304,187524,5,2,0:0:0:0:
184,176,187683,2,0,L|312:172,1,110.999996612549
408,328,188001,1,0,0:0:0:0:
228,372,188159,2,0,L|236:256,1,110.999996612549,2|0,0:0|0:0,0:0:0:0:
444,128,188477,6,0,P|344:172|256:100,1,221.999993225098,2|0,0:0|0:0,0:0:0:0:
188,44,188953,1,0,0:0:0:0:
344,200,189112,2,0,L|332:312,1,110.999996612549,2|0,0:0|0:0,0:0:0:0:
256,88,189429,6,8,L|232:312,1,221.999993225098,2|0,0:0|0:0,0:0:0:0:
288,376,189905,1,0,0:0:0:0:
160,248,190064,2,0,L|96:236,3,36.9999988708496,2|0|2|0,0:0|0:0|0:0|0:0,0:0:0:0:
232,308,190381,1,2,0:0:0:0:
320,200,190540,6,0,P|340:136|328:88,1,110.999996612549,0|8,0:0|0:0,0:0:0:0:
92,52,190858,1,8,0:0:0:0:
248,140,191016,1,0,0:0:0:0:
76,228,191175,1,8,0:0:0:0:
284,120,191334,6,0,L|400:116,1,110.999996612549,4|0,0:0|0:0,0:0:0:0:
432,96,191572,1,0,0:0:0:0:
432,96,191651,1,0,0:0:0:0:
192,268,191810,2,0,B|124:248|28:280|28:280|84:252,1,221.999993225098,2|0,0:0|0:0,0:0:0:0:
272,216,192286,6,0,P|288:284|264:332,1,110.999996612549,0|0,0:0|2:0,0:0:0:0:
160,168,192604,2,0,P|144:100|168:52,1,110.999996612549,0|0,0:0|2:0,0:0:0:0:
352,172,192921,1,0,0:0:0:0:
232,112,193080,1,0,0:0:0:0:
336,48,193239,5,0,0:0:0:0:
272,232,193397,1,8,0:0:0:0:
272,232,193477,1,0,0:0:0:0:
272,232,193556,1,8,0:0:0:0:
160,48,193715,2,0,P|84:36|32:52,1,110.999996612549,2|0,0:0|0:0,0:0:0:0:
104,168,194032,1,0,0:0:0:0:
104,168,194191,6,0,L|108:280,1,110.999996612549,0|0,0:0|2:0,0:0:0:0:
376,364,194508,2,0,L|379:253,1,110.999996612549,0|0,0:0|2:0,0:0:0:0:
444,128,194826,1,0,0:0:0:0:
296,272,194985,1,0,0:0:0:0:
232,124,195143,21,0,0:0:0:0:
344,64,195302,2,0,L|336:192,1,110.999996612549,8|8,0:0|0:0,0:0:0:0:
224,272,195620,2,0,P|172:240|40:316,1,221.999993225098,2|0,0:0|0:0,0:0:0:0:
42,307,196096,6,0,P|60:240|48:188,1,110.999996612549,0|0,0:0|2:0,0:0:0:0:
56,24,196413,2,0,P|96:80|144:104,1,110.999996612549,0|0,0:0|2:0,0:0:0:0:
252,104,196731,2,0,L|456:92,1,166.499994918823,0|0,0:0|2:0,0:0:0:0:
456,92,197048,5,0,0:0:0:0:
220,184,197207,2,0,P|156:124|152:64,1,110.999996612549,8|8,0:0|0:0,0:0:0:0:
368,172,197524,2,0,B|352:344|352:344|336:288,1,221.999993225098,2|0,0:0|0:0,0:0:0:0:
280,100,198001,2,0,P|360:60|476:124,1,221.999993225098
488,264,198477,1,0,0:0:0:0:
348,316,198635,1,0,0:0:0:0:
368,172,198794,1,0,0:0:0:0:
176,72,198953,21,4,0:0:0:0:
257,176,199112,2,0,L|367:172,1,110.999996612549,8|8,0:0|0:0,0:0:0:0:
180,296,199429,2,0,L|420:284,1,221.999993225098,2|0,0:0|0:0,0:0:0:0:
257,176,199905,1,2,0:0:0:0:
332,380,200064,1,0,0:0:0:0:
408,184,200223,2,0,P|424:120|412:56,1,110.999996612549,2|0,0:0|0:0,0:0:0:0:
220,64,200540,5,2,0:0:0:0:
408,184,200699,1,2,0:0:0:0:
232,200,200858,2,0,P|160:176|80:232,1,166.499994918823,2|0,0:0|0:0,0:0:0:0:
50,303,201175,1,2,0:0:0:0:
70,263,201255,1,0,0:0:0:0:
86,219,201334,1,2,0:0:0:0:
90,175,201413,1,0,0:0:0:0:
82,131,201493,2,0,L|210:115,1,110.999996612549,2|0,0:0|0:0,0:0:0:0:
384,144,201810,6,0,P|364:80|388:20,1,110.999996612549
452,276,202128,2,0,L|324:260,1,110.999996612549
304,248,202366,1,0,0:0:0:0:
304,248,202445,1,0,0:0:0:0:
256,352,202604,1,0,0:0:0:0:
208,164,202762,21,8,0:0:0:0:
80,264,202921,2,0,L|200:276,1,110.999996612549,8|8,0:0|0:0,0:0:0:0:
304,248,203239,1,0,0:0:0:0:
292,60,203397,1,0,0:0:0:0:
208,164,203556,1,0,0:0:0:0:
432,144,203715,2,0,L|312:160,1,110.999996612549,8|8,0:0|0:0,0:0:0:0:
80,56,204032,2,0,L|200:72,1,110.999996612549,8|0,0:0|0:0,0:0:0:0:
232,100,204270,1,0,0:0:0:0:
232,100,204350,1,0,0:0:0:0:
220,288,204508,1,0,0:0:0:0:
320,248,204667,5,8,0:0:0:0:
292,216,204747,1,0,0:0:0:0:
256,192,204826,1,0,0:0:0:0:
212,184,204905,1,0,0:0:0:0:
172,200,204985,2,0,L|176:264,1,55.4999983062745
408,328,205143,2,0,L|412:264,1,55.4999983062745,8|0,0:0|0:0,0:0:0:0:
308,132,205302,2,0,L|312:196,1,55.4999983062745,8|0,0:0|0:0,0:0:0:0:
500,204,205461,2,0,L|508:160,4,27.7499991531372,8|0|0|0|4,0:0|0:0|0:0|0:0|0:0,0:0:0:0:
480,212,206255,5,0,0:0:0:0:
440,192,206334,1,0,0:0:0:0:
412,160,206413,1,0,0:0:0:0:
400,116,206493,1,0,0:0:0:0:
408,72,206572,6,0,P|328:104|240:56,1,185,4|0,0:0|0:0,0:0:0:0:
244,62,207048,2,0,L|265:260,1,185,2|2,0:0|0:0,0:0:0:0:
80,200,207524,2,0,L|196:192,1,92.5,2|0,0:0|0:0,0:0:0:0:
432,144,207842,2,0,L|316:136,1,92.5,2|0,0:0|0:0,0:0:0:0:
224,128,208159,1,2,0:0:0:0:
292,240,208318,1,2,0:0:0:0:
260,368,208477,6,0,P|212:356|164:376,1,92.5
356,280,208794,1,0,0:0:0:0:
356,280,208953,2,0,P|428:296|516:220,1,185,2|0,0:0|0:0,0:0:0:0:
416,204,209429,2,0,P|408:140|424:88,1,92.5,2|0,0:0|0:0,0:0:0:0:
284,88,209747,2,0,P|313:30|355:-4,1,92.5,2|0,0:0|0:0,0:0:0:0:
188,160,210064,2,0,P|120:172|72:152,1,92.5,2|0,0:0|0:0,0:0:0:0:
4,280,210381,6,0,P|76:260|132:312,1,138.75,2|0,0:0|0:0,0:0:0:0:
140,324,210699,1,0,0:0:0:0:
304,236,210858,1,2,0:0:0:0:
224,188,211016,2,0,L|232:352,1,138.75,2|0,0:0|0:0,0:0:0:0:
212,352,211334,2,0,P|290:311|363:361,1,185,2|2,0:0|0:0,0:0:0:0:
364,224,211810,1,0,0:0:0:0:
248,144,211969,2,0,L|236:256,1,92.5,2|0,0:0|0:0,0:0:0:0:
176,100,212286,22,0,P|220:60|276:56,1,92.5,2|0,0:0|0:0,0:0:0:0:
376,200,212604,1,2,0:0:0:0:
248,144,212762,1,0,0:0:0:0:
328,80,212921,1,2,0:0:0:0:
272,272,213080,1,2,0:0:0:0:
328,184,213239,2,0,L|488:180,1,138.75,2|0,0:0|0:0,0:0:0:0:
492,164,213556,6,0,P|500:112|492:64,1,92.5,2|0,0:0|0:0,0:0:0:0:
352,272,213874,1,0,0:0:0:0:
492,164,214032,1,0,0:0:0:0:
512,340,214191,5,4,0:0:0:0:
512,340,214508,1,0,0:0:0:0:
352,272,214667,2,0,L|232:264,1,92.5,2|2,0:0|0:0,0:0:0:0:
288,168,214985,1,0,0:0:0:0:
200,340,215143,2,0,P|168:288|40:320,1,185,2|2,0:0|0:0,0:0:0:0:
168,144,215620,1,0,0:0:0:0:
56,296,215778,22,0,P|76:240|72:192,1,92.5,0|2,0:0|0:0,0:0:0:0:
40,56,216096,2,0,B|180:56|180:56|226:17,2,185,2|2|0,0:0|0:0|0:0,0:0:0:0:
140,184,216889,1,0,0:0:0:0:
290,122,217048,2,0,B|325:93|325:93|465:93,2,185,2|2|0,0:0|0:0|0:0,0:0:0:0:
392,224,217842,1,0,0:0:0:0:
224,176,218001,6,0,P|208:120|220:72,1,92.5
116,248,218318,1,0,0:0:0:0:
290,122,218477,1,0,0:0:0:0:
36,136,218635,2,0,L|136:128,1,92.5,2|2,0:0|0:0,0:0:0:0:
224,60,218953,2,0,P|292:36|384:132,2,185,2|2|2,0:0|0:0|0:0,0:0:0:0:
268,248,219747,1,0,0:0:0:0:
268,248,219905,6,0,L|284:144,1,92.5,2|0,0:0|0:0,0:0:0:0:
200,320,220223,2,0,P|256:344|296:340,1,92.5,2|0,0:0|0:0,0:0:0:0:
424,252,220540,1,2,0:0:0:0:
168,144,220699,1,2,0:0:0:0:
344,56,220858,22,0,L|340:172,1,92.5,2|0,0:0|0:0,0:0:0:0:
268,248,221175,1,0,0:0:0:0:
244,108,221334,1,0,0:0:0:0:
432,136,221493,1,0,0:0:0:0:
424,172,221572,1,0,0:0:0:0:
428,208,221651,1,0,0:0:0:0:
440,244,221731,1,0,0:0:0:0:
464,272,221810,6,0,B|400:328|312:308|312:308|344:352,1,185,12|0,0:0|0:0,0:0:0:0:
325,326,222286,1,0,0:0:0:0:
364,220,222445,2,0,P|368:164|360:116,1,92.5
280,176,222762,6,0,P|208:136|104:200,1,185,2|0,0:0|0:0,0:0:0:0:
24,292,223239,1,0,0:0:0:0:
24,292,223397,2,0,P|32:232|20:176,1,92.5
44,60,223715,2,0,B|104:60|104:60|152:72|152:72|240:72,1,185,2|0,0:0|0:0,0:0:0:0:
392,152,224191,1,0,0:0:0:0:
280,236,224350,2,0,L|268:120,1,92.5
380,284,224667,22,0,P|328:328|228:316,1,138.75,2|0,0:0|2:0,0:0:0:0:
216,316,224985,2,0,L|112:304,1,92.5,2|0,0:0|0:0,0:0:0:0:
0,168,225302,2,0,L|104:156,1,92.5,2|0,0:0|0:0,0:0:0:0:
196,116,225620,22,0,P|212:48|204:12,1,92.5,2|0,0:0|0:0,0:0:0:0:
120,60,225937,1,0,0:0:0:0:
176,204,226096,1,0,0:0:0:0:
292,104,226255,2,0,P|344:96|388:108,1,92.5,2|0,0:0|0:0,0:0:0:0:
340,220,226572,22,0,L|356:328,1,92.5,2|0,0:0|0:0,0:0:0:0:
128,248,226889,2,0,P|76:237|39:211,1,92.5,2|0,0:0|0:0,0:0:0:0:
228,144,227207,1,0,0:0:0:0:
228,144,227366,1,0,0:0:0:0:
228,144,227524,2,0,P|228:256|224:344,1,185
224,328,228159,1,2,0:0:0:0:
396,168,228318,1,2,0:0:0:0:
396,168,228477,6,0,L|288:156,1,92.5
72,88,228794,2,0,L|180:76,1,92.5,2|0,0:0|0:0,0:0:0:0:
336,36,229112,1,2,0:0:0:0:
212,212,229270,1,0,0:0:0:0:
72,88,229429,6,0,L|88:308,2,185,4|0|0,0:0|0:0|0:0,0:0:0:0:
216,144,230223,1,2,0:0:0:0:
156,328,230381,2,0,P|104:360|36:348,1,92.5,2|0,0:0|0:0,0:0:0:0:
216,144,230699,2,0,L|324:136,1,92.5,2|0,0:0|0:0,0:0:0:0:
292,260,231016,1,2,0:0:0:0:
188,48,231175,1,2,0:0:0:0:
72,200,231334,22,0,L|184:212,1,92.5
412,224,231651,1,0,0:0:0:0:
334,125,231810,2,0,L|328:80,1,46.25
177,125,231969,2,0,L|184:80,1,46.25
264,260,232128,2,0,L|257:214,1,46.25
256,84,232286,1,0,0:0:0:0:
320,344,232921,5,0,0:0:0:0:
304,304,233001,1,0,0:0:0:0:
312,264,233080,2,0,L|316:224,4,23.125,0|0|0|0|4,0:0|0:0|0:0|0:0|0:0,0:0:0:0:
408,296,233397,5,0,0:0:0:0:
220,268,233556,1,0,0:0:0:0:
304,40,233715,2,0,L|316:156,1,92.5
320,164,233953,1,0,0:0:0:0:
320,164,234032,1,0,0:0:0:0:
416,304,234191,21,0,0:0:0:0:
464,168,234350,1,0,0:0:0:0:
284,204,234508,1,0,0:0:0:0:
352,56,234667,1,0,0:0:0:0:
384,220,234826,1,0,0:0:0:0:
356,28,234985,1,0,0:0:0:0:
192,208,235143,5,0,0:0:0:0:
168,176,235223,1,0,0:0:0:0:
156,140,235302,1,0,0:0:0:0:
160,104,235381,1,0,0:0:0:0:
172,60,235461,5,0,0:0:0:0:
180,104,235540,1,0,0:0:0:0:
152,140,235620,1,0,0:0:0:0:
124,176,235699,1,0,0:0:0:0:
108,220,235778,1,0,0:0:0:0:
108,268,235858,1,0,0:0:0:0:
124,312,235937,2,0,P|160:320|184:312,1,46.25
288,252,236096,5,4,0:0:0:0:
460,220,236413,1,0,0:0:0:0:
420,48,236731,1,0,0:0:0:0:
248,88,237048,5,4,0:0:0:0:
256,204,244667,6,0,L|260:308,1,92.5,2|0,0:0|0:0,0:0:0:0:
176,156,244985,2,0,P|224:112|284:112,1,92.5,2|0,0:0|0:0,0:0:0:0:
512,168,245302,2,0,B|440:168|440:168|400:192|400:192|312:192,1,185,0|2,1:0|0:0,0:0:0:0:
333,192,245937,22,0,P|348:256|332:292,1,92.5,2|2,0:0|0:0,0:0:0:0:
84,164,246255,2,0,P|103:101|135:78,1,92.5,2|2,1:2|0:0,0:0:0:0:
192,160,246572,5,2,0:0:0:0:
176,24,246731,1,0,0:0:0:0:
344,84,246889,2,0,L|240:92,1,92.5,2|0,0:0|0:0,0:0:0:0:
24,228,247207,2,0,P|100:208|176:304,1,185,0|2,1:0|0:0,0:0:0:0:
80,312,247683,1,0,0:0:0:0:
216,176,247842,6,0,L|212:80,1,92.5,2|0,0:0|0:0,0:0:0:0:
424,160,248159,2,0,L|420:256,1,92.5,2|0,0:0|0:0,0:0:0:0:
264,344,248477,21,2,0:0:0:0:
264,344,248794,1,0,0:0:0:0:
208,180,248953,1,2,0:0:0:0:
72,264,249112,1,2,0:0:0:0:
96,284,249429,5,0,0:0:0:0:
120,300,249747,1,2,0:0:0:0:
148,320,250064,1,0,0:0:0:0:
176,340,250381,6,0,P|208:292|204:256,1,92.5,2|0,0:0|0:0,0:0:0:0:
108,112,250699,2,0,P|156:144|192:140,1,92.5,2|0,0:0|0:0,0:0:0:0:
364,212,251016,2,0,P|316:180|280:184,1,92.5,2|0,0:0|0:0,0:0:0:0:
288,312,251334,1,0,0:0:0:0:
240,108,251493,6,0,L|244:56,2,46.25
272,248,251810,1,0,0:0:0:0:
280,280,251889,1,0,0:0:0:0:
288,312,251969,1,0,0:0:0:0:
112,320,252128,5,0,0:0:0:0:
112,320,252207,1,0,0:0:0:0:
112,320,252286,2,0,L|8:328,1,92.5,4|0,0:0|0:0,0:0:0:0:
128,120,252604,2,0,P|116:68|128:16,1,92.5,2|0,0:0|0:0,0:0:0:0:
220,68,252921,2,0,L|384:52,1,138.75,2|0,0:0|2:0,0:0:0:0:
404,84,253239,6,0,P|412:156|396:200,1,92.5
348,256,253556,1,2,0:0:0:0:
220,68,253715,1,0,0:0:0:0:
112,288,253874,2,0,L|232:268,1,92.5,2|0,0:0|0:0,0:0:0:0:
460,332,254191,22,0,P|384:316|324:356,1,138.75,2|0,0:0|2:0,0:0:0:0:
308,360,254508,2,0,L|312:256,1,92.5,2|0,0:0|0:0,0:0:0:0:
320,128,254826,1,2,0:0:0:0:
440,232,254985,1,0,0:0:0:0:
224,224,255143,2,0,L|116:236,1,92.5
168,52,255461,2,0,L|276:64,1,92.5,2|0,0:0|0:0,0:0:0:0:
436,80,255778,2,0,L|432:224,1,138.75,2|0,0:0|2:0,0:0:0:0:
432,256,256096,6,0,L|328:252,1,92.5,2|0,0:0|0:0,0:0:0:0:
248,304,256413,2,0,P|232:216|248:180,1,92.5
320,88,256731,2,0,P|248:104|180:56,1,138.75,2|0,0:0|2:0,0:0:0:0:
168,48,257048,1,2,0:0:0:0:
60,176,257207,1,0,0:0:0:0:
248,304,257366,2,0,L|240:192,1,92.5
24,44,257683,2,0,L|16:156,1,92.5,2|0,0:0|0:0,0:0:0:0:
24,300,258001,6,0,B|104:300|104:300|140:308|140:308|216:308,1,185,2|0,0:0|0:0,0:0:0:0:
208,308,258477,1,0,0:0:0:0:
156,200,258635,1,0,0:0:0:0:
156,200,258715,1,0,0:0:0:0:
156,200,258794,1,0,0:0:0:0:
240,40,258953,22,0,L|244:152,1,92.5,8|8,0:0|0:0,0:0:0:0:
396,348,259270,2,0,L|400:236,1,92.5,8|8,0:0|0:0,0:0:0:0:
452,88,259588,2,0,P|400:76|348:96,1,92.5,8|0,0:0|0:0,0:0:0:0:
280,120,259826,1,0,0:0:0:0:
280,120,259905,6,0,L|152:108,1,92.5,4|0,0:0|0:0,0:0:0:0:
80,240,260223,1,2,0:0:0:0:
64,40,260381,2,0,L|72:144,1,92.5,0|2,0:0|0:0,0:0:0:0:
264,276,260699,1,0,0:0:0:0:
184,360,260858,2,0,P|160:280|168:192,1,138.75,2|0,0:0|2:0,0:0:0:0:
172,192,261175,5,2,0:0:0:0:
296,220,261334,1,2,0:0:0:0:
356,124,261493,1,2,0:0:0:0:
328,12,261651,1,2,0:0:0:0:
136,80,261810,22,0,L|232:68,1,92.5,4|0,0:0|0:0,0:0:0:0:
436,216,262128,2,0,P|376:192|292:220,1,138.75,0|0,0:0|2:0,0:0:0:0:
288,224,262445,2,0,L|296:336,1,92.5
176,184,262762,2,0,P|216:128|268:112,1,92.5,2|0,0:0|0:0,0:0:0:0:
128,64,263080,2,0,P|64:76|20:52,1,92.5,2|0,0:0|0:0,0:0:0:0:
0,268,263397,2,0,B|72:264|72:264|148:280,1,138.75,2|0,0:0|2:0,0:0:0:0:
168,308,263715,5,4,0:0:0:0:
256,144,263874,1,0,0:0:0:0:
248,268,264032,1,2,0:0:0:0:
168,104,264191,1,2,0:0:0:0:
356,204,264350,2,0,P|372:272|348:344,1,138.75,2|0,0:0|2:0,0:0:0:0:
320,364,264667,5,0,0:0:0:0:
248,268,264826,1,0,0:0:0:0:
424,324,264985,1,0,0:0:0:0:
248,268,265143,1,0,0:0:0:0:
448,176,265302,2,0,P|368:152|292:192,1,138.75,2|0,0:0|2:0,0:0:0:0:
280,192,265620,5,2,0:0:0:0:
104,152,265778,1,2,0:0:0:0:
244,288,265937,1,2,0:0:0:0:
172,64,266096,1,0,0:0:0:0:
152,368,266255,1,2,0:0:0:0:
152,368,266572,5,2,0:0:0:0:
184,220,266731,1,2,0:0:0:0:
264,312,266889,1,2,0:0:0:0:
68,240,267048,1,0,0:0:0:0:
220,92,267207,2,0,L|216:216,1,92.5,2|0,0:0|0:0,0:0:0:0:
384,352,267524,6,0,L|376:236,1,92.5,4|0,0:0|0:0,0:0:0:0:
464,20,267842,2,0,L|468:124,1,92.5,2|0,0:0|0:0,0:0:0:0:
472,144,268080,1,0,0:0:0:0:
472,144,268159,1,0,0:0:0:0:
360,232,268318,1,0,0:0:0:0:
488,328,268477,2,0,P|408:320|348:352,1,138.75,2|0,0:0|0:0,0:0:0:0:
312,368,268794,5,2,0:0:0:0:
360,232,268953,1,0,0:0:0:0:
472,144,269112,1,2,0:0:0:0:
488,328,269270,1,0,0:0:0:0:
380,128,269429,22,0,P|368:64|384:28,1,92.5,2|0,0:0|0:0,0:0:0:0:
360,232,269747,2,0,P|296:244|260:228,1,92.5
80,160,270064,2,0,P|144:132|224:160,1,138.75,2|0,0:0|0:0,0:0:0:0:
228,176,270381,6,0,L|232:276,1,92.5,2|0,0:0|0:0,0:0:0:0:
336,24,270699,2,0,L|332:124,1,92.5,2|0,0:0|0:0,0:0:0:0:
384,244,271016,1,2,0:0:0:0:
232,76,271175,1,0,0:0:0:0:
216,96,271255,1,0,0:0:0:0:
200,116,271334,6,0,P|148:128|100:104,1,92.5,2|0,0:0|0:0,0:0:0:0:
56,256,271651,2,0,P|96:235|142:241,1,92.5,2|0,0:0|0:0,0:0:0:0:
280,288,271969,2,0,L|380:284,1,92.5,2|0,0:0|0:0,0:0:0:0:
224,196,272286,2,0,P|192:128|212:68,1,138.75,2|0,0:0|0:0,0:0:0:0:
236,40,272604,6,0,L|332:40,1,92.5,2|0,0:0|0:0,0:0:0:0:
432,164,272921,2,0,L|339:164,1,92.5,2|0,0:0|0:0,0:0:0:0:
277,312,273239,2,0,B|352:312|352:312|384:300|384:300|460:300,2,185,2|2|0,0:0|0:0|0:0,0:0:0:0:
236,288,273953,1,2,0:0:0:0:
236,288,274032,6,0,L|224:184,1,92.5,2|10,0:0|0:0,0:0:0:0:
280,84,274350,1,0,0:0:0:0:
136,292,274508,1,0,0:0:0:0:
320,168,274667,1,0,0:0:0:0:
104,176,274826,1,8,0:0:0:0:
276,312,274985,1,8,0:0:0:0:
208,96,275143,5,4,0:0:0:0:
248,212,275302,1,0,0:0:0:0:
364,176,275461,2,0,P|396:128|400:88,1,92.5,2|0,0:0|0:0,0:0:0:0:
228,232,275778,2,0,P|224:289|240:326,1,92.5,2|0,0:0|0:0,0:0:0:0:
332,268,276096,1,2,0:0:0:0:
220,128,276255,5,0,0:0:0:0:
208,108,276334,1,0,0:0:0:0:
196,88,276413,1,0,0:0:0:0:
72,200,276572,1,2,0:0:0:0:
268,208,276731,1,0,0:0:0:0:
108,88,276889,1,2,0:0:0:0:
166,243,277048,6,0,P|178:303|174:339,1,92.5,14|8,0:0|0:0,0:0:0:0:
156,368,277286,1,0,0:0:0:0:
156,368,277366,1,8,0:0:0:0:
56,292,277524,1,8,0:0:0:0:
300,292,277683,2,0,L|408:280,1,92.5
432,172,278001,5,0,0:0:0:0:
376,368,278159,1,0,0:0:0:0:
248,228,278318,1,0,0:0:0:0:
484,248,278477,1,0,0:0:0:0:
464,244,278556,1,0,0:0:0:0:
444,240,278635,1,0,0:0:0:0:
232,184,278794,1,0,0:0:0:0:
392,96,278953,21,4,0:0:0:0:
368,196,279112,1,0,0:0:0:0:
312,56,279270,1,0,0:0:0:0:
284,236,279429,1,0,0:0:0:0:
236,28,279588,1,0,0:0:0:0:
208,280,279747,1,0,0:0:0:0:
148,148,279905,6,0,P|188:136|228:140,1,46.25,2|0,0:0|0:0,0:0:0:0:
433,196,280064,2,0,P|400:204|357:188,1,46.25,2|0,0:0|0:0,0:0:0:0:
317,101,280223,2,0,L|309:29,1,46.25,2|0,0:0|0:0,0:0:0:0:
284,236,280381,2,0,L|280:296,1,46.25,2|0,0:0|0:0,0:0:0:0:
148,148,280540,2,0,L|140:84,1,46.25
104,272,280699,2,0,L|96:328,1,46.25
448,168,280858,5,0,0:0:0:0:
404,184,280937,1,0,0:0:0:0:
356,180,281016,1,0,0:0:0:0:
320,148,281096,1,0,0:0:0:0:
284,116,281175,1,0,0:0:0:0:
236,104,281255,1,0,0:0:0:0:
188,108,281334,1,0,0:0:0:0:
144,124,281413,1,0,0:0:0:0:
116,164,281493,6,0,L|120:244,1,69.3750026464463
328,264,281651,2,0,L|324:344,1,69.3750026464463
200,368,281810,5,4,0:0:0:0:
224,220,282127,1,0,0:0:0:0:
355,147,282444,1,0,0:0:0:0:
355,147,282762,5,0,0:0:0:0:
351,183,282841,1,0,0:0:0:0:
347,219,282921,1,0,0:0:0:0:
343,255,283000,1,0,0:0:0:0:
339,279,283079,5,0,0:0:0:0:
335,303,283159,1,0,0:0:0:0:
331,327,283238,1,0,0:0:0:0:
327,351,283317,1,0,0:0:0:0:
319,363,283397,21,2,0:0:0:0:
309,357,283476,1,2,0:0:0:0:
299,350,283555,1,0,0:0:0:0:
188,290,283714,2,0,P|144:282|112:286,1,69.3750026464463
108,76,284031,2,0,P|141:106|170:119,1,69.3750026464463
346,329,284349,6,0,L|456:348,1,110.999996612549,4|0,1:0|0:0,0:0:0:0:
381,57,284666,2,0,L|272:76,1,110.999996612549,4|0,1:0|0:0,0:0:0:0:
44,208,284984,2,0,L|180:208,1,110.999996612549,4|0,1:0|0:0,0:0:0:0:
256,264,285301,5,2,0:0:0:0:
260,284,285381,1,2,0:0:0:0:
264,304,285460,1,0,0:0:0:0:
312,176,285619,2,0,L|384:152,1,69.3750026464463
200,176,285936,2,0,L|128:152,1,69.3750026464463,0|2,0:0|0:0,0:0:0:0:
252,8,286254,22,0,L|256:148,1,110.999996612549,4|0,1:0|0:0,0:0:0:0:
68,368,286571,2,0,L|72:228,1,110.999996612549,4|0,1:0|0:0,0:0:0:0:
444,368,286889,2,0,L|440:228,1,110.999996612549,4|0,1:0|0:0,0:0:0:0:
256,152,287206,5,2,0:0:0:0:
252,116,287285,1,2,0:0:0:0:
248,80,287365,1,0,0:0:0:0:
96,208,287523,2,0,L|176:200,1,69.3750026464463
416,208,287841,2,0,L|336:200,1,69.3750026464463
200,320,288158,6,0,B|256:304|256:304|324:324,1,110.999996612549,4|0,1:0|0:0,0:0:0:0:
472,76,288476,2,0,B|416:92|416:92|348:72,1,110.999996612549,4|0,1:0|0:0,0:0:0:0:
40,76,288793,2,0,B|96:92|96:92|164:72,1,110.999996612549,4|0,1:0|0:0,0:0:0:0:
256,144,289111,22,0,B|268:188|268:188|232:244,1,104.06250396967,0|0,1:0|0:0,0:0:0:0:
80,320,289428,6,0,B|196:308|196:308|164:332,1,138.75,0|0,1:0|0:0,0:0:0:0:
360,336,289746,6,0,B|304:376|304:376|320:228,1,208.125007939339,0|0,1:0|0:0,0:0:0:0:
400,192,290063,21,4,1:0:0:0:
344,76,290222,2,0,L|340:36,4,34.6875013232232
163,49,290539,2,0,L|160:84,4,34.6875013232232
144,104,290777,5,0,0:0:0:0:
132,128,290857,1,0,0:0:0:0:
120,152,290936,1,0,0:0:0:0:
92,188,291016,6,0,L|104:232,1,30.8333333333333,6|0,0:0|0:0,0:0:0:0:
92,248,291121,2,0,L|80:292,1,30.8333333333333,2|0,0:0|0:0,0:0:0:0:
208,300,291333,2,0,L|320:292,1,92.5,0|2,0:0|2:0,0:0:0:0:
424,104,291650,2,0,L|331:97,1,92.5,0|2,0:0|2:0,0:0:0:0:
112,212,291968,21,0,0:0:0:0:
228,192,292127,1,2,2:0:0:0:
228,192,292206,1,0,2:0:0:0:
228,192,292285,2,0,P|236:124|228:76,1,92.5,2|2,0:0|2:0,0:0:0:0:
208,64,292523,2,0,L|200:16,1,46.25,0|0,2:0|0:0,0:0:0:0:
420,192,292762,2,0,L|412:240,1,46.25,2|0,2:0|0:0,0:0:0:0:
360,304,292920,6,0,L|368:340,1,30.8333333333333,2|0,0:0|0:0,0:0:0:0:
400,336,293026,2,0,L|408:372,1,30.8333333333333,2|0,0:0|0:0,0:0:0:0:
340,148,293238,2,0,P|392:104|440:100,1,92.5,0|2,0:0|2:0,0:0:0:0:
264,224,293555,2,0,L|160:216,1,92.5,0|2,0:0|0:0,0:0:0:0:
168,68,293873,5,2,0:0:0:0:
109,308,294031,1,2,2:0:0:0:
132,300,294111,1,0,2:0:0:0:
154,292,294190,1,2,0:0:0:0:
177,284,294270,1,0,2:0:0:0:
200,276,294349,2,0,P|201:220|187:182,1,92.5,2|0,2:0|0:0,0:0:0:0:
44,124,294666,1,2,2:0:0:0:
44,124,294746,1,0,2:0:0:0:
44,124,294825,22,0,L|44:64,3,46.25,2|0|0|0,0:0|2:0|2:0|2:0,0:0:0:0:
162,138,295143,2,0,L|156:184,3,46.25,2|0|0|0,0:0|2:0|2:0|2:0,0:0:0:0:
272,232,295460,2,0,L|292:172,3,46.25,2|0|0|0,0:0|2:0|2:0|2:0,0:0:0:0:
164,312,295777,6,0,L|264:308,1,92.5,2|0,0:0|2:0,0:0:0:0:
352,276,296016,1,0,2:0:0:0:
352,276,296095,2,0,L|452:280,1,92.5,2|0,0:0|2:0,0:0:0:0:
320,84,296412,2,0,P|252:96|200:76,1,92.5,2|0,0:0|2:0,0:0:0:0:
136,48,296650,1,0,2:0:0:0:
136,48,296730,6,0,B|140:112|140:112|132:152|132:152|144:236,1,185,2|0,0:0|0:0,0:0:0:0:
292,200,297206,1,2,0:0:0:0:
140,308,297365,2,0,L|144:356,3,30.8333333333333,0|0|0|2,0:0|0:0|0:0|0:0,0:0:0:0:
156,164,297682,1,0,0:0:0:0:
264,316,297841,21,0,0:0:0:0:
264,316,297920,1,0,0:0:0:0:
264,316,298000,2,0,L|280:212,1,92.5,0|8,0:0|0:0,0:0:0:0:
72,124,298317,2,0,L|56:20,1,92.5,0|8,0:0|0:0,0:0:0:0:
256,92,298635,6,0,L|248:48,1,30.8333333333333,2|0,0:0|0:0,0:0:0:0:
184,68,298741,2,0,L|172:16,1,36.9999988708496,2|0,0:0|0:0,0:0:0:0:
392,168,298953,2,0,L|384:304,1,110.999996612549,8|0,0:0|0:0,0:0:0:0:
284,212,299270,1,0,0:0:0:0:
396,372,299429,1,0,0:0:0:0:
192,256,299588,5,8,0:0:0:0:
180,212,299667,1,0,0:0:0:0:
180,168,299747,1,0,0:0:0:0:
200,128,299826,1,0,0:0:0:0:
224,104,299905,21,0,0:0:0:0:
256,92,299985,1,0,0:0:0:0:
288,92,300064,1,0,0:0:0:0:
320,104,300143,1,0,0:0:0:0:
344,128,300223,2,0,L|472:124,1,110.999996612549,8|0,0:0|0:0,0:0:0:0:
292,224,300540,6,0,L|300:268,1,36.9999988708496,2|0,0:0|0:0,0:0:0:0:
344,308,300646,2,0,L|336:352,1,36.9999988708496,2|0,0:0|0:0,0:0:0:0:
204,288,300858,2,0,P|144:280|88:312,1,110.999996612549,8|0,0:0|0:0,0:0:0:0:
337,344,301175,2,0,P|388:311|410:251,1,110.999996612549
256,132,301493,5,8,0:0:0:0:
228,152,301572,1,0,0:0:0:0:
200,168,301651,1,0,0:0:0:0:
168,176,301731,1,0,0:0:0:0:
124,152,301810,21,0,0:0:0:0:
92,192,301889,1,0,0:0:0:0:
88,244,301969,1,0,0:0:0:0:
104,292,302048,1,0,0:0:0:0:
140,328,302128,2,0,L|260:336,1,110.999996612549,8|0,0:0|0:0,0:0:0:0:
280,112,302445,6,0,L|284:64,1,36.9999988708496,2|0,0:0|0:0,0:0:0:0:
216,64,302551,2,0,L|212:16,1,36.9999988708496,2|0,0:0|0:0,0:0:0:0:
472,176,302762,2,0,B|420:168|420:168|364:184,1,110.999996612549,8|0,0:0|0:0,0:0:0:0:
296,364,303080,2,0,B|304:312|304:312|296:248,1,110.999996612549
164,156,303397,5,8,0:0:0:0:
372,256,303556,1,0,0:0:0:0:
304,128,303715,2,0,P|316:68|300:16,1,110.999996612549
72,264,304032,2,0,L|196:256,1,110.999996612549,8|0,0:0|0:0,0:0:0:0:
450,156,304350,22,0,P|370:172|290:100,1,166.499994918823
300,92,304667,2,0,L|312:272,1,166.499994918823,8|0,0:0|0:0,0:0:0:0:
332,296,304985,1,0,0:0:0:0:
400,76,305143,1,0,0:0:0:0:
224,172,305302,6,0,L|92:168,1,110.999996612549,12|0,0:0|0:0,0:0:0:0:
52,272,305540,1,0,0:0:0:0:
52,272,305620,2,0,L|184:268,1,110.999996612549,4|0,0:0|0:0,0:0:0:0:
248,248,305858,1,0,0:0:0:0:
248,248,305937,1,12,0:0:0:0:
140,72,306096,1,8,0:0:0:0:
328,88,306255,6,0,L|368:84,3,36.9999988708496,6|2|2|0,0:0|0:0|0:0|0:0,0:0:0:0:
436,164,306572,2,0,P|476:104|472:36,1,110.999996612549,8|0,0:0|0:0,0:0:0:0:
260,48,306889,1,0,0:0:0:0:
312,204,307048,1,0,0:0:0:0:
392,88,307207,21,12,0:0:0:0:
364,104,307286,1,0,0:0:0:0:
332,108,307366,1,0,0:0:0:0:
300,104,307445,1,0,0:0:0:0:
252,88,307524,5,0,0:0:0:0:
224,124,307604,1,0,0:0:0:0:
212,168,307683,1,0,0:0:0:0:
228,208,307762,1,0,0:0:0:0:
248,248,307842,2,0,L|132:260,1,110.999996612549,8|0,0:0|0:0,0:0:0:0:
248,48,308159,6,0,L|204:52,3,36.9999988708496,6|2|2|0,0:0|0:0|0:0|0:0,0:0:0:0:
412,60,308477,1,8,0:0:0:0:
340,172,308636,1,0,0:0:0:0:
476,176,308794,2,0,L|472:296,1,110.999996612549
288,320,309112,21,12,0:0:0:0:
244,300,309191,1,0,0:0:0:0:
196,300,309270,1,0,0:0:0:0:
152,320,309350,1,0,0:0:0:0:
120,332,309429,21,0,0:0:0:0:
124,300,309509,1,0,0:0:0:0:
128,268,309588,1,0,0:0:0:0:
128,236,309667,1,0,0:0:0:0:
120,204,309747,2,0,B|64:196|64:196|8:208,1,110.999996612549,8|0,0:0|0:0,0:0:0:0:
232,164,310064,21,4,0:0:0:0:
188,376,310223,1,0,0:0:0:0:
104,180,310382,1,8,0:0:0:0:
296,276,310540,1,8,0:0:0:0:
52,292,310699,1,0,0:0:0:0:
172,256,310858,1,0,0:0:0:0:
256,64,311016,5,12,0:0:0:0:
296,276,311175,1,0,0:0:0:0:
148,120,311334,1,0,0:0:0:0:
368,160,311493,1,8,0:0:0:0:
172,256,311651,1,8,0:0:0:0:
252,176,311810,1,0,0:0:0:0:
376,360,311969,5,4,0:0:0:0:
376,360,312286,1,0,0:0:0:0:
432,232,312445,1,0,0:0:0:0:
284,280,312604,2,0,L|332:272,3,36.9999988708496
236,152,312921,5,0,0:0:0:0:
184,304,313080,1,0,0:0:0:0:
32,168,313239,2,0,L|152:156,1,110.999996612549
472,216,313556,2,0,L|352:204,1,110.999996612549
284,72,313874,22,0,L|332:68,1,36.9999988708496,6|0,0:0|0:0,0:0:0:0:
375,77,313979,2,0,L|412:81,1,36.9999988708496,2|0,0:0|0:0,0:0:0:0:
164,160,314191,2,0,B|160:220|160:220|176:284,1,110.999996612549,8|0,0:0|0:0,0:0:0:0:
384,188,314509,2,0,B|388:128|388:128|372:64,1,110.999996612549,0|2,0:0|0:0,0:0:0:0:
304,244,314826,22,0,P|352:284|416:284,1,110.999996612549,10|2,0:0|0:0,0:0:0:0:
212,192,315143,2,0,B|152:184|152:184|76:200,1,110.999996612549,2|2,0:0|0:0,0:0:0:0:
164,316,315461,1,8,0:0:0:0:
288,88,315620,1,0,0:0:0:0:
384,260,315778,6,0,L|396:300,1,36.9999988708496,2|0,0:0|0:0,0:0:0:0:
440,324,315884,2,0,L|452:364,1,36.9999988708496,2|0,0:0|0:0,0:0:0:0:
448,160,316096,2,0,L|440:36,1,110.999996612549,8|0,0:0|0:0,0:0:0:0:
236,256,316413,2,0,L|228:380,1,110.999996612549,0|2,0:0|0:0,0:0:0:0:
364,364,316731,5,8,0:0:0:0:
240,164,316889,1,0,0:0:0:0:
120,348,317048,1,2,0:0:0:0:
236,288,317207,1,2,0:0:0:0:
388,112,317366,1,8,0:0:0:0:
132,88,317524,1,0,0:0:0:0:
296,200,317683,6,0,L|360:196,1,36.9999988708496,2|0,0:0|0:0,0:0:0:0:
376,224,317789,2,0,L|440:220,1,36.9999988708496,2|0,0:0|0:0,0:0:0:0:
196,332,318001,1,8,0:0:0:0:
152,332,318080,1,2,0:0:0:0:
112,312,318159,1,0,0:0:0:0:
92,272,318239,1,0,0:0:0:0:
96,228,318318,1,2,0:0:0:0:
120,192,318397,1,2,0:0:0:0:
156,168,318477,1,0,0:0:0:0:
176,128,318556,1,0,0:0:0:0:
184,84,318636,6,0,P|184:56|172:24,1,55.4999983062745,8|2,0:0|0:0,0:0:0:0:
16,112,318794,2,0,L|88:108,1,55.4999983062745
232,152,318953,2,0,L|287:148,1,55.4999983062745,2|2,0:0|0:0,0:0:0:0:
412,52,319112,2,0,P|412:80|400:112,1,55.4999983062745
376,196,319270,5,8,0:0:0:0:
392,228,319350,1,2,0:0:0:0:
412,256,319429,1,0,0:0:0:0:
440,276,319509,1,0,0:0:0:0:
468,292,319588,2,0,L|512:284,3,36.9999988708496,4|0|0|0,0:0|0:0|0:0|0:0,0:0:0:0:
312,312,319905,21,10,0:0:0:0:
276,280,319985,1,2,0:0:0:0:
232,256,320064,1,0,0:0:0:0:
184,256,320143,1,0,0:0:0:0:
136,264,320223,6,0,L|52:256,1,55.4999983062745,0|2,0:0|0:0,0:0:0:0:
176,136,320382,2,0,L|140:59,1,55.4999983062745
336,136,320540,2,0,L|371:59,1,55.4999983062745,10|2,0:0|0:0,0:0:0:0:
376,264,320699,2,0,L|460:256,1,55.4999983062745
472,180,320858,5,8,0:0:0:0:
468,152,320937,1,2,0:0:0:0:
464,124,321016,1,0,0:0:0:0:
460,96,321096,1,0,0:0:0:0:
456,68,321175,21,10,0:0:0:0:
308,192,321334,1,10,0:0:0:0:
416,284,321493,6,0,L|464:276,3,36.9999988708496,6|0|2|0,0:0|0:0|0:0|0:0,0:0:0:0:
220,128,321810,2,0,L|88:116,1,110.999996612549,8|0,0:0|0:0,0:0:0:0:
76,104,322048,1,0,0:0:0:0:
76,104,322128,1,0,0:0:0:0:
132,248,322286,1,2,0:0:0:0:
292,200,322445,6,0,P|312:136|300:68,1,110.999996612549,10|0,0:0|0:0,0:0:0:0:
131,100,322762,2,0,L|75:104,1,55.4999983062745
0,180,322921,2,0,L|56:184,1,55.4999983062745
136,212,323080,1,8,0:0:0:0:
276,296,323239,1,0,0:0:0:0:
116,224,323397,6,0,L|112:264,1,36.9999988708496,2|0,0:0|0:0,0:0:0:0:
128,316,323503,2,0,L|132:356,1,36.9999988708496,2|0,0:0|0:0,0:0:0:0:
228,212,323715,2,0,P|304:204|348:232,1,110.999996612549,8|0,0:0|0:0,0:0:0:0:
364,244,323953,1,0,0:0:0:0:
364,244,324032,1,0,0:0:0:0:
264,352,324191,1,2,0:0:0:0:
156,172,324350,6,0,L|136:116,2,55.4999983062745,10|0|0,0:0|0:0|0:0,0:0:0:0:
264,108,324667,2,0,L|272:44,1,55.4999983062745,2|0,0:0|0:0,0:0:0:0:
352,20,324826,1,0,0:0:0:0:
380,156,324985,1,10,0:0:0:0:
380,156,325064,1,0,0:0:0:0:
380,156,325143,1,0,0:0:0:0:
300,284,325302,5,0,0:0:0:0:
260,252,325382,1,0,0:0:0:0:
212,236,325461,1,0,0:0:0:0:
164,256,325540,1,0,0:0:0:0:
124,288,325620,5,8,0:0:0:0:
136,256,325699,1,0,0:0:0:0:
140,224,325778,1,0,0:0:0:0:
140,192,325858,1,0,0:0:0:0:
132,160,325937,1,0,0:0:0:0:
124,128,326016,1,0,0:0:0:0:
112,96,326096,1,0,0:0:0:0:
96,68,326175,1,0,0:0:0:0:
60,44,326255,5,8,0:0:0:0:
100,60,326334,1,0,0:0:0:0:
144,60,326413,1,0,0:0:0:0:
188,44,326493,1,0,0:0:0:0:
224,20,326572,5,0,0:0:0:0:
216,80,326651,1,0,0:0:0:0:
224,140,326731,1,0,0:0:0:0:
248,196,326810,1,0,0:0:0:0:
296,232,326889,1,8,0:0:0:0:
352,256,326969,1,0,0:0:0:0:
412,244,327048,1,0,0:0:0:0:
468,220,327128,1,0,0:0:0:0:
500,168,327207,5,4,0:0:0:0:
336,36,327366,2,0,L|352:176,1,110.999996612549,0|8,0:0|0:0,0:0:0:0:
360,288,327683,1,0,0:0:0:0:
212,284,327842,2,0,L|148:276,3,36.9999988708496
312,168,328159,1,0,0:0:0:0:
212,284,328318,21,0,0:0:0:0:
108,180,328477,1,0,0:0:0:0:
208,72,328635,1,0,0:0:0:0:
312,168,328794,6,0,L|380:152,1,55.4999983062745
208,72,328953,2,0,L|140:56,1,55.4999983062745
72,44,329112,6,0,L|80:92,1,36.9999988708496,6|0,0:0|0:0,0:0:0:0:
56,132,329218,2,0,L|48:180,1,36.9999988708496,2|0,0:0|0:0,0:0:0:0:
300,304,329429,2,0,L|368:292,1,55.4999983062745,8|0,0:0|0:0,0:0:0:0:
416,236,329588,1,0,0:0:0:0:
416,204,329667,1,0,0:0:0:0:
416,172,329747,21,2,0:0:0:0:
504,316,329905,1,2,0:0:0:0:
300,304,330064,2,0,L|180:296,1,110.999996612549,8|0,0:0|0:0,0:0:0:0:
104,208,330382,2,0,P|88:144|104:96,1,110.999996612549
252,168,330699,1,8,0:0:0:0:
84,340,330858,1,0,0:0:0:0:
136,80,331016,6,0,L|144:36,1,36.9999988708496,2|0,0:0|0:0,0:0:0:0:
88,56,331122,2,0,L|80:12,1,36.9999988708496,2|0,0:0|0:0,0:0:0:0:
176,216,331334,2,0,L|184:288,1,55.4999983062745,8|0,0:0|0:0,0:0:0:0:
196,300,331493,1,0,0:0:0:0:
224,320,331572,1,0,0:0:0:0:
256,324,331651,2,0,L|380:312,1,110.999996612549,2|2,0:0|0:0,0:0:0:0:
344,180,331969,5,10,0:0:0:0:
352,124,332048,1,0,0:0:0:0:
340,68,332128,1,0,0:0:0:0:
124,156,332286,2,0,L|196:148,1,55.4999983062745,2|0,0:0|0:0,0:0:0:0:
272,132,332445,1,0,0:0:0:0:
204,304,332604,2,0,L|196:368,2,55.4999983062745,10|0|0,0:0|0:0|0:0,0:0:0:0:
351,195,332921,6,0,L|388:200,3,36.9999988708496,2|0|0|0,0:0|0:0|0:0|0:0,0:0:0:0:
424,212,333159,1,0,0:0:0:0:
452,240,333239,1,8,0:0:0:0:
472,276,333318,1,0,0:0:0:0:
476,316,333397,1,0,0:0:0:0:
464,352,333477,1,0,0:0:0:0:
432,372,333556,22,0,L|360:368,1,55.4999983062745
300,304,333715,1,0,0:0:0:0:
308,264,333794,1,0,0:0:0:0:
312,224,333874,1,8,0:0:0:0:
308,184,333953,1,0,0:0:0:0:
300,148,334032,1,0,0:0:0:0:
288,112,334112,1,0,0:0:0:0:
296,76,334191,6,0,L|368:64,1,55.4999983062745
440,92,334350,1,0,0:0:0:0:
448,132,334429,1,0,0:0:0:0:
456,172,334509,6,0,L|444:228,3,36.9999988708496,10|0|0|0,0:0|0:0|0:0|0:0,0:0:0:0:
380,280,334747,1,0,0:0:0:0:
352,248,334826,1,0,0:0:0:0:
308,236,334905,1,0,0:0:0:0:
268,260,334985,1,0,0:0:0:0:
236,292,335064,1,0,0:0:0:0:
192,304,335143,1,8,0:0:0:0:
148,296,335223,1,0,0:0:0:0:
108,276,335302,1,0,0:0:0:0:
80,244,335382,1,0,0:0:0:0:
56,208,335461,21,0,0:0:0:0:
56,164,335540,1,0,0:0:0:0:
72,124,335620,1,0,0:0:0:0:
104,92,335699,1,0,0:0:0:0:
148,84,335778,6,0,L|160:160,1,55.4999983062745,8|0,0:0|0:0,0:0:0:0:
172,316,335937,2,0,L|180:261,1,55.4999983062745
355,138,336096,2,0,L|364:84,1,55.4999983062745,8|0,0:0|0:0,0:0:0:0:
331,261,336255,2,0,L|340:316,1,55.4999983062745
256,184,336413,1,8,0:0:0:0:
256,152,336493,1,0,0:0:0:0:
256,120,336572,1,8,0:0:0:0:
256,88,336651,1,0,0:0:0:0:
256,56,336731,6,0,L|252:0,3,36.9999988708496,6|0|0|0,0:0|0:0|0:0|0:0,0:0:0:0:
168,324,337048,1,8,0:0:0:0:
212,340,337128,1,0,0:0:0:0:
256,348,337207,1,0,0:0:0:0:
300,336,337286,1,0,0:0:0:0:
340,316,337366,2,0,P|356:256|352:200,1,110.999996612549
128,272,337683,22,0,L|8:264,1,110.999996612549,10|0,0:0|0:0,0:0:0:0:
92,160,337921,1,0,0:0:0:0:
92,160,338001,2,0,L|202:168,1,110.999996612549,2|0,0:0|0:0,0:0:0:0:
236,64,338239,1,0,0:0:0:0:
236,64,338318,2,0,L|125:57,1,110.999996612549,10|0,0:0|0:0,0:0:0:0:
296,184,338635,6,0,L|304:136,1,36.9999988708496,2|0,0:0|0:0,0:0:0:0:
332,100,338741,2,0,L|324:52,1,36.9999988708496,2|0,0:0|0:0,0:0:0:0:
288,352,338953,2,0,L|284:296,1,55.4999983062745,8|0,0:0|0:0,0:0:0:0:
408,212,339112,2,0,L|412:268,1,55.4999983062745
448,352,339270,1,0,0:0:0:0:
448,352,339350,1,0,0:0:0:0:
448,352,339429,1,0,0:0:0:0:
152,276,339588,6,0,L|80:272,2,55.4999983062745,10|0|0,0:0|0:0|0:0,0:0:0:0:
168,136,339905,2,0,L|152:68,1,55.4999983062745,2|0,0:0|0:0,0:0:0:0:
84,32,340064,1,0,0:0:0:0:
276,184,340223,1,8,0:0:0:0:
308,140,340302,1,8,0:0:0:0:
360,120,340382,1,8,0:0:0:0:
416,128,340461,1,8,0:0:0:0:
464,156,340540,6,0,L|472:272,1,110.999996612549,4|0,0:0|0:0,0:0:0:0:
180,356,340858,2,0,L|188:240,1,110.999996612549
228,88,341175,1,0,0:0:0:0:
380,272,341334,1,0,0:0:0:0:
24,176,341493,22,0,L|148:172,1,110.999996612549,4|0,0:0|0:0,0:0:0:0:
421,54,341810,1,0,0:0:0:0:
421,54,341889,1,0,0:0:0:0:
421,54,341969,2,0,L|297:50,1,110.999996612549
256,264,342286,1,0,0:0:0:0:
132,96,342445,5,0,0:0:0:0:
168,56,342524,1,0,0:0:0:0:
220,36,342604,1,0,0:0:0:0:
276,40,342683,1,0,0:0:0:0:
324,68,342762,5,0,0:0:0:0:
348,116,342842,1,0,0:0:0:0:
356,172,342921,1,0,0:0:0:0:
324,220,343001,1,0,0:0:0:0:
280,240,343080,6,0,P|264:204|264:160,1,69.3750026464463
468,44,343239,2,0,P|470:83|455:124,1,69.3750026464463
384,308,343397,1,0,0:0:0:0:
384,308,343556,6,0,L|504:304,1,110.999996612549
432,184,343874,1,0,0:0:0:0:
494,304,344032,1,0,0:0:0:0:
380,92,344191,1,0,0:0:0:0:
494,304,344350,21,4,0:0:0:0:
276,176,344667,1,0,0:0:0:0:
112,368,344985,21,0,0:0:0:0:
288,356,345143,1,0,0:0:0:0:
196,200,345302,1,4,0:0:0:0:
196,200,345620,1,0,0:0:0:0:
196,200,345937,1,0,0:0:0:0:
196,200,346255,5,4,0:0:0:0:
196,200,346413,1,0,0:0:0:0:
64,172,346572,1,8,0:0:0:0:
136,28,346731,1,0,0:0:0:0:
144,24,346810,1,0,0:0:0:0:
152,20,346889,2,0,L|144:136,1,92.5
40,260,347207,5,8,0:0:0:0:
28,100,347366,1,0,0:0:0:0:
160,208,347524,2,0,L|284:200,1,92.5
296,200,347762,1,0,0:0:0:0:
296,200,347842,1,8,0:0:0:0:
208,104,348001,1,0,0:0:0:0:
244,320,348159,1,0,0:0:0:0:
320,176,348318,21,0,0:0:0:0:
320,176,348397,1,0,0:0:0:0:
320,176,348477,1,8,0:0:0:0:
412,308,348635,1,0,0:0:0:0:
352,152,348794,1,0,0:0:0:0:
488,184,348953,5,0,0:0:0:0:
480,144,349032,1,0,0:0:0:0:
476,104,349112,1,8,0:0:0:0:
368,72,349270,6,0,L|352:32,4,23.125
212,163,349588,2,0,L|200:200,4,23.125
184,228,349826,1,0,0:0:0:0:
188,272,349905,1,0,0:0:0:0:
216,312,349985,1,0,0:0:0:0:
256,336,350064,21,4,0:0:0:0:
348,240,350223,1,0,0:0:0:0:
348,240,350302,1,0,0:0:0:0:
348,240,350382,1,8,0:0:0:0:
276,124,350540,2,0,L|264:64,2,46.25
476,56,350858,1,0,0:0:0:0:
476,56,350937,1,0,0:0:0:0:
476,56,351016,6,0,L|468:128,1,46.25,8|0,0:0|0:0,0:0:0:0:
424,184,351175,2,0,L|432:256,1,46.25
484,332,351334,1,0,0:0:0:0:
248,304,351493,1,0,0:0:0:0:
248,304,351572,1,0,0:0:0:0:
248,304,351651,1,8,0:0:0:0:
80,212,351810,1,0,0:0:0:0:
116,200,351889,1,0,0:0:0:0:
152,184,351969,22,0,L|208:176,1,46.25
252,72,352128,2,0,L|308:80,1,46.25
308,184,352286,2,0,L|364:176,1,46.25,8|0,0:0|0:0,0:0:0:0:
416,104,352445,2,0,L|472:112,1,46.25
496,216,352604,1,0,0:0:0:0:
492,260,352683,1,0,0:0:0:0:
472,300,352762,1,0,0:0:0:0:
432,324,352842,1,0,0:0:0:0:
384,324,352921,1,8,0:0:0:0:
300,176,353080,6,0,L|288:140,4,23.125
155,31,353397,2,0,L|148:52,4,23.125
128,100,353635,1,0,0:0:0:0:
136,140,353715,1,0,0:0:0:0:
156,176,353794,1,0,0:0:0:0:
188,204,353874,21,4,0:0:0:0:
308,108,354032,1,0,0:0:0:0:
272,340,354191,1,8,0:0:0:0:
376,260,354350,1,0,0:0:0:0:
344,244,354429,1,0,0:0:0:0:
316,224,354509,1,0,0:0:0:0:
228,52,354667,1,0,0:0:0:0:
232,88,354747,1,0,0:0:0:0:
224,120,354826,6,0,L|168:136,1,46.25,8|0,0:0|0:0,0:0:0:0:
144,256,354985,2,0,L|88:240,1,46.25,8|0,0:0|0:0,0:0:0:0:
20,172,355143,1,0,0:0:0:0:
108,44,355302,5,0,0:0:0:0:
208,152,355461,1,8,0:0:0:0:
240,184,355540,1,0,0:0:0:0:
280,200,355620,1,0,0:0:0:0:
324,204,355699,1,0,0:0:0:0:
368,196,355778,1,4,0:0:0:0:
316,72,355937,1,0,0:0:0:0:
316,332,356096,1,8,0:0:0:0:
480,180,356255,1,0,0:0:0:0:
280,200,356413,21,0,0:0:0:0:
204,324,356572,1,0,0:0:0:0:
204,324,356651,1,0,0:0:0:0:
204,324,356731,1,8,0:0:0:0:
184,120,356889,1,0,0:0:0:0:
24,248,357048,2,0,L|136:240,1,92.5
424,88,357366,1,8,0:0:0:0:
272,16,357524,1,0,0:0:0:0:
280,44,357604,1,0,0:0:0:0:
288,68,357683,5,4,0:0:0:0:
296,96,357762,1,0,0:0:0:0:
304,124,357842,1,0,0:0:0:0:
308,152,357921,1,0,0:0:0:0:
312,180,358001,1,0,0:0:0:0:
312,208,358080,1,0,0:0:0:0:
312,236,358159,1,0,0:0:0:0:
308,264,358239,1,0,0:0:0:0:
292,304,358318,5,0,0:0:0:0:
260,328,358397,1,0,0:0:0:0:
220,328,358477,1,0,0:0:0:0:
180,316,358556,1,0,0:0:0:0:
148,292,358635,5,4,0:0:0:0:
124,256,358715,1,0,0:0:0:0:
120,216,358794,1,0,0:0:0:0:
132,176,358874,1,0,0:0:0:0:
156,132,358953,21,0,0:0:0:0:
196,100,359032,1,0,0:0:0:0:
244,84,359112,1,0,0:0:0:0:
296,88,359191,1,0,0:0:0:0:
336,120,359270,1,0,0:0:0:0:
380,148,359350,1,0,0:0:0:0:
428,164,359429,1,0,0:0:0:0:
480,156,359509,1,0,0:0:0:0:
508,104,359588,5,4,0:0:0:0:
476,52,359667,1,0,0:0:0:0:
420,76,359747,1,0,0:0:0:0:
420,136,359826,1,0,0:0:0:0:
448,188,359905,1,0,0:0:0:0:
464,244,359985,1,0,0:0:0:0:
456,304,360064,1,0,0:0:0:0:
428,356,360143,1,0,0:0:0:0:
376,380,360223,22,0,L|284:368,1,69.3750026464463,4|0,0:0|0:0,0:0:0:0:
64,272,360382,2,0,L|156:260,1,69.3750026464463
352,268,360540,1,4,0:0:0:0:
280,80,360699,6,0,L|312:60,4,23.125,0|0|0|4|0,0:0|0:0|0:0|0:0|0:0,0:0:0:0:
16,220,361016,1,0,0:0:0:0:
120,104,361175,5,0,0:0:0:0:
152,180,361255,1,0,0:0:0:0:
156,256,361334,1,0,0:0:0:0:
116,320,361413,1,0,0:0:0:0:
48,356,361493,1,4,0:0:0:0:
256,192,361572,12,4,369112,0:0:0:0:
256,192,369191,12,4,376731,0:0:0:0:
