osu file format v14

[General]
AudioFilename: 09. Dynasty -al Fine-.mp3
AudioLeadIn: 0
PreviewTime: 229859
Countdown: 0
SampleSet: Normal
StackLeniency: 0.2
Mode: 1
LetterboxInBreaks: 0
WidescreenStoryboard: 1

[Editor]
Bookmarks: 66337,121024,141341,161658,184516,207373,230230,260706,291182,321658,344989,390996,454997,485473,515949,550235,569282
DistanceSpacing: 2.5
BeatDivisor: 4
GridSize: 32
TimelineZoom: 2.85

[Metadata]
Title:Dynasty -al fine-
TitleUnicode:Dynasty -al fine-
Artist:Yooh
ArtistUnicode:Yooh
Creator:Drum Decimator
Version:Conquerors
Source:SOUND VOLTEX BOOTH
Tags:Alwaysyukaz Arrival Faputa frz Fuel Grimbow HiroK iloveyou4ever incandescence Jaye Jerry Kqrth Nifty Raphalge tkdLolly vrnl yea Zetera [Zeth] BeatStream アニムトライヴ jubeat saucer SDVX Konami Eutopia Yoohsic Roomz YACT-001
BeatmapID:1954240
BeatmapSetID:925304

[Difficulty]
HPDrainRate:3.6
CircleSize:6.3
OverallDifficulty:6.3
ApproachRate:3.6
SliderMultiplier:1.4
SliderTickRate:1

[Events]
//Background and Video events
0,0,"lionheart was one of the first maps i ever played on osu.jpg",0,200
//Break Periods
//Storyboard Layer 0 (Background)
Sprite,Background,TopLeft,"lionheart was one of the first maps i ever played on osu.jpg",0,0
//Storyboard Layer 1 (Fail)
//Storyboard Layer 2 (Pass)
//Storyboard Layer 3 (Foreground)
//Storyboard Layer 4 (Overlay)
//Storyboard Sound Samples

[TimingPoints]
1033,317.460317460317,4,1,0,100,1,8
1033,-125,4,1,0,100,0,8
1112,-111.111111111111,4,1,0,100,0,8
1191,-100,4,1,0,100,0,8
1271,-90.9090909090909,4,1,0,100,0,8
1350,634.920634920635,4,1,0,100,1,0
1350,-41.6666666666666,4,1,0,100,0,8
1508,-50,4,1,0,30,0,8
16429,634.920634920635,4,1,0,30,1,0
16429,-50,4,1,0,36,0,0
19127,-54.054054054054,4,1,0,42,0,8
21667,-58.8235294117647,4,1,0,48,0,8
23572,655.737704918033,4,1,0,80,1,8
23572,-63.8743455497384,4,1,0,80,0,0
24227,655.737704918033,4,1,0,90,1,0
24227,-63.8743455497384,4,1,0,90,0,0
45210,652.173913043478,4,1,0,90,1,0
45210,-64.5161290322581,4,1,0,90,0,0
45536,-64.0854335732051,4,1,0,90,0,0
45644,-63.9431570910723,4,1,0,90,0,0
45753,-63.8015109473823,4,1,0,90,0,0
45862,-63.6604909624384,4,1,0,90,0,0
46188,-63.2411067193676,4,1,0,90,0,0
46514,-62.8272119733588,4,1,0,90,0,0
46840,-62.418738604679,4,1,0,90,0,0
46949,-62.2837197830534,4,1,0,90,0,0
47057,-62.1493224480867,4,1,0,90,0,0
47166,-62.015503875969,4,1,0,90,0,0
47492,-61.6174456241447,4,1,0,90,0,0
47818,648.648648648649,4,1,0,90,1,0
47818,-61.5572441509904,4,1,0,90,0,0
48142,-61.1671350636469,4,1,0,90,0,0
48250,-61.038207515969,4,1,0,90,0,0
48358,-60.9098223298016,4,1,0,90,0,0
48466,-60.781939345223,4,1,0,90,0,0
48790,-60.4016010381396,4,1,0,90,0,0
49115,-60.0259571706684,4,1,0,90,0,0
49439,-59.6549567619583,4,1,0,90,0,0
49547,-59.5323187378623,4,1,0,90,0,0
49655,-59.410183915175,4,1,0,90,0,0
49763,-59.288549203176,4,1,0,90,0,0
50088,-58.9265806657111,4,1,0,90,0,0
50412,643.43163538874,4,1,0,90,1,0
50412,-59.0438889150743,4,1,0,90,0,0
50733,-58.6877965055379,4,1,0,90,0,0
50840,-58.570017758555,4,1,0,90,0,0
50948,-58.4527445071094,4,1,0,90,0,0
51055,-58.3359399436972,4,1,0,90,0,0
51377,-57.9882772764232,4,1,0,90,0,0
51698,-57.6447667490594,4,1,0,90,0,0
52020,-57.3052696266707,4,1,0,90,0,0
52127,-57.1930015834212,4,1,0,90,0,0
52235,-57.0811725737508,4,1,0,90,0,0
52342,-56.9697480068897,4,1,0,90,0,0
52664,-56.6381641154246,4,1,0,90,0,0
52985,640,4,1,0,90,1,0
52985,-56.6123188405797,4,1,0,90,0,0
53305,-56.5371024734982,4,1,0,90,0,0
53411,-56.872048696123,4,1,0,90,0,0
53518,-57.2109545247286,4,1,0,90,0,0
53625,-57.5539568345324,4,1,0,90,0,0
53945,-58.6080586080586,4,1,0,90,0,0
54265,-59.7014925373134,4,1,0,90,0,0
54585,-60.8365019011407,4,1,0,90,0,0
54691,-61.2245022907148,4,1,0,90,0,0
54798,-61.6174456241447,4,1,0,90,0,0
54905,-62.015503875969,4,1,0,90,0,0
55225,-63.2411067193676,4,1,0,90,0,0
55545,643.43163538874,4,1,0,90,1,0
55545,-64.1720430107527,4,1,0,90,0,0
55866,-63.872255489022,4,1,0,90,0,0
55973,-63.6604909624384,4,1,0,90,0,0
56081,-63.4500857210658,4,1,0,90,0,0
56188,-63.2411067193676,4,1,0,90,0,0
56510,-62.6223091976517,4,1,0,90,0,0
56671,-62.317409988733,4,1,0,90,0,0
56831,-62.015503875969,4,1,0,90,0,0
57153,-61.4203454894434,4,1,0,90,0,0
57260,-61.2245022907148,4,1,0,90,0,0
57368,-61.0298667962127,4,1,0,90,0,0
57475,-60.8365019011407,4,1,0,90,0,0
57797,-60.2636534839925,4,1,0,90,0,0
57957,-59.9812738463052,4,1,0,90,0,0
58118,652.173913043478,4,1,0,90,1,0
58118,-58.9012044335961,4,1,0,90,0,0
58444,-58.3568310099954,4,1,0,90,0,0
58552,-58.1776138489306,4,1,0,90,0,0
58661,-57.999459993506,4,1,0,90,0,0
58770,-57.8224277956181,4,1,0,90,0,0
59096,-57.2977233691606,4,1,0,90,0,0
59422,-56.7824560726754,4,1,0,90,0,0
59748,-56.276373576484,4,1,0,90,0,0
60074,-55.7792324671511,4,1,0,90,0,0
60726,653.950953678474,4,1,0,90,1,0
60726,-55.5555555555556,4,1,0,90,0,0
61379,-57.9710144927536,4,1,0,90,0,0
61706,-59.2592592592593,4,1,0,90,0,0
61870,-59.9250936329588,4,1,0,90,0,0
62033,-60.6060606060606,4,1,0,90,0,0
62360,-62.015503875969,4,1,0,90,0,0
62687,-63.4920634920635,4,1,0,90,0,0
63341,686.49885583524,4,1,0,90,1,0
63341,-63.5059037238874,4,1,0,90,0,0
63684,-65.1342602296281,4,1,0,90,0,0
64027,716.417910447761,4,1,0,88,1,8
64027,-64.0565992638271,4,1,0,88,0,0
64743,774.193548387097,4,1,0,86,1,8
64743,-62.5693813704713,4,1,0,86,0,0
65130,-64.3570779810562,4,1,0,86,0,0
65517,827.586206896552,4,1,0,84,1,8
65517,-61.9757439760645,4,1,0,84,0,0
65930,-63.8537968238241,4,1,0,84,0,0
66337,714.285714285714,4,1,0,70,1,0
66337,-76.2942779291553,4,1,0,70,0,0
69908,827.586206896552,4,1,0,70,1,8
69908,-65.8852673953577,4,1,0,70,0,0
70321,714.285714285714,4,1,0,70,1,8
70321,-76.3358778625954,4,1,0,70,0,0
70678,714.285714285714,4,1,0,70,1,8
70678,-76.3358778625954,4,1,0,70,0,0
72106,533.333333333333,4,1,0,70,1,0
72106,-102.040816326531,4,1,0,70,0,0
72372,712.166172106825,4,1,0,70,1,8
72372,-76.9230769230769,4,1,0,70,0,0
74864,712.166172106825,4,1,0,70,1,0
74864,-76.9230769230769,4,1,0,70,0,0
80561,710.059171597633,4,1,0,70,1,0
80561,-78.125,4,1,0,70,0,0
81981,701.754385964912,4,1,0,70,1,8
81981,-79.0513833992095,4,1,0,70,0,0
83033,800,4,1,0,70,1,8
83033,-69.4444444444444,4,1,0,70,0,0
83433,697.674418604651,4,1,0,70,1,0
83433,-79.5121136705177,4,1,0,70,0,0
84828,685.714285714286,4,1,0,70,1,8
84828,-80.8996035919424,4,1,0,70,0,0
85513,740.740740740741,4,1,0,70,1,8
85513,-74.889537931551,4,1,0,70,0,0
86253,699.708454810496,4,1,0,70,1,0
86253,-79.2832791564259,4,1,0,70,0,0
87652,930.232558139535,4,1,0,70,1,8
87652,-57.795698924731,4,1,0,70,0,0
88117,714.285714285714,4,1,0,70,1,8
88117,-44.4444444444445,4,1,0,70,0,0
88474,600,4,1,0,70,1,8
88474,-84.0336134453781,4,1,0,70,0,0
88674,-79.3650793650794,4,1,0,70,0,0
88874,750,4,1,0,70,1,8
88874,-58.8235294117647,4,1,0,70,0,0
89124,677.966101694915,4,1,0,75,1,0
89124,-61.1398963730571,4,1,0,75,0,0
89801,695.652173913044,4,1,0,75,1,8
89801,-62.8415300546447,4,1,0,75,0,0
91192,714.285714285714,4,1,0,75,1,8
91192,-60.6060606060606,4,1,0,75,0,0
91906,714.285714285714,4,1,0,75,1,0
91906,-60.6060606060606,4,1,0,75,0,0
92620,705.882352941176,4,1,0,75,1,8
92620,-61.5942028985509,4,1,0,75,0,0
94031,750,4,1,0,75,1,8
94031,-60.1503759398496,4,1,0,75,0,0
94781,677.966101694915,4,1,0,75,1,0
94781,-65.1214128035321,4,1,0,75,0,0
95458,701.754385964912,4,1,0,75,1,8
95458,-62.091503267974,4,1,0,75,0,0
96861,759.493670886076,4,1,0,75,1,8
96861,-55.7909604519774,4,1,0,75,0,0
97620,710.059171597633,4,1,0,75,1,0
97620,-61.0990600144615,4,1,0,75,0,0
99750,727.272727272727,4,1,0,75,1,8
99750,-59.1397849462366,4,1,0,75,0,0
100477,693.64161849711,4,1,0,75,1,0
100477,-63.0926331145152,4,1,0,75,0,0
101170,718.562874251497,4,1,0,75,1,8
101170,-56.7062818336165,4,1,0,75,0,0
103325,712.166172106825,4,1,0,75,1,0
103325,-54.2498390212492,4,1,0,75,0,0
104393,722.89156626506,4,1,0,75,1,8
104393,-59.6264367816092,4,1,0,75,0,0
104754,716.417910447761,4,1,0,75,1,8
104754,-60.3603603603603,4,1,0,75,0,0
105470,-56.9243840271877,4,1,0,75,0,0
105828,-53.8585209003215,4,1,0,75,0,0
106186,750,4,1,0,75,1,0
106186,-50.9554140127389,4,1,0,75,0,0
106936,-55.5555555555556,4,1,0,70,0,0
107311,-57.6923187869844,4,1,0,70,0,0
107686,705.882352941176,4,1,0,70,1,8
107686,-63.7499872500026,4,1,0,70,0,0
108744,-72.4431653538261,4,1,0,70,0,0
109097,733.048259010385,4,1,0,75,1,0
109097,-73.0803571428572,4,1,0,75,0,0
110563,691.64265129683,4,1,0,70,1,8
110563,-72.5334448160537,4,1,0,70,0,0
111946,759.493670886076,4,1,0,75,1,0
111946,-55.5555555555556,4,1,0,75,0,0
112705,-58.8235294117647,4,1,0,70,0,0
113085,-60.6060606060606,4,1,0,70,0,0
113464,-62.5,4,1,0,70,0,0
113844,-64.5161290322581,4,1,0,70,0,0
114224,-66.6666666666667,4,1,0,70,0,0
114604,-68.9655172413793,4,1,0,70,0,0
114983,782.778864970646,4,1,0,75,1,0
114983,-69.3037974683544,4,1,0,75,0,0
116548,-80.8544303797468,4,1,0,70,0,0
118114,742.34457160532,4,1,0,50,1,0
118114,-57.5246432511298,4,1,0,50,0,0
120707,317.460317460317,4,1,0,100,1,8
120707,-125,4,1,0,100,0,8
120786,-114.285714285714,4,1,0,100,0,8
120865,-105.263157894737,4,1,0,100,0,8
120945,-97.5609756097561,4,1,0,100,0,8
121024,317.460317460317,4,1,0,100,1,0
121024,-90.9090909090908,4,1,0,100,0,8
121341,-125,4,1,0,93,0,8
125468,-111.111111111111,4,1,0,93,0,8
126103,-90.9090909090908,4,1,0,93,0,8
126262,-125,4,1,0,93,0,8
128643,-125,4,1,0,93,0,8
129119,-122.137404580153,4,1,0,93,0,8
129595,-119.402985074627,4,1,0,93,0,8
130071,-116.788321167883,4,1,0,93,0,8
130547,-114.285714285714,4,1,0,93,0,8
130865,-112.676056338028,4,1,0,93,0,8
131024,-111.888111888112,4,1,0,93,0,8
131182,-111.111111111111,4,1,0,93,0,8
136262,-111.111111111111,4,1,0,93,0,8
136420,-110.726643598616,4,1,0,93,0,8
136579,-110.344827586207,4,1,0,93,0,8
136738,-109.965635738832,4,1,0,93,0,8
137055,-109.215017064846,4,1,0,93,0,8
137214,-108.843537414966,4,1,0,93,0,8
137373,-108.474576271186,4,1,0,93,0,8
137531,-108.108108108108,4,1,0,93,0,8
137690,-107.744107744108,4,1,0,93,0,8
138008,-107.023411371237,4,1,0,93,0,8
138166,-106.666666666667,4,1,0,93,0,8
138325,-106.312292358804,4,1,0,93,0,8
138484,-105.960264900662,4,1,0,93,0,8
138643,-105.610561056106,4,1,0,93,0,8
138801,-105.263157894737,4,1,0,93,0,8
138960,-104.918032786885,4,1,0,93,0,8
139119,-104.575163398693,4,1,0,93,0,8
139277,-104.234527687296,4,1,0,93,0,8
139595,-103.559870550162,4,1,0,93,0,8
139754,-103.225806451613,4,1,0,93,0,8
139912,-102.893890675241,4,1,0,93,0,8
140071,-102.564102564103,4,1,0,93,0,8
140230,-102.23642172524,4,1,0,93,0,8
140389,-101.910828025478,4,1,0,93,0,8
140547,-101.587301587302,4,1,0,93,0,8
140707,-101.26582278481,4,1,0,93,0,8
140865,-100.946372239748,4,1,0,93,0,8
141023,-100.62893081761,4,1,0,93,0,8
141103,-100.471008085907,4,1,0,93,0,8
141182,-100.313479623824,4,1,0,93,0,8
141262,-100.1564443661,4,1,0,93,0,8
141341,-100,4,1,0,93,0,8
161619,-100,4,1,0,97,0,8
176579,-97.0873786407767,4,1,0,100,0,8
176738,-93.4579439252336,4,1,0,100,0,8
176897,-90.9090909090909,4,1,0,100,0,8
177055,-100,4,1,0,100,0,8
177373,-90.9090909090909,4,1,0,100,0,8
177531,-100,4,1,0,100,0,8
177849,-90.9090909090909,4,1,0,100,0,8
178008,-100,4,1,0,100,0,8
178325,-90.9090909090909,4,1,0,100,0,8
178484,-100,4,1,0,100,0,8
178563,-98.0392156862745,4,1,0,100,0,8
178643,-95.2380952380952,4,1,0,100,0,8
178722,-92.5925925925926,4,1,0,100,0,8
178801,-90.9090909090909,4,1,0,100,0,8
178960,-100,4,1,0,100,0,8
179119,-98.2142681760236,4,1,0,100,0,8
179198,-97.3451068995291,4,1,0,100,0,8
179277,-96.4911942136161,4,1,0,100,0,8
179436,-94.8276270808737,4,1,0,100,0,8
179595,-93.2203626831431,4,1,0,100,0,8
179754,-91.6666743055562,4,1,0,100,0,8
179833,-90.9090909090909,4,1,0,100,0,8
179912,-90.1639270357437,4,1,0,100,0,8
179992,-89.4308797673366,4,1,0,100,0,8
180071,-88.7096559573413,4,1,0,100,0,8
180150,-87.999971840009,4,1,0,100,0,8
180230,-87.301552658114,4,1,0,100,0,8
180309,-86.6142073284281,4,1,0,100,0,8
180388,-85.9375268554771,4,1,0,100,0,8
180468,-85.271337660001,4,1,0,100,0,8
180547,-84.6153976331381,4,1,0,100,0,8
180600,-84.1836584365916,4,1,0,100,0,8
180653,-83.7563728130164,4,1,0,100,0,8
180706,-83.3333333333333,4,1,0,100,0,8
180746,-83.3333333333333,4,1,0,65,0,8
181976,-90.9090909090909,4,1,0,65,0,8
183246,-100,4,1,0,65,0,8
184516,317.460317460317,3,1,0,90,1,0
184516,-116.279069767442,3,1,0,90,0,0
184568,-119.047619047619,3,1,0,90,0,0
184621,-121.951219512195,3,1,0,90,0,0
184674,-125,3,1,0,90,0,0
184833,-123.463039487184,3,1,0,90,0,0
184992,-121.96356460471,3,1,0,90,0,0
185150,-120.499930110041,3,1,0,90,0,0
185309,-119.071149774836,3,1,0,90,0,0
185468,-117.675716321504,3,1,0,90,0,0
185627,-116.312746364936,3,1,0,90,0,0
185785,-114.980855687528,3,1,0,90,0,0
185944,-113.679251717693,3,1,0,90,0,0
186103,-112.406660319437,3,1,0,90,0,0
186262,-111.16236931474,3,1,0,90,0,0
186400,-116.279069767442,3,1,0,90,0,0
186452,-119.047619047619,3,1,0,90,0,0
186505,-121.951219512195,3,1,0,90,0,0
186558,-125,3,1,0,90,0,0
186717,-123.463039487184,3,1,0,90,0,0
186876,-121.96356460471,3,1,0,90,0,0
187034,-120.499930110041,3,1,0,90,0,0
187193,-119.071149774836,3,1,0,90,0,0
187352,-117.675716321504,3,1,0,90,0,0
187511,-116.312746364936,3,1,0,90,0,0
187669,-114.980855687528,3,1,0,90,0,0
187828,-113.679251717693,3,1,0,90,0,0
187987,-112.406660319437,3,1,0,90,0,0
188146,-111.16236931474,3,1,0,90,0,0
188305,-116.279069767442,3,1,0,90,0,0
188357,-119.047619047619,3,1,0,90,0,0
188410,-121.951219512195,3,1,0,90,0,0
188463,-125,3,1,0,90,0,0
188622,-123.463039487184,3,1,0,90,0,0
188781,-121.96356460471,3,1,0,90,0,0
188939,-120.499930110041,3,1,0,90,0,0
189098,-119.071149774836,3,1,0,90,0,0
189257,-117.675716321504,3,1,0,90,0,0
189416,-116.312746364936,3,1,0,90,0,0
189574,-114.980855687528,3,1,0,90,0,0
189733,-113.679251717693,3,1,0,90,0,0
189892,-112.406660319437,3,1,0,90,0,0
190051,-111.16236931474,3,1,0,90,0,0
190230,-108.695652173913,3,1,0,90,0,0
190389,-110.091783519921,3,1,0,90,0,0
190547,-111.524122109992,3,1,0,90,0,0
190706,-112.994350282486,3,1,0,90,0,0
190865,-114.503860497657,3,1,0,90,0,0
191024,-116.054113712142,3,1,0,90,0,0
191182,-117.647058823529,3,1,0,90,0,0
191341,-115.95937247426,3,1,0,90,0,0
191500,-114.319422183913,3,1,0,90,0,0
191658,-112.725210880688,3,1,0,90,0,0
191817,-111.174727760885,3,1,0,90,0,0
192115,-116.279069767442,3,1,0,90,0,0
192167,-119.047619047619,3,1,0,90,0,0
192220,-121.951219512195,3,1,0,90,0,0
192273,-125,3,1,0,90,0,0
192432,-123.463039487184,3,1,0,90,0,0
192591,-121.96356460471,3,1,0,90,0,0
192749,-120.499930110041,3,1,0,90,0,0
192908,-119.071149774836,3,1,0,90,0,0
193067,-117.675716321504,3,1,0,90,0,0
193226,-116.312746364936,3,1,0,90,0,0
193384,-114.980855687528,3,1,0,90,0,0
193543,-113.679251717693,3,1,0,90,0,0
193702,-112.406660319437,3,1,0,90,0,0
193861,-111.16236931474,3,1,0,90,0,0
194019,-116.279069767442,3,1,0,90,0,0
194071,-119.047619047619,3,1,0,90,0,0
194124,-121.951219512195,3,1,0,90,0,0
194177,-125,3,1,0,90,0,0
194336,-123.463039487184,3,1,0,90,0,0
194495,-121.96356460471,3,1,0,90,0,0
194653,-120.499930110041,3,1,0,90,0,0
194812,-119.071149774836,3,1,0,90,0,0
194971,-117.675716321504,3,1,0,90,0,0
195130,-116.312746364936,3,1,0,90,0,0
195288,-114.980855687528,3,1,0,90,0,0
195447,-113.679251717693,3,1,0,90,0,0
195606,-112.406660319437,3,1,0,90,0,0
195765,-111.16236931474,3,1,0,90,0,0
195944,-108.695652173913,3,1,0,90,0,0
196103,-110.091783519921,3,1,0,90,0,0
196261,-111.524122109992,3,1,0,90,0,0
196420,-112.994350282486,3,1,0,90,0,0
196579,-114.503860497657,3,1,0,90,0,0
196738,-116.054113712142,3,1,0,90,0,0
196896,-117.647058823529,3,1,0,90,0,0
197055,-116.065024269197,3,1,0,90,0,0
197214,-114.524973315681,3,1,0,90,0,0
197373,-113.025128876903,3,1,0,90,0,0
197531,-111.564185665118,3,1,0,90,0,0
197690,-110.140528300058,3,1,0,90,0,0
197849,-108.75274736628,3,1,0,90,0,0
198166,-108.695652173913,3,1,0,90,0,0
198325,-111.83755818349,3,1,0,90,0,0
198484,-115.166507736886,3,1,0,90,0,0
198537,-116.320728819158,3,1,0,90,0,0
198590,-117.498181715638,3,1,0,90,0,0
198642,-119.047619047619,3,1,0,90,0,0
199436,-108.695652173913,3,1,0,90,0,0
199595,-104.166666666667,3,1,0,90,0,0
199754,-100,3,1,0,93,0,0
222571,-100,3,1,0,97,0,0
226420,-100,3,1,0,97,0,0
226579,-98.9011097693527,3,1,0,97,0,0
226738,-97.826108223067,3,1,0,97,0,0
226896,-96.774224765879,3,1,0,97,0,0
227055,-95.7447215934986,3,1,0,97,0,0
227214,-94.7368022160833,3,1,0,97,0,0
227373,-93.7499707031342,3,1,0,97,0,0
227532,-92.7834860240235,3,1,0,97,0,0
227690,-91.8367253227831,3,1,0,97,0,0
227849,-90.9090909090909,3,1,0,97,0,0
228008,-90.0000090000009,3,1,0,97,0,0
228166,-89.1089285364215,3,1,0,97,0,0
228325,-88.2353200692118,3,1,0,97,0,0
228404,-87.8048694824518,3,1,0,97,0,0
228484,-87.3786747101649,3,1,0,97,0,0
228563,-86.9565217391304,3,1,0,97,0,0
228642,-86.5384282544507,3,1,0,97,0,0
228722,-86.1244101554459,3,1,0,97,0,0
228801,-85.7142612244968,3,1,0,97,0,0
228881,-85.3080730441845,3,1,0,97,0,0
228960,-84.9056443574256,3,1,0,97,0,0
229039,-84.5070660583285,3,1,0,97,0,0
229119,-84.1121416717625,3,1,0,97,0,0
229172,-83.8509030323002,3,1,0,97,0,0
229224,-83.5913519730903,3,1,0,97,0,0
229277,-83.3333333333333,3,1,0,97,0,0
229595,-111.111111111111,3,1,0,97,0,0
229912,-125,3,1,0,97,0,0
229992,-114.48603213165,3,1,0,97,0,0
230071,-105.603423240568,3,1,0,97,0,0
230150,-98.0000156800025,3,1,0,97,0,0
230230,-91.4178729254999,3,1,0,100,0,1
230389,-100,3,1,0,100,0,1
256896,-100,3,1,0,100,0,1
257055,-98.9036530064238,3,1,0,100,0,1
257135,-98.3643968098459,3,1,0,100,0,1
257214,-97.8309891397819,3,1,0,100,0,1
257373,-96.7814365462189,3,1,0,100,0,1
257531,-95.7540728994908,3,1,0,100,0,1
257611,-95.2485272196479,3,1,0,100,0,1
257690,-94.7483814607737,3,1,0,100,0,1
257849,-93.7635078053432,3,1,0,100,0,1
258008,-92.7989844079146,3,1,0,100,0,1
258087,-92.3240833834192,3,1,0,100,0,1
258166,-91.8540182458822,3,1,0,100,0,1
258325,-90.9281858281148,3,1,0,100,0,1
258404,-90.4721924669234,3,1,0,100,0,1
258484,-90.020749782825,3,1,0,100,0,1
258563,-89.5738702271683,3,1,0,100,0,1
258642,-89.1313260958697,3,1,0,100,0,1
258801,-88.2593058405596,3,1,0,100,0,1
258881,-87.8296245810527,3,1,0,100,0,1
258960,-87.4041067693607,3,1,0,100,0,1
259039,-86.9826921839093,3,1,0,100,0,1
259119,-86.5653966945869,3,1,0,100,0,1
259198,-86.1520117787031,3,1,0,100,0,1
259277,-85.7425562599783,3,1,0,100,0,1
259357,-85.3370472016276,3,1,0,100,0,1
259436,-84.9352835606909,3,1,0,100,0,1
259515,-84.5372851696241,3,1,0,100,0,1
259595,-84.142999344526,3,1,0,100,0,1
259648,-83.8822025453216,3,1,0,100,0,1
259701,-83.6230174027861,3,1,0,100,0,1
259754,-83.3654290235074,3,1,0,100,0,1
259992,-83.3654290235074,3,1,0,90,0,1
260071,-90.9472887703745,3,1,0,90,0,1
260389,-100.046221354266,3,1,0,90,0,1
260468,-97.0873786407767,3,1,0,90,0,1
260547,-94.3396226415094,3,1,0,90,0,1
260627,-94.3396226415094,3,1,0,95,0,1
260706,-90.9472887703747,3,1,0,95,0,0
285468,-83.3654290235074,3,1,0,98,0,0
285627,-90.9472887703745,3,1,0,98,0,0
285785,-83.3654290235074,3,1,0,98,0,0
285944,-90.9472887703745,3,1,0,98,0,0
286103,-90.9090909090909,3,1,0,98,0,0
286182,-86.9565217391304,3,1,0,98,0,0
286262,-83.3333333333333,3,1,0,98,0,0
286341,-80,3,1,0,98,0,0
286420,-76.9230769230769,3,1,0,98,0,0
287055,-83.3333333333333,3,1,0,98,0,0
287214,-86.8794634324339,3,1,0,98,0,0
287267,-88.1294868925014,3,1,0,98,0,0
287320,-89.4160861327274,3,1,0,98,0,0
287373,-90.7407256172865,3,1,0,95,0,0
289277,-90.9090909090909,3,1,0,95,0,0
289357,-90.0934178649842,3,1,0,95,0,0
289436,-89.2923314852797,3,1,0,95,0,0
289515,-88.5052873058636,3,1,0,95,0,0
289595,-87.732073266809,3,1,0,95,0,0
289674,-86.972176730942,3,1,0,95,0,0
289754,-86.2254052809612,3,1,0,95,0,0
289833,-85.4912756153235,3,1,0,95,0,0
289912,-84.7696131453935,3,1,0,95,0,0
289992,-84.0599616518455,3,1,0,95,0,0
290071,-83.3621627479503,3,1,0,95,0,0
290150,-82.6757852546084,3,1,0,95,0,0
290230,-82.000685525731,3,1,0,95,0,0
290389,-80.6829651635161,3,1,0,95,0,0
290441,-80.2530861324272,3,1,0,95,0,0
290494,-79.8277636172195,3,1,0,95,0,0
290547,-79.4069255544192,3,1,0,95,0,0
290706,-78.1706198851986,3,1,0,95,0,0
290759,-77.7670286462627,3,1,0,95,0,0
290812,-77.3675834467413,3,1,0,95,0,0
290865,-76.9722207255402,3,1,0,95,0,0
291103,-76.9722207255402,3,1,0,90,0,0
291182,-100,3,1,0,90,0,0
291500,-100.840302238554,3,1,0,90,0,0
291817,-101.694949727102,3,1,0,90,0,0
292135,-102.564102564103,3,1,0,90,0,0
292293,-103.004327211786,3,1,0,90,0,0
292452,-103.448240190262,3,1,0,90,0,0
292611,-103.896103896104,3,1,0,90,0,0
292769,-104.347862381865,3,1,0,90,0,0
292928,-104.80345683722,3,1,0,90,0,0
293087,-105.263157894737,3,1,0,90,0,0
293404,-106.194652674459,3,1,0,90,0,0
293722,-107.142895408177,3,1,0,90,0,0
294039,-108.108108108108,3,1,0,90,0,0
294198,-108.597324379122,3,1,0,90,0,0
294357,-109.090869421502,3,1,0,90,0,0
294515,-109.58904109589,3,1,0,90,0,0
294674,-110.091783519921,3,1,0,90,0,0
294833,-110.599037567175,3,1,0,90,0,0
294992,-111.111111111111,3,1,0,90,0,0
295150,-111.627948512725,3,1,0,90,0,0
295309,-112.149490785237,3,1,0,90,0,0
295468,-112.676056338028,3,1,0,90,0,0
295627,-113.207589889657,3,1,0,90,0,0
295944,-114.285714285714,3,1,0,90,0,0
296262,-115.384571005934,3,1,0,90,0,0
296579,-116.504899613553,3,1,0,90,0,0
296896,-117.647058823529,3,1,0,90,0,0
297055,-118.226647577004,3,1,0,90,0,0
297214,-118.811834133927,3,1,0,90,0,0
297373,-119.402985074627,3,1,0,90,0,0
297531,-120.000048000019,3,1,0,90,0,0
297584,-120.200398103719,3,1,0,90,0,0
297637,-120.401273363867,3,1,0,90,0,0
297690,-120.602966591772,3,1,0,90,0,0
297849,-121.212121212121,3,1,0,90,0,0
298166,-122.448929612682,3,1,0,90,0,0
298484,-123.711391221192,3,1,0,90,0,0
298801,-125,3,1,0,90,0,0
301658,-125,3,1,0,90,0,0
301817,-123.968427720828,3,1,0,90,0,0
301976,-122.953591167014,3,1,0,90,0,0
302135,-121.955383842375,3,1,0,90,0,0
302293,-120.973107678163,3,1,0,90,0,0
302452,-120.006672370984,3,1,0,90,0,0
302611,-119.055414342606,3,1,0,90,0,0
302769,-118.119257927574,3,1,0,90,0,0
302928,-117.197709019184,3,1,0,90,0,0
303087,-116.290293132942,3,1,0,90,0,0
303246,-115.396953982003,3,1,0,90,0,0
303404,-114.517104274694,3,1,0,90,0,0
303563,-113.650699122276,3,1,0,90,0,0
303722,-112.797305497966,3,1,0,90,0,0
303881,-111.956507136108,3,1,0,90,0,0
304039,-111.128274255691,3,1,0,90,0,0
304198,-110.312083916608,3,1,0,90,0,0
304357,-109.507915232113,3,1,0,90,0,0
304515,-108.715268189695,3,1,0,90,0,0
304674,-107.934129959169,3,1,0,90,0,0
304833,-107.164136878609,3,1,0,90,0,0
304992,-106.404938891644,3,1,0,90,0,0
305150,-105.656533852882,3,1,0,90,0,0
305309,-104.918473100477,3,1,0,90,0,0
305468,-104.190760780097,3,1,0,90,0,0
305785,-102.765100560789,3,1,0,90,0,0
306103,-101.377928808363,3,1,0,90,0,0
306341,-101.377928808363,3,1,0,95,0,0
306420,-100.027707675026,3,1,0,95,0,0
319754,-100,3,1,0,95,0,0
319833,-98.3606234883202,3,1,0,95,0,0
319912,-96.774224765879,3,1,0,95,0,0
319992,-95.2380952380952,3,1,0,95,0,0
320071,-93.7499707031342,3,1,0,95,0,0
320150,-92.3077207100679,3,1,0,95,0,0
320230,-90.9090909090909,3,1,0,95,0,0
320309,-89.5522120739665,3,1,0,95,0,0
320389,-88.2353200692118,3,1,0,95,0,0
320468,-86.9565217391304,3,1,0,95,0,0
320547,-85.7142612244968,3,1,0,95,0,0
320706,-83.3333333333333,3,1,0,95,0,0
321341,-100,3,1,0,95,0,0
321658,-90.9090909090909,3,1,0,95,0,0
333087,-86.9565217391304,3,1,0,95,0,0
334992,-83.3333333333333,3,1,0,95,0,0
336896,-83.3333333333333,3,1,0,95,0,0
337055,-82.5705875310156,3,1,0,95,0,0
337214,-81.8216108875108,3,1,0,95,0,0
337373,-81.0861654028036,3,1,0,95,0,0
337452,-80.7233457566562,3,1,0,95,0,0
337531,-80.3637585165493,3,1,0,95,0,0
337690,-79.6541734405903,3,1,0,95,0,0
337849,-78.95694714543,3,1,0,95,0,0
338008,-78.2718820787133,3,1,0,95,0,0
338087,-77.9337578644903,3,1,0,95,0,0
338166,-77.5985423889798,3,1,0,95,0,0
338325,-76.9367479913738,3,1,0,95,0,0
338404,-76.6100365276654,3,1,0,95,0,0
338484,-76.2860880875459,3,1,0,95,0,0
338642,-75.6463984749686,3,1,0,95,0,0
338801,-75.0173477616699,3,1,0,95,0,0
338881,-74.3986173760947,3,1,0,95,0,0
338960,-74.0930638519206,3,1,0,95,0,0
339039,-73.7900643154201,3,1,0,95,0,0
339119,-73.4894788787563,3,1,0,95,0,0
339198,-73.1913323896531,3,1,0,95,0,0
339277,-72.8956484213718,3,1,0,95,0,0
339357,-72.6022911831052,3,1,0,95,0,0
339436,-72.3112856223471,3,1,0,95,0,0
339515,-72.0226035739056,3,1,0,95,0,0
339595,-71.7362687814519,3,1,0,95,0,0
339674,-71.4521506382821,3,1,0,95,0,0
339754,-71.1658158458284,3,1,0,100,0,0
340389,317.460317460317,3,1,0,100,1,0
340389,-71.4285714285714,3,1,0,100,0,0
340468,-71.4285714285714,3,1,0,40,0,0
340711,534.75935828877,4,1,0,40,1,8
340711,-59.3650793650794,4,1,0,40,0,0
341780,-59.3650793650794,4,1,0,25,0,0
342850,-77.8517901748546,4,1,0,10,0,0
344989,521.739130434783,3,1,0,87,1,0
344989,-92.5925925925926,3,1,0,87,0,0
345249,461.538461538462,3,1,0,87,1,8
345249,-104.838709677419,3,1,0,87,0,0
346402,461.361014994233,3,1,0,87,1,0
346402,-104.900181488204,3,1,0,87,0,0
350554,461.183704842429,3,1,0,87,1,0
350554,-104.961678096007,3,1,0,87,0,0
353321,458.891013384321,3,1,0,87,1,0
353321,-105.763397371082,3,1,0,87,0,0
354697,455.235204855842,3,1,0,87,1,0
354697,-107.067424857839,3,1,0,87,0,0
356062,461.538461538462,3,1,0,87,1,0
356062,-104.838709677419,3,1,0,87,0,0
367062,-104.838709677419,3,1,0,90,0,0
383754,465.116279069767,3,1,0,90,1,0
383754,-103.092783505155,3,1,0,90,0,0
384219,-106.477335766695,3,1,0,90,0,0
384451,-108.254397834912,3,1,0,90,0,0
384684,-110.091783519921,3,1,0,90,0,0
384916,-111.992492023335,3,1,0,90,0,0
385149,483.870967741935,3,1,0,90,1,0
385149,-109.543055279489,3,1,0,90,0,0
385632,500,3,1,0,90,1,8
385632,-109.869943925951,3,1,0,90,0,0
385882,-111.907676167162,3,1,0,90,0,0
386132,524.017467248908,3,1,0,90,1,8
386132,-108.796395735991,3,1,0,90,0,0
386656,512.820512820513,3,1,0,90,1,0
386656,-115.538438749815,3,1,0,90,0,0
386912,-117.85301185006,3,1,0,90,0,0
387168,558.139534883721,3,1,0,90,1,8
387168,-110.497188730524,3,1,0,90,0,0
387447,-112.803158488438,3,1,0,90,0,0
387726,582.52427184466,3,1,0,90,1,8
387726,-110.38478991047,3,1,0,90,0,0
388017,-112.78859137485,3,1,0,90,0,0
388308,638.297872340426,3,1,0,90,1,0
388308,-105.224862172222,3,1,0,90,0,0
388946,689.655172413793,3,1,0,91,1,8
389635,1043.47826086957,3,1,0,92,1,8
389635,-70.6583888459429,3,1,0,92,0,8
390156,1680.67226890756,3,1,0,93,1,8
390901,-100,3,1,0,95,0,8
390996,566.037735849057,3,1,0,95,1,0
390996,-136.950904392765,3,1,0,95,0,8
403448,-120.454545454546,3,1,0,95,0,8
404014,-107.505070993915,3,1,0,95,0,8
404580,-97.0695970695972,3,1,0,95,0,8
405996,-136.950904392765,3,1,0,95,0,8
409109,-128.205128205128,3,1,0,95,0,8
409533,-120.481927710843,3,1,0,95,0,8
410807,-136.986301369863,3,1,0,95,0,8
411373,-147.058823529412,3,1,0,95,0,8
418165,-102.040816326531,3,1,0,95,0,8
419863,-128.205128205129,3,1,0,95,0,8
430618,-113.636363636364,3,1,0,95,0,8
431184,-102.040816326531,3,1,0,95,0,8
431750,-92.592592592593,3,1,0,95,0,8
433305,-128.205128205128,3,1,0,95,0,8
435146,592.592592592593,3,1,0,95,1,0
435146,-115.384615384615,3,1,0,95,0,0
435738,634.920634920635,3,1,0,95,1,8
435738,-90.9090909090909,3,1,0,95,0,0
436372,713.224368499257,3,1,0,95,1,8
436372,-74.25797197396,3,1,0,95,0,0
437085,736.196319018405,3,1,0,95,1,0
437085,-54.9747048903877,3,1,0,95,0,0
439206,-54.9747048903877,3,1,0,80,0,0
439293,516.129032258065,3,1,0,80,1,0
439293,-108.01393728223,3,1,0,80,0,0
439809,566.304860783388,3,1,0,80,1,8
439809,-92.2628118604958,3,1,0,80,0,0
440941,567.375886524823,3,1,0,80,1,0
440941,-91.976516634051,3,1,0,80,0,0
446047,-91.743119266055,3,1,0,80,0,0
446614,638.297872340426,3,1,0,80,1,8
446614,-89.4854886416629,3,1,0,80,0,0
446933,997.920997920998,3,1,0,80,1,8
446933,-60.1648592192328,3,1,0,80,0,0
447431,1004.18410041841,3,1,0,75,1,8
447431,-65.7894736842105,3,1,0,75,0,0
447933,794.701986754967,3,1,0,75,1,8
447933,-86.2068965517241,3,1,0,75,0,0
448330,634.920634920635,3,1,0,70,1,0
448330,-111.111111111111,3,1,0,70,0,0
449950,-111.111111111111,3,1,0,40,0,0
454679,317.460317460317,4,1,0,100,1,8
454679,-125,4,1,0,100,0,8
454758,-114.285714285714,4,1,0,100,0,8
454837,-105.263157894737,4,1,0,100,0,8
454917,-97.5609756097561,4,1,0,100,0,8
454996,317.460317460317,3,1,0,100,1,0
454996,-90.9090909090908,3,1,0,100,0,8
455075,-100,3,1,0,95,0,8
470207,-100,3,1,0,98,0,8
477535,-100,3,1,0,98,0,8
477615,-99.7377893517941,3,1,0,98,0,8
477693,-99.4770491526047,3,1,0,98,0,8
477773,-99.2175702410788,3,1,0,98,0,8
477853,-98.9594414729123,3,1,0,98,0,8
477932,-98.7027497599056,3,1,0,98,0,8
478011,-98.447289352335,3,1,0,98,0,8
478091,-98.1931478857542,3,1,0,98,0,8
478170,-97.9403151719342,3,1,0,98,0,8
478329,-97.4386307144103,3,1,0,98,0,8
478408,-97.1896636848878,3,1,0,98,0,8
478488,-96.9420596697766,3,1,0,98,0,8
478646,-96.450431229878,3,1,0,98,0,8
478805,-95.9638561732109,3,1,0,98,0,8
478884,-95.7223592115541,3,1,0,98,0,8
478963,-95.4820746727113,3,1,0,98,0,8
479043,-95.2430841615513,3,1,0,98,0,8
479122,-95.0051967842641,3,1,0,98,0,8
479281,-94.5330586832868,3,1,0,98,0,8
479361,-94.2987005639062,3,1,0,98,0,8
479440,-94.0655015713642,3,1,0,98,0,8
479598,-93.6026343525412,3,1,0,98,0,8
479757,-93.1442133226031,3,1,0,98,0,8
479837,-92.9167688751124,3,1,0,98,0,8
479916,-92.6903465784749,3,1,0,98,0,8
479995,-92.4650251042543,3,1,0,98,0,8
480074,-92.2408815276566,3,1,0,98,0,8
480233,-91.7956701818289,3,1,0,98,0,8
480313,-91.5747561364244,3,1,0,98,0,8
480392,-91.3548193778189,3,1,0,98,0,8
480550,-90.9181827273636,3,1,0,98,0,8
480710,-90.4856182158408,3,1,0,98,0,8
480789,-90.2708758170643,3,1,0,98,0,8
480869,-90.057231370536,3,1,0,98,0,8
480948,-89.8445150821987,3,1,0,98,0,8
481027,-89.6328013029024,3,1,0,98,0,8
481186,-89.2124326446134,3,1,0,98,0,8
481265,-89.0036838624751,3,1,0,98,0,8
481345,-88.7959885524212,3,1,0,98,0,8
481503,-88.3833362057918,3,1,0,98,0,8
481662,-87.974578865691,3,1,0,98,0,8
481742,-87.7715762282974,3,1,0,98,0,8
481820,-87.5695082972109,3,1,0,98,0,8
481980,-87.1682268326466,3,1,0,98,0,8
482059,-86.968924263982,3,1,0,98,0,8
482138,-86.7706062835802,3,1,0,98,0,8
482218,-86.5731157577788,3,1,0,98,0,8
482297,-86.376522170262,3,1,0,98,0,8
482376,-86.1808936958676,3,1,0,98,0,8
482455,-85.9860754149473,3,1,0,98,0,8
482535,-85.7921359496503,3,1,0,98,0,8
482615,-85.5990693669178,3,1,0,98,0,8
482694,-85.4069427303746,3,1,0,98,0,8
482773,-85.2156039996796,3,1,0,98,0,8
482853,-85.0251206719025,3,1,0,98,0,8
482932,-84.8355589942235,3,1,0,98,0,8
483011,-84.646769032826,3,1,0,98,0,8
483091,-84.4588174583132,3,1,0,98,0,8
483170,-84.2717697155912,3,1,0,98,0,8
483250,-84.085477933448,3,1,0,98,0,8
483329,-83.9000079705008,3,1,0,98,0,8
483408,-83.7153544005813,3,1,0,98,0,8
483567,-83.3485444426941,3,1,0,98,0,8
483726,-90.9271936867431,3,1,0,98,0,8
484043,-83.3485444426941,3,1,0,98,0,8
484202,-90.9271936867431,3,1,0,98,0,8
484519,-83.3485444426941,3,1,0,98,0,8
485154,-100,3,1,0,98,0,8
485234,-98.3606234883202,3,1,0,98,0,8
485313,-96.774224765879,3,1,0,98,0,8
485392,-95.2380952380952,3,1,0,98,0,8
485432,-93.7499707031342,3,1,0,100,0,8
485472,-93.7499707031342,3,1,0,100,0,9
485551,-92.3077207100679,3,1,0,100,0,9
485630,-90.9090909090909,3,1,0,100,0,9
514995,-90.9090909090909,3,1,0,100,0,8
515313,-83.3333333333333,3,1,0,100,0,8
515630,-76.9230769230769,3,1,0,100,0,8
515948,-90.9090909090909,3,1,0,100,0,9
544519,-90.9090909090909,3,1,0,100,0,9
544599,-90.2279518976743,3,1,0,100,0,9
544678,-89.5568636828111,3,1,0,100,0,9
544757,-88.8957634945991,3,1,0,100,0,9
544837,-88.244274270264,3,1,0,100,0,9
544916,-87.6023414353819,3,1,0,100,0,9
544995,-86.9696049927511,3,1,0,100,0,9
545075,-86.3460178511757,3,1,0,100,0,9
545154,-85.7312360043757,3,1,0,100,0,9
545234,-85.1252191974394,3,1,0,100,0,9
545313,-84.5276384245739,3,1,0,100,0,9
545392,-83.9384596789018,3,1,0,100,0,9
545472,-83.3573680411185,3,1,0,100,0,9
545630,-82.2190595290657,3,1,0,100,0,9
545683,-81.8465230369316,3,1,0,100,0,9
545736,-81.4772808750008,3,1,0,100,0,9
545789,-81.1114211369875,3,1,0,100,0,9
545948,-80.0332297970117,3,1,0,100,0,9
546001,-79.680195567072,3,1,0,100,0,9
546054,-79.3301992615945,3,1,0,100,0,9
546107,-78.9833266197506,3,1,0,100,0,9
546265,-77.9606127392319,3,1,0,100,0,9
546424,-76.9640454765152,3,1,0,100,0,9
546662,-76.9640454765152,3,1,0,96,0,9
546742,-100,3,1,0,96,0,9
546900,-95.2380952380952,3,1,0,96,0,9
547059,-90.9090909090909,3,1,0,96,0,9
547218,-86.9565217391304,3,1,0,96,0,9
547376,-83.3333333333333,3,1,0,96,0,9
547694,-100,3,1,0,96,0,9
547853,-105.263157894737,3,1,0,96,0,9
547932,-105.263157894737,3,1,0,90,0,9
548011,-111.111111111111,3,1,0,90,0,9
548249,-111.111111111111,3,1,0,35,0,9
548329,-125,3,1,0,35,0,8
548646,-115.415333619563,3,1,0,71,0,8
548805,-111.153843588757,3,1,0,75,0,8
548964,-107.195842516444,3,1,0,79,0,8
549122,-103.510024945916,3,1,0,83,0,8
549202,-103.510024945916,3,1,0,88,0,8
549281,-100.06924791956,3,1,0,88,0,8
549599,-93.8311639568227,3,1,0,92,0,8
549757,-90.9949570594798,3,1,0,94,0,8
549916,-88.3251779752336,3,1,0,96,0,8
549995,-87.0481872650243,3,1,0,98,0,8
550075,-85.8075953451096,3,1,0,100,0,8
550234,-83.4295554205851,3,1,0,100,0,9
562932,-83.3333333333333,3,1,0,100,0,9
563011,-82.9026540455666,3,1,0,100,0,9
563091,-82.4764035009584,3,1,0,100,0,9
563170,-82.0545810662336,3,1,0,100,0,9
563249,-81.6369848196027,3,1,0,100,0,9
563302,-81.3609407277411,3,1,0,100,0,9
563355,-81.0867571540819,3,1,0,100,0,9
563408,-80.8144153521528,3,1,0,100,0,9
563488,-80.4093802366609,3,1,0,100,0,9
563567,-80.00832086537,3,1,0,100,0,9
563646,-79.6112423812041,3,1,0,100,0,9
563726,-79.2180858058618,3,1,0,100,0,9
563805,-78.8288554601989,3,1,0,100,0,9
563884,-78.4433697702786,3,1,0,100,0,9
564043,-77.6835993608194,3,1,0,100,0,9
564122,-77.3092664432944,3,1,0,100,0,9
564202,-76.9384646160001,3,1,0,100,0,9
564281,-76.5712027957678,3,1,0,100,0,9
564361,-76.2074305293063,3,1,0,100,0,9
564440,-75.8470983175597,3,1,0,100,0,9
564519,-75.4902145809349,3,1,0,100,0,9
564678,-74.7863167963337,3,1,0,100,0,9
564757,-74.4392676069339,3,1,0,100,0,9
564837,-74.0954794347997,3,1,0,100,0,9
564890,-73.8680096855734,3,1,0,100,0,9
564943,-73.6419323053901,3,1,0,100,0,9
564995,-73.4172345489759,3,1,0,100,0,9
565075,-73.0827472097007,3,1,0,100,0,9
565154,-72.7513468093078,3,1,0,100,0,9
565234,-72.4228859216428,3,1,0,100,0,9
565313,-72.0973776020845,3,1,0,100,0,9
565392,-71.7747822173671,3,1,0,100,0,9
565472,-71.4550608404115,3,1,0,100,0,9
566742,-76.9537992475458,3,1,0,100,0,9
568011,-83.3693905947656,3,1,0,100,0,9
569281,-90.9520037181179,3,1,0,100,0,8
569430,-91.9540229885057,3,1,0,98,0,8
569589,-93.0232558139535,3,1,0,96,0,8
569747,-94.1176470588235,3,1,0,94,0,8
569827,-94.6745562130178,3,1,0,93,0,8
569906,-95.2380952380952,3,1,0,92,0,8
570065,-96.3855421686747,3,1,0,90,0,8
570224,-97.5609756097561,3,1,0,88,0,8
570382,-98.7654320987654,3,1,0,86,0,8
570541,-100.051926950087,3,1,0,84,0,8
570700,-101.26582278481,3,1,0,82,0,8
570779,-101.910828025478,3,1,0,81,0,8
570859,-102.564102564103,3,1,0,80,0,8
571017,-103.896103896104,3,1,0,78,0,8
571176,-105.263157894737,3,1,0,76,0,8
571335,-106.666666666667,3,1,0,74,0,8
571493,-108.108108108108,3,1,0,72,0,8
571652,-109.58904109589,3,1,0,70,0,8
571732,-110.344827586207,3,1,0,69,0,8
571811,-111.111111111111,3,1,0,68,0,8
571970,-112.676056338028,3,1,0,66,0,8
572128,-114.285714285714,3,1,0,64,0,8
572208,-115.107913669065,3,1,0,63,0,8
572287,-115.942028985507,3,1,0,62,0,8
572446,-116.11030478955,3,1,0,60,0,8
572604,-119.402985074627,3,1,0,58,0,8
572684,-120.300751879699,3,1,0,57,0,8
572763,-121.212121212121,3,1,0,56,0,8
573081,-124.031007751938,3,1,0,52,0,8
573240,-122.137404580153,3,1,0,54,0,8
573398,-120.300751879699,3,1,0,56,0,8
573557,-118.518518518519,3,1,0,58,0,8
573637,-117.647058823529,3,1,0,59,0,8
573716,-115.942028985507,3,1,0,60,0,8
573875,-115.107913669065,3,1,0,62,0,8
574033,-114.285714285714,3,1,0,64,0,8
574192,-112.676056338028,3,1,0,66,0,8
574351,-111.111111111111,3,1,0,68,0,8
574509,-109.58904109589,3,1,0,70,0,8
574589,-108.843537414966,3,1,0,71,0,8
574668,-108.108108108108,3,1,0,72,0,8
574827,-106.666666666667,3,1,0,74,0,8
574985,-105.263157894737,3,1,0,76,0,8
575144,-106.666666666667,3,1,0,74,0,8
575302,-108.108108108108,3,1,0,72,0,8
575461,-109.58904109589,3,1,0,70,0,8
575541,-110.344827586207,3,1,0,69,0,8
575620,-111.111111111111,3,1,0,68,0,8
575779,-112.676056338028,3,1,0,66,0,8
575937,-114.285714285714,3,1,0,64,0,8
576017,-115.107913669065,3,1,0,63,0,8
576096,-115.942028985507,3,1,0,62,0,8
576255,-116.11030478955,3,1,0,60,0,8
576413,-119.402985074627,3,1,0,58,0,8
576493,-120.300751879699,3,1,0,57,0,8
576572,-121.212121212121,3,1,0,56,0,8
576890,-124.031007751938,3,1,0,52,0,8
577049,-122.137404580153,3,1,0,54,0,8
577207,-120.300751879699,3,1,0,56,0,8
577366,-118.518518518519,3,1,0,58,0,8
577446,-117.647058823529,3,1,0,59,0,8
577525,-115.942028985507,3,1,0,60,0,8
577684,-115.107913669065,3,1,0,62,0,8
577842,-114.285714285714,3,1,0,64,0,8
578001,-112.676056338028,3,1,0,66,0,8
578160,-111.111111111111,3,1,0,68,0,8
578318,-109.58904109589,3,1,0,70,0,8
578398,-108.843537414966,3,1,0,71,0,8
578477,-108.108108108108,3,1,0,72,0,8
578636,-106.666666666667,3,1,0,74,0,8
578795,-105.263157894737,3,1,0,76,0,8
578954,-106.666666666667,3,1,0,74,0,8
579112,-108.108108108108,3,1,0,72,0,8
579271,-109.58904109589,3,1,0,70,0,8
579351,-110.344827586207,3,1,0,69,0,8
579430,-111.111111111111,3,1,0,68,0,8
579589,-112.676056338028,3,1,0,66,0,8
579747,-114.285714285714,3,1,0,64,0,8
579827,-115.107913669065,3,1,0,63,0,8
579906,-115.942028985507,3,1,0,62,0,8
580065,-116.11030478955,3,1,0,65,0,8
580144,-116.279069767442,3,1,0,70,0,8
580223,-116.279069767442,3,1,0,75,0,8
580303,-116.279069767442,3,1,0,80,0,8
580382,-116.279069767442,3,1,0,85,0,8
580462,-116.279069767442,3,1,0,90,0,8
580541,-116.279069767442,3,1,0,95,0,8
580660,-100,3,1,0,95,0,8

[HitObjects]
256,192,1033,5,0,0:0:0:0:
256,192,1112,1,0,0:0:0:0:
256,192,1191,1,0,0:0:0:0:
256,192,1271,1,0,0:0:0:0:
256,192,1350,5,12,0:0:0:0:
32,162,3889,2,0,B|32:43|32:43|158:162|158:162|158:26,1,420
295,75,5000,2,0,P|217:92|279:60,1,210
362,55,5635,2,0,B|406:150|406:150|445:51,1,210
124,242,6270,2,0,B|164:189|201:239|201:239|129:312|129:312|224:312,1,280
322,245,7064,2,0,B|256:240|280:203|330:202|330:202|330:334,1,210
155,70,7699,2,0,B|358:70|358:70|258:70|258:70|258:331,1,560
190,278,9127,2,0,B|254:96|254:96|326:274|326:274|299:207|299:207|195:207,1,560
183,61,10556,2,0,B|332:62|332:62|256:64|256:64|254:264|254:264|191:264|191:264|335:264,1,630
312,112,12143,2,0,B|220:190|220:190|219:111|219:111|217:272|217:272|220:193|220:193|318:268,1,560
402,107,13572,2,0,P|103:96|391:91,1,1050
256,192,16429,12,0,22937,0:0:0:0:
256,192,23572,5,0,0:0:0:0:
256,192,24227,5,4,0:0:0:0:
256,192,24554,1,0,0:0:0:0:
256,192,24882,1,8,0:0:0:0:
256,192,25538,1,8,0:0:0:0:
256,192,25866,1,0,0:0:0:0:
256,192,26194,1,8,0:0:0:0:
256,192,26522,1,0,0:0:0:0:
256,192,26849,1,8,0:0:0:0:
256,192,27505,1,8,0:0:0:0:
256,192,27833,1,0,0:0:0:0:
256,192,28161,1,8,0:0:0:0:
256,192,28817,1,0,0:0:0:0:
256,192,29472,1,4,0:0:0:0:
256,192,30128,1,8,0:0:0:0:
256,192,30456,1,0,0:0:0:0:
256,192,30784,1,8,0:0:0:0:
256,192,31112,1,0,0:0:0:0:
256,192,31440,1,8,0:0:0:0:
256,192,32095,1,12,0:0:0:0:
256,192,32423,1,8,0:0:0:0:
256,192,32751,1,0,0:0:0:0:
256,192,33407,1,4,0:0:0:0:
256,192,33735,1,8,0:0:0:0:
256,192,34063,1,4,0:0:0:0:
256,192,34718,1,12,0:0:0:0:
256,192,35374,1,8,0:0:0:0:
256,192,35702,1,0,0:0:0:0:
256,192,36030,1,8,0:0:0:0:
256,192,36358,1,0,0:0:0:0:
256,192,36686,1,8,0:0:0:0:
256,192,37341,1,8,0:0:0:0:
256,192,37669,1,0,0:0:0:0:
256,192,37997,1,8,0:0:0:0:
256,192,38653,1,4,0:0:0:0:
256,192,38981,1,0,0:0:0:0:
256,192,39308,1,8,0:0:0:0:
256,192,39964,1,4,0:0:0:0:
256,192,41276,1,8,0:0:0:0:
256,192,41931,1,0,0:0:0:0:
256,192,42587,1,12,0:0:0:0:
256,192,42915,1,0,0:0:0:0:
256,192,43243,1,8,0:0:0:0:
256,192,43899,1,4,0:0:0:0:
256,192,44227,1,0,0:0:0:0:
256,192,44554,1,12,0:0:0:0:
256,192,45210,1,4,0:0:0:0:
256,192,45536,1,0,0:0:0:0:
256,192,45644,1,0,0:0:0:0:
256,192,45753,1,0,0:0:0:0:
256,192,45862,1,8,0:0:0:0:
256,192,46188,1,0,0:0:0:0:
256,192,46514,1,8,0:0:0:0:
256,192,46840,1,0,0:0:0:0:
256,192,46949,1,0,0:0:0:0:
256,192,47057,1,0,0:0:0:0:
256,192,47166,1,8,0:0:0:0:
256,192,47492,1,0,0:0:0:0:
256,192,47818,1,8,0:0:0:0:
256,192,48142,1,0,0:0:0:0:
256,192,48250,1,0,0:0:0:0:
256,192,48358,1,8,0:0:0:0:
256,192,48466,1,8,0:0:0:0:
256,192,48790,1,0,0:0:0:0:
256,192,49115,1,8,0:0:0:0:
256,192,49439,1,0,0:0:0:0:
256,192,49547,1,0,0:0:0:0:
256,192,49655,1,8,0:0:0:0:
256,192,49763,1,0,0:0:0:0:
256,192,50088,1,0,0:0:0:0:
256,192,50412,1,4,0:0:0:0:
256,192,50733,1,0,0:0:0:0:
256,192,50840,1,0,0:0:0:0:
256,192,50948,1,0,0:0:0:0:
256,192,51055,1,8,0:0:0:0:
256,192,51377,1,0,0:0:0:0:
256,192,51698,1,8,0:0:0:0:
256,192,52020,1,0,0:0:0:0:
256,192,52127,1,0,0:0:0:0:
256,192,52235,1,0,0:0:0:0:
256,192,52342,1,8,0:0:0:0:
256,192,52664,1,0,0:0:0:0:
256,192,52985,1,12,0:0:0:0:
256,192,53305,1,0,0:0:0:0:
256,192,53411,1,8,0:0:0:0:
256,192,53518,1,8,0:0:0:0:
256,192,53625,1,0,0:0:0:0:
256,192,53945,1,0,0:0:0:0:
256,192,54265,1,12,0:0:0:0:
256,192,54585,1,8,0:0:0:0:
256,192,54691,1,0,0:0:0:0:
256,192,54798,1,8,0:0:0:0:
256,192,54905,1,0,0:0:0:0:
256,192,55225,1,0,0:0:0:0:
256,192,55545,1,4,0:0:0:0:
256,192,55866,1,0,0:0:0:0:
256,192,55973,1,0,0:0:0:0:
256,192,56081,1,0,0:0:0:0:
256,192,56188,1,8,0:0:0:0:
256,192,56510,1,0,0:0:0:0:
256,192,56671,1,0,0:0:0:0:
256,192,56831,1,8,0:0:0:0:
256,192,57153,1,0,0:0:0:0:
256,192,57260,1,0,0:0:0:0:
256,192,57368,1,0,0:0:0:0:
256,192,57475,1,8,0:0:0:0:
256,192,57797,1,0,0:0:0:0:
256,192,57957,1,0,0:0:0:0:
256,192,58118,1,8,0:0:0:0:
256,192,58444,1,0,0:0:0:0:
256,192,58552,1,0,0:0:0:0:
256,192,58661,1,8,0:0:0:0:
256,192,58770,1,8,0:0:0:0:
256,192,59096,1,0,0:0:0:0:
256,192,59422,1,12,0:0:0:0:
256,192,59748,1,0,0:0:0:0:
256,192,60074,1,8,0:0:0:0:
256,192,60726,1,4,0:0:0:0:
256,192,61379,1,8,0:0:0:0:
256,192,61706,1,0,0:0:0:0:
256,192,61870,1,0,0:0:0:0:
256,192,62033,1,8,0:0:0:0:
256,192,62360,1,0,0:0:0:0:
256,192,62687,1,8,0:0:0:0:
256,192,63341,1,12,0:0:0:0:
256,192,63684,1,0,0:0:0:0:
256,192,64027,1,8,0:0:0:0:
256,192,64743,1,12,0:0:0:0:
256,192,65130,1,0,0:0:0:0:
256,192,65517,1,12,0:0:0:0:
256,192,65930,1,0,0:0:0:0:
211,167,66337,5,8,0:0:0:0:
407,321,67052,1,0,0:0:0:0:
264,181,67408,1,0,0:0:0:0:
436,154,67765,1,8,0:0:0:0:
264,181,68122,1,0,0:0:0:0:
401,244,68479,1,8,0:0:0:0:
264,181,68837,1,0,0:0:0:0:
334,99,69194,1,8,0:0:0:0:
428,247,69908,1,0,0:0:0:0:
275,170,70321,1,8,0:0:0:0:
387,71,70678,1,8,0:0:0:0:
314,176,71035,1,8,0:0:0:0:
439,168,71392,1,0,0:0:0:0:
439,168,71749,1,0,0:0:0:0:
422,103,72106,1,8,0:0:0:0:
309,179,72728,1,8,0:0:0:0:
361,264,73084,1,0,0:0:0:0:
371,119,73440,1,8,0:0:0:0:
361,264,73796,1,0,0:0:0:0:
371,119,74152,1,8,0:0:0:0:
281,83,74508,1,0,0:0:0:0:
354,192,74864,1,0,0:0:0:0:
409,118,76288,1,0,0:0:0:0:
258,248,77712,1,0,0:0:0:0:
377,170,79136,1,8,0:0:0:0:
445,120,80561,1,8,0:0:0:0:
486,164,81981,1,0,0:0:0:0:
362,263,82682,1,0,0:0:0:0:
362,263,83033,1,0,0:0:0:0:
165,201,83433,1,8,0:0:0:0:
413,156,84828,1,8,0:0:0:0:
447,268,85513,1,8,0:0:0:0:
364,262,85883,1,0,0:0:0:0:
413,156,86253,1,8,0:0:0:0:
284,138,87652,1,8,0:0:0:0:
416,155,88474,1,0,0:0:0:0:
416,155,88674,1,0,0:0:0:0:
416,155,88874,1,0,0:0:0:0:
419,133,89124,1,8,0:0:0:0:
471,225,89801,1,0,0:0:0:0:
471,225,90148,1,0,0:0:0:0:
258,249,90496,1,8,0:0:0:0:
375,72,90844,1,0,0:0:0:0:
379,127,91192,1,8,0:0:0:0:
346,163,91549,1,0,0:0:0:0:
386,180,91906,1,8,0:0:0:0:
406,103,93325,1,8,0:0:0:0:
311,154,94031,1,0,0:0:0:0:
311,154,94406,1,0,0:0:0:0:
446,81,94781,1,8,0:0:0:0:
319,228,95458,1,0,0:0:0:0:
319,228,95808,1,0,0:0:0:0:
272,227,96159,1,8,0:0:0:0:
319,228,96510,1,0,0:0:0:0:
272,227,96861,1,8,0:0:0:0:
272,227,97240,1,0,0:0:0:0:
272,227,97620,1,8,0:0:0:0:
402,285,97915,1,0,0:0:0:0:
306,196,98241,1,8,0:0:0:0:
396,196,98507,1,0,0:0:0:0:
396,196,98773,1,0,0:0:0:0:
388,217,99040,1,8,0:0:0:0:
352,121,100477,1,0,0:0:0:0:
262,152,101888,1,8,0:0:0:0:
318,237,103325,1,8,0:0:0:0:
334,192,104754,1,0,0:0:0:0:
166,254,105470,1,0,0:0:0:0:
166,254,105828,1,0,0:0:0:0:
341,148,106186,1,8,0:0:0:0:
354,143,106373,1,8,0:0:0:0:
289,153,106936,1,0,0:0:0:0:
466,131,107311,1,0,0:0:0:0:
466,131,107686,1,8,0:0:0:0:
466,131,108744,1,0,0:0:0:0:
469,97,109097,1,8,0:0:0:0:
437,169,110563,1,0,0:0:0:0:
457,158,111946,1,8,0:0:0:0:
481,166,112705,1,0,0:0:0:0:
178,223,113085,1,0,0:0:0:0:
178,223,113464,1,0,0:0:0:0:
178,223,113844,1,8,0:0:0:0:
178,223,114224,1,0,0:0:0:0:
327,104,114604,1,0,0:0:0:0:
398,193,114983,1,8,0:0:0:0:
312,185,116548,1,0,0:0:0:0:
256,192,118114,12,0,120341,0:0:0:0:
300,162,120707,5,0,0:0:0:0:
307,174,120786,1,0,0:0:0:0:
307,175,120865,1,0,0:0:0:0:
307,175,120945,1,0,0:0:0:0:
213,252,121024,5,12,0:0:0:0:
213,252,121500,1,0,0:0:0:0:
253,313,121976,1,8,0:0:0:0:
253,313,122452,1,8,0:0:0:0:
263,292,122928,1,0,0:0:0:0:
262,298,123246,1,0,0:0:0:0:
263,292,123563,1,12,0:0:0:0:
262,298,124039,1,0,0:0:0:0:
263,292,124516,1,8,0:0:0:0:
262,298,124992,1,8,0:0:0:0:
263,292,125468,1,0,0:0:0:0:
262,298,125786,1,0,0:0:0:0:
263,292,126103,1,12,0:0:0:0:
313,242,126579,1,0,0:0:0:0:
313,242,127055,1,8,0:0:0:0:
313,242,127532,1,8,0:0:0:0:
293,243,128008,1,0,0:0:0:0:
295,246,128325,1,8,0:0:0:0:
293,243,128643,1,4,0:0:0:0:
295,246,129119,1,8,0:0:0:0:
379,273,129595,1,8,0:0:0:0:
387,283,130071,1,0,0:0:0:0:
379,273,130547,1,8,0:0:0:0:
376,277,130865,1,8,0:0:0:0:
379,268,131024,1,8,0:0:0:0:
379,273,131182,1,4,0:0:0:0:
389,301,131341,1,8,0:0:0:0:
389,303,131500,1,8,0:0:0:0:
389,303,131658,1,0,0:0:0:0:
318,313,131976,1,8,0:0:0:0:
318,313,132135,1,0,0:0:0:0:
318,313,132293,1,8,0:0:0:0:
331,321,132373,1,0,0:0:0:0:
326,316,132452,1,8,0:0:0:0:
331,321,132532,1,8,0:0:0:0:
328,320,132611,1,0,0:0:0:0:
305,288,132770,1,0,0:0:0:0:
312,283,132928,1,8,0:0:0:0:
331,319,133008,1,8,0:0:0:0:
313,288,133087,1,0,0:0:0:0:
331,319,133167,1,0,0:0:0:0:
321,299,133246,1,8,0:0:0:0:
321,299,133404,1,8,0:0:0:0:
317,290,133563,1,0,0:0:0:0:
317,290,133722,1,12,0:0:0:0:
320,292,133881,1,0,0:0:0:0:
328,308,134039,1,0,0:0:0:0:
329,312,134198,1,8,0:0:0:0:
357,297,134516,1,8,0:0:0:0:
357,298,134674,1,0,0:0:0:0:
351,276,134833,1,8,0:0:0:0:
351,276,134992,1,8,0:0:0:0:
339,283,135150,1,0,0:0:0:0:
341,265,135468,1,0,0:0:0:0:
341,270,135627,1,8,0:0:0:0:
344,266,135785,1,0,0:0:0:0:
341,270,135944,1,0,0:0:0:0:
388,298,136103,1,8,0:0:0:0:
388,298,136262,1,4,0:0:0:0:
385,308,136420,1,8,0:0:0:0:
385,311,136579,1,8,0:0:0:0:
385,311,136738,1,4,0:0:0:0:
396,289,137055,1,0,0:0:0:0:
396,290,137214,1,12,0:0:0:0:
396,300,137373,1,0,0:0:0:0:
396,300,137531,1,0,0:0:0:0:
396,300,137690,1,12,0:0:0:0:
306,298,138008,1,0,0:0:0:0:
306,298,138166,1,12,0:0:0:0:
312,284,138325,1,0,0:0:0:0:
310,288,138484,1,12,0:0:0:0:
306,298,138643,1,8,0:0:0:0:
319,319,138801,1,4,0:0:0:0:
294,302,138960,1,8,0:0:0:0:
297,320,139119,1,8,0:0:0:0:
308,328,139277,1,4,0:0:0:0:
290,300,139595,1,8,0:0:0:0:
291,286,139754,1,4,0:0:0:0:
286,223,139912,1,8,0:0:0:0:
286,223,140071,1,8,0:0:0:0:
286,223,140230,1,4,0:0:0:0:
286,223,140389,1,0,0:0:0:0:
286,223,140547,1,8,0:0:0:0:
286,223,140707,1,4,0:0:0:0:
286,223,140865,1,0,0:0:0:0:
293,267,141023,1,8,0:0:0:0:
292,261,141103,1,8,0:0:0:0:
291,261,141182,1,0,0:0:0:0:
291,261,141262,1,0,0:0:0:0:
293,269,141341,1,12,0:0:0:0:
329,179,141501,1,0,0:0:0:0:
330,218,141580,1,0,0:0:0:0:
330,218,141658,1,0,0:0:0:0:
330,218,141818,1,8,0:0:0:0:
330,218,141977,1,0,0:0:0:0:
330,218,142056,1,0,0:0:0:0:
330,218,142136,1,0,0:0:0:0:
330,218,142294,1,8,0:0:0:0:
330,218,142453,1,0,0:0:0:0:
348,186,142531,1,8,0:0:0:0:
330,218,142612,1,0,0:0:0:0:
265,193,142691,1,0,0:0:0:0:
348,186,142771,1,8,0:0:0:0:
348,186,142929,1,0,0:0:0:0:
250,132,143088,1,8,0:0:0:0:
263,175,143166,1,0,0:0:0:0:
250,132,143247,1,8,0:0:0:0:
250,132,143326,1,8,0:0:0:0:
250,132,143404,1,0,0:0:0:0:
274,170,143564,1,8,0:0:0:0:
274,170,143723,1,0,0:0:0:0:
237,173,143802,1,0,0:0:0:0:
274,170,143882,1,8,0:0:0:0:
272,186,144039,1,0,0:0:0:0:
272,186,144120,1,0,0:0:0:0:
272,186,144199,1,0,0:0:0:0:
272,186,144358,1,8,0:0:0:0:
272,186,144516,1,8,0:0:0:0:
272,186,144595,1,8,0:0:0:0:
272,186,144674,1,0,0:0:0:0:
331,192,144834,1,8,0:0:0:0:
272,186,144992,1,0,0:0:0:0:
272,186,145072,1,8,0:0:0:0:
251,176,145150,1,8,0:0:0:0:
274,157,145230,1,0,0:0:0:0:
251,176,145310,1,8,0:0:0:0:
256,171,145469,1,0,0:0:0:0:
256,173,145628,1,8,0:0:0:0:
261,168,145707,1,0,0:0:0:0:
261,168,145785,1,8,0:0:0:0:
261,168,145866,1,8,0:0:0:0:
261,168,145945,1,0,0:0:0:0:
261,168,146103,1,8,0:0:0:0:
251,171,146262,1,0,0:0:0:0:
251,176,146341,1,0,0:0:0:0:
256,171,146420,1,8,0:0:0:0:
256,173,146579,1,0,0:0:0:0:
256,173,146658,1,0,0:0:0:0:
253,176,146738,1,0,0:0:0:0:
253,176,146897,1,8,0:0:0:0:
253,176,147055,1,0,0:0:0:0:
253,176,147134,1,0,0:0:0:0:
251,171,147214,1,0,0:0:0:0:
245,168,147373,1,8,0:0:0:0:
252,162,147532,1,0,0:0:0:0:
252,162,147611,1,8,0:0:0:0:
252,162,147691,1,0,0:0:0:0:
252,162,147770,1,0,0:0:0:0:
252,162,147849,1,8,0:0:0:0:
281,170,148008,1,0,0:0:0:0:
281,170,148167,1,8,0:0:0:0:
250,163,148246,1,8,0:0:0:0:
250,163,148326,1,0,0:0:0:0:
250,163,148405,1,0,0:0:0:0:
252,162,148484,1,8,0:0:0:0:
266,157,148643,1,8,0:0:0:0:
251,168,148801,1,0,0:0:0:0:
251,168,148881,1,0,0:0:0:0:
251,168,148960,1,8,0:0:0:0:
268,173,149119,1,0,0:0:0:0:
268,180,149198,1,0,0:0:0:0:
268,173,149278,1,0,0:0:0:0:
268,173,149436,1,8,0:0:0:0:
216,205,149595,1,0,0:0:0:0:
277,186,149674,1,0,0:0:0:0:
277,186,149754,1,0,0:0:0:0:
259,174,149913,1,8,0:0:0:0:
259,174,150071,1,0,0:0:0:0:
259,174,150151,1,8,0:0:0:0:
259,174,150230,1,0,0:0:0:0:
258,157,150389,1,8,0:0:0:0:
258,157,150547,1,0,0:0:0:0:
264,160,150706,1,0,0:0:0:0:
288,143,150786,1,0,0:0:0:0:
264,161,150865,1,8,0:0:0:0:
264,161,150944,1,8,0:0:0:0:
251,174,151024,1,0,0:0:0:0:
264,161,151183,1,8,0:0:0:0:
251,174,151342,1,0,0:0:0:0:
268,151,151500,1,12,0:0:0:0:
329,179,151658,1,0,0:0:0:0:
330,218,151738,1,0,0:0:0:0:
330,218,151818,1,0,0:0:0:0:
330,218,151976,1,8,0:0:0:0:
330,218,152134,1,0,0:0:0:0:
330,218,152213,1,0,0:0:0:0:
330,218,152293,1,0,0:0:0:0:
330,218,152451,1,8,0:0:0:0:
330,218,152610,1,0,0:0:0:0:
348,186,152690,1,8,0:0:0:0:
330,218,152769,1,0,0:0:0:0:
265,193,152848,1,0,0:0:0:0:
348,186,152928,1,8,0:0:0:0:
348,186,153086,1,0,0:0:0:0:
250,132,153245,1,8,0:0:0:0:
263,175,153325,1,0,0:0:0:0:
250,132,153404,1,8,0:0:0:0:
250,132,153483,1,8,0:0:0:0:
250,132,153563,1,0,0:0:0:0:
274,170,153722,1,8,0:0:0:0:
274,170,153881,1,0,0:0:0:0:
237,173,153960,1,0,0:0:0:0:
274,170,154040,1,8,0:0:0:0:
272,186,154199,1,0,0:0:0:0:
272,186,154278,1,0,0:0:0:0:
272,186,154357,1,0,0:0:0:0:
272,186,154516,1,8,0:0:0:0:
272,186,154675,1,8,0:0:0:0:
272,186,154754,1,8,0:0:0:0:
272,186,154833,1,0,0:0:0:0:
331,192,154992,1,8,0:0:0:0:
272,186,155150,1,0,0:0:0:0:
272,186,155230,1,8,0:0:0:0:
251,176,155310,1,8,0:0:0:0:
273,199,155389,1,0,0:0:0:0:
251,176,155468,1,8,0:0:0:0:
256,171,155627,1,0,0:0:0:0:
256,173,155786,1,8,0:0:0:0:
261,168,155865,1,8,0:0:0:0:
261,168,155945,1,0,0:0:0:0:
261,168,156024,1,8,0:0:0:0:
261,168,156103,1,0,0:0:0:0:
261,168,156263,1,8,0:0:0:0:
251,171,156420,1,0,0:0:0:0:
256,171,156579,1,12,0:0:0:0:
256,173,156737,1,0,0:0:0:0:
256,173,156816,1,0,0:0:0:0:
253,176,156896,1,0,0:0:0:0:
253,176,157054,1,8,0:0:0:0:
253,176,157213,1,0,0:0:0:0:
253,176,157292,1,0,0:0:0:0:
251,171,157372,1,0,0:0:0:0:
245,168,157531,1,8,0:0:0:0:
252,162,157690,1,0,0:0:0:0:
252,162,157769,1,8,0:0:0:0:
252,162,157849,1,0,0:0:0:0:
252,162,157928,1,0,0:0:0:0:
252,162,158007,1,8,0:0:0:0:
281,170,158166,1,0,0:0:0:0:
281,170,158324,1,8,0:0:0:0:
250,163,158404,1,8,0:0:0:0:
250,163,158483,1,0,0:0:0:0:
250,163,158562,1,0,0:0:0:0:
252,162,158642,1,8,0:0:0:0:
266,157,158800,1,8,0:0:0:0:
251,168,158959,1,0,0:0:0:0:
267,169,159039,1,0,0:0:0:0:
251,168,159118,1,12,0:0:0:0:
268,173,159276,1,0,0:0:0:0:
268,180,159356,1,0,0:0:0:0:
268,173,159435,1,0,0:0:0:0:
268,173,159594,1,8,0:0:0:0:
216,205,159753,1,0,0:0:0:0:
277,186,159833,1,0,0:0:0:0:
277,186,159912,1,0,0:0:0:0:
259,174,160070,1,8,0:0:0:0:
259,174,160229,1,0,0:0:0:0:
266,169,160388,1,12,0:0:0:0:
268,173,160546,1,0,0:0:0:0:
268,173,160626,1,0,0:0:0:0:
250,174,160705,1,8,0:0:0:0:
250,174,160864,1,0,0:0:0:0:
250,174,161023,1,12,0:0:0:0:
250,174,161181,1,0,0:0:0:0:
250,174,161341,5,12,0:0:0:0:
250,174,161500,1,8,0:0:0:0:
256,192,161659,5,4,0:0:0:0:
256,192,161817,1,0,0:0:0:0:
256,192,161897,1,0,0:0:0:0:
256,192,161976,1,0,0:0:0:0:
256,192,162135,1,8,0:0:0:0:
256,192,162293,1,0,0:0:0:0:
256,192,162373,1,0,0:0:0:0:
256,192,162452,1,0,0:0:0:0:
256,192,162532,1,0,0:0:0:0:
256,192,162611,1,8,0:0:0:0:
256,192,162770,1,0,0:0:0:0:
256,192,162849,1,0,0:0:0:0:
256,192,162928,1,0,0:0:0:0:
256,192,163087,1,8,0:0:0:0:
256,192,163246,1,8,0:0:0:0:
256,192,163325,1,8,0:0:0:0:
256,192,163405,1,0,0:0:0:0:
256,192,163563,1,8,0:0:0:0:
256,192,163722,1,8,0:0:0:0:
256,192,163801,1,0,0:0:0:0:
256,192,163881,1,8,0:0:0:0:
256,192,163960,1,8,0:0:0:0:
256,192,164040,1,0,0:0:0:0:
256,192,164198,1,8,0:0:0:0:
256,192,164357,1,0,0:0:0:0:
256,192,164436,1,0,0:0:0:0:
256,192,164516,1,8,0:0:0:0:
256,192,164674,1,8,0:0:0:0:
256,192,164754,1,8,0:0:0:0:
256,192,164833,1,0,0:0:0:0:
256,192,164913,1,0,0:0:0:0:
256,192,164992,1,0,0:0:0:0:
256,192,165151,1,8,0:0:0:0:
256,192,165309,1,8,0:0:0:0:
256,192,165389,1,0,0:0:0:0:
256,192,165468,1,0,0:0:0:0:
256,192,165627,1,8,0:0:0:0:
256,192,165786,1,0,0:0:0:0:
256,192,165865,1,0,0:0:0:0:
256,192,165944,1,0,0:0:0:0:
256,192,166103,1,8,0:0:0:0:
256,192,166262,1,0,0:0:0:0:
256,192,166341,1,0,0:0:0:0:
256,192,166420,1,8,0:0:0:0:
256,192,166500,1,8,0:0:0:0:
256,192,166579,1,0,0:0:0:0:
256,192,166738,1,8,0:0:0:0:
256,192,166897,1,0,0:0:0:0:
256,192,166976,1,0,0:0:0:0:
256,192,167055,1,0,0:0:0:0:
256,192,167214,1,8,0:0:0:0:
256,192,167373,1,0,0:0:0:0:
256,192,167452,1,0,0:0:0:0:
256,192,167532,1,0,0:0:0:0:
256,192,167611,1,0,0:0:0:0:
256,192,167690,1,8,0:0:0:0:
256,192,167849,1,0,0:0:0:0:
256,192,167928,1,0,0:0:0:0:
256,192,168008,1,0,0:0:0:0:
256,192,168167,1,8,0:0:0:0:
256,192,168325,1,8,0:0:0:0:
256,192,168405,1,8,0:0:0:0:
256,192,168484,1,0,0:0:0:0:
256,192,168643,1,8,0:0:0:0:
256,192,168801,1,8,0:0:0:0:
256,192,168881,1,0,0:0:0:0:
256,192,168960,1,8,0:0:0:0:
256,192,169040,1,8,0:0:0:0:
256,192,169119,1,0,0:0:0:0:
256,192,169278,1,8,0:0:0:0:
256,192,169436,1,0,0:0:0:0:
256,192,169516,1,0,0:0:0:0:
256,192,169595,1,8,0:0:0:0:
256,192,169754,1,8,0:0:0:0:
256,192,169833,1,8,0:0:0:0:
256,192,169913,1,0,0:0:0:0:
256,192,169992,1,0,0:0:0:0:
256,192,170071,1,0,0:0:0:0:
256,192,170230,1,8,0:0:0:0:
256,192,170389,1,8,0:0:0:0:
256,192,170468,1,0,0:0:0:0:
256,192,170547,1,0,0:0:0:0:
256,192,170706,1,8,0:0:0:0:
256,192,170865,1,0,0:0:0:0:
256,192,170944,1,0,0:0:0:0:
256,192,171024,1,0,0:0:0:0:
256,192,171182,1,8,0:0:0:0:
256,192,171341,1,0,0:0:0:0:
256,192,171420,1,0,0:0:0:0:
256,192,171500,1,8,0:0:0:0:
256,192,171579,1,8,0:0:0:0:
256,192,171659,1,0,0:0:0:0:
256,192,171817,1,4,0:0:0:0:
256,192,171976,1,0,0:0:0:0:
256,192,172055,1,0,0:0:0:0:
256,192,172135,1,0,0:0:0:0:
256,192,172293,1,8,0:0:0:0:
256,192,172452,1,0,0:0:0:0:
256,192,172532,1,0,0:0:0:0:
256,192,172611,1,0,0:0:0:0:
256,192,172690,1,0,0:0:0:0:
256,192,172770,1,8,0:0:0:0:
256,192,172928,1,8,0:0:0:0:
256,192,173008,1,8,0:0:0:0:
256,192,173087,1,0,0:0:0:0:
256,192,173167,1,0,0:0:0:0:
256,192,173246,1,8,0:0:0:0:
256,192,173405,1,8,0:0:0:0:
256,192,173484,1,0,0:0:0:0:
256,192,173563,1,0,0:0:0:0:
256,192,173722,1,8,0:0:0:0:
256,192,173881,1,0,0:0:0:0:
256,192,173960,1,0,0:0:0:0:
256,192,174040,1,8,0:0:0:0:
256,192,174119,1,8,0:0:0:0:
256,192,174198,1,0,0:0:0:0:
256,192,174357,1,8,0:0:0:0:
256,192,174516,1,0,0:0:0:0:
256,192,174595,1,0,0:0:0:0:
256,192,174674,1,8,0:0:0:0:
256,192,174754,1,0,0:0:0:0:
256,192,174833,1,8,0:0:0:0:
256,192,174992,1,0,0:0:0:0:
256,192,175071,1,0,0:0:0:0:
256,192,175151,1,0,0:0:0:0:
256,192,175309,1,8,0:0:0:0:
256,192,175468,1,8,0:0:0:0:
256,192,175547,1,8,0:0:0:0:
256,192,175627,1,0,0:0:0:0:
256,192,175706,1,0,0:0:0:0:
256,192,175786,1,8,0:0:0:0:
256,192,175944,1,8,0:0:0:0:
256,192,176024,1,8,0:0:0:0:
256,192,176103,1,0,0:0:0:0:
256,192,176182,1,0,0:0:0:0:
256,192,176262,1,8,0:0:0:0:
256,192,176341,1,0,0:0:0:0:
256,192,176420,1,0,0:0:0:0:
256,192,176579,1,8,0:0:0:0:
256,192,176738,1,0,0:0:0:0:
256,192,176897,5,12,0:0:0:0:
256,192,177055,1,0,0:0:0:0:
256,192,177214,1,0,0:0:0:0:
256,192,177373,1,12,0:0:0:0:
256,192,177531,1,0,0:0:0:0:
256,192,177611,1,0,0:0:0:0:
256,192,177690,1,0,0:0:0:0:
256,192,177849,1,12,0:0:0:0:
256,192,178008,1,0,0:0:0:0:
256,192,178166,1,0,0:0:0:0:
256,192,178325,1,12,0:0:0:0:
256,192,178484,1,0,0:0:0:0:
256,192,178563,1,0,0:0:0:0:
256,192,178643,1,0,0:0:0:0:
256,192,178722,1,0,0:0:0:0:
256,192,178801,1,12,0:0:0:0:
256,192,178960,1,0,0:0:0:0:
256,192,179119,1,8,0:0:0:0:
256,192,179198,1,8,0:0:0:0:
256,192,179277,1,0,0:0:0:0:
256,192,179436,1,8,0:0:0:0:
256,192,179595,1,0,0:0:0:0:
256,192,179754,1,8,0:0:0:0:
256,192,179833,1,8,0:0:0:0:
256,192,179912,1,0,0:0:0:0:
256,192,179992,1,0,0:0:0:0:
256,192,180071,1,8,0:0:0:0:
256,192,180150,1,0,0:0:0:0:
256,192,180230,1,8,0:0:0:0:
256,192,180309,1,0,0:0:0:0:
256,192,180388,1,8,0:0:0:0:
256,192,180468,1,8,0:0:0:0:
256,192,180547,1,0,0:0:0:0:
256,192,180600,1,0,0:0:0:0:
256,192,180653,1,8,0:0:0:0:
256,192,180706,1,8,0:0:0:0:
256,192,180785,12,0,183881,0:0:0:0:
255,193,184516,5,8,0:0:0:0:
255,193,184568,1,0,0:0:0:0:
255,193,184621,1,0,0:0:0:0:
255,193,184674,1,8,0:0:0:0:
255,193,184833,1,0,0:0:0:0:
255,193,184992,1,8,0:0:0:0:
255,193,185150,1,0,0:0:0:0:
255,193,185309,1,8,0:0:0:0:
255,193,185468,1,8,0:0:0:0:
255,193,185627,1,0,0:0:0:0:
255,193,185785,1,8,0:0:0:0:
255,193,185944,1,0,0:0:0:0:
260,187,186103,1,8,0:0:0:0:
260,187,186262,1,0,0:0:0:0:
255,193,186420,5,0,0:0:0:0:
255,193,186473,1,8,0:0:0:0:
255,193,186526,1,0,0:0:0:0:
255,193,186579,1,8,0:0:0:0:
255,193,186738,1,0,0:0:0:0:
255,193,186897,1,8,0:0:0:0:
255,193,187055,1,8,0:0:0:0:
255,193,187214,1,0,0:0:0:0:
255,193,187373,1,8,0:0:0:0:
255,193,187532,1,0,0:0:0:0:
255,193,187690,1,8,0:0:0:0:
255,193,187849,1,0,0:0:0:0:
260,187,188008,1,8,0:0:0:0:
260,187,188167,1,0,0:0:0:0:
266,193,188325,1,8,0:0:0:0:
266,193,188378,1,0,0:0:0:0:
266,193,188431,1,8,0:0:0:0:
266,193,188484,1,0,0:0:0:0:
255,193,188642,1,0,0:0:0:0:
255,193,188801,1,8,0:0:0:0:
255,193,188959,1,0,0:0:0:0:
255,193,189118,1,8,0:0:0:0:
255,193,189277,1,8,0:0:0:0:
255,193,189436,1,0,0:0:0:0:
255,193,189595,1,8,0:0:0:0:
255,193,189753,1,0,0:0:0:0:
260,187,189912,1,8,0:0:0:0:
260,187,190071,1,0,0:0:0:0:
255,193,190230,1,0,0:0:0:0:
255,193,190389,1,0,0:0:0:0:
255,193,190547,1,8,0:0:0:0:
255,193,190706,1,0,0:0:0:0:
255,193,190865,1,8,0:0:0:0:
255,193,191024,1,0,0:0:0:0:
255,193,191182,1,8,0:0:0:0:
255,193,191341,1,8,0:0:0:0:
260,187,191500,1,0,0:0:0:0:
255,193,191658,1,0,0:0:0:0:
260,187,191817,1,8,0:0:0:0:
255,193,192135,5,8,0:0:0:0:
255,193,192188,1,0,0:0:0:0:
255,193,192241,1,0,0:0:0:0:
255,193,192294,1,8,0:0:0:0:
255,193,192452,1,0,0:0:0:0:
255,193,192611,1,8,0:0:0:0:
255,193,192769,1,8,0:0:0:0:
255,193,192928,1,0,0:0:0:0:
255,193,193087,1,8,0:0:0:0:
255,193,193246,1,0,0:0:0:0:
255,193,193404,1,8,0:0:0:0:
255,193,193563,1,0,0:0:0:0:
260,187,193722,1,8,0:0:0:0:
260,187,193881,1,0,0:0:0:0:
255,193,194039,5,0,0:0:0:0:
255,193,194092,1,8,0:0:0:0:
255,193,194145,1,0,0:0:0:0:
255,193,194198,1,8,0:0:0:0:
255,193,194357,1,0,0:0:0:0:
255,193,194516,1,8,0:0:0:0:
255,193,194674,1,0,0:0:0:0:
255,193,194833,1,8,0:0:0:0:
255,193,194992,1,8,0:0:0:0:
255,193,195151,1,0,0:0:0:0:
255,193,195309,1,8,0:0:0:0:
255,193,195468,1,0,0:0:0:0:
260,187,195627,1,0,0:0:0:0:
260,187,195786,1,8,0:0:0:0:
255,193,195944,1,8,0:0:0:0:
255,193,196103,1,0,0:0:0:0:
255,193,196261,1,8,0:0:0:0:
255,193,196420,1,0,0:0:0:0:
255,193,196579,1,8,0:0:0:0:
255,193,196738,1,0,0:0:0:0:
255,193,196896,1,8,0:0:0:0:
255,193,197055,1,8,0:0:0:0:
260,187,197214,1,0,0:0:0:0:
260,187,197373,1,0,0:0:0:0:
255,193,197531,1,8,0:0:0:0:
255,193,197690,1,0,0:0:0:0:
255,193,197849,1,8,0:0:0:0:
255,193,198166,1,0,0:0:0:0:
255,193,198325,1,8,0:0:0:0:
255,193,198484,5,0,0:0:0:0:
255,193,198537,1,8,0:0:0:0:
255,193,198590,1,8,0:0:0:0:
255,193,198643,1,0,0:0:0:0:
256,192,198801,12,0,199277,0:0:0:0:
255,193,199436,5,0,0:0:0:0:
255,193,199595,5,0,0:0:0:0:
255,193,199754,5,8,0:0:0:0:
255,193,199807,1,0,0:0:0:0:
255,193,199859,1,0,0:0:0:0:
255,193,199912,1,8,0:0:0:0:
255,193,200071,1,0,0:0:0:0:
255,193,200230,1,8,0:0:0:0:
255,193,200389,1,0,0:0:0:0:
255,193,200547,1,8,0:0:0:0:
255,193,200706,1,8,0:0:0:0:
255,193,200865,1,0,0:0:0:0:
255,193,201024,1,0,0:0:0:0:
255,193,201182,1,8,0:0:0:0:
255,193,201341,1,0,0:0:0:0:
260,187,201500,1,8,0:0:0:0:
260,187,201659,1,0,0:0:0:0:
255,193,201711,1,8,0:0:0:0:
255,193,201764,1,0,0:0:0:0:
255,193,201817,1,8,0:0:0:0:
255,193,201976,1,0,0:0:0:0:
255,193,202135,1,8,0:0:0:0:
255,193,202293,1,8,0:0:0:0:
255,193,202452,1,0,0:0:0:0:
255,193,202611,1,8,0:0:0:0:
255,193,202770,1,0,0:0:0:0:
255,193,202928,1,8,0:0:0:0:
255,193,203087,1,8,0:0:0:0:
260,187,203246,1,0,0:0:0:0:
260,187,203405,1,0,0:0:0:0:
255,193,203563,5,8,0:0:0:0:
255,193,203616,1,0,0:0:0:0:
255,193,203669,1,8,0:0:0:0:
255,193,203722,1,0,0:0:0:0:
255,193,203881,1,0,0:0:0:0:
255,193,204040,1,8,0:0:0:0:
255,193,204198,1,0,0:0:0:0:
255,193,204357,1,8,0:0:0:0:
255,193,204516,1,8,0:0:0:0:
255,193,204675,1,0,0:0:0:0:
255,193,204833,1,0,0:0:0:0:
255,193,204992,1,8,0:0:0:0:
260,187,205151,1,0,0:0:0:0:
260,187,205310,1,8,0:0:0:0:
255,193,205468,1,8,0:0:0:0:
255,193,205627,1,0,0:0:0:0:
255,193,205785,1,0,0:0:0:0:
255,193,205944,1,8,0:0:0:0:
255,193,206103,1,0,0:0:0:0:
255,193,206262,1,8,0:0:0:0:
255,193,206420,1,0,0:0:0:0:
255,193,206579,1,0,0:0:0:0:
260,187,206738,1,8,0:0:0:0:
260,187,206897,1,0,0:0:0:0:
261,183,207055,5,8,0:0:0:0:
255,193,207373,1,8,0:0:0:0:
255,193,207426,1,0,0:0:0:0:
256,192,207478,1,0,0:0:0:0:
256,192,207531,1,8,0:0:0:0:
256,192,207690,1,0,0:0:0:0:
256,192,207849,1,0,0:0:0:0:
256,192,208008,1,8,0:0:0:0:
256,192,208166,1,0,0:0:0:0:
256,192,208325,1,8,0:0:0:0:
256,192,208484,1,8,0:0:0:0:
256,192,208642,1,0,0:0:0:0:
256,192,208801,1,0,0:0:0:0:
256,192,208960,1,8,0:0:0:0:
256,192,209119,1,0,0:0:0:0:
256,192,209277,1,0,0:0:0:0:
256,192,209330,1,8,0:0:0:0:
256,192,209383,1,0,0:0:0:0:
256,192,209436,1,8,0:0:0:0:
256,192,209595,1,0,0:0:0:0:
256,192,209754,1,8,0:0:0:0:
256,192,209912,1,8,0:0:0:0:
256,192,210071,1,0,0:0:0:0:
256,192,210230,1,0,0:0:0:0:
256,192,210389,1,8,0:0:0:0:
256,192,210547,1,0,0:0:0:0:
256,192,210706,1,8,0:0:0:0:
256,192,210865,1,0,0:0:0:0:
256,192,211023,1,0,0:0:0:0:
256,192,211182,1,8,0:0:0:0:
256,192,211341,1,8,0:0:0:0:
256,192,211500,1,0,0:0:0:0:
256,192,211658,1,0,0:0:0:0:
256,192,211817,1,8,0:0:0:0:
256,192,211976,1,0,0:0:0:0:
256,192,212135,1,8,0:0:0:0:
256,192,212294,1,8,0:0:0:0:
256,192,212453,1,0,0:0:0:0:
256,192,212611,1,0,0:0:0:0:
256,192,212770,1,8,0:0:0:0:
256,192,212929,1,0,0:0:0:0:
256,192,213087,1,8,0:0:0:0:
256,192,213246,1,0,0:0:0:0:
256,192,213404,1,0,0:0:0:0:
256,192,213563,1,8,0:0:0:0:
256,192,213722,1,0,0:0:0:0:
256,192,213775,1,8,0:0:0:0:
256,192,213828,1,8,0:0:0:0:
256,192,213881,1,0,0:0:0:0:
256,192,214039,1,8,0:0:0:0:
256,192,214198,1,8,0:0:0:0:
256,192,214357,1,0,0:0:0:0:
256,192,214515,1,0,0:0:0:0:
256,192,214674,1,8,0:0:0:0:
256,192,214833,1,0,0:0:0:0:
256,192,214992,5,8,0:0:0:0:
256,192,215045,1,0,0:0:0:0:
256,192,215098,1,0,0:0:0:0:
256,192,215150,1,8,0:0:0:0:
256,192,215230,1,8,0:0:0:0:
256,192,215309,1,0,0:0:0:0:
256,192,215468,1,0,0:0:0:0:
256,192,215627,1,8,0:0:0:0:
256,192,215706,1,8,0:0:0:0:
256,192,215785,1,0,0:0:0:0:
256,192,215944,1,8,0:0:0:0:
256,192,216103,1,0,0:0:0:0:
256,192,216261,1,8,0:0:0:0:
256,192,216420,1,0,0:0:0:0:
256,192,216579,1,8,0:0:0:0:
256,192,216658,1,8,0:0:0:0:
256,192,216738,1,0,0:0:0:0:
256,192,216896,1,0,0:0:0:0:
256,192,216949,1,8,0:0:0:0:
256,192,217002,1,0,0:0:0:0:
256,192,217055,1,8,0:0:0:0:
256,192,217134,1,8,0:0:0:0:
256,192,217214,1,0,0:0:0:0:
256,192,217373,1,0,0:0:0:0:
256,192,217531,1,8,0:0:0:0:
256,192,217690,1,8,0:0:0:0:
256,192,217849,1,8,0:0:0:0:
256,192,217928,1,8,0:0:0:0:
256,192,218008,1,0,0:0:0:0:
256,192,218166,1,8,0:0:0:0:
256,192,218325,1,0,0:0:0:0:
256,192,218484,1,0,0:0:0:0:
256,192,218563,1,0,0:0:0:0:
256,192,218642,1,0,0:0:0:0:
256,192,218801,1,8,0:0:0:0:
256,192,218854,1,0,0:0:0:0:
256,192,218907,1,8,0:0:0:0:
256,192,218960,1,0,0:0:0:0:
256,192,219039,1,8,0:0:0:0:
256,192,219119,1,0,0:0:0:0:
256,192,219277,1,0,0:0:0:0:
256,192,219436,1,8,0:0:0:0:
256,192,219595,1,0,0:0:0:0:
256,192,219754,1,8,0:0:0:0:
256,192,219833,1,0,0:0:0:0:
256,192,219913,1,8,0:0:0:0:
256,192,220072,1,0,0:0:0:0:
256,192,220230,1,0,0:0:0:0:
256,192,220389,1,8,0:0:0:0:
256,192,220468,1,0,0:0:0:0:
256,192,220548,1,0,0:0:0:0:
256,192,220706,1,8,0:0:0:0:
256,192,220865,1,8,0:0:0:0:
256,192,221024,1,8,0:0:0:0:
256,192,221182,1,0,0:0:0:0:
256,192,221341,1,8,0:0:0:0:
256,192,221500,1,8,0:0:0:0:
256,192,221658,1,0,0:0:0:0:
256,192,221817,1,8,0:0:0:0:
256,192,221976,1,0,0:0:0:0:
256,192,222134,1,0,0:0:0:0:
256,192,222293,1,8,0:0:0:0:
256,192,222452,1,0,0:0:0:0:
256,192,222611,5,8,0:0:0:0:
256,192,222664,1,0,0:0:0:0:
256,192,222717,1,0,0:0:0:0:
256,192,222769,1,8,0:0:0:0:
256,192,222849,1,8,0:0:0:0:
256,192,222928,1,0,0:0:0:0:
256,192,223087,1,0,0:0:0:0:
256,192,223246,1,0,0:0:0:0:
256,192,223404,1,8,0:0:0:0:
256,192,223563,1,8,0:0:0:0:
256,192,223642,1,8,0:0:0:0:
256,192,223722,1,0,0:0:0:0:
256,192,223880,1,8,0:0:0:0:
256,192,224039,1,0,0:0:0:0:
256,192,224198,1,8,0:0:0:0:
256,192,224277,1,8,0:0:0:0:
256,192,224357,1,0,0:0:0:0:
256,192,224515,1,0,0:0:0:0:
256,192,224568,1,8,0:0:0:0:
256,192,224621,1,0,0:0:0:0:
256,192,224674,1,8,0:0:0:0:
256,192,224753,1,8,0:0:0:0:
256,192,224833,1,0,0:0:0:0:
256,192,224992,1,0,0:0:0:0:
256,192,225150,1,8,0:0:0:0:
256,192,225230,1,0,0:0:0:0:
256,192,225309,1,8,0:0:0:0:
256,192,225468,1,8,0:0:0:0:
256,192,225547,1,8,0:0:0:0:
256,192,225627,1,0,0:0:0:0:
256,192,225785,1,8,0:0:0:0:
256,192,225944,1,0,0:0:0:0:
256,192,226103,1,8,0:0:0:0:
256,192,226182,1,0,0:0:0:0:
256,192,226261,1,0,0:0:0:0:
256,192,226341,1,0,0:0:0:0:
256,192,226420,1,8,0:0:0:0:
256,192,226579,1,8,0:0:0:0:
256,192,226738,1,0,0:0:0:0:
256,192,226896,1,0,0:0:0:0:
256,192,227055,1,8,0:0:0:0:
256,192,227214,1,8,0:0:0:0:
256,192,227373,1,0,0:0:0:0:
256,192,227532,1,0,0:0:0:0:
256,192,227690,1,8,0:0:0:0:
256,192,227849,1,0,0:0:0:0:
256,192,228008,1,8,0:0:0:0:
256,192,228166,1,0,0:0:0:0:
256,192,228325,1,8,0:0:0:0:
256,192,228404,1,8,0:0:0:0:
256,192,228484,1,0,0:0:0:0:
256,192,228563,1,8,0:0:0:0:
256,192,228642,1,0,0:0:0:0:
256,192,228722,1,0,0:0:0:0:
256,192,228801,1,8,0:0:0:0:
256,192,228881,1,8,0:0:0:0:
256,192,228960,1,0,0:0:0:0:
256,192,229039,1,8,0:0:0:0:
256,192,229119,1,0,0:0:0:0:
256,192,229172,1,0,0:0:0:0:
256,192,229224,1,0,0:0:0:0:
256,192,229277,1,8,0:0:0:0:
256,192,229595,1,0,0:0:0:0:
256,192,229912,1,8,0:0:0:0:
256,192,229992,1,8,0:0:0:0:
256,192,230071,1,0,0:0:0:0:
256,192,230150,1,0,0:0:0:0:
64,256,230230,5,12,0:0:0:0:
64,256,230389,1,0,0:0:0:0:
64,256,230547,1,0,0:0:0:0:
256,192,230627,1,0,0:0:0:0:
64,256,230706,1,8,0:0:0:0:
64,256,230865,1,0,0:0:0:0:
64,256,231023,1,0,0:0:0:0:
64,256,231182,1,8,0:0:0:0:
64,256,231262,1,8,0:0:0:0:
64,256,231341,1,0,0:0:0:0:
64,256,231500,1,8,0:0:0:0:
256,192,231579,1,0,0:0:0:0:
64,256,231658,1,0,0:0:0:0:
64,256,231817,1,8,0:0:0:0:
64,256,231976,1,0,0:0:0:0:
64,256,232055,1,0,0:0:0:0:
64,256,232135,1,8,0:0:0:0:
64,256,232214,1,8,0:0:0:0:
64,256,232293,1,0,0:0:0:0:
64,256,232452,1,0,0:0:0:0:
256,192,232531,1,8,0:0:0:0:
64,256,232611,1,8,0:0:0:0:
64,256,232769,1,0,0:0:0:0:
64,256,232928,1,0,0:0:0:0:
64,256,233087,1,8,0:0:0:0:
256,192,233166,1,8,0:0:0:0:
64,256,233246,1,0,0:0:0:0:
64,256,233325,1,0,0:0:0:0:
64,256,233404,1,8,0:0:0:0:
64,256,233563,1,0,0:0:0:0:
64,256,233722,1,8,0:0:0:0:
64,256,233801,1,0,0:0:0:0:
64,256,233881,1,8,0:0:0:0:
64,256,234039,1,8,0:0:0:0:
64,256,234198,1,0,0:0:0:0:
64,256,234277,1,0,0:0:0:0:
64,256,234357,1,0,0:0:0:0:
64,256,234515,1,8,0:0:0:0:
64,256,234674,1,0,0:0:0:0:
64,256,234833,1,0,0:0:0:0:
64,256,234992,1,8,0:0:0:0:
256,192,235071,1,0,0:0:0:0:
64,256,235150,1,0,0:0:0:0:
64,256,235230,1,0,0:0:0:0:
64,256,235309,1,8,0:0:0:0:
64,256,235468,1,0,0:0:0:0:
256,192,235547,1,0,0:0:0:0:
64,256,235627,1,8,0:0:0:0:
64,256,235785,1,0,0:0:0:0:
64,256,235944,1,8,0:0:0:0:
64,256,236023,1,8,0:0:0:0:
64,256,236103,1,0,0:0:0:0:
64,256,236262,1,0,0:0:0:0:
256,192,236341,1,0,0:0:0:0:
64,256,236420,1,8,0:0:0:0:
64,256,236579,1,0,0:0:0:0:
64,256,236738,1,0,0:0:0:0:
64,256,236896,1,8,0:0:0:0:
64,256,236976,1,0,0:0:0:0:
64,256,237055,1,0,0:0:0:0:
64,256,237135,1,0,0:0:0:0:
64,256,237214,1,8,0:0:0:0:
256,192,237293,1,8,0:0:0:0:
64,256,237373,1,0,0:0:0:0:
256,192,237452,1,0,0:0:0:0:
64,256,237531,1,8,0:0:0:0:
256,192,237611,1,8,0:0:0:0:
64,256,237690,1,0,0:0:0:0:
64,256,237849,1,12,0:0:0:0:
64,256,238008,1,0,0:0:0:0:
64,256,238166,1,0,0:0:0:0:
256,192,238246,1,0,0:0:0:0:
64,256,238325,1,8,0:0:0:0:
64,256,238484,1,0,0:0:0:0:
64,256,238642,1,0,0:0:0:0:
64,256,238801,1,8,0:0:0:0:
64,256,238881,1,8,0:0:0:0:
64,256,238960,1,0,0:0:0:0:
64,256,239119,1,8,0:0:0:0:
64,256,239198,1,8,0:0:0:0:
64,256,239277,1,0,0:0:0:0:
64,256,239357,1,0,0:0:0:0:
64,256,239436,1,8,0:0:0:0:
64,256,239595,1,0,0:0:0:0:
64,256,239754,1,8,0:0:0:0:
64,256,239833,1,8,0:0:0:0:
64,256,239912,1,0,0:0:0:0:
64,256,240071,1,0,0:0:0:0:
256,192,240150,1,8,0:0:0:0:
64,256,240230,1,8,0:0:0:0:
64,256,240389,1,0,0:0:0:0:
64,256,240547,1,0,0:0:0:0:
64,256,240706,1,8,0:0:0:0:
256,192,240785,1,8,0:0:0:0:
64,256,240865,1,0,0:0:0:0:
64,256,240944,1,0,0:0:0:0:
64,256,241023,1,8,0:0:0:0:
64,256,241182,1,0,0:0:0:0:
64,256,241262,1,0,0:0:0:0:
64,256,241341,1,8,0:0:0:0:
64,256,241420,1,0,0:0:0:0:
64,256,241500,1,8,0:0:0:0:
64,256,241658,1,8,0:0:0:0:
64,256,241817,1,0,0:0:0:0:
64,256,241896,1,0,0:0:0:0:
64,256,241976,1,8,0:0:0:0:
64,256,242135,1,0,0:0:0:0:
64,256,242293,1,8,0:0:0:0:
64,256,242452,1,0,0:0:0:0:
64,256,242611,1,8,0:0:0:0:
64,256,242690,1,0,0:0:0:0:
64,256,242769,1,0,0:0:0:0:
256,192,242849,1,0,0:0:0:0:
64,256,242928,1,8,0:0:0:0:
64,256,243087,1,0,0:0:0:0:
256,192,243166,1,0,0:0:0:0:
64,256,243246,1,8,0:0:0:0:
64,256,243404,1,0,0:0:0:0:
64,256,243563,1,8,0:0:0:0:
64,256,243642,1,8,0:0:0:0:
64,256,243722,1,0,0:0:0:0:
64,256,243881,1,0,0:0:0:0:
64,256,244039,1,8,0:0:0:0:
64,256,244198,1,8,0:0:0:0:
64,256,244277,1,0,0:0:0:0:
64,256,244357,1,8,0:0:0:0:
64,256,244515,1,0,0:0:0:0:
64,256,244595,1,0,0:0:0:0:
64,256,244674,1,0,0:0:0:0:
64,256,244833,1,8,0:0:0:0:
256,192,244912,1,0,0:0:0:0:
64,256,244992,1,8,0:0:0:0:
256,192,245071,1,0,0:0:0:0:
64,256,245150,1,8,0:0:0:0:
64,256,245230,1,8,0:0:0:0:
64,256,245309,1,8,0:0:0:0:
64,256,245468,1,12,0:0:0:0:
64,256,245627,1,8,0:0:0:0:
64,256,245706,1,8,0:0:0:0:
64,256,245785,1,0,0:0:0:0:
64,256,245944,1,8,0:0:0:0:
64,256,246103,1,0,0:0:0:0:
64,256,246262,1,0,0:0:0:0:
64,256,246420,1,8,0:0:0:0:
256,192,246500,1,8,0:0:0:0:
64,256,246579,1,0,0:0:0:0:
64,256,246658,1,0,0:0:0:0:
64,256,246738,1,8,0:0:0:0:
64,256,246896,1,0,0:0:0:0:
64,256,246976,1,8,0:0:0:0:
64,256,247055,1,8,0:0:0:0:
64,256,247214,1,8,0:0:0:0:
64,256,247293,1,0,0:0:0:0:
64,256,247373,1,8,0:0:0:0:
64,256,247531,1,0,0:0:0:0:
64,256,247690,1,0,0:0:0:0:
64,256,247849,1,8,0:0:0:0:
64,256,247928,1,8,0:0:0:0:
64,256,248008,1,0,0:0:0:0:
64,256,248166,1,0,0:0:0:0:
64,256,248325,1,8,0:0:0:0:
256,192,248404,1,0,0:0:0:0:
64,256,248484,1,0,0:0:0:0:
64,256,248563,1,0,0:0:0:0:
64,256,248642,1,8,0:0:0:0:
64,256,248801,1,0,0:0:0:0:
64,256,248881,1,8,0:0:0:0:
64,256,248960,1,8,0:0:0:0:
64,256,249119,1,0,0:0:0:0:
64,256,249277,1,8,0:0:0:0:
64,256,249436,1,0,0:0:0:0:
64,256,249515,1,0,0:0:0:0:
64,256,249595,1,8,0:0:0:0:
64,256,249754,1,8,0:0:0:0:
64,256,249912,1,0,0:0:0:0:
64,256,249992,1,8,0:0:0:0:
64,256,250071,1,0,0:0:0:0:
64,256,250230,1,8,0:0:0:0:
256,192,250309,1,8,0:0:0:0:
64,256,250389,1,0,0:0:0:0:
64,256,250468,1,8,0:0:0:0:
64,256,250547,1,8,0:0:0:0:
64,256,250706,1,0,0:0:0:0:
64,256,250785,1,0,0:0:0:0:
64,256,250865,1,8,0:0:0:0:
64,256,250944,1,8,0:0:0:0:
64,256,251023,1,0,0:0:0:0:
64,256,251182,1,8,0:0:0:0:
64,256,251341,1,0,0:0:0:0:
64,256,251420,1,8,0:0:0:0:
64,256,251500,1,0,0:0:0:0:
64,256,251658,1,8,0:0:0:0:
64,256,251817,1,0,0:0:0:0:
256,192,251896,1,8,0:0:0:0:
64,256,251976,1,0,0:0:0:0:
64,256,252135,1,8,0:0:0:0:
64,256,252214,1,0,0:0:0:0:
64,256,252293,1,0,0:0:0:0:
64,256,252373,1,0,0:0:0:0:
64,256,252452,1,8,0:0:0:0:
256,192,252531,1,8,0:0:0:0:
64,256,252611,1,0,0:0:0:0:
256,192,252690,1,0,0:0:0:0:
64,256,252769,1,8,0:0:0:0:
256,192,252849,1,8,0:0:0:0:
64,256,252928,1,0,0:0:0:0:
64,256,253087,1,12,0:0:0:0:
64,256,253246,1,8,0:0:0:0:
64,256,253325,1,0,0:0:0:0:
64,256,253404,1,8,0:0:0:0:
64,256,253563,1,8,0:0:0:0:
64,256,253722,1,0,0:0:0:0:
256,192,253801,1,8,0:0:0:0:
64,256,253881,1,0,0:0:0:0:
64,256,254039,1,8,0:0:0:0:
64,256,254119,1,8,0:0:0:0:
64,256,254198,1,0,0:0:0:0:
64,256,254277,1,0,0:0:0:0:
64,256,254357,1,8,0:0:0:0:
256,192,254436,1,8,0:0:0:0:
64,256,254515,1,0,0:0:0:0:
64,256,254595,1,8,0:0:0:0:
64,256,254674,1,8,0:0:0:0:
256,192,254754,1,8,0:0:0:0:
64,256,254833,1,0,0:0:0:0:
64,256,254912,1,0,0:0:0:0:
64,256,254992,1,8,0:0:0:0:
64,256,255150,1,0,0:0:0:0:
64,256,255309,1,8,0:0:0:0:
64,256,255389,1,0,0:0:0:0:
64,256,255468,1,8,0:0:0:0:
64,256,255547,1,8,0:0:0:0:
64,256,255627,1,0,0:0:0:0:
64,256,255785,1,0,0:0:0:0:
64,256,255944,1,8,0:0:0:0:
64,256,256103,1,0,0:0:0:0:
64,256,256182,1,0,0:0:0:0:
64,256,256262,1,8,0:0:0:0:
64,256,256341,1,0,0:0:0:0:
64,256,256420,1,0,0:0:0:0:
64,256,256500,1,0,0:0:0:0:
64,256,256579,1,8,0:0:0:0:
64,256,256738,1,8,0:0:0:0:
64,256,256896,1,4,0:0:0:0:
64,256,257055,1,0,0:0:0:0:
64,256,257135,1,0,0:0:0:0:
64,256,257214,1,8,0:0:0:0:
64,256,257373,1,0,0:0:0:0:
64,256,257531,1,8,0:0:0:0:
64,256,257611,1,8,0:0:0:0:
64,256,257690,1,0,0:0:0:0:
64,256,257849,1,12,0:0:0:0:
64,256,258008,1,0,0:0:0:0:
64,256,258087,1,8,0:0:0:0:
64,256,258166,1,8,0:0:0:0:
64,256,258325,1,0,0:0:0:0:
64,256,258404,1,0,0:0:0:0:
64,256,258484,1,8,0:0:0:0:
64,256,258563,1,8,0:0:0:0:
64,256,258642,1,0,0:0:0:0:
64,256,258801,1,8,0:0:0:0:
64,256,258881,1,8,0:0:0:0:
64,256,258960,1,0,0:0:0:0:
64,256,259039,1,0,0:0:0:0:
64,256,259119,1,8,0:0:0:0:
64,256,259198,1,0,0:0:0:0:
64,256,259277,1,8,0:0:0:0:
64,256,259357,1,8,0:0:0:0:
64,256,259436,1,0,0:0:0:0:
64,256,259515,1,0,0:0:0:0:
64,256,259595,1,8,0:0:0:0:
64,256,259648,1,8,0:0:0:0:
64,256,259701,1,8,0:0:0:0:
64,256,259754,1,0,0:0:0:0:
64,256,260071,1,0,0:0:0:0:
64,256,260389,1,8,0:0:0:0:
64,256,260468,1,0,0:0:0:0:
64,256,260547,1,8,0:0:0:0:
256,192,260706,5,8,0:0:0:0:
256,192,260785,1,0,0:0:0:0:
256,192,260865,1,0,0:0:0:0:
256,192,261023,1,0,0:0:0:0:
256,192,261182,1,8,0:0:0:0:
256,192,261262,1,8,0:0:0:0:
256,192,261341,1,0,0:0:0:0:
256,192,261500,1,0,0:0:0:0:
256,192,261658,1,8,0:0:0:0:
256,192,261738,1,0,0:0:0:0:
256,192,261817,1,0,0:0:0:0:
256,192,261896,1,0,0:0:0:0:
256,192,261976,1,8,0:0:0:0:
256,192,262055,1,8,0:0:0:0:
256,192,262135,1,0,0:0:0:0:
256,192,262214,1,0,0:0:0:0:
256,192,262293,1,8,0:0:0:0:
256,192,262373,1,0,0:0:0:0:
256,192,262452,1,8,0:0:0:0:
256,192,262531,1,0,0:0:0:0:
256,192,262611,1,8,0:0:0:0:
256,192,262769,1,0,0:0:0:0:
256,192,262928,1,8,0:0:0:0:
256,192,263087,1,0,0:0:0:0:
256,192,263166,1,8,0:0:0:0:
256,192,263246,1,8,0:0:0:0:
256,192,263404,1,0,0:0:0:0:
256,192,263563,1,8,0:0:0:0:
256,192,263642,1,0,0:0:0:0:
256,192,263722,1,0,0:0:0:0:
256,192,263801,1,0,0:0:0:0:
256,192,263881,1,8,0:0:0:0:
256,192,263960,1,8,0:0:0:0:
256,192,264039,1,8,0:0:0:0:
256,192,264119,1,0,0:0:0:0:
256,192,264198,1,8,0:0:0:0:
256,192,264277,1,8,0:0:0:0:
256,192,264357,1,0,0:0:0:0:
256,192,264436,1,0,0:0:0:0:
256,192,264515,1,8,0:0:0:0:
256,192,264674,1,0,0:0:0:0:
256,192,264833,1,0,0:0:0:0:
256,192,264992,1,8,0:0:0:0:
256,192,265071,1,0,0:0:0:0:
256,192,265150,1,8,0:0:0:0:
256,192,265309,1,0,0:0:0:0:
256,192,265468,1,8,0:0:0:0:
256,192,265547,1,8,0:0:0:0:
256,192,265627,1,8,0:0:0:0:
256,192,265706,1,0,0:0:0:0:
256,192,265785,1,8,0:0:0:0:
256,192,265865,1,8,0:0:0:0:
256,192,265944,1,0,0:0:0:0:
256,192,266023,1,0,0:0:0:0:
256,192,266103,1,8,0:0:0:0:
256,192,266182,1,0,0:0:0:0:
256,192,266262,1,8,0:0:0:0:
256,192,266341,1,0,0:0:0:0:
256,192,266420,1,8,0:0:0:0:
256,192,266579,1,0,0:0:0:0:
256,192,266738,1,8,0:0:0:0:
256,192,266896,1,0,0:0:0:0:
256,192,267055,1,8,0:0:0:0:
256,192,267135,1,0,0:0:0:0:
256,192,267214,1,8,0:0:0:0:
256,192,267293,1,0,0:0:0:0:
256,192,267373,1,8,0:0:0:0:
256,192,267452,1,0,0:0:0:0:
256,192,267531,1,0,0:0:0:0:
256,192,267611,1,0,0:0:0:0:
256,192,267690,1,8,0:0:0:0:
256,192,267769,1,8,0:0:0:0:
256,192,267849,1,0,0:0:0:0:
256,192,267928,1,8,0:0:0:0:
256,192,268008,1,8,0:0:0:0:
256,192,268087,1,8,0:0:0:0:
256,192,268166,1,0,0:0:0:0:
256,192,268246,1,0,0:0:0:0:
256,192,268325,1,12,0:0:0:0:
256,192,268642,1,0,0:0:0:0:
256,192,268801,1,8,0:0:0:0:
256,192,268960,1,0,0:0:0:0:
256,192,269039,1,0,0:0:0:0:
256,192,269119,1,8,0:0:0:0:
256,192,269198,1,0,0:0:0:0:
256,192,269277,1,8,0:0:0:0:
256,192,269436,1,0,0:0:0:0:
256,192,269595,1,8,0:0:0:0:
256,192,269674,1,8,0:0:0:0:
256,192,269754,1,0,0:0:0:0:
256,192,269912,1,8,0:0:0:0:
256,192,269992,1,0,0:0:0:0:
256,192,270071,1,8,0:0:0:0:
256,192,270150,1,0,0:0:0:0:
256,192,270230,1,8,0:0:0:0:
256,192,270389,1,0,0:0:0:0:
256,192,270547,1,8,0:0:0:0:
256,192,270627,1,8,0:0:0:0:
256,192,270706,1,0,0:0:0:0:
256,192,270785,1,0,0:0:0:0:
256,192,270865,1,8,0:0:0:0:
256,192,270944,1,0,0:0:0:0:
256,192,271023,1,0,0:0:0:0:
256,192,271103,1,0,0:0:0:0:
256,192,271182,1,8,0:0:0:0:
256,192,271262,1,8,0:0:0:0:
256,192,271341,1,0,0:0:0:0:
256,192,271420,1,8,0:0:0:0:
256,192,271500,1,8,0:0:0:0:
256,192,271579,1,8,0:0:0:0:
256,192,271658,1,0,0:0:0:0:
256,192,271738,1,0,0:0:0:0:
256,192,271817,1,8,0:0:0:0:
256,192,271896,1,0,0:0:0:0:
256,192,271976,1,0,0:0:0:0:
256,192,272055,1,0,0:0:0:0:
256,192,272135,1,8,0:0:0:0:
256,192,272452,1,0,0:0:0:0:
256,192,272611,1,8,0:0:0:0:
256,192,272769,1,8,0:0:0:0:
256,192,272849,1,0,0:0:0:0:
256,192,272928,1,8,0:0:0:0:
256,192,273008,1,0,0:0:0:0:
256,192,273087,1,8,0:0:0:0:
256,192,273246,1,0,0:0:0:0:
256,192,273404,1,8,0:0:0:0:
256,192,273484,1,8,0:0:0:0:
256,192,273563,1,0,0:0:0:0:
256,192,273642,1,0,0:0:0:0:
256,192,273722,1,8,0:0:0:0:
256,192,273801,1,0,0:0:0:0:
256,192,273881,1,8,0:0:0:0:
256,192,273960,1,0,0:0:0:0:
256,192,274039,1,8,0:0:0:0:
256,192,274198,1,0,0:0:0:0:
256,192,274357,1,8,0:0:0:0:
256,192,274515,1,0,0:0:0:0:
256,192,274674,1,8,0:0:0:0:
256,192,274754,1,0,0:0:0:0:
256,192,274833,1,8,0:0:0:0:
256,192,274912,1,0,0:0:0:0:
256,192,274992,1,8,0:0:0:0:
256,192,275071,1,0,0:0:0:0:
256,192,275150,1,0,0:0:0:0:
256,192,275230,1,0,0:0:0:0:
256,192,275309,1,8,0:0:0:0:
256,192,275389,1,8,0:0:0:0:
256,192,275468,1,0,0:0:0:0:
256,192,275547,1,8,0:0:0:0:
256,192,275627,1,8,0:0:0:0:
256,192,275706,1,0,0:0:0:0:
256,192,275785,1,0,0:0:0:0:
256,192,275865,1,0,0:0:0:0:
256,192,275944,1,12,0:0:0:0:
256,192,276103,1,0,0:0:0:0:
256,192,276262,1,0,0:0:0:0:
256,192,276420,1,8,0:0:0:0:
256,192,276500,1,8,0:0:0:0:
256,192,276579,1,0,0:0:0:0:
256,192,276738,1,0,0:0:0:0:
256,192,276896,1,8,0:0:0:0:
256,192,276976,1,8,0:0:0:0:
256,192,277055,1,0,0:0:0:0:
256,192,277135,1,0,0:0:0:0:
256,192,277214,1,8,0:0:0:0:
256,192,277293,1,8,0:0:0:0:
256,192,277373,1,0,0:0:0:0:
256,192,277452,1,8,0:0:0:0:
256,192,277531,1,0,0:0:0:0:
256,192,277611,1,0,0:0:0:0:
256,192,277690,1,8,0:0:0:0:
256,192,277769,1,0,0:0:0:0:
256,192,277849,1,8,0:0:0:0:
256,192,278008,1,0,0:0:0:0:
256,192,278166,1,0,0:0:0:0:
256,192,278325,1,8,0:0:0:0:
256,192,278404,1,8,0:0:0:0:
256,192,278484,1,0,0:0:0:0:
256,192,278642,1,0,0:0:0:0:
256,192,278801,1,8,0:0:0:0:
256,192,278881,1,8,0:0:0:0:
256,192,278960,1,0,0:0:0:0:
256,192,279039,1,0,0:0:0:0:
256,192,279119,1,8,0:0:0:0:
256,192,279198,1,8,0:0:0:0:
256,192,279277,1,0,0:0:0:0:
256,192,279357,1,8,0:0:0:0:
256,192,279436,1,8,0:0:0:0:
256,192,279515,1,8,0:0:0:0:
256,192,279595,1,0,0:0:0:0:
256,192,279674,1,0,0:0:0:0:
256,192,279754,1,8,0:0:0:0:
256,192,279912,1,0,0:0:0:0:
256,192,280071,1,0,0:0:0:0:
256,192,280230,1,8,0:0:0:0:
256,192,280389,1,0,0:0:0:0:
256,192,280468,1,8,0:0:0:0:
256,192,280547,1,0,0:0:0:0:
256,192,280627,1,0,0:0:0:0:
256,192,280706,1,8,0:0:0:0:
256,192,280785,1,0,0:0:0:0:
256,192,280865,1,0,0:0:0:0:
256,192,280944,1,0,0:0:0:0:
256,192,281023,1,8,0:0:0:0:
256,192,281103,1,0,0:0:0:0:
256,192,281182,1,0,0:0:0:0:
256,192,281262,1,8,0:0:0:0:
256,192,281341,1,8,0:0:0:0:
256,192,281420,1,8,0:0:0:0:
256,192,281500,1,0,0:0:0:0:
256,192,281579,1,0,0:0:0:0:
256,192,281658,1,8,0:0:0:0:
256,192,281817,1,0,0:0:0:0:
256,192,281976,1,0,0:0:0:0:
256,192,282135,1,8,0:0:0:0:
256,192,282293,1,8,0:0:0:0:
256,192,282373,1,0,0:0:0:0:
256,192,282452,1,8,0:0:0:0:
256,192,282531,1,0,0:0:0:0:
256,192,282611,1,8,0:0:0:0:
256,192,282690,1,0,0:0:0:0:
256,192,282769,1,0,0:0:0:0:
256,192,282849,1,0,0:0:0:0:
256,192,282928,1,8,0:0:0:0:
256,192,283008,1,8,0:0:0:0:
256,192,283087,1,0,0:0:0:0:
256,192,283166,1,8,0:0:0:0:
256,192,283246,1,8,0:0:0:0:
256,192,283325,1,8,0:0:0:0:
256,192,283404,1,0,0:0:0:0:
256,192,283484,1,0,0:0:0:0:
256,192,283563,1,12,0:0:0:0:
256,192,283881,1,0,0:0:0:0:
256,192,284039,1,8,0:0:0:0:
256,192,284198,1,8,0:0:0:0:
256,192,284277,1,0,0:0:0:0:
256,192,284357,1,8,0:0:0:0:
256,192,284436,1,0,0:0:0:0:
256,192,284515,1,8,0:0:0:0:
256,192,284674,1,0,0:0:0:0:
256,192,284833,1,8,0:0:0:0:
256,192,284912,1,0,0:0:0:0:
256,192,284992,1,0,0:0:0:0:
256,192,285071,1,0,0:0:0:0:
256,192,285150,1,8,0:0:0:0:
256,192,285230,1,0,0:0:0:0:
256,192,285309,1,8,0:0:0:0:
256,192,285468,1,12,0:0:0:0:
256,192,285627,1,0,0:0:0:0:
256,192,285785,1,12,0:0:0:0:
256,192,285944,1,0,0:0:0:0:
256,192,286103,1,0,0:0:0:0:
256,192,286182,1,0,0:0:0:0:
256,192,286262,1,0,0:0:0:0:
256,192,286341,1,0,0:0:0:0:
256,192,286420,1,12,0:0:0:0:
256,192,287055,5,12,0:0:0:0:
256,192,287214,1,8,0:0:0:0:
256,192,287267,1,8,0:0:0:0:
256,192,287320,1,8,0:0:0:0:
256,192,287373,1,0,0:0:0:0:
256,192,287531,1,0,0:0:0:0:
256,192,287690,1,8,0:0:0:0:
256,192,287849,1,8,0:0:0:0:
256,192,287928,1,8,0:0:0:0:
256,192,288008,1,0,0:0:0:0:
256,192,288166,1,0,0:0:0:0:
256,192,288325,1,8,0:0:0:0:
256,192,288404,1,8,0:0:0:0:
256,192,288484,1,0,0:0:0:0:
256,192,288563,1,8,0:0:0:0:
256,192,288642,1,8,0:0:0:0:
256,192,288722,1,8,0:0:0:0:
256,192,288801,1,0,0:0:0:0:
256,192,288881,1,0,0:0:0:0:
256,192,288960,1,8,0:0:0:0:
256,192,289119,1,8,0:0:0:0:
256,192,289277,1,8,0:0:0:0:
256,192,289357,1,0,0:0:0:0:
256,192,289436,1,0,0:0:0:0:
256,192,289515,1,0,0:0:0:0:
256,192,289595,1,0,0:0:0:0:
256,192,289674,1,0,0:0:0:0:
256,192,289754,1,0,0:0:0:0:
256,192,289833,1,0,0:0:0:0:
256,192,289912,1,0,0:0:0:0:
256,192,289992,1,0,0:0:0:0:
256,192,290071,1,0,0:0:0:0:
256,192,290150,1,0,0:0:0:0:
256,192,290230,1,8,0:0:0:0:
256,192,290389,1,8,0:0:0:0:
256,192,290441,1,8,0:0:0:0:
256,192,290494,1,8,0:0:0:0:
256,192,290547,1,0,0:0:0:0:
256,192,290706,1,8,0:0:0:0:
256,192,290759,1,8,0:0:0:0:
256,192,290812,1,8,0:0:0:0:
256,192,290865,1,0,0:0:0:0:
256,192,291182,5,6,0:0:0:0:
256,192,291500,1,0,0:0:0:0:
256,192,291817,1,0,0:0:0:0:
256,192,292135,1,2,0:0:0:0:
256,192,292293,1,0,0:0:0:0:
256,192,292452,1,2,0:0:0:0:
256,192,292611,1,0,0:0:0:0:
256,192,292769,1,0,0:0:0:0:
256,192,292928,1,2,0:0:0:0:
256,192,293087,1,2,0:0:0:0:
256,192,293404,1,2,0:0:0:0:
256,192,293722,1,0,0:0:0:0:
256,192,294039,1,2,0:0:0:0:
256,192,294198,1,0,0:0:0:0:
256,192,294357,1,2,0:0:0:0:
256,192,294515,1,0,0:0:0:0:
256,192,294674,1,2,0:0:0:0:
256,192,294833,1,0,0:0:0:0:
256,192,294992,1,2,0:0:0:0:
256,192,295150,1,0,0:0:0:0:
256,192,295309,1,0,0:0:0:0:
256,192,295468,1,0,0:0:0:0:
256,192,295627,1,2,0:0:0:0:
256,192,295944,1,0,0:0:0:0:
256,192,296262,1,0,0:0:0:0:
256,192,296579,1,2,0:0:0:0:
256,192,296896,1,2,0:0:0:0:
256,192,297055,1,0,0:0:0:0:
256,192,297214,1,0,0:0:0:0:
256,192,297373,1,2,0:0:0:0:
256,192,297531,1,0,0:0:0:0:
256,192,297584,1,0,0:0:0:0:
256,192,297637,1,0,0:0:0:0:
256,192,297690,1,2,0:0:0:0:
256,192,297849,1,0,0:0:0:0:
256,192,298166,1,0,0:0:0:0:
256,192,298484,1,2,0:0:0:0:
256,192,298801,1,2,0:0:0:0:
256,192,298960,1,0,0:0:0:0:
256,192,299119,1,2,0:0:0:0:
256,192,299277,1,0,0:0:0:0:
256,192,299436,1,2,0:0:0:0:
256,192,299595,1,0,0:0:0:0:
256,192,299754,1,2,0:0:0:0:
256,192,299912,1,0,0:0:0:0:
256,192,300071,1,8,0:0:0:0:
256,192,300230,1,2,0:0:0:0:
256,192,300389,1,2,0:0:0:0:
256,192,300547,1,0,0:0:0:0:
256,192,300706,1,2,0:0:0:0:
256,192,301023,1,2,0:0:0:0:
256,192,301341,1,0,0:0:0:0:
256,192,301658,1,2,0:0:0:0:
256,192,301817,1,0,0:0:0:0:
256,192,301976,1,2,0:0:0:0:
256,192,302135,1,0,0:0:0:0:
256,192,302293,1,2,0:0:0:0:
256,192,302452,1,0,0:0:0:0:
256,192,302611,1,2,0:0:0:0:
256,192,302769,1,0,0:0:0:0:
256,192,302928,1,0,0:0:0:0:
256,192,303087,1,2,0:0:0:0:
256,192,303246,1,2,0:0:0:0:
256,192,303404,1,0,0:0:0:0:
256,192,303563,1,2,0:0:0:0:
256,192,303722,1,0,0:0:0:0:
256,192,303881,1,2,0:0:0:0:
256,192,304039,1,0,0:0:0:0:
256,192,304198,1,2,0:0:0:0:
256,192,304357,1,0,0:0:0:0:
256,192,304515,1,2,0:0:0:0:
256,192,304674,1,0,0:0:0:0:
256,192,304833,1,0,0:0:0:0:
256,192,304992,1,2,0:0:0:0:
256,192,305150,1,0,0:0:0:0:
256,192,305309,1,2,0:0:0:0:
256,192,305468,1,0,0:0:0:0:
256,192,305785,1,0,0:0:0:0:
256,192,306103,5,2,0:0:0:0:
239,130,306420,5,6,0:0:0:0:
320,221,306579,1,0,0:0:0:0:
320,221,306658,1,0,0:0:0:0:
320,221,306738,1,2,0:0:0:0:
320,221,306896,1,0,0:0:0:0:
320,221,307055,1,2,0:0:0:0:
320,221,307214,1,2,0:0:0:0:
320,221,307293,1,2,0:0:0:0:
320,221,307373,1,0,0:0:0:0:
185,216,307531,1,0,0:0:0:0:
185,216,307690,1,2,0:0:0:0:
185,216,307849,1,0,0:0:0:0:
185,216,308008,1,2,0:0:0:0:
185,216,308087,1,2,0:0:0:0:
185,216,308166,1,0,0:0:0:0:
185,216,308246,1,0,0:0:0:0:
185,216,308325,1,2,0:0:0:0:
216,183,308484,1,0,0:0:0:0:
216,183,308642,1,2,0:0:0:0:
216,183,308801,1,0,0:0:0:0:
216,183,308881,1,2,0:0:0:0:
216,183,308960,1,0,0:0:0:0:
216,183,309119,1,2,0:0:0:0:
216,183,309277,1,0,0:0:0:0:
133,245,309436,1,0,0:0:0:0:
133,245,309515,1,0,0:0:0:0:
133,245,309595,1,2,0:0:0:0:
133,245,309754,1,2,0:0:0:0:
179,228,309912,1,0,0:0:0:0:
179,228,309992,1,0,0:0:0:0:
179,228,310071,1,0,0:0:0:0:
179,228,310150,1,0,0:0:0:0:
179,228,310230,1,2,0:0:0:0:
217,158,310468,1,2,0:0:0:0:
217,158,310547,1,0,0:0:0:0:
217,158,310706,1,0,0:0:0:0:
217,158,310865,1,2,0:0:0:0:
217,158,310944,1,8,0:0:0:0:
217,158,311023,1,0,0:0:0:0:
217,158,311182,1,2,0:0:0:0:
161,217,311341,1,0,0:0:0:0:
161,217,311500,1,2,0:0:0:0:
161,217,311579,1,0,0:0:0:0:
161,217,311658,1,0,0:0:0:0:
161,217,311817,1,2,0:0:0:0:
161,217,311896,1,2,0:0:0:0:
161,217,311976,1,0,0:0:0:0:
161,217,312055,1,2,0:0:0:0:
161,217,312135,1,0,0:0:0:0:
225,220,312373,1,0,0:0:0:0:
225,220,312452,1,0,0:0:0:0:
225,220,312611,1,2,0:0:0:0:
225,220,312769,1,0,0:0:0:0:
225,220,312928,1,2,0:0:0:0:
225,220,313008,1,2,0:0:0:0:
225,220,313087,1,0,0:0:0:0:
154,203,313166,1,0,0:0:0:0:
154,203,313246,1,0,0:0:0:0:
154,203,313325,1,0,0:0:0:0:
154,203,313404,1,2,0:0:0:0:
154,203,313563,1,0,0:0:0:0:
154,203,313642,1,2,0:0:0:0:
154,203,313722,1,2,0:0:0:0:
154,203,313801,1,2,0:0:0:0:
154,203,313881,1,0,0:0:0:0:
183,90,314039,1,6,0:0:0:0:
237,191,314277,1,2,0:0:0:0:
237,191,314357,1,0,0:0:0:0:
237,191,314515,1,0,0:0:0:0:
237,191,314674,1,0,0:0:0:0:
237,191,314754,1,2,0:0:0:0:
237,191,314833,1,0,0:0:0:0:
237,191,314992,1,2,0:0:0:0:
237,191,315150,1,2,0:0:0:0:
237,191,315230,1,2,0:0:0:0:
237,191,315309,1,0,0:0:0:0:
109,189,315389,1,0,0:0:0:0:
109,189,315468,1,2,0:0:0:0:
109,189,315547,1,0,0:0:0:0:
109,189,315627,1,2,0:0:0:0:
191,176,315785,1,0,0:0:0:0:
220,159,315944,1,0,0:0:0:0:
220,159,316103,1,0,0:0:0:0:
220,159,316182,1,0,0:0:0:0:
220,159,316262,1,2,0:0:0:0:
220,159,316341,1,0,0:0:0:0:
220,159,316420,1,0,0:0:0:0:
220,159,316579,1,2,0:0:0:0:
220,159,316738,1,0,0:0:0:0:
220,159,316896,1,0,0:0:0:0:
250,195,316976,1,2,0:0:0:0:
250,195,317055,1,0,0:0:0:0:
274,294,317214,1,2,0:0:0:0:
274,294,317373,1,0,0:0:0:0:
124,262,317531,1,2,0:0:0:0:
124,262,317611,1,2,0:0:0:0:
124,262,317690,1,0,0:0:0:0:
172,248,317769,1,0,0:0:0:0:
124,262,317849,1,2,0:0:0:0:
256,242,318087,1,0,0:0:0:0:
256,242,318166,1,2,0:0:0:0:
256,242,318325,1,8,0:0:0:0:
256,242,318404,1,0,0:0:0:0:
256,242,318484,1,2,0:0:0:0:
256,242,318642,1,0,0:0:0:0:
256,242,318801,1,2,0:0:0:0:
136,220,318881,1,2,0:0:0:0:
136,220,318960,1,0,0:0:0:0:
136,220,319119,1,2,0:0:0:0:
136,220,319277,1,0,0:0:0:0:
184,232,319436,1,2,0:0:0:0:
184,232,319515,1,2,0:0:0:0:
184,232,319595,1,0,0:0:0:0:
184,232,319754,1,2,0:0:0:0:
206,210,319833,1,2,0:0:0:0:
206,210,319912,1,0,0:0:0:0:
204,210,319992,1,0,0:0:0:0:
204,210,320071,1,2,0:0:0:0:
217,215,320150,1,0,0:0:0:0:
217,215,320230,1,2,0:0:0:0:
212,215,320309,1,0,0:0:0:0:
212,215,320389,1,2,0:0:0:0:
209,215,320468,1,2,0:0:0:0:
209,215,320547,1,0,0:0:0:0:
203,138,320706,1,6,0:0:0:0:
203,138,321023,1,6,0:0:0:0:
225,106,321341,1,0,0:0:0:0:
225,106,321420,1,0,0:0:0:0:
225,106,321500,1,0,0:0:0:0:
256,192,321658,1,12,0:0:0:0:
256,192,321817,1,0,0:0:0:0:
256,192,321896,1,0,0:0:0:0:
256,192,321976,1,2,0:0:0:0:
256,192,322135,1,0,0:0:0:0:
256,192,322214,1,0,0:0:0:0:
256,192,322293,1,2,0:0:0:0:
256,192,322452,1,0,0:0:0:0:
256,192,322611,1,2,0:0:0:0:
256,192,322690,1,2,0:0:0:0:
256,192,322769,1,0,0:0:0:0:
256,192,322928,1,2,0:0:0:0:
256,192,323087,1,0,0:0:0:0:
256,192,323166,1,0,0:0:0:0:
256,192,323246,1,2,0:0:0:0:
256,192,323404,1,0,0:0:0:0:
256,192,323563,1,2,0:0:0:0:
256,192,323642,1,0,0:0:0:0:
256,192,323722,1,0,0:0:0:0:
256,192,323881,1,2,0:0:0:0:
256,192,323960,1,2,0:0:0:0:
256,192,324039,1,0,0:0:0:0:
256,192,324119,1,0,0:0:0:0:
256,192,324198,1,2,0:0:0:0:
256,192,324357,1,0,0:0:0:0:
256,192,324515,1,2,0:0:0:0:
256,192,324674,1,0,0:0:0:0:
256,192,324754,1,0,0:0:0:0:
256,192,324833,1,2,0:0:0:0:
256,192,324912,1,2,0:0:0:0:
256,192,324992,1,0,0:0:0:0:
256,192,325150,1,0,0:0:0:0:
256,192,325230,1,2,0:0:0:0:
256,192,325309,1,0,0:0:0:0:
256,192,325389,1,0,0:0:0:0:
256,192,325468,1,2,0:0:0:0:
256,192,325627,1,0,0:0:0:0:
256,192,325706,1,0,0:0:0:0:
256,192,325785,1,2,0:0:0:0:
256,192,325944,1,0,0:0:0:0:
256,192,326103,1,2,0:0:0:0:
256,192,326182,1,2,0:0:0:0:
256,192,326262,1,0,0:0:0:0:
256,192,326420,1,2,0:0:0:0:
256,192,326579,1,0,0:0:0:0:
256,192,326658,1,2,0:0:0:0:
256,192,326738,1,0,0:0:0:0:
256,192,326817,1,2,0:0:0:0:
256,192,326896,1,2,0:0:0:0:
256,192,326976,1,0,0:0:0:0:
256,192,327055,1,2,0:0:0:0:
256,192,327214,1,0,0:0:0:0:
256,192,327373,1,2,0:0:0:0:
256,192,327531,1,0,0:0:0:0:
256,192,327611,1,2,0:0:0:0:
256,192,327690,1,2,0:0:0:0:
256,192,327769,1,0,0:0:0:0:
256,192,327849,1,2,0:0:0:0:
256,192,328008,1,2,0:0:0:0:
256,192,328087,1,0,0:0:0:0:
256,192,328166,1,0,0:0:0:0:
256,192,328325,1,2,0:0:0:0:
256,192,328404,1,2,0:0:0:0:
256,192,328484,1,0,0:0:0:0:
256,192,328642,1,2,0:0:0:0:
256,192,328801,1,0,0:0:0:0:
256,192,328881,1,0,0:0:0:0:
256,192,328960,1,2,0:0:0:0:
256,192,329119,1,0,0:0:0:0:
256,192,329277,1,6,0:0:0:0:
256,192,329436,1,0,0:0:0:0:
256,192,329515,1,0,0:0:0:0:
256,192,329595,1,2,0:0:0:0:
256,192,329754,1,0,0:0:0:0:
256,192,329833,1,0,0:0:0:0:
256,192,329912,1,2,0:0:0:0:
256,192,329992,1,2,0:0:0:0:
256,192,330071,1,0,0:0:0:0:
256,192,330150,1,0,0:0:0:0:
256,192,330230,1,2,0:0:0:0:
256,192,330389,1,0,0:0:0:0:
256,192,330468,1,0,0:0:0:0:
256,192,330547,1,2,0:0:0:0:
256,192,330627,1,0,0:0:0:0:
256,192,330706,1,2,0:0:0:0:
256,192,330785,1,2,0:0:0:0:
256,192,330865,1,0,0:0:0:0:
256,192,330944,1,0,0:0:0:0:
256,192,331023,1,2,0:0:0:0:
256,192,331103,1,0,0:0:0:0:
256,192,331182,1,2,0:0:0:0:
256,192,331341,1,2,0:0:0:0:
256,192,331420,1,0,0:0:0:0:
256,192,331500,1,2,0:0:0:0:
256,192,331658,1,0,0:0:0:0:
256,192,331738,1,0,0:0:0:0:
256,192,331817,1,2,0:0:0:0:
256,192,331976,1,0,0:0:0:0:
256,192,332135,1,2,0:0:0:0:
256,192,332214,1,2,0:0:0:0:
256,192,332293,1,0,0:0:0:0:
256,192,332373,1,0,0:0:0:0:
256,192,332452,1,2,0:0:0:0:
256,192,332611,1,0,0:0:0:0:
256,192,332690,1,0,0:0:0:0:
256,192,332769,1,2,0:0:0:0:
256,192,332928,1,0,0:0:0:0:
256,192,333087,1,6,0:0:0:0:
256,192,333246,1,0,0:0:0:0:
256,192,333325,1,2,0:0:0:0:
256,192,333404,1,2,0:0:0:0:
256,192,333484,1,0,0:0:0:0:
256,192,333563,1,2,0:0:0:0:
256,192,333642,1,0,0:0:0:0:
256,192,333722,1,2,0:0:0:0:
256,192,333881,1,0,0:0:0:0:
256,192,333960,1,0,0:0:0:0:
256,192,334039,1,2,0:0:0:0:
256,192,334198,1,2,0:0:0:0:
256,192,334277,1,0,0:0:0:0:
256,192,334357,1,2,0:0:0:0:
256,192,334515,1,0,0:0:0:0:
256,192,334595,1,0,0:0:0:0:
256,192,334674,1,2,0:0:0:0:
256,192,334833,1,0,0:0:0:0:
256,192,334992,1,6,0:0:0:0:
256,192,335150,1,0,0:0:0:0:
256,192,335230,1,0,0:0:0:0:
256,192,335309,1,2,0:0:0:0:
256,192,335389,1,2,0:0:0:0:
256,192,335468,1,2,0:0:0:0:
256,192,335547,1,0,0:0:0:0:
256,192,335627,1,2,0:0:0:0:
256,192,335785,1,0,0:0:0:0:
256,192,335944,1,2,0:0:0:0:
256,192,336023,1,2,0:0:0:0:
256,192,336103,1,0,0:0:0:0:
256,192,336262,1,2,0:0:0:0:
256,192,336420,1,0,0:0:0:0:
256,192,336500,1,0,0:0:0:0:
256,192,336579,1,2,0:0:0:0:
256,192,336738,1,0,0:0:0:0:
256,192,336896,1,6,0:0:0:0:
256,192,337055,1,0,0:0:0:0:
256,192,337214,1,0,0:0:0:0:
256,192,337373,1,0,0:0:0:0:
256,192,337452,1,0,0:0:0:0:
256,192,337531,1,2,0:0:0:0:
256,192,337690,1,0,0:0:0:0:
256,192,337849,1,6,0:0:0:0:
256,192,338008,1,0,0:0:0:0:
256,192,338087,1,0,0:0:0:0:
256,192,338166,1,2,0:0:0:0:
256,192,338325,1,0,0:0:0:0:
256,192,338404,1,0,0:0:0:0:
256,192,338484,1,2,0:0:0:0:
256,192,338642,1,0,0:0:0:0:
256,192,338801,1,2,0:0:0:0:
256,192,338881,1,8,0:0:0:0:
256,192,338960,1,0,0:0:0:0:
256,192,339039,1,0,0:0:0:0:
256,192,339119,1,2,0:0:0:0:
256,192,339198,1,0,0:0:0:0:
256,192,339277,1,2,0:0:0:0:
256,192,339357,1,2,0:0:0:0:
256,192,339436,1,0,0:0:0:0:
256,192,339515,1,0,0:0:0:0:
256,192,339595,1,2,0:0:0:0:
256,192,339674,1,0,0:0:0:0:
256,192,339754,1,6,0:0:0:0:
256,192,340071,1,4,0:0:0:0:
256,192,340389,1,6,0:0:0:0:
256,192,340547,12,0,344588,0:0:0:0:
426,177,344989,5,8,0:0:0:0:
426,177,345075,1,0,0:0:0:0:
394,200,345162,1,0,0:0:0:0:
153,264,345249,1,8,0:0:0:0:
399,206,345479,1,0,0:0:0:0:
451,194,345710,1,0,0:0:0:0:
426,177,345941,1,8,0:0:0:0:
441,152,346172,1,0,0:0:0:0:
426,177,346402,1,8,0:0:0:0:
457,181,346863,1,8,0:0:0:0:
426,177,347324,1,0,0:0:0:0:
426,177,347786,1,8,0:0:0:0:
457,181,347862,1,0,0:0:0:0:
426,183,347939,1,0,0:0:0:0:
426,177,348016,1,8,0:0:0:0:
426,177,348247,1,8,0:0:0:0:
426,177,348478,1,0,0:0:0:0:
426,177,348708,1,0,0:0:0:0:
457,181,348939,1,8,0:0:0:0:
426,177,349170,1,8,0:0:0:0:
308,130,349631,1,8,0:0:0:0:
426,177,350092,1,0,0:0:0:0:
451,155,350554,1,0,0:0:0:0:
451,155,350630,1,0,0:0:0:0:
430,169,350707,1,0,0:0:0:0:
486,166,350784,1,8,0:0:0:0:
426,177,351015,1,0,0:0:0:0:
486,166,351245,1,8,0:0:0:0:
486,166,351476,1,0,0:0:0:0:
451,155,351706,1,8,0:0:0:0:
451,155,351937,1,8,0:0:0:0:
449,231,352398,1,8,0:0:0:0:
440,200,352859,1,0,0:0:0:0:
445,154,353321,1,0,0:0:0:0:
445,154,353779,1,0,0:0:0:0:
377,179,354238,1,8,0:0:0:0:
478,189,354697,1,8,0:0:0:0:
426,178,355152,1,0,0:0:0:0:
426,178,355607,1,8,0:0:0:0:
468,211,356062,1,0,0:0:0:0:
416,192,356138,1,8,0:0:0:0:
432,207,356215,1,0,0:0:0:0:
432,207,356292,1,8,0:0:0:0:
426,178,356523,1,0,0:0:0:0:
454,184,356985,1,8,0:0:0:0:
454,184,357446,1,8,0:0:0:0:
486,178,357677,1,0,0:0:0:0:
486,178,357908,1,8,0:0:0:0:
232,191,358138,1,0,0:0:0:0:
486,178,358369,1,8,0:0:0:0:
420,176,358831,1,8,0:0:0:0:
419,201,358908,1,8,0:0:0:0:
419,200,358985,1,0,0:0:0:0:
419,200,359062,1,8,0:0:0:0:
486,178,359292,1,8,0:0:0:0:
486,178,359754,1,0,0:0:0:0:
231,173,359985,1,8,0:0:0:0:
484,177,360215,1,8,0:0:0:0:
486,178,360446,1,0,0:0:0:0:
486,178,360677,1,8,0:0:0:0:
486,178,360908,1,0,0:0:0:0:
486,178,361138,1,8,0:0:0:0:
443,169,361600,1,8,0:0:0:0:
443,169,362062,1,8,0:0:0:0:
443,169,362523,1,0,0:0:0:0:
443,169,362985,1,0,0:0:0:0:
443,169,363446,1,0,0:0:0:0:
417,192,363908,1,8,0:0:0:0:
492,193,364369,1,8,0:0:0:0:
492,193,365062,1,0,0:0:0:0:
474,166,365292,1,8,0:0:0:0:
476,181,365369,1,0,0:0:0:0:
474,166,365446,1,8,0:0:0:0:
474,166,365523,1,0,0:0:0:0:
492,193,365754,1,0,0:0:0:0:
492,193,366215,1,0,0:0:0:0:
492,193,366446,1,0,0:0:0:0:
492,193,366677,1,8,0:0:0:0:
492,193,366908,1,8,0:0:0:0:
292,36,367138,1,8,0:0:0:0:
284,43,367215,1,0,0:0:0:0:
388,120,367292,1,8,0:0:0:0:
482,204,367369,1,8,0:0:0:0:
293,32,367600,1,0,0:0:0:0:
470,214,367831,1,8,0:0:0:0:
454,188,368062,1,0,0:0:0:0:
454,188,368292,1,8,0:0:0:0:
454,188,368523,1,8,0:0:0:0:
454,188,368985,1,8,0:0:0:0:
454,188,369446,1,8,0:0:0:0:
454,188,369677,1,0,0:0:0:0:
201,157,369908,1,8,0:0:0:0:
326,178,369985,1,0,0:0:0:0:
327,165,370062,1,0,0:0:0:0:
453,174,370138,1,8,0:0:0:0:
480,172,370369,1,0,0:0:0:0:
454,188,370600,1,0,0:0:0:0:
453,174,370831,1,0,0:0:0:0:
453,174,371062,1,8,0:0:0:0:
454,188,371292,1,0,0:0:0:0:
454,188,371754,1,8,0:0:0:0:
200,164,371985,1,0,0:0:0:0:
454,188,372215,1,8,0:0:0:0:
454,188,372677,1,8,0:0:0:0:
454,188,373138,1,0,0:0:0:0:
454,188,373369,1,8,0:0:0:0:
454,188,373600,1,8,0:0:0:0:
454,188,374062,1,0,0:0:0:0:
454,188,374523,1,8,0:0:0:0:
454,188,374985,1,8,0:0:0:0:
213,107,375215,1,0,0:0:0:0:
212,107,375446,1,0,0:0:0:0:
454,188,375908,1,0,0:0:0:0:
482,181,376138,1,8,0:0:0:0:
229,150,376369,1,8,0:0:0:0:
482,181,376600,1,0,0:0:0:0:
227,183,376831,1,8,0:0:0:0:
399,151,377292,1,0,0:0:0:0:
432,177,377754,1,8,0:0:0:0:
432,177,378215,1,8,0:0:0:0:
304,190,378292,1,0,0:0:0:0:
318,187,378369,1,0,0:0:0:0:
432,177,378446,1,8,0:0:0:0:
467,206,378677,1,0,0:0:0:0:
432,177,378908,1,8,0:0:0:0:
432,177,379138,1,8,0:0:0:0:
432,177,379369,1,0,0:0:0:0:
432,177,379600,1,8,0:0:0:0:
432,177,380062,1,8,0:0:0:0:
432,177,380523,1,8,0:0:0:0:
458,170,380754,1,0,0:0:0:0:
458,170,380985,1,8,0:0:0:0:
449,165,381062,1,8,0:0:0:0:
458,170,381138,1,0,0:0:0:0:
458,170,381215,1,0,0:0:0:0:
458,170,381446,1,0,0:0:0:0:
458,170,381677,1,0,0:0:0:0:
458,170,381908,1,0,0:0:0:0:
458,170,382138,1,8,0:0:0:0:
458,170,382369,1,8,0:0:0:0:
458,170,382831,1,8,0:0:0:0:
490,148,383062,1,0,0:0:0:0:
458,170,383292,1,8,0:0:0:0:
458,170,383523,1,8,0:0:0:0:
205,200,383754,1,0,0:0:0:0:
458,170,384219,1,0,0:0:0:0:
458,170,384451,1,8,0:0:0:0:
458,170,384684,1,8,0:0:0:0:
435,303,384916,1,0,0:0:0:0:
458,170,385149,1,0,0:0:0:0:
458,170,385632,1,8,0:0:0:0:
511,159,385882,1,0,0:0:0:0:
458,170,386132,1,8,0:0:0:0:
511,159,386656,1,0,0:0:0:0:
511,159,386912,1,0,0:0:0:0:
511,159,387168,1,8,0:0:0:0:
511,159,387447,1,0,0:0:0:0:
511,159,387726,1,8,0:0:0:0:
511,159,388017,1,8,0:0:0:0:
198,231,388308,1,4,0:0:0:0:
407,196,389635,5,12,0:0:0:0:
250,193,390996,5,4,0:0:0:0:
256,193,392694,1,8,0:0:0:0:
257,190,394392,1,8,0:0:0:0:
254,192,395524,1,0,0:0:0:0:
256,187,396090,1,8,0:0:0:0:
254,193,397788,1,0,0:0:0:0:
253,189,399486,1,8,0:0:0:0:
256,192,400618,1,0,0:0:0:0:
253,190,401184,5,0,0:0:0:0:
254,193,402882,1,0,0:0:0:0:
254,193,403448,1,0,0:0:0:0:
254,193,404014,1,0,0:0:0:0:
254,193,404580,1,12,0:0:0:0:
253,187,406279,1,8,0:0:0:0:
261,181,407977,1,8,0:0:0:0:
256,192,409109,1,0,0:0:0:0:
257,192,409675,1,8,0:0:0:0:
254,193,410807,1,8,0:0:0:0:
254,193,411373,1,0,0:0:0:0:
256,192,412505,1,8,0:0:0:0:
259,189,413071,1,0,0:0:0:0:
256,192,414203,1,0,0:0:0:0:
257,216,414769,1,0,0:0:0:0:
257,216,416467,1,0,0:0:0:0:
254,192,418165,1,4,0:0:0:0:
254,189,419863,1,8,0:0:0:0:
247,192,421562,1,8,0:0:0:0:
258,191,422694,1,0,0:0:0:0:
256,194,423260,1,8,0:0:0:0:
255,190,424958,1,0,0:0:0:0:
256,191,426656,1,8,0:0:0:0:
254,191,427788,1,0,0:0:0:0:
259,193,428354,1,0,0:0:0:0:
258,192,430052,1,0,0:0:0:0:
258,192,430618,1,0,0:0:0:0:
258,192,431184,1,0,0:0:0:0:
258,192,431750,1,12,0:0:0:0:
256,193,433448,1,8,0:0:0:0:
253,194,435146,1,8,0:0:0:0:
253,196,436372,1,0,0:0:0:0:
253,196,437085,1,12,0:0:0:0:
254,189,439293,1,0,0:0:0:0:
258,189,440941,1,8,0:0:0:0:
258,189,441508,1,8,0:0:0:0:
258,189,442075,1,0,0:0:0:0:
256,190,442643,1,0,0:0:0:0:
256,193,444345,1,8,0:0:0:0:
262,181,446047,1,0,0:0:0:0:
262,181,446614,1,0,0:0:0:0:
262,181,446933,1,8,0:0:0:0:
262,181,447431,1,8,0:0:0:0:
262,181,447933,1,0,0:0:0:0:
254,190,448330,1,8,0:0:0:0:
262,181,448435,1,0,0:0:0:0:
262,181,448541,1,8,0:0:0:0:
256,192,450023,12,0,454520,0:0:0:0:
256,192,454679,5,0,0:0:0:0:
256,192,454759,1,0,0:0:0:0:
256,192,454838,1,0,0:0:0:0:
256,192,454918,1,0,0:0:0:0:
256,192,454997,5,12,0:0:0:0:
256,192,455155,1,0,0:0:0:0:
256,192,455314,1,0,0:0:0:0:
256,192,455473,1,8,0:0:0:0:
256,192,455552,1,8,0:0:0:0:
256,192,455631,1,0,0:0:0:0:
256,192,455790,1,0,0:0:0:0:
256,192,455949,1,0,0:0:0:0:
256,192,456028,1,0,0:0:0:0:
256,192,456108,1,8,0:0:0:0:
256,192,456266,1,0,0:0:0:0:
256,192,456425,1,8,0:0:0:0:
256,192,456504,1,0,0:0:0:0:
256,192,456584,1,8,0:0:0:0:
256,192,456743,1,8,0:0:0:0:
256,192,456901,1,8,0:0:0:0:
256,192,456981,1,8,0:0:0:0:
256,192,457060,1,0,0:0:0:0:
256,192,457219,1,8,0:0:0:0:
256,192,457377,1,0,0:0:0:0:
256,192,457457,1,8,0:0:0:0:
256,192,457536,1,8,0:0:0:0:
256,192,457695,1,0,0:0:0:0:
256,192,457854,1,8,0:0:0:0:
256,192,457933,1,0,0:0:0:0:
256,192,458012,1,8,0:0:0:0:
256,192,458092,1,8,0:0:0:0:
256,192,458171,1,0,0:0:0:0:
256,192,458330,1,8,0:0:0:0:
256,192,458409,1,8,0:0:0:0:
256,192,458489,1,0,0:0:0:0:
256,192,458647,1,0,0:0:0:0:
256,192,458806,1,0,0:0:0:0:
256,192,458885,1,8,0:0:0:0:
256,192,458965,1,0,0:0:0:0:
256,192,459123,1,0,0:0:0:0:
256,192,459282,1,8,0:0:0:0:
256,192,459362,1,8,0:0:0:0:
256,192,459441,1,0,0:0:0:0:
256,192,459600,1,0,0:0:0:0:
256,192,459758,1,8,0:0:0:0:
256,192,459838,1,0,0:0:0:0:
256,192,459917,1,0,0:0:0:0:
256,192,460076,1,8,0:0:0:0:
256,192,460235,1,0,0:0:0:0:
256,192,460314,1,8,0:0:0:0:
256,192,460393,1,8,0:0:0:0:
256,192,460552,1,0,0:0:0:0:
256,192,460711,1,8,0:0:0:0:
256,192,460790,1,0,0:0:0:0:
256,192,460870,1,0,0:0:0:0:
256,192,461028,1,0,0:0:0:0:
256,192,461187,1,0,0:0:0:0:
256,192,461266,1,8,0:0:0:0:
256,192,461346,1,0,0:0:0:0:
256,192,461504,1,0,0:0:0:0:
256,192,461663,1,8,0:0:0:0:
256,192,461743,1,8,0:0:0:0:
256,192,461822,1,0,0:0:0:0:
256,192,461901,1,0,0:0:0:0:
256,192,461981,1,8,0:0:0:0:
256,192,462139,1,0,0:0:0:0:
256,192,462219,1,0,0:0:0:0:
256,192,462298,1,8,0:0:0:0:
256,192,462457,1,0,0:0:0:0:
256,192,462616,1,12,0:0:0:0:
256,192,462774,1,0,0:0:0:0:
256,192,462933,1,0,0:0:0:0:
256,192,463092,1,8,0:0:0:0:
256,192,463171,1,8,0:0:0:0:
256,192,463250,1,0,0:0:0:0:
256,192,463409,1,0,0:0:0:0:
256,192,463568,1,0,0:0:0:0:
256,192,463647,1,0,0:0:0:0:
256,192,463727,1,8,0:0:0:0:
256,192,463885,1,0,0:0:0:0:
256,192,464044,1,0,0:0:0:0:
256,192,464123,1,8,0:0:0:0:
256,192,464203,1,0,0:0:0:0:
256,192,464362,1,8,0:0:0:0:
256,192,464520,1,8,0:0:0:0:
256,192,464600,1,8,0:0:0:0:
256,192,464679,1,0,0:0:0:0:
256,192,464838,1,0,0:0:0:0:
256,192,464996,1,0,0:0:0:0:
256,192,465076,1,8,0:0:0:0:
256,192,465155,1,8,0:0:0:0:
256,192,465314,1,0,0:0:0:0:
256,192,465473,1,8,0:0:0:0:
256,192,465552,1,0,0:0:0:0:
256,192,465631,1,8,0:0:0:0:
256,192,465711,1,8,0:0:0:0:
256,192,465790,1,0,0:0:0:0:
256,192,465949,1,8,0:0:0:0:
256,192,466028,1,0,0:0:0:0:
256,192,466108,1,0,0:0:0:0:
256,192,466266,1,0,0:0:0:0:
256,192,466425,1,0,0:0:0:0:
256,192,466504,1,8,0:0:0:0:
256,192,466584,1,8,0:0:0:0:
256,192,466742,1,0,0:0:0:0:
256,192,466901,1,0,0:0:0:0:
256,192,467060,1,8,0:0:0:0:
256,192,467219,1,0,0:0:0:0:
256,192,467377,1,8,0:0:0:0:
256,192,467457,1,0,0:0:0:0:
256,192,467536,1,8,0:0:0:0:
256,192,467695,1,8,0:0:0:0:
256,192,467854,1,0,0:0:0:0:
256,192,468012,1,8,0:0:0:0:
256,192,468171,1,0,0:0:0:0:
256,192,468330,1,8,0:0:0:0:
256,192,468409,1,8,0:0:0:0:
256,192,468489,1,0,0:0:0:0:
256,192,468541,1,0,0:0:0:0:
256,192,468594,1,0,0:0:0:0:
256,192,468647,1,0,0:0:0:0:
256,192,468806,1,0,0:0:0:0:
256,192,468885,1,8,0:0:0:0:
256,192,468965,1,0,0:0:0:0:
256,192,469018,1,0,0:0:0:0:
256,192,469071,1,0,0:0:0:0:
256,192,469123,1,0,0:0:0:0:
256,192,469282,1,8,0:0:0:0:
256,192,469441,1,0,0:0:0:0:
256,192,469600,1,8,0:0:0:0:
256,192,469679,1,0,0:0:0:0:
256,192,469758,1,0,0:0:0:0:
256,192,469838,1,0,0:0:0:0:
256,192,469917,1,8,0:0:0:0:
256,192,469997,1,8,0:0:0:0:
256,192,470076,1,0,0:0:0:0:
256,192,470129,1,0,0:0:0:0:
256,192,470182,1,0,0:0:0:0:
256,192,470235,1,8,0:0:0:0:
256,192,470314,1,0,0:0:0:0:
256,192,470393,1,8,0:0:0:0:
256,192,470552,1,0,0:0:0:0:
256,192,470711,1,0,0:0:0:0:
256,192,470870,1,8,0:0:0:0:
256,192,471028,1,0,0:0:0:0:
256,192,471187,1,0,0:0:0:0:
256,192,471266,1,0,0:0:0:0:
256,192,471345,1,8,0:0:0:0:
256,192,471425,1,8,0:0:0:0:
256,192,471504,1,0,0:0:0:0:
256,192,471663,1,0,0:0:0:0:
256,192,471743,1,8,0:0:0:0:
256,192,471822,1,8,0:0:0:0:
256,192,471980,1,0,0:0:0:0:
256,192,472139,1,8,0:0:0:0:
256,192,472219,1,0,0:0:0:0:
256,192,472297,1,8,0:0:0:0:
256,192,472377,1,8,0:0:0:0:
256,192,472456,1,0,0:0:0:0:
256,192,472615,1,0,0:0:0:0:
256,192,472774,1,8,0:0:0:0:
256,192,472932,1,0,0:0:0:0:
256,192,473092,1,8,0:0:0:0:
256,192,473171,1,8,0:0:0:0:
256,192,473250,1,0,0:0:0:0:
256,192,473330,1,0,0:0:0:0:
256,192,473409,1,8,0:0:0:0:
256,192,473568,1,0,0:0:0:0:
256,192,473647,1,8,0:0:0:0:
256,192,473727,1,0,0:0:0:0:
256,192,473885,1,0,0:0:0:0:
256,192,474044,1,0,0:0:0:0:
256,192,474123,1,8,0:0:0:0:
256,192,474203,1,8,0:0:0:0:
256,192,474282,1,8,0:0:0:0:
256,192,474361,1,0,0:0:0:0:
256,192,474520,1,0,0:0:0:0:
256,192,474679,1,8,0:0:0:0:
256,192,474837,1,0,0:0:0:0:
256,192,474997,1,8,0:0:0:0:
256,192,475076,1,0,0:0:0:0:
256,192,475155,1,8,0:0:0:0:
256,192,475235,1,8,0:0:0:0:
256,192,475314,1,0,0:0:0:0:
256,192,475473,1,0,0:0:0:0:
256,192,475552,1,0,0:0:0:0:
256,192,475630,1,8,0:0:0:0:
256,192,475790,1,0,0:0:0:0:
256,192,475949,1,0,0:0:0:0:
256,192,476028,1,8,0:0:0:0:
256,192,476108,1,8,0:0:0:0:
256,192,476187,1,0,0:0:0:0:
256,192,476266,1,0,0:0:0:0:
256,192,476425,1,0,0:0:0:0:
256,192,476584,1,8,0:0:0:0:
256,192,476742,1,0,0:0:0:0:
256,192,476901,1,8,0:0:0:0:
256,192,477059,1,0,0:0:0:0:
256,192,477139,1,0,0:0:0:0:
256,192,477218,1,8,0:0:0:0:
256,192,477298,1,8,0:0:0:0:
256,192,477377,1,0,0:0:0:0:
256,192,477536,1,8,0:0:0:0:
256,192,477616,1,8,0:0:0:0:
256,192,477694,1,0,0:0:0:0:
256,192,477774,1,0,0:0:0:0:
256,192,477854,1,8,0:0:0:0:
256,192,477933,1,0,0:0:0:0:
256,192,478012,1,8,0:0:0:0:
256,192,478092,1,8,0:0:0:0:
256,192,478171,1,0,0:0:0:0:
256,192,478330,1,0,0:0:0:0:
256,192,478409,1,0,0:0:0:0:
256,192,478489,1,8,0:0:0:0:
256,192,478647,1,0,0:0:0:0:
256,192,478806,1,8,0:0:0:0:
256,192,478885,1,0,0:0:0:0:
256,192,478964,1,8,0:0:0:0:
256,192,479044,1,8,0:0:0:0:
256,192,479123,1,0,0:0:0:0:
256,192,479282,1,0,0:0:0:0:
256,192,479362,1,8,0:0:0:0:
256,192,479441,1,0,0:0:0:0:
256,192,479599,1,8,0:0:0:0:
256,192,479758,1,8,0:0:0:0:
256,192,479838,1,8,0:0:0:0:
256,192,479917,1,0,0:0:0:0:
256,192,479996,1,8,0:0:0:0:
256,192,480075,1,0,0:0:0:0:
256,192,480234,1,0,0:0:0:0:
256,192,480314,1,0,0:0:0:0:
256,192,480393,1,8,0:0:0:0:
256,192,480551,1,0,0:0:0:0:
256,192,480711,1,0,0:0:0:0:
256,192,480790,1,8,0:0:0:0:
256,192,480870,1,8,0:0:0:0:
256,192,480949,1,8,0:0:0:0:
256,192,481028,1,0,0:0:0:0:
256,192,481187,1,0,0:0:0:0:
256,192,481266,1,8,0:0:0:0:
256,192,481346,1,8,0:0:0:0:
256,192,481504,1,0,0:0:0:0:
256,192,481663,1,8,0:0:0:0:
256,192,481743,1,0,0:0:0:0:
256,192,481821,1,8,0:0:0:0:
256,192,481981,1,8,0:0:0:0:
256,192,482060,1,8,0:0:0:0:
256,192,482139,1,0,0:0:0:0:
256,192,482219,1,0,0:0:0:0:
256,192,482298,1,8,0:0:0:0:
256,192,482377,1,8,0:0:0:0:
256,192,482456,1,8,0:0:0:0:
256,192,482536,1,0,0:0:0:0:
256,192,482616,1,8,0:0:0:0:
256,192,482695,1,8,0:0:0:0:
256,192,482774,1,0,0:0:0:0:
256,192,482854,1,0,0:0:0:0:
256,192,482933,1,8,0:0:0:0:
256,192,483012,1,8,0:0:0:0:
256,192,483092,1,8,0:0:0:0:
256,192,483171,1,0,0:0:0:0:
256,192,483249,1,8,0:0:0:0:
256,192,483330,1,8,0:0:0:0:
256,192,483409,1,0,0:0:0:0:
256,192,483568,1,12,0:0:0:0:
256,192,483727,1,0,0:0:0:0:
256,192,483780,1,0,0:0:0:0:
256,192,483832,1,0,0:0:0:0:
256,192,483885,1,0,0:0:0:0:
256,192,484044,1,12,0:0:0:0:
256,192,484203,1,0,0:0:0:0:
256,192,484256,1,0,0:0:0:0:
256,192,484309,1,0,0:0:0:0:
256,192,484362,1,0,0:0:0:0:
256,192,484520,1,12,0:0:0:0:
256,192,484679,1,0,0:0:0:0:
256,192,484838,1,12,0:0:0:0:
256,192,485155,1,0,0:0:0:0:
256,192,485235,1,0,0:0:0:0:
256,192,485314,1,0,0:0:0:0:
256,192,485393,1,8,0:0:0:0:
256,128,485473,5,0,0:0:0:0:
256,128,485552,1,0,0:0:0:0:
256,128,485631,1,8,0:0:0:0:
256,128,485790,1,0,0:0:0:0:
256,128,485870,1,0,0:0:0:0:
256,128,485949,1,8,0:0:0:0:
256,128,486028,1,8,0:0:0:0:
256,128,486108,1,0,0:0:0:0:
256,128,486266,1,8,0:0:0:0:
256,128,486425,1,0,0:0:0:0:
256,128,486504,1,0,0:0:0:0:
256,128,486584,1,8,0:0:0:0:
256,128,486743,1,0,0:0:0:0:
256,128,486822,1,0,0:0:0:0:
256,128,486901,1,8,0:0:0:0:
256,128,487060,1,0,0:0:0:0:
256,128,487219,1,8,0:0:0:0:
256,128,487377,1,0,0:0:0:0:
256,128,487457,1,0,0:0:0:0:
256,128,487536,1,8,0:0:0:0:
256,128,487616,1,8,0:0:0:0:
256,128,487695,1,0,0:0:0:0:
256,128,487854,1,8,0:0:0:0:
256,128,487933,1,0,0:0:0:0:
256,128,488012,1,0,0:0:0:0:
256,128,488092,1,0,0:0:0:0:
256,128,488171,1,8,0:0:0:0:
256,128,488330,1,8,0:0:0:0:
256,128,488409,1,8,0:0:0:0:
256,128,488489,1,0,0:0:0:0:
256,128,488647,1,8,0:0:0:0:
256,128,488727,1,8,0:0:0:0:
256,128,488806,1,0,0:0:0:0:
256,128,488965,1,8,0:0:0:0:
256,128,489123,1,0,0:0:0:0:
256,128,489282,1,8,0:0:0:0:
256,128,489362,1,0,0:0:0:0:
256,128,489441,1,8,0:0:0:0:
256,128,489600,1,8,0:0:0:0:
256,128,489679,1,8,0:0:0:0:
256,128,489758,1,0,0:0:0:0:
256,128,489838,1,8,0:0:0:0:
256,128,489917,1,0,0:0:0:0:
256,128,490076,1,8,0:0:0:0:
256,128,490235,1,0,0:0:0:0:
256,128,490314,1,8,0:0:0:0:
256,128,490393,1,8,0:0:0:0:
256,128,490552,1,0,0:0:0:0:
256,128,490631,1,8,0:0:0:0:
256,128,490711,1,8,0:0:0:0:
256,128,490870,1,0,0:0:0:0:
256,128,491028,1,8,0:0:0:0:
256,128,491108,1,0,0:0:0:0:
256,128,491187,1,8,0:0:0:0:
256,128,491266,1,8,0:0:0:0:
256,128,491346,1,0,0:0:0:0:
256,128,491425,1,0,0:0:0:0:
256,128,491504,1,8,0:0:0:0:
256,128,491663,1,8,0:0:0:0:
256,128,491743,1,8,0:0:0:0:
256,128,491822,1,0,0:0:0:0:
256,128,491981,1,8,0:0:0:0:
256,128,492139,1,8,0:0:0:0:
256,128,492219,1,8,0:0:0:0:
256,128,492298,1,0,0:0:0:0:
256,128,492377,1,0,0:0:0:0:
256,128,492457,1,8,0:0:0:0:
256,128,492536,1,8,0:0:0:0:
256,128,492616,1,8,0:0:0:0:
256,128,492695,1,0,0:0:0:0:
256,128,492774,1,8,0:0:0:0:
256,128,492854,1,8,0:0:0:0:
256,128,492933,1,0,0:0:0:0:
256,128,493092,1,0,0:0:0:0:
256,128,493171,1,0,0:0:0:0:
256,128,493250,1,8,0:0:0:0:
256,128,493409,1,8,0:0:0:0:
256,128,493489,1,0,0:0:0:0:
256,128,493568,1,8,0:0:0:0:
256,128,493647,1,8,0:0:0:0:
256,128,493727,1,0,0:0:0:0:
256,128,493806,1,0,0:0:0:0:
256,128,493885,1,8,0:0:0:0:
256,128,494044,1,0,0:0:0:0:
256,128,494123,1,0,0:0:0:0:
256,128,494203,1,8,0:0:0:0:
256,128,494362,1,0,0:0:0:0:
256,128,494441,1,0,0:0:0:0:
256,128,494520,1,8,0:0:0:0:
256,128,494679,1,0,0:0:0:0:
256,128,494838,1,8,0:0:0:0:
256,128,494996,1,0,0:0:0:0:
256,128,495076,1,0,0:0:0:0:
256,128,495155,1,8,0:0:0:0:
256,128,495235,1,8,0:0:0:0:
256,128,495314,1,0,0:0:0:0:
256,128,495473,1,8,0:0:0:0:
256,128,495631,1,0,0:0:0:0:
256,128,495711,1,8,0:0:0:0:
256,128,495790,1,0,0:0:0:0:
256,128,495870,1,0,0:0:0:0:
256,128,495949,1,8,0:0:0:0:
256,128,496028,1,8,0:0:0:0:
256,128,496108,1,0,0:0:0:0:
256,128,496266,1,8,0:0:0:0:
256,128,496346,1,8,0:0:0:0:
256,128,496425,1,0,0:0:0:0:
256,128,496584,1,8,0:0:0:0:
256,128,496742,1,0,0:0:0:0:
256,128,496901,1,8,0:0:0:0:
256,128,497060,1,8,0:0:0:0:
256,128,497139,1,8,0:0:0:0:
256,128,497219,1,8,0:0:0:0:
256,128,497377,1,8,0:0:0:0:
256,128,497536,1,0,0:0:0:0:
256,128,497616,1,8,0:0:0:0:
256,128,497695,1,8,0:0:0:0:
256,128,497774,1,0,0:0:0:0:
256,128,497854,1,8,0:0:0:0:
256,128,497933,1,8,0:0:0:0:
256,128,498012,1,0,0:0:0:0:
256,128,498171,1,8,0:0:0:0:
256,128,498330,1,8,0:0:0:0:
256,128,498409,1,8,0:0:0:0:
256,128,498489,1,0,0:0:0:0:
256,128,498647,1,8,0:0:0:0:
256,128,498806,1,4,0:0:0:0:
256,128,498965,1,8,0:0:0:0:
256,128,499044,1,8,0:0:0:0:
256,128,499123,1,0,0:0:0:0:
256,128,499282,1,12,0:0:0:0:
256,128,499441,1,0,0:0:0:0:
256,128,499520,1,0,0:0:0:0:
256,128,499600,1,8,0:0:0:0:
256,128,499758,1,4,0:0:0:0:
256,128,499917,1,8,0:0:0:0:
256,128,499996,1,8,0:0:0:0:
256,128,500076,1,0,0:0:0:0:
256,128,500155,1,0,0:0:0:0:
256,128,500235,1,8,0:0:0:0:
256,128,500314,1,8,0:0:0:0:
256,128,500393,1,8,0:0:0:0:
256,128,500473,1,8,0:0:0:0:
256,128,500552,1,0,0:0:0:0:
256,128,500631,1,8,0:0:0:0:
256,128,500711,1,0,0:0:0:0:
256,128,500790,1,0,0:0:0:0:
256,128,500870,1,8,0:0:0:0:
256,128,501028,1,8,0:0:0:0:
256,128,501108,1,0,0:0:0:0:
256,128,501187,1,8,0:0:0:0:
256,128,501266,1,8,0:0:0:0:
256,128,501346,1,0,0:0:0:0:
256,128,501504,1,8,0:0:0:0:
256,128,501663,1,0,0:0:0:0:
256,128,501743,1,0,0:0:0:0:
256,128,501822,1,8,0:0:0:0:
256,128,501981,1,0,0:0:0:0:
256,128,502060,1,0,0:0:0:0:
256,128,502139,1,8,0:0:0:0:
256,128,502298,1,0,0:0:0:0:
256,128,502377,1,8,0:0:0:0:
256,128,502457,1,0,0:0:0:0:
256,128,502536,1,0,0:0:0:0:
256,128,502616,1,8,0:0:0:0:
256,128,502695,1,8,0:0:0:0:
256,128,502774,1,0,0:0:0:0:
256,128,502933,1,8,0:0:0:0:
256,128,503092,1,0,0:0:0:0:
256,128,503171,1,8,0:0:0:0:
256,128,503250,1,8,0:0:0:0:
256,128,503330,1,8,0:0:0:0:
256,128,503409,1,0,0:0:0:0:
256,128,503568,1,0,0:0:0:0:
256,128,503647,1,8,0:0:0:0:
256,128,503727,1,8,0:0:0:0:
256,128,503885,1,0,0:0:0:0:
256,128,503965,1,8,0:0:0:0:
256,128,504044,1,8,0:0:0:0:
256,128,504203,1,8,0:0:0:0:
256,128,504282,1,8,0:0:0:0:
256,128,504362,1,0,0:0:0:0:
256,128,504441,1,0,0:0:0:0:
256,128,504520,1,8,0:0:0:0:
256,128,504600,1,0,0:0:0:0:
256,128,504679,1,8,0:0:0:0:
256,128,504838,1,0,0:0:0:0:
256,128,504917,1,0,0:0:0:0:
256,128,504996,1,8,0:0:0:0:
256,128,505076,1,8,0:0:0:0:
256,128,505155,1,0,0:0:0:0:
256,128,505235,1,0,0:0:0:0:
256,128,505314,1,8,0:0:0:0:
256,128,505473,1,0,0:0:0:0:
256,128,505552,1,0,0:0:0:0:
256,128,505631,1,8,0:0:0:0:
256,128,505790,1,8,0:0:0:0:
256,128,505870,1,8,0:0:0:0:
256,128,505949,1,0,0:0:0:0:
256,128,506108,1,8,0:0:0:0:
256,128,506266,1,0,0:0:0:0:
256,128,506425,1,12,0:0:0:0:
256,128,506584,1,0,0:0:0:0:
256,128,506663,1,0,0:0:0:0:
256,128,506743,1,8,0:0:0:0:
256,128,506901,1,4,0:0:0:0:
256,128,507060,1,8,0:0:0:0:
256,128,507139,1,8,0:0:0:0:
256,128,507219,1,0,0:0:0:0:
256,128,507377,1,8,0:0:0:0:
256,128,507457,1,8,0:0:0:0:
256,128,507536,1,0,0:0:0:0:
256,128,507616,1,0,0:0:0:0:
256,128,507695,1,8,0:0:0:0:
256,128,507774,1,8,0:0:0:0:
256,128,507854,1,0,0:0:0:0:
256,128,507933,1,0,0:0:0:0:
256,128,508012,1,8,0:0:0:0:
256,128,508092,1,8,0:0:0:0:
256,128,508171,1,0,0:0:0:0:
256,128,508250,1,8,0:0:0:0:
256,128,508330,1,8,0:0:0:0:
256,128,508409,1,0,0:0:0:0:
256,128,508489,1,8,0:0:0:0:
256,128,508647,1,8,0:0:0:0:
256,128,508727,1,8,0:0:0:0:
256,128,508806,1,0,0:0:0:0:
256,128,508885,1,8,0:0:0:0:
256,128,508965,1,0,0:0:0:0:
256,128,509044,1,0,0:0:0:0:
256,128,509123,1,8,0:0:0:0:
256,128,509282,1,0,0:0:0:0:
256,128,509362,1,0,0:0:0:0:
256,128,509441,1,8,0:0:0:0:
256,128,509600,1,0,0:0:0:0:
256,128,509679,1,0,0:0:0:0:
256,128,509758,1,8,0:0:0:0:
256,128,509917,1,8,0:0:0:0:
256,128,509996,1,0,0:0:0:0:
256,128,510076,1,0,0:0:0:0:
256,128,510155,1,0,0:0:0:0:
256,128,510235,1,8,0:0:0:0:
256,128,510314,1,8,0:0:0:0:
256,128,510393,1,0,0:0:0:0:
256,128,510552,1,8,0:0:0:0:
256,128,510631,1,0,0:0:0:0:
256,128,510711,1,8,0:0:0:0:
256,128,510790,1,8,0:0:0:0:
256,128,510870,1,0,0:0:0:0:
256,128,510949,1,0,0:0:0:0:
256,128,511028,1,8,0:0:0:0:
256,128,511187,1,8,0:0:0:0:
256,128,511266,1,8,0:0:0:0:
256,128,511346,1,0,0:0:0:0:
256,128,511504,1,8,0:0:0:0:
256,128,511584,1,8,0:0:0:0:
256,128,511663,1,0,0:0:0:0:
256,128,511822,1,8,0:0:0:0:
256,128,511981,1,0,0:0:0:0:
256,128,512139,1,12,0:0:0:0:
256,128,512298,1,8,0:0:0:0:
256,128,512377,1,8,0:0:0:0:
256,128,512457,1,8,0:0:0:0:
256,128,512616,1,8,0:0:0:0:
256,128,512774,1,0,0:0:0:0:
256,128,512854,1,0,0:0:0:0:
256,128,512933,1,8,0:0:0:0:
256,128,513092,1,4,0:0:0:0:
256,128,513250,1,0,0:0:0:0:
256,128,513330,1,0,0:0:0:0:
256,128,513409,1,8,0:0:0:0:
256,128,513489,1,8,0:0:0:0:
256,128,513568,1,8,0:0:0:0:
256,128,513647,1,0,0:0:0:0:
256,128,513727,1,8,0:0:0:0:
256,128,513885,1,0,0:0:0:0:
256,128,514044,1,4,0:0:0:0:
256,128,514203,1,8,0:0:0:0:
256,128,514282,1,8,0:0:0:0:
256,128,514362,1,0,0:0:0:0:
256,128,514520,1,12,0:0:0:0:
256,128,514679,1,0,0:0:0:0:
256,128,514758,1,0,0:0:0:0:
256,128,514838,1,8,0:0:0:0:
256,128,514996,1,4,0:0:0:0:
256,128,515314,1,4,0:0:0:0:
256,128,515631,1,4,0:0:0:0:
256,192,515949,5,8,0:0:0:0:
256,192,516028,1,0,0:0:0:0:
256,192,516108,1,8,0:0:0:0:
256,192,516266,1,0,0:0:0:0:
256,192,516425,1,8,0:0:0:0:
256,192,516584,1,0,0:0:0:0:
256,192,516743,1,8,0:0:0:0:
256,192,516901,1,8,0:0:0:0:
256,192,516981,1,8,0:0:0:0:
256,192,517060,1,0,0:0:0:0:
256,192,517219,1,8,0:0:0:0:
256,192,517298,1,0,0:0:0:0:
256,192,517377,1,0,0:0:0:0:
256,192,517536,1,8,0:0:0:0:
256,192,517616,1,0,0:0:0:0:
256,192,517695,1,8,0:0:0:0:
256,192,517774,1,8,0:0:0:0:
256,192,517854,1,0,0:0:0:0:
256,192,517933,1,0,0:0:0:0:
256,192,518012,1,8,0:0:0:0:
256,192,518171,1,0,0:0:0:0:
256,192,518330,1,0,0:0:0:0:
256,192,518489,1,8,0:0:0:0:
256,192,518647,1,0,0:0:0:0:
256,192,518806,1,8,0:0:0:0:
256,192,518885,1,0,0:0:0:0:
256,192,518965,1,8,0:0:0:0:
256,192,519123,1,8,0:0:0:0:
256,192,519203,1,8,0:0:0:0:
256,192,519282,1,0,0:0:0:0:
256,192,519441,1,8,0:0:0:0:
256,192,519520,1,0,0:0:0:0:
256,192,519600,1,0,0:0:0:0:
256,192,519758,1,8,0:0:0:0:
256,192,519838,1,0,0:0:0:0:
256,192,519917,1,8,0:0:0:0:
256,192,519996,1,8,0:0:0:0:
256,192,520076,1,0,0:0:0:0:
256,192,520155,1,0,0:0:0:0:
256,192,520235,1,8,0:0:0:0:
256,192,520314,1,0,0:0:0:0:
256,192,520393,1,8,0:0:0:0:
256,192,520473,1,0,0:0:0:0:
256,192,520552,1,0,0:0:0:0:
256,192,520631,1,0,0:0:0:0:
256,192,520711,1,8,0:0:0:0:
256,192,520790,1,8,0:0:0:0:
256,192,520870,1,0,0:0:0:0:
256,192,520949,1,8,0:0:0:0:
256,192,521028,1,0,0:0:0:0:
256,192,521108,1,0,0:0:0:0:
256,192,521187,1,8,0:0:0:0:
256,192,521266,1,8,0:0:0:0:
256,192,521346,1,0,0:0:0:0:
256,192,521425,1,8,0:0:0:0:
256,192,521504,1,0,0:0:0:0:
256,192,521584,1,0,0:0:0:0:
256,192,521663,1,8,0:0:0:0:
256,192,521743,1,0,0:0:0:0:
256,192,521822,1,8,0:0:0:0:
256,192,521981,1,0,0:0:0:0:
256,192,522139,1,8,0:0:0:0:
256,192,522298,1,0,0:0:0:0:
256,192,522457,1,0,0:0:0:0:
256,192,522616,1,8,0:0:0:0:
256,192,522695,1,8,0:0:0:0:
256,192,522774,1,0,0:0:0:0:
256,192,522854,1,0,0:0:0:0:
256,192,522933,1,8,0:0:0:0:
256,192,523092,1,0,0:0:0:0:
256,192,523250,1,0,0:0:0:0:
256,192,523330,1,0,0:0:0:0:
256,192,523409,1,8,0:0:0:0:
256,192,523568,1,8,0:0:0:0:
256,192,523647,1,0,0:0:0:0:
256,192,523727,1,8,0:0:0:0:
256,192,523885,1,0,0:0:0:0:
256,192,524044,1,8,0:0:0:0:
256,192,524203,1,8,0:0:0:0:
256,192,524362,1,0,0:0:0:0:
256,192,524520,1,8,0:0:0:0:
256,192,524600,1,8,0:0:0:0:
256,192,524679,1,0,0:0:0:0:
256,192,524838,1,8,0:0:0:0:
256,192,524917,1,0,0:0:0:0:
256,192,524996,1,0,0:0:0:0:
256,192,525155,1,8,0:0:0:0:
256,192,525235,1,8,0:0:0:0:
256,192,525314,1,0,0:0:0:0:
256,192,525393,1,0,0:0:0:0:
256,192,525473,1,8,0:0:0:0:
256,192,525552,1,0,0:0:0:0:
256,192,525631,1,8,0:0:0:0:
256,192,525790,1,0,0:0:0:0:
256,192,525949,1,8,0:0:0:0:
256,192,526108,1,0,0:0:0:0:
256,192,526266,1,8,0:0:0:0:
256,192,526425,1,8,0:0:0:0:
256,192,526504,1,8,0:0:0:0:
256,192,526584,1,8,0:0:0:0:
256,192,526743,1,0,0:0:0:0:
256,192,526822,1,0,0:0:0:0:
256,192,526901,1,8,0:0:0:0:
256,192,527060,1,8,0:0:0:0:
256,192,527139,1,0,0:0:0:0:
256,192,527219,1,8,0:0:0:0:
256,192,527377,1,0,0:0:0:0:
256,192,527457,1,0,0:0:0:0:
256,192,527536,1,8,0:0:0:0:
256,192,527616,1,0,0:0:0:0:
256,192,527695,1,8,0:0:0:0:
256,192,527774,1,8,0:0:0:0:
256,192,527854,1,0,0:0:0:0:
256,192,527933,1,8,0:0:0:0:
256,192,528012,1,0,0:0:0:0:
256,192,528092,1,0,0:0:0:0:
256,192,528171,1,8,0:0:0:0:
256,192,528250,1,0,0:0:0:0:
256,192,528330,1,8,0:0:0:0:
256,192,528409,1,8,0:0:0:0:
256,192,528489,1,0,0:0:0:0:
256,192,528568,1,8,0:0:0:0:
256,192,528647,1,0,0:0:0:0:
256,192,528727,1,0,0:0:0:0:
256,192,528806,1,8,0:0:0:0:
256,192,528885,1,0,0:0:0:0:
256,192,528965,1,8,0:0:0:0:
256,192,529044,1,8,0:0:0:0:
256,192,529123,1,0,0:0:0:0:
256,192,529203,1,0,0:0:0:0:
256,192,529282,1,8,0:0:0:0:
256,192,529441,1,0,0:0:0:0:
256,192,529520,1,0,0:0:0:0:
256,192,529600,1,8,0:0:0:0:
256,192,529758,1,0,0:0:0:0:
256,192,529838,1,0,0:0:0:0:
256,192,529917,1,8,0:0:0:0:
256,192,529996,1,0,0:0:0:0:
256,192,530076,1,8,0:0:0:0:
256,192,530155,1,8,0:0:0:0:
256,192,530235,1,0,0:0:0:0:
256,192,530393,1,8,0:0:0:0:
256,192,530473,1,0,0:0:0:0:
256,192,530552,1,8,0:0:0:0:
256,192,530711,1,0,0:0:0:0:
256,192,530870,1,8,0:0:0:0:
256,192,530949,1,8,0:0:0:0:
256,192,531028,1,0,0:0:0:0:
256,192,531108,1,0,0:0:0:0:
256,192,531187,1,8,0:0:0:0:
256,192,531266,1,0,0:0:0:0:
256,192,531346,1,8,0:0:0:0:
256,192,531504,1,0,0:0:0:0:
256,192,531584,1,0,0:0:0:0:
256,192,531663,1,8,0:0:0:0:
256,192,531743,1,0,0:0:0:0:
256,192,531822,1,8,0:0:0:0:
256,192,531901,1,0,0:0:0:0:
256,192,531981,1,8,0:0:0:0:
256,192,532139,1,8,0:0:0:0:
256,192,532219,1,8,0:0:0:0:
256,192,532298,1,0,0:0:0:0:
256,192,532457,1,8,0:0:0:0:
256,192,532536,1,0,0:0:0:0:
256,192,532616,1,0,0:0:0:0:
256,192,532774,1,8,0:0:0:0:
256,192,532854,1,0,0:0:0:0:
256,192,532933,1,0,0:0:0:0:
256,192,533012,1,0,0:0:0:0:
256,192,533092,1,8,0:0:0:0:
256,192,533171,1,0,0:0:0:0:
256,192,533250,1,8,0:0:0:0:
256,192,533409,1,0,0:0:0:0:
256,192,533489,1,0,0:0:0:0:
256,192,533568,1,8,0:0:0:0:
256,192,533647,1,8,0:0:0:0:
256,192,533727,1,0,0:0:0:0:
256,192,533806,1,8,0:0:0:0:
256,192,533885,1,0,0:0:0:0:
256,192,533965,1,0,0:0:0:0:
256,192,534044,1,8,0:0:0:0:
256,192,534123,1,0,0:0:0:0:
256,192,534203,1,8,0:0:0:0:
256,192,534362,1,8,0:0:0:0:
256,192,534441,1,0,0:0:0:0:
256,192,534520,1,8,0:0:0:0:
256,192,534600,1,8,0:0:0:0:
256,192,534679,1,0,0:0:0:0:
256,192,534838,1,0,0:0:0:0:
256,192,534996,1,8,0:0:0:0:
256,192,535076,1,0,0:0:0:0:
256,192,535155,1,8,0:0:0:0:
256,192,535235,1,8,0:0:0:0:
256,192,535314,1,0,0:0:0:0:
256,192,535393,1,0,0:0:0:0:
256,192,535473,1,8,0:0:0:0:
256,192,535552,1,0,0:0:0:0:
256,192,535631,1,8,0:0:0:0:
256,192,535711,1,8,0:0:0:0:
256,192,535790,1,0,0:0:0:0:
256,192,535870,1,0,0:0:0:0:
256,192,535949,1,8,0:0:0:0:
256,192,536028,1,8,0:0:0:0:
256,192,536108,1,0,0:0:0:0:
256,192,536187,1,8,0:0:0:0:
256,192,536266,1,0,0:0:0:0:
256,192,536346,1,0,0:0:0:0:
256,192,536425,1,8,0:0:0:0:
256,192,536504,1,0,0:0:0:0:
256,192,536584,1,8,0:0:0:0:
256,192,536663,1,8,0:0:0:0:
256,192,536743,1,0,0:0:0:0:
256,192,536822,1,8,0:0:0:0:
256,192,536901,1,8,0:0:0:0:
256,192,536981,1,8,0:0:0:0:
256,192,537060,1,0,0:0:0:0:
256,192,537139,1,8,0:0:0:0:
256,192,537219,1,0,0:0:0:0:
256,192,537298,1,0,0:0:0:0:
256,192,537377,1,8,0:0:0:0:
256,192,537457,1,8,0:0:0:0:
256,192,537536,1,0,0:0:0:0:
256,192,537616,1,8,0:0:0:0:
256,192,537695,1,0,0:0:0:0:
256,192,537774,1,0,0:0:0:0:
256,192,537854,1,8,0:0:0:0:
256,192,538012,1,0,0:0:0:0:
256,192,538171,1,8,0:0:0:0:
256,192,538250,1,8,0:0:0:0:
256,192,538330,1,0,0:0:0:0:
256,192,538409,1,0,0:0:0:0:
256,192,538489,1,8,0:0:0:0:
256,192,538568,1,8,0:0:0:0:
256,192,538647,1,0,0:0:0:0:
256,192,538806,1,8,0:0:0:0:
256,192,538885,1,0,0:0:0:0:
256,192,538965,1,8,0:0:0:0:
256,192,539123,1,0,0:0:0:0:
256,192,539203,1,0,0:0:0:0:
256,192,539282,1,8,0:0:0:0:
256,192,539362,1,0,0:0:0:0:
256,192,539441,1,8,0:0:0:0:
256,192,539520,1,8,0:0:0:0:
256,192,539600,1,0,0:0:0:0:
256,192,539679,1,0,0:0:0:0:
256,192,539758,1,8,0:0:0:0:
256,192,539917,1,0,0:0:0:0:
256,192,540076,1,8,0:0:0:0:
256,192,540235,1,0,0:0:0:0:
256,192,540393,1,8,0:0:0:0:
256,192,540473,1,8,0:0:0:0:
256,192,540552,1,0,0:0:0:0:
256,192,540711,1,8,0:0:0:0:
256,192,540790,1,0,0:0:0:0:
256,192,540870,1,8,0:0:0:0:
256,192,541028,1,0,0:0:0:0:
256,192,541108,1,8,0:0:0:0:
256,192,541187,1,8,0:0:0:0:
256,192,541266,1,0,0:0:0:0:
256,192,541346,1,8,0:0:0:0:
256,192,541425,1,0,0:0:0:0:
256,192,541504,1,8,0:0:0:0:
256,192,541584,1,8,0:0:0:0:
256,192,541663,1,0,0:0:0:0:
256,192,541743,1,0,0:0:0:0:
256,192,541822,1,8,0:0:0:0:
256,192,541981,1,8,0:0:0:0:
256,192,542060,1,0,0:0:0:0:
256,192,542139,1,8,0:0:0:0:
256,192,542219,1,8,0:0:0:0:
256,192,542298,1,0,0:0:0:0:
256,192,542377,1,8,0:0:0:0:
256,192,542457,1,0,0:0:0:0:
256,192,542536,1,0,0:0:0:0:
256,192,542616,1,8,0:0:0:0:
256,192,542774,1,0,0:0:0:0:
256,192,542933,1,8,0:0:0:0:
256,192,543092,1,8,0:0:0:0:
256,192,543250,1,0,0:0:0:0:
256,192,543409,1,8,0:0:0:0:
256,192,543489,1,8,0:0:0:0:
256,192,543568,1,0,0:0:0:0:
256,192,543647,1,0,0:0:0:0:
256,192,543727,1,8,0:0:0:0:
256,192,543806,1,0,0:0:0:0:
256,192,543885,1,8,0:0:0:0:
256,192,543965,1,8,0:0:0:0:
256,192,544044,1,0,0:0:0:0:
256,192,544123,1,8,0:0:0:0:
256,192,544203,1,0,0:0:0:0:
256,192,544362,1,0,0:0:0:0:
256,192,544520,1,8,0:0:0:0:
256,192,544600,1,8,0:0:0:0:
256,192,544679,1,0,0:0:0:0:
256,192,544758,1,8,0:0:0:0:
256,192,544838,1,0,0:0:0:0:
256,192,544917,1,0,0:0:0:0:
256,192,544996,1,8,0:0:0:0:
256,192,545076,1,0,0:0:0:0:
256,192,545155,1,8,0:0:0:0:
256,192,545235,1,8,0:0:0:0:
256,192,545314,1,0,0:0:0:0:
256,192,545393,1,0,0:0:0:0:
256,192,545473,1,8,0:0:0:0:
256,192,545631,1,0,0:0:0:0:
256,192,545684,1,0,0:0:0:0:
256,192,545737,1,0,0:0:0:0:
256,192,545790,1,8,0:0:0:0:
256,192,545949,1,0,0:0:0:0:
256,192,546002,1,0,0:0:0:0:
256,192,546055,1,0,0:0:0:0:
256,192,546108,1,8,0:0:0:0:
256,192,546266,1,8,0:0:0:0:
256,192,546425,1,4,0:0:0:0:
256,192,546743,1,8,0:0:0:0:
256,192,546901,1,0,0:0:0:0:
256,192,547060,1,8,0:0:0:0:
256,192,547219,1,0,0:0:0:0:
256,192,547377,1,4,0:0:0:0:
256,192,547695,1,8,0:0:0:0:
256,192,547854,1,0,0:0:0:0:
256,192,548012,1,8,0:0:0:0:
256,192,548330,1,0,0:0:0:0:
256,192,548647,1,0,0:0:0:0:
256,192,548806,1,0,0:0:0:0:
256,192,548965,1,8,0:0:0:0:
256,192,549123,1,0,0:0:0:0:
256,192,549282,1,8,0:0:0:0:
256,192,549600,1,8,0:0:0:0:
256,192,549758,1,8,0:0:0:0:
256,192,549917,5,0,0:0:0:0:
256,192,549996,1,0,0:0:0:0:
256,192,550076,1,0,0:0:0:0:
264,136,550235,5,12,0:0:0:0:
286,128,550393,1,0,0:0:0:0:
279,124,550473,1,0,0:0:0:0:
276,125,550552,1,0,0:0:0:0:
279,124,550711,1,8,0:0:0:0:
276,125,550790,1,0,0:0:0:0:
279,124,550870,1,0,0:0:0:0:
290,121,550949,1,0,0:0:0:0:
290,121,551028,1,8,0:0:0:0:
290,121,551108,1,0,0:0:0:0:
290,121,551187,1,8,0:0:0:0:
468,227,551346,1,0,0:0:0:0:
290,121,551504,1,0,0:0:0:0:
286,107,551584,1,0,0:0:0:0:
286,107,551663,1,8,0:0:0:0:
286,107,551743,1,8,0:0:0:0:
286,107,551822,1,0,0:0:0:0:
286,107,551901,1,0,0:0:0:0:
286,107,551981,1,8,0:0:0:0:
286,107,552060,1,0,0:0:0:0:
286,107,552139,1,8,0:0:0:0:
295,106,552219,1,0,0:0:0:0:
295,106,552298,1,0,0:0:0:0:
295,106,552377,1,0,0:0:0:0:
295,106,552457,1,0,0:0:0:0:
295,106,552616,1,0,0:0:0:0:
307,150,552774,1,8,0:0:0:0:
295,106,552854,1,0,0:0:0:0:
295,106,552933,1,0,0:0:0:0:
295,106,553012,1,0,0:0:0:0:
312,98,553092,1,8,0:0:0:0:
313,83,553250,1,0,0:0:0:0:
308,91,553303,1,0,0:0:0:0:
310,92,553356,1,0,0:0:0:0:
310,92,553409,1,8,0:0:0:0:
310,92,553568,1,0,0:0:0:0:
315,131,553621,1,0,0:0:0:0:
314,128,553674,1,8,0:0:0:0:
312,127,553727,1,8,0:0:0:0:
307,109,553806,1,0,0:0:0:0:
307,109,553885,1,0,0:0:0:0:
307,109,553965,1,8,0:0:0:0:
307,109,554044,1,8,0:0:0:0:
306,118,554203,1,0,0:0:0:0:
306,118,554362,1,8,0:0:0:0:
306,118,554441,1,0,0:0:0:0:
306,118,554520,1,0,0:0:0:0:
306,118,554600,1,0,0:0:0:0:
306,118,554679,1,0,0:0:0:0:
306,118,554838,1,0,0:0:0:0:
306,118,554996,1,0,0:0:0:0:
306,118,555076,1,0,0:0:0:0:
306,118,555155,1,8,0:0:0:0:
309,109,555208,1,8,0:0:0:0:
309,109,555261,1,8,0:0:0:0:
309,109,555314,1,0,0:0:0:0:
315,114,555393,1,0,0:0:0:0:
315,115,555473,1,8,0:0:0:0:
315,116,555552,1,0,0:0:0:0:
315,114,555631,1,8,0:0:0:0:
321,132,555671,1,8,0:0:0:0:
315,116,555790,1,8,0:0:0:0:
315,114,555830,1,8,0:0:0:0:
330,129,555949,1,0,0:0:0:0:
325,124,556028,1,0,0:0:0:0:
330,129,556108,1,0,0:0:0:0:
330,129,556187,1,0,0:0:0:0:
330,129,556266,1,8,0:0:0:0:
333,121,556319,1,8,0:0:0:0:
333,121,556372,1,0,0:0:0:0:
333,121,556425,1,0,0:0:0:0:
316,128,556504,1,0,0:0:0:0:
327,125,556584,1,0,0:0:0:0:
327,125,556743,1,0,0:0:0:0:
327,125,556822,1,0,0:0:0:0:
327,125,556901,1,8,0:0:0:0:
331,134,556981,1,0,0:0:0:0:
326,134,557060,1,0,0:0:0:0:
326,134,557139,1,0,0:0:0:0:
331,134,557219,1,8,0:0:0:0:
330,127,557272,1,0,0:0:0:0:
329,126,557325,1,0,0:0:0:0:
327,126,557377,1,8,0:0:0:0:
328,124,557457,1,0,0:0:0:0:
329,126,557536,1,8,0:0:0:0:
329,118,557616,1,8,0:0:0:0:
333,107,557695,1,8,0:0:0:0:
331,119,557774,1,8,0:0:0:0:
336,118,557854,1,4,0:0:0:0:
339,115,558012,1,0,0:0:0:0:
339,115,558171,1,8,0:0:0:0:
339,115,558330,1,0,0:0:0:0:
339,115,558409,1,0,0:0:0:0:
339,115,558489,1,8,0:0:0:0:
339,115,558568,1,8,0:0:0:0:
339,115,558647,1,0,0:0:0:0:
339,115,558727,1,0,0:0:0:0:
333,120,558806,1,8,0:0:0:0:
332,120,558965,1,0,0:0:0:0:
333,120,559044,1,0,0:0:0:0:
332,120,559123,1,0,0:0:0:0:
333,120,559282,1,8,0:0:0:0:
333,120,559441,1,0,0:0:0:0:
333,120,559520,1,0,0:0:0:0:
333,111,559600,1,8,0:0:0:0:
330,110,559653,1,8,0:0:0:0:
331,111,559705,1,0,0:0:0:0:
330,110,559758,1,8,0:0:0:0:
323,109,559917,1,0,0:0:0:0:
316,115,559996,1,0,0:0:0:0:
316,115,560076,1,0,0:0:0:0:
316,115,560235,1,8,0:0:0:0:
295,109,560393,1,0,0:0:0:0:
316,115,560473,1,0,0:0:0:0:
309,108,560552,1,8,0:0:0:0:
316,111,560631,1,0,0:0:0:0:
299,106,560711,1,8,0:0:0:0:
299,106,560764,1,8,0:0:0:0:
299,106,560817,1,8,0:0:0:0:
316,111,560870,1,0,0:0:0:0:
316,115,560949,1,0,0:0:0:0:
316,111,561028,1,8,0:0:0:0:
316,115,561187,1,0,0:0:0:0:
309,108,561346,1,8,0:0:0:0:
309,108,561425,1,0,0:0:0:0:
309,108,561504,1,0,0:0:0:0:
309,108,561584,1,0,0:0:0:0:
309,108,561663,1,8,0:0:0:0:
309,108,561822,1,0,0:0:0:0:
309,108,561981,1,0,0:0:0:0:
309,108,562060,1,0,0:0:0:0:
309,108,562139,1,8,0:0:0:0:
309,108,562219,1,0,0:0:0:0:
309,108,562298,1,8,0:0:0:0:
309,108,562377,1,8,0:0:0:0:
309,108,562457,1,0,0:0:0:0:
309,108,562510,1,0,0:0:0:0:
309,108,562563,1,8,0:0:0:0:
309,108,562616,1,8,0:0:0:0:
309,108,562774,1,0,0:0:0:0:
309,108,562933,1,8,0:0:0:0:
309,108,563012,1,0,0:0:0:0:
309,108,563092,1,0,0:0:0:0:
309,108,563171,1,0,0:0:0:0:
309,108,563250,1,8,0:0:0:0:
322,97,563303,1,8,0:0:0:0:
321,97,563356,1,8,0:0:0:0:
333,88,563409,1,0,0:0:0:0:
309,108,563489,1,0,0:0:0:0:
312,104,563568,1,8,0:0:0:0:
315,103,563647,1,8,0:0:0:0:
315,103,563727,1,0,0:0:0:0:
312,104,563806,1,0,0:0:0:0:
315,103,563885,1,8,0:0:0:0:
312,104,564044,1,0,0:0:0:0:
315,103,564123,1,0,0:0:0:0:
312,104,564203,1,0,0:0:0:0:
312,104,564282,1,0,0:0:0:0:
315,103,564362,1,8,0:0:0:0:
312,104,564441,1,0,0:0:0:0:
312,104,564520,1,8,0:0:0:0:
312,104,564679,1,0,0:0:0:0:
312,104,564758,1,0,0:0:0:0:
315,89,564838,1,8,0:0:0:0:
320,96,564891,1,8,0:0:0:0:
324,88,564944,1,0,0:0:0:0:
324,87,564996,1,0,0:0:0:0:
315,89,565076,1,8,0:0:0:0:
318,93,565155,1,0,0:0:0:0:
302,85,565235,1,0,0:0:0:0:
315,89,565314,1,0,0:0:0:0:
312,86,565393,1,0,0:0:0:0:
312,86,565473,1,12,0:0:0:0:
256,192,565552,12,0,569123,0:0:0:0:
256,192,569282,5,0,0:0:0:0:
256,192,569441,1,8,0:0:0:0:
256,192,569600,1,0,0:0:0:0:
256,192,569758,1,8,0:0:0:0:
256,192,569838,1,8,0:0:0:0:
256,192,569917,1,0,0:0:0:0:
256,192,570076,1,0,0:0:0:0:
256,192,570235,1,8,0:0:0:0:
256,192,570393,1,0,0:0:0:0:
256,192,570552,1,8,0:0:0:0:
256,192,570711,1,0,0:0:0:0:
256,192,570790,1,8,0:0:0:0:
256,192,570870,1,0,0:0:0:0:
256,192,571028,1,0,0:0:0:0:
256,192,571187,1,8,0:0:0:0:
256,192,571346,1,0,0:0:0:0:
256,192,571503,1,0,0:0:0:0:
256,192,571663,1,0,0:0:0:0:
256,192,571743,1,0,0:0:0:0:
256,192,571822,1,0,0:0:0:0:
256,192,571981,1,0,0:0:0:0:
256,192,572139,1,8,0:0:0:0:
256,192,572219,1,0,0:0:0:0:
256,192,572298,1,0,0:0:0:0:
256,192,572457,1,8,0:0:0:0:
256,192,572616,1,0,0:0:0:0:
256,192,572695,1,8,0:0:0:0:
256,192,572774,1,0,0:0:0:0:
256,192,573092,1,0,0:0:0:0:
256,192,573249,1,8,0:0:0:0:
256,192,573408,1,0,0:0:0:0:
256,192,573568,1,0,0:0:0:0:
256,192,573646,1,0,0:0:0:0:
256,192,573727,1,8,0:0:0:0:
256,192,573884,1,0,0:0:0:0:
256,192,574043,1,8,0:0:0:0:
256,192,574203,1,0,0:0:0:0:
256,192,574362,1,8,0:0:0:0:
256,192,574519,1,0,0:0:0:0:
256,192,574600,1,8,0:0:0:0:
256,192,574678,1,0,0:0:0:0:
256,192,574838,1,0,0:0:0:0:
256,192,574996,1,8,0:0:0:0:
256,192,575155,1,8,0:0:0:0:
256,192,575314,1,0,0:0:0:0:
256,192,575472,1,8,0:0:0:0:
256,192,575552,1,0,0:0:0:0:
256,192,575631,1,8,0:0:0:0:
256,192,575790,1,0,0:0:0:0:
256,192,575949,1,8,0:0:0:0:
256,192,576028,1,0,0:0:0:0:
256,192,576107,1,0,0:0:0:0:
256,192,576266,1,8,0:0:0:0:
256,192,576425,1,0,0:0:0:0:
256,192,576504,1,8,0:0:0:0:
256,192,576584,1,0,0:0:0:0:
256,192,576901,1,0,0:0:0:0:
256,192,577060,1,8,0:0:0:0:
256,192,577219,1,0,0:0:0:0:
256,192,577377,1,8,0:0:0:0:
256,192,577457,1,8,0:0:0:0:
256,192,577536,1,0,0:0:0:0:
256,192,577695,1,0,0:0:0:0:
256,192,577854,1,8,0:0:0:0:
256,192,578012,1,0,0:0:0:0:
256,192,578171,1,8,0:0:0:0:
256,192,578330,1,0,0:0:0:0:
256,192,578409,1,8,0:0:0:0:
256,192,578489,1,0,0:0:0:0:
256,192,578647,1,0,0:0:0:0:
256,192,578806,1,0,0:0:0:0:
256,192,578965,1,8,0:0:0:0:
256,192,579122,1,0,0:0:0:0:
256,192,579282,1,8,0:0:0:0:
256,192,579362,1,0,0:0:0:0:
256,192,579441,1,0,0:0:0:0:
256,192,579600,1,0,0:0:0:0:
256,192,579757,1,8,0:0:0:0:
256,192,579838,1,8,0:0:0:0:
256,192,579917,1,0,0:0:0:0:
256,192,580076,12,0,580552,0:0:0:0:
256,192,580711,5,4,0:0:0:0:
