osu file format v14

[General]
AudioFilename: audio.mp3
AudioLeadIn: 0
PreviewTime: 109485
Countdown: 0
SampleSet: Soft
StackLeniency: 0.7
Mode: 0
LetterboxInBreaks: 0
WidescreenStoryboard: 1

[Editor]
Bookmarks: 235101
DistanceSpacing: 2
BeatDivisor: 3
GridSize: 4
TimelineZoom: 2.499998

[Metadata]
Title:Destroy -agitato-
TitleUnicode:Destroy -agitato-
Artist:Yooh
ArtistUnicode:Yooh
Creator:Realazy
Version:taku's Insane
Source:SOUND VOLTEX III GRAVITY WARS
Tags:Trynna Ayyri eiri- taku KKipalt Reol [_HalLoWeeN_] z1085684963 kiryu Symphonic Hardcore SDVX 3 Yoohsic Roomz Destopia YACT-006
BeatmapID:1989305
BeatmapSetID:839273

[Difficulty]
HPDrainRate:5.5
CircleSize:3.8
OverallDifficulty:7.5
ApproachRate:9
SliderMultiplier:1.6
SliderTickRate:1

[Events]
//Background and Video events
0,0,"destroy.jpg",0,0
//Break Periods
2,54178,59731
2,168838,177885
//Storyboard Layer 0 (Background)
//Storyboard Layer 1 (Fail)
//Storyboard Layer 2 (Pass)
//Storyboard Layer 3 (Foreground)
//Storyboard Layer 4 (Overlay)
//Storyboard Sound Samples

[TimingPoints]
1255,307.692307692308,4,2,1,50,1,0
20947,-111.111111111111,4,2,1,70,0,0
22793,-71.4285714285714,4,2,1,70,0,0
24024,-111.111111111111,4,2,1,70,0,0
24639,-71.4285714285714,4,2,1,70,0,0
24947,-83.3333333333333,4,2,1,70,0,0
25255,-76.9230769230769,4,2,1,70,0,0
25870,-111.111111111111,4,2,1,70,0,0
28331,-66.6666666666667,4,2,1,70,0,0
28485,-83.3333333333333,4,2,1,70,0,0
28947,-66.6666666666667,4,2,1,70,0,0
29101,-83.3333333333333,4,2,1,70,0,0
30178,-83.3333333333333,4,2,1,70,0,0
30485,-111.111111111111,4,2,1,70,0,0
30793,-83.3333333333333,4,2,1,30,0,0
31255,-125,4,2,1,30,0,0
33101,-83.3333333333333,4,2,1,30,0,0
33408,-125,4,2,1,30,0,0
35408,-83.3333333333333,4,2,1,30,0,0
35716,-83.3333333333333,4,2,1,35,0,0
35870,-125,4,2,1,35,0,0
36947,-200,4,2,1,35,0,0
37255,-83.3333333333333,4,2,1,35,0,0
37870,-125,4,2,1,35,0,0
38178,-166.666666666666,4,2,1,35,0,0
38639,-125,4,2,1,35,0,0
39408,-125,4,2,1,55,0,0
40024,-83.3333333333333,4,2,1,55,0,0
40639,-83.3333333333333,4,2,1,40,0,0
40947,-83.3333333333333,4,2,2,40,0,0
41101,-111.111111111111,4,2,2,40,0,0
42947,-83.3333333333333,4,2,2,40,0,0
43255,-111.111111111111,4,2,2,40,0,0
45562,-111.111111111111,4,2,2,45,0,0
47716,-76.9230769230769,4,2,2,45,0,0
48178,-125,4,2,2,20,0,0
48639,-125,4,2,2,30,0,0
48947,-125,4,2,2,40,0,0
49562,-125,4,2,2,30,0,0
49870,-125,4,2,2,20,0,0
50178,-66.6666666666667,4,2,2,40,0,0
50793,-66.6666666666667,4,2,2,35,0,0
51101,-66.6666666666667,4,2,2,30,0,0
51408,-66.6666666666667,4,2,2,25,0,0
51716,-66.6666666666667,4,2,2,20,0,0
52024,-66.6666666666667,4,2,2,15,0,0
52331,-66.6666666666667,4,2,2,10,0,0
52639,-66.6666666666667,4,2,2,5,0,0
60331,-66.6666666666667,4,2,3,40,0,0
60639,-133.333333333333,4,2,3,40,0,0
65255,-133.333333333333,4,2,3,35,0,0
65870,-133.333333333333,4,2,3,32,0,0
66485,-133.333333333333,4,2,3,29,0,0
67101,-133.333333333333,4,2,3,26,0,0
67716,-133.333333333333,4,2,3,23,0,0
68331,-133.333333333333,4,2,3,20,0,0
70178,-111.111111111111,4,2,1,40,0,0
72639,-111.111111111111,4,2,1,45,0,0
75101,-111.111111111111,4,2,1,50,0,0
77562,-111.111111111111,4,2,1,55,0,0
78485,-111.111111111111,4,2,3,45,0,0
78793,-111.111111111111,4,2,2,60,0,0
79408,-111.111111111111,4,2,2,70,0,0
80024,-100,4,2,2,50,0,0
81255,-100,4,2,2,55,0,0
82485,-100,4,2,2,60,0,0
83716,-100,4,2,2,65,0,0
84947,-100,4,2,1,50,0,0
86178,-100,4,2,1,55,0,0
87408,-100,4,2,1,60,0,0
87716,-100,4,2,1,65,0,0
88024,-133.333333333333,4,2,1,70,0,0
88331,-133.333333333333,4,2,1,75,0,0
88639,-83.3333333333333,4,2,1,40,0,0
88947,-83.3333333333333,4,2,1,45,0,0
89047,-83.3333333333333,4,2,1,50,0,0
89152,-83.3333333333333,4,2,1,55,0,0
89255,-71.4285714285715,4,2,1,60,0,0
89562,-71.4285714285715,4,2,1,70,0,0
89870,-200,4,2,1,50,0,0
90178,-83.3333333333333,4,2,1,40,0,0
91101,-200,4,2,1,50,0,0
91408,-83.3333333333333,4,2,1,40,0,0
92331,-200,4,2,1,50,0,0
92639,-83.3333333333333,4,2,1,40,0,0
93562,-100,4,2,1,45,0,0
94178,-83.3333333333333,4,2,1,45,0,0
94793,-200,4,2,1,50,0,0
95101,-83.3333333333333,4,2,1,40,0,0
96024,-200,4,2,1,50,0,0
96331,-83.3333333333333,4,2,1,40,0,0
97255,-200,4,2,1,50,0,0
97562,-83.3333333333333,4,2,1,40,0,0
98485,-100,4,2,1,50,0,0
99716,-133.333333333333,4,2,1,60,0,0
100024,-71.4285714285714,4,2,1,50,0,0
100947,-133.333333333333,4,2,1,60,0,0
101255,-71.4285714285714,4,2,1,50,0,0
102178,-133.333333333333,4,2,1,60,0,0
102485,-71.4285714285714,4,2,1,50,0,0
103101,-100,4,2,1,50,0,0
103408,-133.333333333333,4,2,1,55,0,0
103716,-100,4,2,1,55,0,0
104639,-133.333333333333,4,2,1,60,0,0
104947,-71.4285714285714,4,2,1,50,0,0
105152,-71.4285714285714,4,2,1,53,0,0
105357,-71.4285714285714,4,2,1,56,0,0
105562,-71.4285714285714,4,2,1,59,0,0
105767,-71.4285714285714,4,2,1,62,0,0
105972,-71.4285714285714,4,2,1,65,0,0
106178,-71.4285714285714,4,2,1,68,0,0
106383,-71.4285714285714,4,2,1,71,0,0
106588,-71.4285714285714,4,2,1,74,0,0
106793,-100,4,2,1,77,0,0
107101,-100,4,2,1,60,0,0
107408,-166.666666666667,4,2,1,60,0,0
109254,-166.666666666667,4,2,2,50,0,0
109255,-166.666666666667,4,2,2,50,0,0
109562,-83.3333333333333,4,2,1,80,0,0
114485,-76.9230769230769,4,2,1,80,0,0
116639,-83.3333333333333,4,2,1,80,0,0
124331,-76.9230769230769,4,2,1,80,0,0
128024,-83.3333333333333,4,2,1,80,0,0
129255,-76.9230769230769,4,2,1,80,0,0
135716,-83.3333333333333,4,2,1,80,0,0
139101,-76.9230769230769,4,2,1,80,0,0
144024,-83.3333333333333,4,2,1,80,0,0
145255,-76.9230769230769,4,2,1,80,0,0
146485,-83.3333333333333,4,2,1,80,0,0
147716,-100,4,2,1,50,0,0
148639,-66.6666666666667,4,2,2,80,0,0
148947,-100,4,2,1,50,0,0
149255,-133.333333333333,4,2,1,50,0,0
153870,-100,4,2,2,50,0,0
154178,-133.333333333333,4,2,2,50,0,0
154485,-133.333333333333,4,2,1,50,0,0
154639,-133.333333333333,4,2,2,50,0,0
155408,-66.6666666666667,4,2,1,60,0,0
155639,-66.6666666666667,4,2,1,5,0,0
155716,-66.6666666666667,4,2,1,60,0,0
155947,-66.6666666666667,4,2,1,5,0,0
156024,-66.6666666666667,4,2,1,60,0,0
156255,-66.6666666666667,4,2,2,5,0,0
156331,-100,4,2,2,50,0,0
156639,-133.333333333333,4,2,2,50,0,0
156946,-133.333333333333,4,2,1,50,0,0
157101,-133.333333333333,4,2,2,50,0,0
157562,-133.333333333333,4,2,2,40,0,0
158331,-133.333333333333,4,2,2,45,0,0
158485,-133.333333333333,4,2,2,50,0,0
158639,-133.333333333333,4,2,2,55,0,0
158793,-100,4,2,1,50,0,0
159101,-133.333333333333,4,2,1,50,0,0
163716,-100,4,2,2,60,0,0
165870,-100,4,2,3,50,0,0
166178,-125,4,2,3,50,0,0
166331,-125,4,2,1,20,0,0
166793,-125,4,2,1,30,0,0
167101,-125,4,2,1,40,0,0
167716,-125,4,2,1,30,0,0
168024,-125,4,2,1,20,0,0
168254,-125,4,2,1,5,0,0
168331,-66.6666666666667,4,2,1,60,0,0
168638,-66.6666666666667,4,2,1,20,0,0
168639,-66.6666666666667,4,2,1,20,0,0
178485,-100,4,2,1,40,0,0
180947,-100,4,2,1,45,0,0
183408,-111.111111111111,4,2,1,50,0,0
184639,-111.111111111111,4,2,1,55,0,0
185870,-111.111111111111,4,2,1,60,0,0
186485,-90.9090909090908,4,2,1,70,0,0
187101,-133.333333333333,4,2,1,30,0,0
187408,-111.111111111111,4,2,1,40,0,0
187716,-95.2380952380952,4,2,1,50,0,0
188024,-83.3333333333333,4,2,2,70,0,0
188331,-76.9230769230769,4,2,1,80,0,0
194793,-83.3333333333333,4,2,1,80,0,0
198178,-76.9230769230769,4,2,1,80,0,0
203101,-83.3333333333333,4,2,1,80,0,0
204331,-76.9230769230769,4,2,1,80,0,0
205562,-83.3333333333333,4,2,1,80,0,0
206793,-100,4,2,1,50,0,0
207408,-66.6666666666667,4,2,1,50,0,0
207716,-66.6666666666667,4,2,1,80,0,0
208024,-200,4,2,1,60,0,0
208331,-83.3333333333333,4,2,4,50,0,0
209255,-200,4,2,1,60,0,0
209562,-83.3333333333333,4,2,4,50,0,0
210485,-200,4,2,1,60,0,0
210793,-83.3333333333333,4,2,4,50,0,0
211716,-100,4,2,1,50,0,0
212331,-83.3333333333333,4,2,1,50,0,0
212947,-200,4,2,1,60,0,0
213255,-83.3333333333333,4,2,4,50,0,0
214178,-200,4,2,1,60,0,0
214485,-83.3333333333333,4,2,4,50,0,0
215408,-200,4,2,1,60,0,0
215716,-83.3333333333333,4,2,4,50,0,0
216331,-100,4,2,4,50,0,0
216639,-100,4,2,1,50,0,0
217870,-133.333333333333,4,2,1,70,0,0
218178,-71.4285714285714,4,2,4,60,0,0
219101,-133.333333333333,4,2,1,70,0,0
219408,-71.4285714285714,4,2,4,60,0,0
220331,-100,4,2,1,70,0,0
220639,-71.4285714285714,4,2,4,60,0,0
221562,-83.3333333333333,4,2,1,50,0,0
222793,-100,4,2,1,70,0,0
223101,-71.4285714285714,4,2,4,60,0,0
223306,-71.4285714285714,4,2,1,63,0,0
223511,-71.4285714285714,4,2,1,66,0,0
223716,-71.4285714285714,4,2,1,69,0,0
224024,-83.3333333333333,4,2,1,72,0,0
224331,-83.3333333333333,4,2,1,75,0,0
224639,-83.3333333333333,4,2,1,78,0,0
224946,-83.3333333333333,4,2,1,81,0,0
224947,-83.3333333333333,4,2,1,81,0,0
225255,-83.3333333333333,4,2,1,50,0,0
225562,-200,4,2,1,50,0,0
226178,-222.222222222222,4,2,1,50,0,0
226793,-250,4,2,1,50,0,0
227408,-285.714285714286,4,2,1,50,0,0
228024,-333.333333333333,4,2,1,50,0,0
228639,-400,4,2,1,50,0,0
229255,-500,4,2,1,50,0,0
230101,-500,4,2,1,50,0,0
230178,-217.391304347826,4,2,1,40,0,0
230793,-217.391304347826,4,2,1,35,0,0
231408,-217.391304347826,4,2,1,30,0,0
232024,-217.391304347826,4,2,1,25,0,0
232639,-217.391304347826,4,2,1,20,0,0
233255,-217.391304347826,4,2,1,15,0,0
233870,-217.391304347826,4,2,1,10,0,0
234485,-217.391304347826,4,2,1,5,0,0
235101,-217.391304347826,4,2,1,5,0,0

[Colours]
Combo1 : 220,116,228
Combo2 : 99,126,190
Combo3 : 189,160,220
Combo4 : 136,221,227

[HitObjects]
124,31,20947,6,0,P|92:31|46:62,1,71.9999978027344,4|0,1:0|0:0,0:0:0:0:
167,166,21255,1,0,0:0:0:0:
174,167,21408,2,0,P|190:139|186:83,1,71.9999978027344,4|0,1:0|0:0,0:0:0:0:
35,139,21716,1,0,0:0:0:0:
32,144,21870,2,0,P|47:171|97:196,1,71.9999978027344,0|0,1:0|0:0,0:0:0:0:
207,206,22178,6,0,L|188:74,2,107.999996704102,0|0|0,0:1|0:1|0:1,0:0:0:0:
60,257,22793,6,0,B|184:291|95:359|258:380|258:380|269:327|302:297|360:287,1,391.99998803711,0|0,1:0|0:0,0:0:0:0:
415,343,23408,5,4,1:0:0:0:
495,358,23562,1,0,0:0:0:0:
495,358,23716,1,0,0:0:0:0:
360,288,23870,1,4,1:0:0:0:
435,269,24024,1,0,0:0:0:0:
435,269,24178,1,0,0:0:0:0:
285,260,24331,1,0,1:0:0:0:
344,211,24485,1,0,0:0:0:0:
254,333,24639,6,2,P|248:268|214:148,1,167.999994873047,2|2,1:0|0:1,0:0:0:0:
165,117,24947,2,0,L|177:56,1,47.9999985351563,2|0,0:1|0:0,0:0:0:0:
91,104,25101,2,0,L|101:49,1,47.9999985351563,2|0,0:1|0:0,0:0:0:0:
75,182,25255,6,0,B|256:136|256:136|272:70|272:70|396:90,1,363.999983337403,8|0,0:0|0:0,0:0:0:0:
455,101,25870,6,0,P|491:124|506:160,1,71.9999978027344,4|0,1:0|0:0,0:0:0:0:
438,269,26178,1,0,0:0:0:0:
512,254,26332,2,0,P|474:273|435:268,1,71.9999978027344,4|0,1:0|0:0,0:0:0:0:
373,157,26640,1,0,0:0:0:0:
351,227,26793,2,0,P|352:184|376:153,1,71.9999978027344,0|0,1:0|1:0,0:0:0:0:
425,53,27101,5,4,1:0:0:0:
512,132,27255,1,0,0:0:0:0:
363,167,27408,2,0,L|277:184,1,71.9999978027344,8|0,0:0|0:0,0:0:0:0:
162,207,27716,2,0,L|76:224,1,71.9999978027344,0|0,1:0|0:0,0:0:0:0:
17,225,27947,1,0,1:0:0:0:
20,243,28024,1,8,0:0:0:0:
200,306,28178,1,0,1:0:0:0:
104,377,28331,6,0,L|114:297,1,80.0000030517579,12|0,1:2|0:0,0:0:0:0:
154,230,28537,2,0,L|140:148,1,63.9999980468751,8|0,1:0|0:0,0:0:0:0:
112,99,28742,2,0,L|122:19,1,63.9999980468751,8|0,1:0|0:0,0:0:0:0:
101,98,28947,6,0,L|111:18,1,80.0000030517579,12|0,1:2|0:0,0:0:0:0:
195,20,29152,2,0,L|258:27,1,63.9999980468751,8|0,1:0|0:0,0:0:0:0:
330,58,29357,2,0,L|393:50,1,63.9999980468751,8|0,1:0|0:0,0:0:0:0:
476,20,29562,5,12,1:0:0:0:
468,63,29665,5,8,1:0:0:0:
459,104,29767,5,8,1:0:0:0:
494,145,29870,5,8,1:0:0:0:
502,188,29972,5,8,1:0:0:0:
511,229,30075,5,8,1:0:0:0:
493,278,30178,6,0,B|389:298|471:310|378:328,1,127.99999609375,8|0,1:0|0:0,0:0:0:0:
296,299,30485,6,0,B|282:314|252:306|252:306|282:314|288:336,1,95.9999970703126,2|0,0:1|0:0,0:0:0:0:
221,384,30793,6,0,L|202:232,1,143.999995605469,4|0,0:0|0:0,0:0:0:0:
166,175,31101,1,0,1:0:0:0:
181,71,31255,2,0,L|187:29,2,32,0|0|0,0:0|0:0|1:0,0:0:0:0:
95,110,31562,2,0,L|53:104,2,32,0|0|0,0:0|0:0|1:0,0:0:0:0:
248,132,31870,6,0,L|287:137,2,32,0|0|0,0:0|0:0|1:0,0:0:0:0:
166,175,32178,2,0,L|160:217,2,32,0|0|0,0:0|0:0|1:0,0:0:0:0:
122,347,32485,1,0,0:0:0:0:
161,351,32562,1,0,0:0:0:0:
143,340,32639,2,0,L|150:287,4,32,0|0|0|0|0,1:0|0:0|0:0|0:0|1:0,0:0:0:0:
255,354,33101,6,0,P|294:319|356:306,1,95.9999970703126,2|0,0:0|1:0,0:0:0:0:
496,264,33408,6,0,L|493:232,2,32,0|0|0,0:0|0:0|1:0,0:0:0:0:
428,143,33716,1,0,0:0:0:0:
413,165,33792,1,0,0:0:0:0:
408,190,33870,2,0,L|411:222,4,32,0|0|0|0|0,1:0|0:0|0:0|0:0|1:0,0:0:0:0:
343,307,34331,6,0,L|340:275,2,32,0|0|0,0:0|0:0|1:0,0:0:0:0:
260,171,34639,2,0,L|263:203,2,32,0|0|0,0:0|0:0|1:0,0:0:0:0:
213,366,34947,1,0,0:0:0:0:
210,332,35024,1,0,0:0:0:0:
194,352,35101,2,0,L|142:359,3,32,0|0|0|0,1:0|0:0|0:0|0:0,0:0:0:0:
85,366,35408,6,0,B|102:235|111:370|126:198,1,143.999995605469,2|0,1:1|0:1,0:0:0:0:
77,165,35716,5,0,1:0:0:0:
212,276,35870,1,0,0:0:0:0:
207,257,35947,1,0,0:0:0:0:
202,238,36024,1,0,1:0:0:0:
316,249,36178,1,0,0:0:0:0:
311,230,36255,1,0,0:0:0:0:
306,211,36331,2,0,L|295:171,4,32,0|0|0|0|0,1:0|0:0|0:0|0:0|1:0,0:0:0:0:
421,220,36793,1,0,0:0:0:0:
416,201,36870,1,0,0:0:0:0:
410,180,36947,6,0,L|393:111,1,60,0|0,1:0|0:0,0:0:0:0:
472,105,37255,6,0,B|456:76|456:76|323:61,1,143.999995605469,2|2,1:0|0:0,0:0:0:0:
290,10,37562,2,0,B|274:39|274:39|141:54,1,143.999995605469,2|2,1:0|0:0,0:0:0:0:
85,57,37870,6,0,L|92:5,3,32,0|0|2|0,1:0|0:0|0:0|0:0,0:0:0:0:
11,19,38178,2,0,L|5:60,4,23.9999992675781,0|0|0|0|0,1:0|0:0|1:0|0:0|0:0,0:0:0:0:
71,162,38639,5,0,0:0:0:0:
94,172,38716,1,0,0:0:0:0:
114,192,38793,2,0,P|124:214|128:234,4,32,0|0|0|0|0,1:0|0:0|0:0|0:0|1:0,0:0:0:0:
43,242,39255,1,0,1:0:0:0:
199,265,39408,5,4,1:0:0:0:
78,370,39562,2,0,P|116:352|158:349,1,64,0|0,0:0|1:0,0:0:0:0:
305,274,39870,1,0,0:0:0:0:
199,265,40024,2,0,L|313:285,1,95.9999970703126,8|0,0:0|0:0,0:0:0:0:
496,366,40331,1,0,0:0:0:0:
499,331,40408,1,0,0:0:0:0:
489,298,40485,1,0,0:0:0:0:
492,263,40562,1,0,0:0:0:0:
480,228,40639,6,0,B|474:171|474:171|484:151|484:151|472:65,1,143.999995605469,4|0,1:2|0:0,0:0:0:0:
505,10,40947,1,8,0:0:0:0:
400,137,41101,1,0,0:0:0:0:
400,137,41178,1,0,0:0:0:0:
400,137,41255,2,0,L|349:129,4,35.9999989013672,0|0|0|0|8,1:0|0:0|0:0|0:0|0:0,0:0:0:0:
322,23,41716,6,0,L|314:74,2,35.9999989013672,0|0|0,0:0|0:0|1:0,0:0:0:0:
296,180,42024,2,0,L|291:216,2,35.9999989013672,0|0|8,0:0|0:0|0:0,0:0:0:0:
206,77,42331,1,0,0:0:0:0:
199,124,42408,1,0,0:0:0:0:
211,104,42485,2,0,L|262:112,4,35.9999989013672,0|0|0|0|8,1:0|0:0|0:0|0:0|0:0,0:0:0:0:
191,231,42947,6,0,P|143:249|109:291,1,95.9999970703126,2|0,0:0|1:0,0:0:0:0:
19,349,43255,6,0,L|24:389,2,35.9999989013672,0|0|8,0:0|0:0|0:0,0:0:0:0:
122,233,43562,1,0,0:0:0:0:
113,256,43639,1,0,0:0:0:0:
113,281,43716,2,0,L|117:316,4,35.9999989013672,0|0|0|0|8,1:0|0:0|0:0|0:0|0:0,0:0:0:0:
230,319,44178,6,0,L|234:354,2,35.9999989013672,0|0|0,0:0|0:0|1:0,0:0:0:0:
343,251,44485,2,0,L|347:286,2,35.9999989013672,0|0|8,0:0|0:0|0:0,0:0:0:0:
444,338,44793,1,0,0:0:0:0:
438,380,44870,1,0,0:0:0:0:
451,362,44947,2,0,L|501:371,4,35.9999989013672,2|2|2|2|10,1:2|0:2|0:2|0:2|1:2,0:0:0:0:
429,235,45408,1,0,1:0:0:0:
337,384,45562,5,2,1:0:0:0:
255,264,45716,2,0,L|249:223,2,35.9999989013672,0|0|10,0:0|0:0|0:1,0:0:0:0:
85,175,46024,1,0,0:0:0:0:
78,198,46101,1,0,0:0:0:0:
80,224,46178,2,0,L|85:259,4,35.9999989013672,2|0|0|0|10,1:0|0:0|0:0|0:0|0:1,0:0:0:0:
168,244,46639,1,0,1:0:0:0:
272,130,46793,5,2,1:0:0:0:
108,99,46947,1,0,1:0:0:0:
181,152,47101,1,10,0:1:0:0:
248,0,47255,1,0,1:0:0:0:
76,19,47409,1,2,1:0:0:0:
49,37,47485,1,0,1:0:0:0:
30,63,47562,1,0,1:0:0:0:
22,94,47639,1,0,1:0:0:0:
26,129,47716,2,0,L|31:163,8,25.9999988098145,2|0|0|0|0|0|0|0|0,0:1|0:0|0:0|0:0|0:0|0:0|0:0|0:0|0:0,0:0:0:0:
62,310,48178,6,0,L|74:376,2,64,0|2|0,0:0|0:0|0:0,0:0:0:0:
45,232,48639,1,2,0:0:0:0:
120,253,48947,1,2,0:0:0:0:
218,150,49255,5,2,0:0:0:0:
293,129,49563,1,2,0:0:0:0:
436,174,49870,2,0,B|458:204|458:204|450:272,1,96,2|0,0:0|0:0,0:0:0:0:
444,266,50178,6,0,B|459:130|459:130|452:117|452:117|462:14,1,240.000009155274,10|4,0:1|0:1,0:0:0:0:
256,192,50562,12,0,52947,0:0:0:0:
51,120,60331,5,4,0:1:0:0:
56,125,60639,2,0,L|125:136,1,60.0000022888184,0|0,0:0|1:0,0:0:0:0:
182,195,60947,2,0,P|216:171|281:160,1,90.0000034332277,8|0,0:0|0:0,0:0:0:0:
271,167,61255,2,0,L|340:178,1,60.0000022888184,0|0,1:0|0:0,0:0:0:0:
443,151,61562,6,0,P|480:148|509:132,2,60.0000022888184,0|0|0,0:0|1:0|1:0,0:0:0:0:
372,92,62024,1,0,0:0:0:0:
398,238,62178,2,0,L|382:339,1,90.0000034332277,8|0,0:0|0:0,0:0:0:0:
382,338,62485,2,0,L|317:345,1,60.0000022888184
238,383,62793,6,0,L|224:298,1,60.0000022888184,0|0,1:0|0:0,0:0:0:0:
160,261,63101,2,0,L|100:254,1,60.0000022888184,0|0,0:0|1:0,0:0:0:0:
132,250,63408,2,0,L|146:118,1,120.000004577637,8|0,0:0|1:0,0:0:0:0:
154,50,63870,1,0,0:0:0:0:
246,231,64024,6,0,L|263:99,1,120.000004577637,0|0,0:0|1:0,0:0:0:0:
271,31,64486,1,0,0:0:0:0:
369,153,64639,2,0,L|379:73,1,60.0000022888184,8|0,0:0|0:0,0:0:0:0:
479,137,64947,2,0,L|489:57,1,60.0000022888184,0|0,1:0|0:0,0:0:0:0:
369,153,65255,6,0,P|412:181|434:238,1,90.0000034332277,0|0,1:0|0:0,0:0:0:0:
416,216,65562,2,0,L|429:287,1,60.0000022888184
265,232,65870,2,0,P|308:260|330:317,1,90.0000034332277,0|0,1:0|0:0,0:0:0:0:
312,295,66177,2,0,L|325:366,1,60.0000022888184
188,348,66485,6,0,L|55:373,1,120.000004577637,0|0,1:0|0:0,0:0:0:0:
14,313,66946,1,0,0:0:0:0:
44,237,67101,2,0,L|162:215,1,120.000004577637,0|0,1:0|0:0,0:0:0:0:
193,141,67562,1,0,0:0:0:0:
135,86,67716,6,0,L|2:111,1,120.000004577637,0|0,1:0|0:0,0:0:0:0:
331,65,68331,2,0,L|189:41,1,120.000004577637,0|0,1:0|0:0,0:0:0:0:
412,26,68947,5,0,0:0:0:0:
463,353,70178,6,0,B|443:242|446:355|419:203,1,143.999995605469,4|2,1:0|0:0,0:0:0:0:
492,178,70793,1,2,0:0:0:0:
421,217,70947,1,2,0:0:0:0:
368,155,71101,1,0,0:0:0:0:
436,113,71255,6,0,L|269:138,1,143.999995605469,2|0,0:0|0:0,0:0:0:0:
232,192,71716,2,0,L|149:182,1,71.9999978027344,2|0,0:0|0:0,0:0:0:0:
80,174,72024,1,2,0:0:0:0:
134,235,72178,1,0,0:0:0:0:
56,252,72331,1,2,0:0:0:0:
109,312,72485,1,2,0:0:0:0:
34,330,72639,6,0,L|205:352,1,143.999995605469,0|2,0:0|0:0,0:0:0:0:
253,379,73255,1,2,0:0:0:0:
288,301,73408,1,2,0:0:0:0:
345,364,73562,1,0,0:0:0:0:
379,285,73716,6,0,B|395:194|347:263|372:141,1,143.999995605469,2|0,0:0|0:0,0:0:0:0:
393,63,74178,2,0,P|432:83|451:117,1,71.9999978027344,2|0,0:0|0:0,0:0:0:0:
445,187,74485,1,2,0:0:0:0:
371,145,74639,1,0,0:0:0:0:
447,105,74793,1,2,0:0:0:0:
445,187,74947,1,2,0:0:0:0:
371,145,75101,6,0,B|357:34|346:129|331:4,1,143.999995605469,2|2,0:0|0:0,0:0:0:0:
331,9,75716,1,2,0:0:0:0:
191,33,75870,1,2,0:0:0:0:
266,47,76024,1,0,0:0:0:0:
125,73,76178,6,0,P|93:108|78:204,1,143.999995605469,2|0,0:0|0:0,0:0:0:0:
98,301,76639,2,0,L|113:377,1,71.9999978027344,2|0,0:0|0:0,0:0:0:0:
167,241,76947,1,2,0:0:0:0:
13,270,77101,1,0,0:0:0:0:
167,241,77255,1,2,0:0:0:0:
13,270,77409,1,2,0:0:0:0:
167,241,77562,6,0,P|212:252|291:313,1,143.999995605469,2|2,0:0|0:0,0:0:0:0:
286,306,78178,1,2,0:0:0:0:
372,321,78331,1,2,0:0:0:0:
449,285,78485,1,8,0:0:0:0:
447,269,78562,1,8,0:0:0:0:
445,253,78639,1,8,0:0:0:0:
442,238,78716,1,8,0:0:0:0:
440,223,78793,5,0,1:0:0:0:
497,116,78998,2,0,P|464:130|430:130,1,47.9999985351563,8|0,0:0|0:0,0:0:0:0:
372,167,79203,2,0,P|338:153|314:129,1,47.9999985351563,8|0,0:0|0:0,0:0:0:0:
355,250,79408,1,0,1:0:0:0:
276,75,79613,2,0,P|243:61|209:61,1,47.9999985351563,8|0,0:0|0:0,0:0:0:0:
151,24,79818,2,0,P|117:37|93:61,1,47.9999985351563,8|0,0:0|0:0,0:0:0:0:
52,132,80024,6,0,L|67:252,1,106.666666666667,4|0,1:0|0:0,0:0:0:0:
67,253,80331,2,0,P|75:199|110:161,1,106.666666666667,8|0,0:0|0:0,0:0:0:0:
190,174,80639,2,0,L|248:184,2,53.3333333333333,2|2|2,0:0|0:0|0:0,0:0:0:0:
206,255,80947,2,0,L|328:276,1,106.666666666667,10|2,0:0|0:0,0:0:0:0:
375,326,81255,6,0,P|430:303|500:308,1,106.666666666667
486,311,81562,2,0,P|427:296|397:257,1,106.666666666667,8|0,0:0|0:0,0:0:0:0:
383,181,81870,2,0,L|373:119,2,53.3333333333333,2|2|2,0:0|0:0|0:0,0:0:0:0:
460,140,82178,2,0,L|477:32,1,106.666666666667,10|2,0:0|0:0,0:0:0:0:
392,20,82485,6,0,P|335:22|289:61,1,106.666666666667,2|0,0:0|0:0,0:0:0:0:
301,63,82793,2,0,P|244:61|198:22,1,106.666666666667,2|0,0:0|0:0,0:0:0:0:
127,18,83101,2,0,L|116:77,2,53.3333333333333,2|2|2,0:0|0:0|0:0,0:0:0:0:
46,4,83408,2,0,L|24:122,1,106.666666666667,2|10,0:0|0:0,0:0:0:0:
93,169,83716,6,0,L|115:287,1,106.666666666667,2|0,0:0|0:0,0:0:0:0:
115,285,84024,2,0,P|168:307|204:351,1,106.666666666667,10|0,0:0|0:0,0:0:0:0:
278,384,84331,2,0,P|304:380|331:367,2,53.3333333333333,2|2|2,0:0|0:0|0:0,0:0:0:0:
280,294,84639,2,0,P|325:259|348:207,1,106.666666666667,10|2,0:0|0:0,0:0:0:0:
381,138,84947,6,0,L|373:76,2,53.3333333333333,14|8|8,0:0|0:0|0:0,0:0:0:0:
292,73,85255,2,0,L|298:125,2,53.3333333333333,10|8|8,0:0|0:0|0:0,0:0:0:0:
222,158,85562,2,0,L|215:105,2,53.3333333333333,10|10|10,0:0|0:0|0:0,0:0:0:0:
130,91,85870,2,0,L|143:196,1,106.666666666667,10|10,0:0|0:0,0:0:0:0:
103,272,86178,6,0,L|96:325,2,53.3333333333333,14|8|8,0:0|0:0|0:0,0:0:0:0:
174,362,86485,2,0,L|181:309,2,53.3333333333333,10|8|8,0:0|0:0|0:0,0:0:0:0:
264,300,86793,2,0,L|369:286,2,106.666666666667,10|10|10,1:2|1:2|1:2,0:0:0:0:
459,384,87408,5,12,0:0:0:0:
467,341,87511,5,8,0:0:0:0:
476,300,87613,5,8,0:0:0:0:
441,259,87716,5,10,0:0:0:0:
433,216,87818,5,8,0:0:0:0:
424,175,87921,5,8,0:0:0:0:
448,130,88024,6,0,L|455:89,2,40.000001525879,14|8|8,0:0|0:0|0:0,0:0:0:0:
360,90,88331,2,0,L|367:49,2,40.000001525879,10|8|8,0:0|0:0|0:0,0:0:0:0:
290,190,88639,6,0,L|302:259,2,63.9999980468751,2|2|2,1:2|1:2|1:2,0:0:0:0:
204,205,88947,2,0,L|215:267,2,63.9999980468751,2|2|2,1:2|1:2|1:2,0:0:0:0:
55,261,89255,6,0,P|96:230|83:293,1,149.333328776042,12|0,1:0|0:0,0:0:0:0:
214,268,89562,2,0,P|153:307|128:376,1,149.333328776042,14|2,1:0|0:0,0:0:0:0:
211,373,89870,6,0,B|232:368|232:368|231:361|231:361|207:364,1,53.3333333333333,4|0,1:0|0:0,0:0:0:0:
125,375,90178,6,0,L|50:386,1,63.9999980468751,2|0,0:1|0:0,0:0:0:0:
210,363,90383,2,0,L|273:353,1,63.9999980468751,2|0,0:1|0:0,0:0:0:0:
98,295,90588,2,0,L|23:306,1,63.9999980468751,2|0,0:1|0:0,0:0:0:0:
210,277,90793,2,0,L|273:267,1,63.9999980468751,2|0,0:1|0:0,0:0:0:0:
88,166,91101,6,0,B|66:161|66:161|67:153|67:153|91:157,1,53.3333333333333,0|0,1:0|0:0,0:0:0:0:
175,170,91409,6,0,L|250:181,1,63.9999980468751,2|0,0:1|0:0,0:0:0:0:
189,83,91613,2,0,L|200:8,1,63.9999980468751,2|0,0:1|0:0,0:0:0:0:
103,71,91819,2,0,L|28:60,1,63.9999980468751,2|0,0:1|0:0,0:0:0:0:
90,157,92024,2,0,L|80:220,1,63.9999980468751,2|0,0:1|0:0,0:0:0:0:
65,325,92255,1,0,0:0:0:0:
77,337,92331,6,0,L|129:327,1,53.3333333333333,0|0,1:0|0:0,0:0:0:0:
214,305,92639,6,0,L|206:370,1,63.9999980468751,2|0,0:1|0:0,0:0:0:0:
286,349,92844,2,0,L|293:285,1,63.9999980468751,2|0,0:1|0:0,0:0:0:0:
367,321,93049,2,0,L|359:386,1,63.9999980468751,2|0,0:1|0:0,0:0:0:0:
439,365,93254,2,0,L|446:301,1,63.9999980468751,2|0,0:1|0:0,0:0:0:0:
466,155,93562,6,0,P|483:113|508:87,2,80,0|0|2,1:0|0:0|0:0,0:0:0:0:
509,237,94024,1,0,0:0:0:0:
465,154,94178,2,0,L|455:59,1,95.9999970703126,8|0,0:0|0:0,0:0:0:0:
322,29,94485,1,2,0:0:0:0:
299,31,94562,1,2,0:0:0:0:
276,34,94639,1,2,0:0:0:0:
254,36,94716,1,2,0:0:0:0:
231,38,94793,6,0,P|207:51|188:70,1,53.3333333333333,4|0,1:0|0:0,0:0:0:0:
131,137,95101,6,0,L|141:226,1,63.9999980468751,2|0,0:1|0:0,0:0:0:0:
114,118,95306,2,0,L|106:54,1,63.9999980468751,2|0,0:1|0:0,0:0:0:0:
42,150,95511,2,0,L|52:239,1,63.9999980468751,2|0,0:1|0:0,0:0:0:0:
25,131,95716,2,0,L|17:67,1,63.9999980468751,2|0,0:1|0:0,0:0:0:0:
61,292,96024,6,0,P|88:297|112:309,1,53.3333333333333,0|0,1:0|0:0,0:0:0:0:
198,301,96331,6,0,P|210:336|205:372,1,63.9999980468751,2|0,0:1|0:0,0:0:0:0:
283,378,96537,2,0,P|318:366|354:371,1,63.9999980468751,2|0,0:1|0:0,0:0:0:0:
410,326,96742,2,0,P|398:291|403:255,1,63.9999980468751,2|0,0:1|0:0,0:0:0:0:
325,246,96947,2,0,P|290:258|254:253,1,63.9999980468751,2|0,0:1|0:0,0:0:0:0:
280,155,97178,1,0,0:0:0:0:
290,143,97255,6,0,L|296:90,1,53.3333333333333,0|0,1:0|0:0,0:0:0:0:
254,17,97562,6,0,P|281:5|322:8,1,63.9999980468751,2|0,0:1|0:0,0:0:0:0:
374,63,97767,2,0,P|401:73|428:104,1,63.9999980468751,2|0,0:1|0:0,0:0:0:0:
406,177,97972,2,0,P|417:204|414:244,1,63.9999980468751,2|0,0:1|0:0,0:0:0:0:
352,287,98178,5,0,1:0:0:0:
383,311,98280,5,0,1:0:0:0:
421,318,98383,5,0,1:0:0:0:
434,332,98485,6,0,L|526:315,2,80,0|0|2,1:0|0:0|0:0,0:0:0:0:
267,301,98947,1,0,0:0:0:0:
353,346,99101,2,0,L|343:287,1,40,10|0,0:1|0:0,0:0:0:0:
344,288,99255,2,0,L|334:229,1,40,2|0,0:1|0:0,0:0:0:0:
334,229,99408,2,0,L|324:170,1,40,2|0,0:1|0:0,0:0:0:0:
325,171,99562,2,0,L|315:112,1,40,2|0,0:1|0:0,0:0:0:0:
307,53,99716,6,0,B|318:35|311:15|311:15|296:31|303:52,1,80.0000030517579,4|0,1:0|0:0,0:0:0:0:
242,103,100024,6,0,P|214:119|160:119,1,74.6666643880209,2|0,1:0|0:0,0:0:0:0:
204,135,100229,2,0,P|171:137|122:114,1,74.6666643880209,2|0,1:0|0:0,0:0:0:0:
157,152,100434,2,0,P|126:140|92:99,1,74.6666643880209,2|0,1:0|0:0,0:0:0:0:
108,144,100639,2,0,P|85:121|71:68,1,74.6666643880209,2|0,1:0|0:0,0:0:0:0:
49,2,100844,1,2,0:0:0:0:
73,33,100947,6,0,L|57:111,1,80.0000030517579,0|0,1:0|0:0,0:0:0:0:
25,195,101255,6,0,L|38:288,1,74.6666643880209,2|0,1:0|0:0,0:0:0:0:
50,203,101460,2,0,L|63:296,1,74.6666643880209,2|0,1:0|0:0,0:0:0:0:
129,179,101665,2,0,L|142:86,1,74.6666643880209,2|0,1:0|0:0,0:0:0:0:
154,171,101870,2,0,L|167:78,1,74.6666643880209,2|0,1:0|0:0,0:0:0:0:
227,209,102075,1,2,0:0:0:0:
266,214,102178,6,0,P|294:222|333:259,1,80.0000030517579,0|0,1:0|0:0,0:0:0:0:
347,331,102485,6,0,P|390:328|425:306,1,74.6666643880209,2|0,1:0|0:0,0:0:0:0:
411,288,102690,2,0,P|439:255|448:215,1,74.6666643880209,2|0,1:0|0:0,0:0:0:0:
429,213,102896,2,0,P|425:170|403:135,1,74.6666643880209,2|0,1:0|0:0,0:0:0:0:
384,68,103101,6,0,L|393:12,2,53.3333333333333,2|0|2,1:0|1:0|1:0,0:0:0:0:
460,30,103408,6,0,L|376:18,1,60.0000022888184,0|0,1:0|0:0,0:0:0:0:
306,57,103716,6,0,L|206:76,1,80,2|0,0:0|0:0,0:0:0:0:
107,151,104024,6,0,L|22:138,1,80,8|0,0:0|0:0,0:0:0:0:
151,84,104331,1,2,0:0:0:0:
173,235,104485,1,0,0:0:0:0:
164,87,104639,6,0,P|201:75|230:48,1,80.0000030517579,4|0,1:0|0:0,0:0:0:0:
311,7,104947,6,0,P|356:14|387:34,1,74.6666643880209,2|0,1:0|0:0,0:0:0:0:
374,42,105152,2,0,P|400:78|408:114,1,74.6666643880209,2|0,1:0|0:0,0:0:0:0:
387,116,105357,2,0,P|380:161|360:192,1,74.6666643880209,2|0,1:0|0:0,0:0:0:0:
336,177,105562,2,0,P|299:203|263:211,1,74.6666643880209,2|0,1:0|0:0,0:0:0:0:
255,244,105767,6,0,P|218:217|182:209,1,74.6666643880209,2|0,1:0|0:0,0:0:0:0:
175,167,105972,2,0,P|130:174|99:193,1,74.6666643880209,2|0,1:0|0:0,0:0:0:0:
59,161,106178,2,0,P|32:197|24:233,1,74.6666643880209,2|0,1:0|0:0,0:0:0:0:
42,304,106383,2,0,P|65:332|98:350,1,74.6666643880209,2|0,1:0|0:0,0:0:0:0:
185,378,106588,2,0,P|202:345|231:321,1,74.6666643880209,2|0,1:0|0:0,0:0:0:0:
319,301,106793,2,0,P|354:311|383:335,2,53.3333333333333,0|0|0,1:0|1:0|1:0,0:0:0:0:
233,332,107101,5,8,0:0:0:0:
309,237,107408,2,0,L|320:312,1,63.9999980468751,8|0,0:0|0:0,0:0:0:0:
400,307,107716,1,8,0:0:0:0:
285,88,108024,2,0,L|295:152,1,63.9999980468751,8|0,0:0|0:0,0:0:0:0:
226,206,108332,5,8,0:0:0:0:
116,183,108485,1,8,0:0:0:0:
202,286,108639,1,8,0:0:0:0:
108,265,108793,1,8,0:0:0:0:
180,363,108947,1,8,0:0:0:0:
156,363,109023,1,8,0:0:0:0:
132,368,109100,1,8,0:0:0:0:
110,376,109177,1,8,0:0:0:0:
89,389,109254,1,10,0:0:0:0:
12,212,109562,6,0,P|2:155|14:110,1,95.9999970703126,6|0,1:2|0:0,0:0:0:0:
113,45,109870,2,0,L|91:145,1,95.9999970703126,8|0,1:0|0:0,0:0:0:0:
138,238,110178,2,0,P|169:189|176:143,1,95.9999970703126,2|0,1:2|0:0,0:0:0:0:
113,45,110485,1,8,1:0:0:0:
176,152,110639,6,0,L|315:137,1,95.9999970703126,2|0,0:1|1:0,0:0:0:0:
447,147,110947,2,0,L|351:157,1,95.9999970703126,2|8,0:1|1:0,0:0:0:0:
201,232,111255,1,2,0:1:0:0:
201,232,111408,2,0,L|296:221,1,95.9999970703126,2|0,1:0|0:0,0:0:0:0:
401,249,111716,1,10,1:0:0:0:
401,249,111870,1,0,1:0:0:0:
324,384,112024,6,0,P|317:332|335:286,1,95.9999970703126,2|0,1:0|0:0,0:0:0:0:
512,352,112331,2,0,P|502:300|471:262,1,95.9999970703126,10|0,1:0|0:0,0:0:0:0:
382,119,112639,1,2,1:1:0:0:
401,249,112793,1,2,0:1:0:0:
382,119,112947,1,10,1:2:0:0:
401,249,113101,1,2,0:1:0:0:
382,119,113255,6,2,L|399:17,1,95.9999970703126,2|0,1:0|1:0,0:1:0:0:
341,1,113485,1,2,0:1:0:0:
320,11,113562,2,0,P|280:12|225:45,1,95.9999970703126,8|2,1:0|1:0,0:0:0:0:
211,154,113870,2,2,L|228:256,1,95.9999970703126,2|0,1:0|0:0,0:1:0:0:
170,272,114100,1,2,1:0:0:0:
149,262,114177,2,0,P|109:261|54:228,1,95.9999970703126,8|0,1:0|1:0,0:0:0:0:
77,337,114485,6,0,L|55:203,1,103.999995239258,6|0,1:0|0:0,0:0:0:0:
60,234,114716,1,2,0:0:0:0:
59,234,114793,1,8,1:0:0:0:
8,126,114947,2,0,P|99:121|157:163,1,155.999992858887,6|2,1:0|0:0,0:0:0:0:
182,322,115408,2,0,P|273:327|331:285,1,155.999992858887,14|0,1:0|1:0,0:0:0:0:
311,278,115716,6,0,P|369:280|409:303,1,103.999995239258,6|0,1:0|0:0,0:0:0:0:
408,302,115947,1,2,0:0:0:0:
408,302,116024,1,8,1:0:0:0:
485,384,116178,2,0,L|516:210,1,155.999992858887,6|2,1:0|0:0,0:0:0:0:
394,133,116639,2,0,L|378:35,1,95.9999970703126,10|0,1:0|0:0,0:0:0:0:
259,16,116947,5,6,1:0:0:0:
230,24,117023,1,0,1:0:0:0:
205,40,117100,1,0,1:0:0:0:
185,63,117177,1,2,1:0:0:0:
172,90,117254,1,8,1:0:0:0:
117,266,117562,1,6,1:0:0:0:
88,257,117638,1,0,1:0:0:0:
63,241,117715,1,0,1:0:0:0:
43,218,117792,1,2,1:0:0:0:
30,191,117869,1,8,1:0:0:0:
199,286,118178,5,2,1:0:0:0:
178,209,118331,1,0,1:0:0:0:
254,226,118485,2,0,P|308:226|344:206,1,95.9999970703126,8|2,1:0|1:0,0:0:0:0:
435,109,118793,2,0,L|442:61,3,47.9999985351563,0|0|0|0,1:0|1:0|1:0|1:0,0:0:0:0:
447,31,119101,1,10,1:0:0:0:
423,186,119255,1,2,0:0:0:0:
320,93,119408,6,0,P|266:93|230:113,1,95.9999970703126,2|0,1:2|0:0,0:0:0:0:
265,272,119716,2,0,P|292:225|292:184,1,95.9999970703126,8|0,1:0|0:0,0:0:0:0:
137,137,120024,2,0,P|164:183|199:204,1,95.9999970703126,2|0,1:2|0:0,0:0:0:0:
320,93,120331,1,8,1:0:0:0:
372,249,120485,6,0,L|386:149,1,95.9999970703126,2|0,0:1|1:0,0:0:0:0:
496,315,120793,2,0,L|510:215,1,95.9999970703126,2|8,0:1|1:0,0:0:0:0:
355,339,121101,1,2,0:1:0:0:
358,344,121255,2,0,L|372:244,1,95.9999970703126,2|0,1:0|0:0,0:0:0:0:
389,157,121562,1,10,1:0:0:0:
389,157,121716,1,0,1:0:0:0:
291,50,121870,6,0,P|238:58|201:95,1,95.9999970703126,6|0,1:0|0:0,0:0:0:0:
107,47,122178,2,0,P|75:90|75:142,1,95.9999970703126,10|0,1:0|0:0,0:0:0:0:
36,245,122485,2,0,P|80:250|116:279,1,95.9999970703126,2|0,1:0|0:0,0:0:0:0:
118,282,122716,1,2,0:1:0:0:
118,282,122793,2,0,L|105:383,1,95.9999970703126,8|2,0:0|0:1,0:0:0:0:
221,336,123101,6,0,L|381:316,1,143.999995605469,6|0,1:0|1:0,0:0:0:0:
369,282,123408,2,0,L|482:296,1,95.9999970703126,10|2,1:0|1:0,0:0:0:0:
512,151,123716,2,0,P|457:159|416:192,1,95.9999970703126,6|0,1:0|0:0,0:0:0:0:
424,181,123947,1,0,1:0:0:0:
425,182,124024,2,0,L|408:80,1,95.9999970703126,10|2,1:0|1:2,0:0:0:0:
285,32,124331,6,0,B|216:53|278:68|190:95,1,103.999995239258,6|0,1:0|0:0,0:0:0:0:
203,90,124562,1,0,1:0:0:0:
203,90,124639,1,8,1:0:0:0:
107,164,124793,2,0,P|171:174|264:227,1,155.999992858887,6|0,1:0|1:0,0:0:0:0:
147,268,125178,1,0,1:0:0:0:
147,268,125255,2,0,P|170:299|187:362,1,103.999995239258,10|0,1:0|1:0,0:0:0:0:
347,344,125562,6,0,L|484:325,1,103.999995239258,6|0,1:0|0:0,0:0:0:0:
450,329,125793,1,0,1:0:0:0:
450,329,125870,1,8,1:0:0:0:
334,204,126024,2,0,L|488:225,1,155.999992858887,6|0,1:0|1:0,0:0:0:0:
359,98,126408,1,0,1:0:0:0:
359,98,126485,2,0,L|496:79,1,103.999995239258,10|0,1:0|1:0,0:0:0:0:
268,30,126793,5,6,1:0:0:0:
264,57,126869,1,0,1:0:0:0:
259,85,126946,1,0,1:0:0:0:
255,112,127023,1,0,1:0:0:0:
251,139,127100,1,8,1:0:0:0:
174,120,127255,1,2,0:1:0:0:
108,166,127408,1,6,1:0:0:0:
112,193,127484,1,0,1:0:0:0:
117,221,127561,1,0,1:0:0:0:
121,248,127638,1,0,1:0:0:0:
125,275,127715,1,8,1:0:0:0:
61,322,127870,1,2,0:1:0:0:
200,297,128024,6,0,P|244:302|289:331,1,95.9999970703126,2|0,1:0|1:0,0:0:0:0:
336,235,128331,2,0,P|372:259|399:305,1,95.9999970703126,10|0,1:0|1:0,0:0:0:0:
497,373,128639,2,0,L|507:323,3,47.9999985351563,2|0|0|0,1:0|1:0|1:0|1:0,0:0:0:0:
483,288,128947,2,0,L|473:240,3,47.9999985351563,2|0|0|0,1:0|1:0|1:0|1:0,0:0:0:0:
491,161,129255,6,0,B|386:152|447:112|349:97,1,155.999992858887,6|2,1:0|0:0,0:0:0:0:
280,117,129562,1,8,1:0:0:0:
468,0,129716,2,0,B|369:37|439:59|349:100,1,155.999992858887,2|2,1:0|0:0,0:0:0:0:
280,117,130023,1,8,1:0:0:0:
298,39,130178,1,2,1:0:0:0:
263,193,130331,1,2,0:1:0:0:
201,132,130485,6,0,P|222:206|220:297,1,155.999992858887,6|2,1:0|0:0,0:0:0:0:
143,267,130793,1,8,1:0:0:0:
187,44,130947,2,0,P|174:119|134:201,1,155.999992858887,2|2,1:0|0:0,0:0:0:0:
79,141,131255,1,8,1:0:0:0:
156,124,131408,1,2,1:0:0:0:
1,157,131562,1,2,1:0:0:0:
134,197,131716,6,0,B|226:211|165:251|270:260,1,155.999992858887,6|2,1:0|0:0,0:0:0:0:
346,236,132024,1,8,1:0:0:0:
226,380,132178,2,0,B|318:365|257:325|362:316,1,155.999992858887,2|2,1:0|0:0,0:0:0:0:
436,339,132486,1,8,1:0:0:0:
355,320,132639,1,2,1:0:0:0:
511,360,132793,1,2,0:1:0:0:
465,208,132947,6,0,P|461:147|479:49,1,155.999992858887,6|2,1:0|0:0,0:0:0:0:
418,0,133255,1,8,1:0:0:0:
373,223,133408,2,0,P|346:149|304:84,1,155.999992858887,2|2,1:0|0:0,0:0:0:0:
341,17,133716,1,8,1:0:0:0:
234,116,133870,1,2,1:0:0:0:
161,97,134024,1,10,0:0:0:0:
161,97,134101,1,8,0:0:0:0:
161,97,134178,6,0,P|112:75|55:79,1,103.999995239258,6|0,1:0|0:0,0:0:0:0:
1,170,134485,1,8,1:0:0:0:
142,249,134639,2,0,L|127:176,1,51.999997619629,2|0,1:0|0:0,0:0:0:0:
140,206,134793,2,0,P|89:225|38:322,1,155.999992858887,6|0,1:0|1:0,0:0:0:0:
51,383,135101,1,10,1:2:0:0:
228,262,135255,2,0,L|213:189,1,51.999997619629,2|0,1:0|0:0,0:0:0:0:
228,222,135408,6,0,L|367:245,1,103.999995239258,6|0,1:0|0:0,0:0:0:0:
368,306,135639,1,2,0:1:0:0:
386,322,135716,2,0,P|436:326|480:305,1,95.9999970703126,8|2,0:0|0:1,0:0:0:0:
493,216,136024,1,2,1:0:0:0:
404,163,136178,1,2,0:0:0:0:
330,238,136331,1,10,1:2:0:0:
386,322,136485,1,2,0:0:0:0:
476,307,136639,6,0,P|473:262|495:214,1,95.9999970703126,2|0,1:2|0:0,0:0:0:0:
470,93,136947,1,8,1:0:0:0:
374,71,137101,1,2,0:0:0:0:
307,137,137255,1,2,1:2:0:0:
216,156,137408,1,2,0:0:0:0:
152,85,137562,1,10,1:0:0:0:
56,63,137716,1,2,0:0:0:0:
5,144,137870,6,0,L|23:248,1,95.9999970703126,2|0,1:2|1:0,0:0:0:0:
55,352,138178,2,0,L|38:257,1,95.9999970703126,10|0,1:2|1:0,0:0:0:0:
116,197,138485,2,0,P|169:206|207:238,1,95.9999970703126,2|0,1:2|0:0,0:0:0:0:
240,302,138716,1,0,1:0:0:0:
250,326,138793,2,0,L|355:338,1,95.9999970703126,10|0,1:0|1:0,0:0:0:0:
512,384,139101,6,0,B|491:263|469:371|446:249,1,155.999992858887,6|2,1:0|0:0,0:0:0:0:
364,204,139408,1,8,1:0:0:0:
346,337,139562,2,0,B|325:216|303:324|280:202,1,155.999992858887,2|2,1:0|0:0,0:0:0:0:
198,157,139869,1,8,1:0:0:0:
183,239,140024,1,2,1:0:0:0:
210,78,140178,1,10,1:0:0:0:
175,247,140331,6,0,P|104:267|6:278,1,155.999992858887,6|2,1:0|0:0,0:0:0:0:
8,266,140639,1,8,1:0:0:0:
271,375,140793,2,0,P|200:355|102:344,1,155.999992858887,2|2,1:0|0:0,0:0:0:0:
104,356,141101,1,8,1:0:0:0:
257,277,141255,1,2,1:0:0:0:
271,375,141408,1,10,0:1:0:0:
347,315,141562,6,0,P|381:305|407:305,4,51.999997619629,2|0|0|0|8,1:0|1:0|1:0|1:0|1:0,0:0:0:0:
483,241,142024,2,0,B|509:105|470:224|494:78,1,155.999992858887,2|2,1:0|0:0,0:0:0:0:
512,9,142331,1,8,1:0:0:0:
456,161,142485,1,2,1:0:0:0:
353,34,142639,1,10,1:0:0:0:
404,98,142793,6,0,P|321:78|256:27,1,155.999992858887,6|2,1:0|0:0,0:0:0:0:
264,36,143101,1,8,1:0:0:0:
231,142,143255,2,0,P|148:162|83:213,1,155.999992858887,2|2,1:0|0:0,0:0:0:0:
91,203,143563,1,8,1:0:0:0:
0,308,143716,1,2,1:2:0:0:
32,306,143792,1,10,0:0:0:0:
64,311,143869,1,10,0:0:0:0:
94,323,143946,1,10,0:0:0:0:
122,341,144024,6,0,P|142:357|158:382,4,47.9999985351563,2|0|0|0|10,1:2|1:0|1:0|1:0|0:1,0:0:0:0:
274,264,144485,1,2,1:0:0:0:
274,264,144639,2,0,P|285:286|289:316,4,47.9999985351563,2|0|0|0|10,1:2|1:0|1:0|1:0|0:1,0:0:0:0:
438,295,145101,1,2,1:0:0:0:
433,289,145255,6,0,L|449:168,1,103.999995239258,2|0,1:1|1:0,0:0:0:0:
471,126,145485,1,2,1:0:0:0:
485,114,145562,2,0,B|433:101|433:101|376:139,1,103.999995239258,8|2,1:0|1:0,0:0:0:0:
358,278,145870,2,0,L|365:333,1,51.999997619629,10|0,1:0|0:0,0:0:0:0:
347,285,146024,2,0,L|354:340,1,51.999997619629,0|0,1:0|0:0,0:0:0:0:
274,264,146178,2,0,L|281:209,1,51.999997619629,10|0,1:0|0:0,0:0:0:0:
263,257,146332,2,0,L|270:202,1,51.999997619629,0|0,1:0|0:0,0:0:0:0:
200,310,146485,6,0,L|139:303,3,47.9999985351563,10|0|8|0,1:2|1:0|1:0|1:0,0:0:0:0:
29,290,146793,2,0,L|77:296,3,47.9999985351563,10|0|8|0,1:2|1:0|1:0|1:0,0:0:0:0:
164,224,147101,2,0,L|211:229,2,47.9999985351563,10|8|8,0:0|0:0|0:0,0:0:0:0:
126,195,147331,2,0,L|131:147,2,47.9999985351563,10|8|8,0:0|0:0|0:0,0:0:0:0:
85,215,147562,2,0,L|15:208,1,47.9999985351563,10|8,0:0|0:0,0:0:0:0:
54,101,147716,6,0,B|139:77|148:-16|148:-16|139:77|217:118,1,320,6|0,1:0|0:0,0:0:0:0:
305,116,148639,6,2,B|220:126|220:126|213:135|213:135|110:148,1,180.000006866455,10|0,0:1|0:0,0:1:0:0:
60,182,148947,6,0,B|30:204|24:235|24:235|38:210|66:199,1,120.000004577637,0|0,1:0|0:0,0:0:0:0:
131,146,149255,6,0,L|169:152,4,30.0000011444092,0|0|0|0|8,0:0|0:0|0:0|0:0|1:0,0:0:0:0:
95,274,149716,2,0,L|158:285,1,60.0000022888184
154,297,150024,2,0,L|217:308,1,60.0000022888184
216,296,150331,2,0,L|279:307,1,60.0000022888184,0|0,0:0|1:0,0:0:0:0:
274,317,150639,2,0,L|337:328,1,60.0000022888184,0|8,0:0|1:0,0:0:0:0:
453,349,150947,2,0,L|393:338,1,60.0000022888184
335,317,151255,2,0,L|398:328,1,60.0000022888184,0|0,0:0|1:0,0:0:0:0:
485,209,151716,5,0,0:0:0:0:
461,220,151792,1,0,0:0:0:0:
436,227,151869,1,0,1:0:0:0:
410,229,151946,1,0,0:0:0:0:
384,226,152023,1,8,1:0:0:0:
306,113,152178,2,0,L|318:186,1,60.0000022888184
226,209,152485,1,0,0:0:0:0:
379,232,152639,5,0,1:0:0:0:
310,178,152793,1,0,0:0:0:0:
226,209,152947,1,2,0:0:0:0:
238,211,153255,5,0,1:0:0:0:
169,265,153409,1,0,0:0:0:0:
85,234,153563,1,2,0:0:0:0:
23,83,153870,6,0,B|49:62|44:30|44:30|49:62|85:68,1,120.000004577637,2|0,1:0|0:0,0:0:0:0:
69,149,154178,6,0,L|109:155,4,30.0000011444092,2|0|0|0|10,0:1|0:0|0:0|0:0|0:0,0:0:0:0:
160,99,154639,2,0,L|227:109,1,60.0000022888184,0|2,0:0|0:1,0:0:0:0:
218,123,154947,2,0,L|285:133,1,60.0000022888184,0|2,0:0|0:1,0:0:0:0:
281,116,155255,1,0,0:0:0:0:
345,24,155408,6,0,P|386:65|411:176,1,150.000005722046,2|0,1:0|0:0,0:0:0:0:
444,87,155716,2,0,P|444:144|383:241,1,150.000005722046,2|0,1:0|0:0,0:0:0:0:
475,209,156024,2,0,P|434:250|322:275,1,150.000005722046,2|0,1:0|0:0,0:0:0:0:
274,325,156331,6,0,B|224:316|224:316|227:297|227:297|283:306,1,120,2|0,1:0|0:0,0:0:0:0:
347,276,156639,2,0,P|367:282|383:293,4,30.0000011444092,2|0|0|0|10,0:1|0:0|1:0|0:0|0:1,0:0:0:0:
274,325,157101,1,0,1:0:0:0:
265,226,157255,1,0,1:0:0:0:
254,129,157408,1,0,1:0:0:0:
183,58,157562,6,0,L|197:-11,1,60.0000022888184,0|0,1:0|1:0,0:0:0:0:
87,125,157870,2,0,L|101:56,1,60.0000022888184,0|0,0:0|1:0,0:0:0:0:
153,210,158178,2,0,L|167:141,1,60.0000022888184,2|2,0:0|0:0,0:0:0:0:
60,276,158485,1,2,0:0:0:0:
60,276,158639,1,2,0:0:0:0:
129,364,158793,6,0,B|252:345|130:340|238:324,1,120,4|0,1:0|0:0,0:0:0:0:
314,314,159101,6,0,P|339:316|353:324,4,30.0000011444092,0|0|0|0|8,0:0|0:0|0:0|0:0|0:0,0:0:0:0:
219,379,159562,2,0,L|230:310,1,60.0000022888184
213,317,159870,2,0,L|224:248,1,60.0000022888184
242,261,160178,2,0,L|253:192,1,60.0000022888184,0|0,0:0|1:0,0:0:0:0:
234,199,160485,2,0,L|245:130,1,60.0000022888184,0|8,0:0|0:0,0:0:0:0:
261,29,160793,2,0,L|251:88,1,60.0000022888184
261,142,161101,2,0,L|272:73,1,60.0000022888184,0|0,0:0|1:0,0:0:0:0:
468,54,161562,5,0,0:0:0:0:
441,56,161638,1,0,0:0:0:0:
417,65,161715,1,0,1:0:0:0:
396,80,161792,1,0,0:0:0:0:
379,101,161869,1,8,0:0:0:0:
451,174,162024,2,0,L|382:184,1,60.0000022888184
298,222,162331,1,0,0:0:0:0:
463,251,162485,5,0,1:0:0:0:
387,179,162639,1,0,0:0:0:0:
298,222,162793,1,0,0:0:0:0:
298,222,163101,5,0,1:0:0:0:
220,297,163255,1,0,0:0:0:0:
120,254,163409,1,0,0:0:0:0:
61,91,163716,6,0,B|93:39|93:39|95:115,1,120,4|0,1:0|0:0,0:0:0:0:
67,174,164024,6,0,P|109:176|154:153,1,80,0|0,1:0|0:0,0:0:0:0:
186,53,164331,2,0,P|228:51|273:74,1,80,0|0,1:0|0:0,0:0:0:0:
257,183,164639,2,0,P|287:211|337:222,1,80,0|0,1:0|0:0,0:0:0:0:
405,114,164947,6,0,L|399:66,4,40,4|0|0|0|0,1:0|1:0|1:0|1:0|1:0,0:0:0:0:
391,0,165408,1,0,1:0:0:0:
486,122,165562,1,2,1:0:0:0:
330,142,165716,1,0,1:0:0:0:
258,217,165870,1,8,0:0:0:0:
233,214,165946,1,8,0:0:0:0:
208,211,166023,1,8,0:0:0:0:
183,208,166100,1,8,0:0:0:0:
159,205,166177,5,0,0:0:0:0:
58,276,166331,2,0,P|33:306|25:340,2,64,0|2|0,0:0|0:0|0:0,0:0:0:0:
159,205,166793,1,2,0:0:0:0:
241,214,167101,1,2,0:0:0:0:
304,333,167408,5,2,0:0:0:0:
389,322,167716,1,2,0:0:0:0:
421,187,168024,2,0,P|443:202|473:276,1,96,2|0,0:0|0:0,0:0:0:0:
460,266,168331,6,0,B|485:21|480:283|506:39,1,240.000009155274,0|2,0:0|0:0,0:0:0:0:
40,39,178485,5,8,0:0:0:0:
118,55,178793,1,8,0:0:0:0:
183,100,179101,1,8,0:0:0:0:
225,167,179408,1,8,0:0:0:0:
239,245,179716,5,10,0:0:0:0:
280,313,180024,1,8,0:0:0:0:
347,355,180331,1,8,0:0:0:0:
425,369,180639,1,10,0:0:0:0:
512,305,180793,2,0,L|501:259,1,40,10|10,0:0|0:0,0:0:0:0:
485,261,180947,6,0,L|508:359,1,80,12|0,0:1|0:0,0:0:0:0:
425,369,181255,1,8,0:0:0:0:
347,355,181562,1,10,0:0:0:0:
279,312,181870,1,8,0:0:0:0:
198,323,182178,5,10,0:0:0:0:
132,370,182485,1,10,0:0:0:0:
41,354,182793,1,10,0:0:0:0:
0,285,183101,1,8,0:0:0:0:
60,190,183255,1,8,0:0:0:0:
60,190,183331,1,8,0:0:0:0:
60,190,183408,6,0,L|74:87,1,71.9999978027344,10|8,0:0|0:0,0:0:0:0:
136,178,183716,2,0,L|145:106,1,71.9999978027344,10|8,0:0|0:0,0:0:0:0:
207,212,184024,2,0,L|221:109,1,71.9999978027344,10|8,0:0|0:0,0:0:0:0:
286,199,184331,2,0,L|295:127,1,71.9999978027344,10|8,0:0|0:0,0:0:0:0:
265,39,184639,6,0,L|279:142,1,71.9999978027344,10|8,0:0|0:0,0:0:0:0:
341,51,184947,2,0,L|350:122,1,71.9999978027344,10|8,0:0|0:0,0:0:0:0:
412,17,185255,2,0,L|426:120,1,71.9999978027344,10|8,0:0|0:0,0:0:0:0:
491,30,185562,2,0,L|500:101,1,71.9999978027344,10|8,0:0|0:0,0:0:0:0:
509,251,185870,5,10,0:0:0:0:
480,256,185946,1,8,0:0:0:0:
453,268,186023,1,8,0:0:0:0:
435,290,186100,1,8,0:0:0:0:
424,317,186177,1,8,0:0:0:0:
405,340,186254,1,8,0:0:0:0:
380,354,186331,1,8,0:0:0:0:
352,362,186408,1,8,0:0:0:0:
322,367,186485,2,0,L|275:360,3,44.0000013427735,10|8|8|8,0:0|0:0|0:0|0:0,0:0:0:0:
213,322,186793,2,0,L|217:294,6,22.0000006713867,8|0|0|0|0|0|0,0:0|0:0|0:0|0:0|0:0|0:0|0:0,0:0:0:0:
136,340,187101,6,0,L|65:330,1,60.0000022888184,2|0,0:0|0:0,0:0:0:0:
56,228,187408,6,0,L|127:238,1,71.9999978027344,2|0,0:0|0:0,0:0:0:0:
207,151,187716,6,0,L|123:139,1,83.9999974365235,2|0,0:0|0:0,0:0:0:0:
22,58,188024,6,2,B|-1:18|-1:18|50:5|50:5|48:67,1,143.999995605469,10|0,0:1|0:0,0:1:0:0:
45,128,188331,6,0,B|156:109|73:56|188:44,1,155.999992858887,6|2,1:0|0:0,0:0:0:0:
244,74,188639,1,8,1:0:0:0:
152,265,188793,2,0,B|217:173|120:194|193:104,1,155.999992858887,2|2,1:0|0:0,0:0:0:0:
248,78,189101,1,8,1:0:0:0:
233,0,189255,1,2,1:0:0:0:
257,158,189408,1,2,0:1:0:0:
311,24,189562,6,0,P|367:36|437:109,1,155.999992858887,6|2,1:0|0:0,0:0:0:0:
433,113,189870,1,8,1:0:0:0:
512,202,190024,2,0,P|456:214|386:287,1,155.999992858887,2|2,1:0|0:0,0:0:0:0:
390,291,190332,1,8,1:0:0:0:
378,371,190485,1,2,1:0:0:0:
403,207,190639,1,2,1:0:0:0:
327,237,190793,6,0,B|311:131|268:217|249:92,1,155.999992858887,6|2,1:0|0:0,0:0:0:0:
238,32,191101,1,8,1:0:0:0:
228,255,191255,2,0,B|204:150|275:215|248:91,1,155.999992858887,2|2,1:0|0:0,0:0:0:0:
238,32,191563,1,8,1:0:0:0:
160,46,191716,1,2,1:0:0:0:
317,18,191870,1,2,0:1:0:0:
155,53,192024,6,0,L|-9:83,1,155.999992858887,6|2,1:0|0:0,0:0:0:0:
1,81,192331,1,8,1:0:0:0:
171,135,192485,2,0,L|7:165,1,155.999992858887,2|2,1:0|0:0,0:0:0:0:
17,163,192792,1,8,1:0:0:0:
0,244,192947,1,2,1:0:0:0:
49,318,193101,1,10,0:0:0:0:
49,318,193178,1,8,0:0:0:0:
49,318,193255,6,0,P|93:338|128:383,1,103.999995239258,6|0,1:0|0:0,0:0:0:0:
260,359,193562,1,8,1:0:0:0:
170,241,193716,2,0,L|181:307,1,51.999997619629,2|0,1:0|0:0,0:0:0:0:
184,296,193870,2,0,L|158:134,1,155.999992858887,6|0,1:0|1:0,0:0:0:0:
148,65,194178,1,10,1:2:0:0:
250,207,194331,2,0,L|263:274,1,51.999997619629,2|0,1:0|0:0,0:0:0:0:
259,258,194485,6,0,P|305:222|366:216,1,103.999995239258,6|0,1:0|0:0,0:0:0:0:
384,255,194716,1,2,0:1:0:0:
402,274,194793,2,0,L|511:289,1,95.9999970703126,8|2,0:0|0:1,0:0:0:0:
485,365,195101,1,2,1:2:0:0:
459,202,195255,1,2,0:0:0:0:
389,352,195408,1,10,1:2:0:0:
368,191,195562,1,2,0:0:0:0:
295,339,195716,6,0,P|246:363|196:363,1,95.9999970703126,2|0,1:2|0:0,0:0:0:0:
105,370,196024,1,8,1:0:0:0:
119,283,196178,1,2,0:0:0:0:
197,236,196331,1,2,1:2:0:0:
183,149,196485,1,2,0:0:0:0:
121,87,196639,1,10,1:2:0:0:
135,0,196793,1,2,0:0:0:0:
227,16,196947,6,0,L|330:35,1,95.9999970703126,2|0,1:2|1:0,0:0:0:0:
438,68,197255,2,0,L|343:50,1,95.9999970703126,10|0,1:2|1:0,0:0:0:0:
286,134,197562,2,0,P|282:189|307:235,1,95.9999970703126,2|0,1:2|0:0,0:0:0:0:
261,270,197793,1,0,1:0:0:0:
244,285,197870,2,0,P|280:326|330:341,1,95.9999970703126,10|0,0:0|1:0,0:0:0:0:
474,355,198178,6,0,B|460:248|416:328|405:201,1,155.999992858887,6|2,1:0|0:0,0:0:0:0:
418,142,198485,1,8,1:0:0:0:
317,340,198639,2,0,B|351:237|379:324|414:201,1,155.999992858887,2|2,1:0|0:0,0:0:0:0:
418,142,198946,1,8,1:0:0:0:
339,153,199101,1,2,1:0:0:0:
497,130,199255,1,10,1:0:0:0:
331,159,199408,6,0,P|266:157|191:105,1,155.999992858887,6|2,1:0|0:0,0:0:0:0:
192,107,199716,1,8,1:0:0:0:
78,168,199870,2,0,P|33:120|17:30,1,155.999992858887,2|2,1:0|0:0,0:0:0:0:
15,34,200178,1,8,1:0:0:0:
81,175,200331,1,2,1:0:0:0:
92,92,200485,1,10,0:1:0:0:
71,256,200639,6,0,L|63:319,4,51.999997619629,2|0|0|0|8,1:0|1:0|1:0|1:0|1:0,0:0:0:0:
163,365,201101,2,0,B|327:338|144:345|344:313,1,155.999992858887,2|2,1:0|0:0,0:0:0:0:
370,368,201408,1,8,1:0:0:0:
225,304,201562,1,2,1:0:0:0:
353,210,201716,1,10,1:0:0:0:
380,288,201870,6,0,P|376:215|431:107,1,155.999992858887,6|2,1:0|0:0,0:0:0:0:
417,136,202178,1,8,1:0:0:0:
283,88,202331,2,0,P|331:33|447:-3,1,155.999992858887,2|2,1:0|0:0,0:0:0:0:
416,6,202639,1,8,1:0:0:0:
499,152,202793,1,2,1:2:0:0:
494,179,202869,1,10,0:0:0:0:
489,206,202946,1,10,0:0:0:0:
484,233,203023,1,10,0:0:0:0:
479,261,203101,6,0,L|468:320,4,47.9999985351563,2|0|0|0|10,1:2|1:0|1:0|1:0|0:1,0:0:0:0:
348,291,203562,1,2,1:0:0:0:
348,291,203716,2,0,L|337:350,4,47.9999985351563,2|0|0|0|10,1:2|1:0|1:0|1:0|0:1,0:0:0:0:
223,167,204178,1,2,1:0:0:0:
223,167,204331,6,0,L|205:272,1,103.999995239258,2|0,1:1|1:0,0:0:0:0:
243,314,204562,1,2,1:0:0:0:
260,322,204639,2,0,B|214:350|214:350|148:331,1,103.999995239258,8|2,1:0|1:0,0:0:0:0:
38,181,204947,2,0,L|31:126,1,51.999997619629,10|0,1:0|0:0,0:0:0:0:
49,174,205101,2,0,L|42:119,1,51.999997619629,0|0,1:0|0:0,0:0:0:0:
122,195,205255,2,0,L|115:250,1,51.999997619629,10|0,1:0|0:0,0:0:0:0:
133,202,205409,2,0,L|126:257,1,51.999997619629,0|0,1:0|0:0,0:0:0:0:
223,167,205562,6,0,L|303:156,3,47.9999985351563,10|0|8|0,1:2|1:0|1:0|1:0,0:0:0:0:
393,141,205870,2,0,L|345:148,3,47.9999985351563,10|0|8|0,1:2|1:0|1:0|1:0,0:0:0:0:
318,223,206178,2,0,L|325:270,2,47.9999985351563,10|8|8,0:0|0:0|0:0,0:0:0:0:
290,241,206408,2,0,L|290:296,2,47.9999985351563,10|8|8,0:0|0:0|0:0,0:0:0:0:
352,230,206639,2,0,L|373:286,1,47.9999985351563,10|8,0:0|0:0,0:0:0:0:
185,281,206793,6,0,P|254:270|488:379,1,320,6|0,1:0|0:0,0:0:0:0:
484,269,207716,6,2,B|444:243|454:189|454:189|444:243|396:254,1,180.000006866455,10|0,0:1|0:0,0:1:0:0:
321,289,208024,6,0,B|301:291|301:291|303:306|303:306|325:303,1,53.3333333333333,4|0,1:0|0:0,0:0:0:0:
409,316,208331,6,0,L|395:222,1,63.9999980468751,2|0,0:1|0:0,0:0:0:0:
419,236,208537,2,0,L|405:142,1,63.9999980468751,2|0,0:1|0:0,0:0:0:0:
361,154,208742,2,0,L|347:60,1,63.9999980468751,2|0,0:1|0:0,0:0:0:0:
423,63,208947,2,0,L|409:-31,1,63.9999980468751,2|0,0:1|0:0,0:0:0:0:
258,24,209255,6,0,P|231:27|205:21,1,53.3333333333333,0|0,1:0|0:0,0:0:0:0:
109,11,209562,6,0,P|122:33|132:78,1,63.9999980468751,10|0,0:1|0:0,0:0:0:0:
191,117,209767,2,0,P|185:142|160:181,1,63.9999980468751,2|0,0:1|0:0,0:0:0:0:
181,249,209972,2,0,P|158:262|113:272,1,63.9999980468751,2|0,0:1|0:0,0:0:0:0:
77,333,210178,2,0,P|51:327|12:302,1,63.9999980468751,10|0,0:1|0:0,0:0:0:0:
147,364,210408,1,0,0:0:0:0:
171,375,210485,6,0,L|223:366,1,53.3333333333333,0|0,1:0|0:0,0:0:0:0:
308,352,210793,6,0,P|333:357|372:382,1,63.9999980468751,10|0,0:1|0:0,0:0:0:0:
450,362,210998,2,0,P|465:334|489:312,1,63.9999980468751,2|0,0:1|0:0,0:0:0:0:
472,224,211203,2,0,P|446:218|407:193,1,63.9999980468751,2|0,0:1|0:0,0:0:0:0:
331,217,211408,2,0,P|315:244|291:266,2,63.9999980468751,10|0|0,1:0|1:0|1:0,0:0:0:0:
360,133,211716,6,0,L|344:48,2,80,0|0|2,1:0|0:0|0:0,0:0:0:0:
331,217,212178,1,0,0:0:0:0:
441,117,212331,2,0,L|418:1,1,95.9999970703126,8|0,0:0|0:0,0:0:0:0:
260,57,212639,1,2,0:0:0:0:
234,53,212716,1,2,0:0:0:0:
208,50,212793,1,2,0:0:0:0:
184,46,212870,1,2,0:0:0:0:
160,42,212947,6,0,P|133:44|109:55,1,53.3333333333333,4|0,1:0|0:0,0:0:0:0:
89,138,213255,6,0,L|157:150,1,63.9999980468751,10|0,0:1|0:0,0:0:0:0:
67,148,213460,2,0,L|3:136,1,63.9999980468751,2|0,0:1|0:0,0:0:0:0:
109,220,213665,2,0,L|177:232,1,63.9999980468751,2|0,0:1|0:0,0:0:0:0:
87,230,213870,2,0,L|23:218,1,63.9999980468751,10|0,0:1|0:0,0:0:0:0:
70,378,214178,6,0,B|81:363|81:363|115:357,1,53.3333333333333,0|0,1:0|0:0,0:0:0:0:
187,310,214485,6,0,B|204:337|204:337|256:346,1,63.9999980468751,10|0,0:1|0:0,0:0:0:0:
234,352,214690,2,0,B|265:358|265:358|291:339,1,63.9999980468751,2|0,0:1|0:0,0:0:0:0:
350,289,214896,2,0,B|367:262|367:262|419:253,1,63.9999980468751,2|0,0:1|0:0,0:0:0:0:
397,247,215101,2,0,B|430:242|430:242|456:259,1,63.9999980468751,10|0,0:1|0:0,0:0:0:0:
476,382,215331,1,0,0:0:0:0:
501,376,215408,6,0,L|509:323,1,53.3333333333333,0|0,1:0|0:0,0:0:0:0:
455,258,215716,6,0,L|436:170,1,63.9999980468751,10|0,0:1|0:0,0:0:0:0:
469,164,215921,2,0,L|482:101,1,63.9999980468751,2|0,0:1|0:0,0:0:0:0:
445,68,216126,2,0,L|431:5,1,63.9999980468751,2|0,0:1|0:0,0:0:0:0:
356,26,216331,2,0,L|367:78,2,53.3333333333333,8|0|0,1:0|1:0|1:0,0:0:0:0:
279,71,216639,5,0,1:0:0:0:
352,34,216793,2,0,L|363:86,1,40,2|0,0:1|0:0,0:0:0:0:
315,145,216947,2,0,L|262:156,1,40,2|0,0:1|0:0,0:0:0:0:
207,108,217101,2,0,L|198:68,1,40,2|0,0:1|0:0,0:0:0:0:
131,23,217255,1,8,0:0:0:0:
51,41,217408,1,0,0:0:0:0:
8,110,217562,1,0,0:0:0:0:
27,188,217716,1,0,0:0:0:0:
164,219,217870,6,0,P|197:240|220:272,1,80.0000030517579,4|0,1:0|0:0,0:0:0:0:
200,363,218178,6,0,P|227:364|276:349,1,74.6666643880209,10|0,1:0|0:0,0:0:0:0:
277,370,218383,2,0,P|302:360|340:325,1,74.6666643880209,2|0,0:1|1:0,0:0:0:0:
350,344,218588,2,0,P|369:324|389:277,1,74.6666643880209,2|0,0:1|0:0,0:0:0:0:
406,290,218793,2,0,P|414:264|412:213,1,74.6666643880209,10|0,1:0|0:0,0:0:0:0:
366,139,218998,1,2,0:0:0:0:
349,152,219101,6,0,L|360:72,1,80.0000030517579,0|0,1:0|0:0,0:0:0:0:
286,59,219408,6,0,L|273:152,1,74.6666643880209,10|0,1:0|0:0,0:0:0:0:
261,67,219613,2,0,L|248:160,1,74.6666643880209,2|0,0:1|1:0,0:0:0:0:
181,91,219818,2,0,L|168:-2,1,74.6666643880209,2|0,0:1|0:0,0:0:0:0:
156,83,220023,2,0,L|143:-10,1,74.6666643880209,10|0,1:0|0:0,0:0:0:0:
64,57,220229,1,2,0:0:0:0:
56,83,220331,6,0,B|36:99|9:92|9:92|37:99|48:133,1,106.666666666667,0|0,1:0|0:0,0:0:0:0:
60,212,220639,6,0,P|90:200|142:202,1,74.6666643880209,10|0,1:0|0:0,0:0:0:0:
127,220,220844,2,0,P|159:221|205:245,1,74.6666643880209,2|0,0:1|1:0,0:0:0:0:
183,256,221049,2,0,P|211:271|243:312,1,74.6666643880209,2|0,0:1|0:0,0:0:0:0:
220,312,221255,2,0,P|239:337|250:388,1,74.6666643880209,10|0,1:0|0:0,0:0:0:0:
333,365,221460,1,2,1:0:0:0:
368,371,221562,6,0,B|431:45|447:374|509:27,1,383.99998828125,0|8,1:0|0:0,0:0:0:0:
507,33,222485,1,2,0:0:0:0:
507,33,222639,1,0,0:0:0:0:
482,237,222793,6,0,B|508:136|465:251|496:126,1,106.666666666667,4|0,1:0|0:0,0:0:0:0:
439,72,223101,6,0,P|410:71|364:91,1,74.6666643880209,2|0,1:0|0:0,0:0:0:0:
356,78,223306,2,0,P|334:97|316:144,1,74.6666643880209,2|0,1:0|0:0,0:0:0:0:
323,160,223511,2,0,P|289:175|252:175,1,74.6666643880209,2|0,1:0|0:0,0:0:0:0:
235,200,223716,2,0,P|200:186|173:161,1,74.6666643880209,2|0,1:0|0:0,0:0:0:0:
164,83,223921,1,2,1:0:0:0:
187,64,224024,6,0,L|178:-6,2,63.9999980468751,4|0|0,1:0|1:0|1:0,0:0:0:0:
162,157,224331,2,0,L|171:227,2,63.9999980468751,0|0|0,1:0|1:0|1:0,0:0:0:0:
105,76,224639,2,0,L|96:6,2,63.9999980468751,4|0|0,1:0|1:0|1:0,0:0:0:0:
79,170,224946,2,0,L|88:240,2,63.9999980468751,0|0|0,1:0|1:0|1:0,0:0:0:0:
24,88,225255,5,4,1:0:0:0:
56,309,225562,6,0,P|93:318|129:348,1,80,2|2,0:0|0:0,0:0:0:0:
146,200,226178,6,0,P|175:223|195:266,1,71.9999978027344,2|0,0:0|0:0,0:0:0:0:
257,142,226793,6,0,P|271:170|271:210,1,64,2|2,0:0|0:0,0:0:0:0:
367,141,227408,6,0,P|367:167|354:196,1,55.9999982910157,2|0,0:0|0:0,0:0:0:0:
450,177,228024,6,0,P|439:200|414:221,1,47.9999985351563,2|2,0:0|0:0,0:0:0:0:
503,228,228639,6,0,P|486:242|461:248,1,40,2|0,0:0|0:0,0:0:0:0:
512,265,229255,6,0,P|495:269|475:266,1,32,2|2,0:0|0:0,0:0:0:0:
510,284,229870,6,0,P|497:282|483:272,1,24,2|0,0:0|0:0,0:0:0:0:
480,268,230178,6,0,B|502:194|476:112|409:66|356:36|268:70|196:119|194:186|194:186|302:223|401:150|383:88|348:-2|290:-18|290:-18|244:37|250:96|268:203|397:193|441:155,1,1177.59996046875
