osu file format v14

[General]
AudioFilename: audio.mp3
AudioLeadIn: 0
PreviewTime: 109485
Countdown: 0
SampleSet: Soft
StackLeniency: 0.4
Mode: 0
LetterboxInBreaks: 0
WidescreenStoryboard: 1

[Editor]
Bookmarks: 1255,20947,30793,40639,50485,60331,70178,80024,89870,99716,109562,119408,129255,139101,148947,158793,168639,178485,188331,190024,198178,208024,217870,225255,235101
DistanceSpacing: 1.4
BeatDivisor: 3
GridSize: 8
TimelineZoom: 3.499997

[Metadata]
Title:Destroy -agitato-
TitleUnicode:Destroy -agitato-
Artist:Yooh
ArtistUnicode:Yooh
Creator:Realazy
Version:Reol's XtrA
Source:SOUND VOLTEX III GRAVITY WARS
Tags:Trynna Ayyri eiri- taku KKipalt Reol [_HalLoWeeN_] z1085684963 kiryu Symphonic Hardcore SDVX 3 Yoohsic Roomz Destopia YACT-006
BeatmapID:1811460
BeatmapSetID:839273

[Difficulty]
HPDrainRate:5.5
CircleSize:4.8
OverallDifficulty:8.3
ApproachRate:9.3
SliderMultiplier:1.8
SliderTickRate:1

[Events]
//Background and Video events
0,0,"destroy.jpg",0,0
//Break Periods
//Storyboard Layer 0 (Background)
//Storyboard Layer 1 (Fail)
//Storyboard Layer 2 (Pass)
//Storyboard Layer 3 (Foreground)
//Storyboard Layer 4 (Overlay)
//Storyboard Sound Samples

[TimingPoints]
1255,307.692307692308,4,2,1,50,1,0
20947,-100,4,2,1,70,0,0
22178,-133.333333333333,4,2,1,70,0,0
24639,-66.6666666666667,4,2,1,70,0,0
25255,-76.9230769230769,4,2,1,70,0,0
25562,-100,4,2,1,70,0,0
28331,-76.9230769230769,4,2,1,70,0,0
28947,-62.5,4,2,1,70,0,0
30178,-200,4,2,1,70,0,0
30485,-62.5,4,2,1,70,0,0
30793,-100,4,2,1,30,0,0
33101,-66.6666666666667,4,2,1,30,0,0
33255,-100,4,2,1,30,0,0
35408,-50,4,2,1,30,0,0
35716,-100,4,2,1,35,0,0
37255,-83.3333333333333,4,2,1,35,0,0
38178,-100,4,2,1,35,0,0
39408,-100,4,2,1,55,0,0
39562,-125,4,2,1,55,0,0
40639,-100,4,2,1,40,0,0
40946,-100,4,2,2,40,0,0
40947,-100,4,2,2,40,0,0
42947,-83.3333333333333,4,2,2,40,0,0
43101,-100,4,2,2,40,0,0
45562,-100,4,2,2,45,0,0
48178,-200,4,2,2,20,0,0
48639,-142.857142857143,4,2,2,30,0,0
48947,-111.111111111111,4,2,2,40,0,0
49562,-142.857142857143,4,2,2,30,0,0
49870,-300.000003,4,2,2,20,0,0
50178,-71.4285714285714,4,2,2,40,0,0
50793,-71.4285714285714,4,2,2,35,0,0
51101,-71.4285714285714,4,2,2,30,0,0
51408,-71.4285714285714,4,2,2,25,0,0
51716,-71.4285714285714,4,2,2,20,0,0
52024,-71.4285714285714,4,2,2,15,0,0
52331,-71.4285714285714,4,2,2,10,0,0
52639,-71.4285714285714,4,2,2,5,0,0
54178,-1000,4,2,1,10,0,0
55408,-500,4,2,1,15,0,0
56639,-333.333333333333,4,2,1,20,0,0
57870,-250,4,2,1,25,0,0
59101,-200,4,2,1,30,0,0
60331,-200,4,2,3,40,0,0
65255,-222.222222222222,4,2,3,35,0,0
65870,-250,4,2,3,32,0,0
66485,-285.714285714286,4,2,3,29,0,0
67101,-333.333333333333,4,2,3,26,0,0
67716,-400,4,2,3,23,0,0
68331,-500,4,2,3,20,0,0
70178,-125,4,2,1,40,0,0
72639,-125,4,2,1,45,0,0
75101,-125,4,2,1,50,0,0
77562,-100,4,2,1,55,0,0
78485,-100,4,2,3,45,0,0
78793,-76.9230769230769,4,2,2,60,0,0
79408,-62.5,4,2,2,70,0,0
80024,-100,4,2,2,50,0,0
81255,-100,4,2,2,55,0,0
82485,-100,4,2,2,60,0,0
83716,-100,4,2,2,65,0,0
84947,-66.6666666666667,4,2,1,50,0,0
86178,-66.6666666666667,4,2,1,55,0,0
87408,-66.6666666666667,4,2,1,60,0,0
87716,-66.6666666666667,4,2,1,65,0,0
88024,-66.6666666666667,4,2,1,70,0,0
88331,-66.6666666666667,4,2,1,75,0,0
88639,-66.6666666666667,4,2,1,40,0,0
88947,-66.6666666666667,4,2,1,45,0,0
89049,-66.6666666666667,4,2,1,50,0,0
89152,-66.6666666666667,4,2,1,55,0,0
89255,-66.6666666666667,4,2,1,60,0,0
89562,-57.1428571428571,4,2,1,70,0,0
89870,-500,4,2,1,50,0,0
90178,-66.6666666666667,4,2,1,40,0,0
91101,-500,4,2,1,50,0,0
91408,-66.6666666666667,4,2,1,40,0,0
92331,-500,4,2,1,50,0,0
92639,-66.6666666666667,4,2,1,40,0,0
93562,-125,4,2,1,45,0,0
94793,-500,4,2,1,50,0,0
95101,-66.6666666666667,4,2,1,40,0,0
96024,-500,4,2,1,50,0,0
96331,-66.6666666666667,4,2,1,40,0,0
97255,-500,4,2,1,50,0,0
97562,-66.6666666666667,4,2,1,40,0,0
98485,-100,4,2,1,50,0,0
99716,-500,4,2,1,60,0,0
100024,-55.5555555555556,4,2,1,50,0,0
100947,-500,4,2,1,60,0,0
101255,-55.5555555555556,4,2,1,50,0,0
102178,-500,4,2,1,60,0,0
102485,-55.5555555555556,4,2,1,50,0,0
103408,-100,4,2,1,55,0,0
104639,-500,4,2,1,60,0,0
104947,-55.5555555555556,4,2,1,50,0,0
105152,-54.054054054054,4,2,1,53,0,0
105357,-52.6315789473684,4,2,1,56,0,0
105562,-51.2820512820513,4,2,1,59,0,0
105767,-50,4,2,1,62,0,0
105972,-48.780487804878,4,2,1,65,0,0
106178,-47.6190476190476,4,2,1,68,0,0
106383,-46.5116279069767,4,2,1,71,0,0
106588,-45.4545454545455,4,2,1,74,0,0
106793,-44.4444444444445,4,2,1,77,0,0
107101,-100,4,2,1,60,0,0
109255,-66.6666666666667,4,2,2,50,0,0
109562,-83.3333333333333,4,2,1,80,0,1
114485,-57.1428571428571,4,2,1,80,0,1
114716,-100,4,2,1,80,0,1
114947,-57.1428571428571,4,2,1,80,0,1
115178,-100,4,2,1,80,0,1
115408,-66.6666666666667,4,2,1,80,0,1
115716,-57.1428571428571,4,2,1,80,0,1
115947,-100,4,2,1,80,0,1
116178,-57.1428571428571,4,2,1,80,0,1
116408,-100,4,2,1,80,0,1
116639,-100,4,2,1,80,0,1
119101,-66.6666666666667,4,2,1,80,0,1
119408,-83.3333333333333,4,2,1,80,0,1
123101,-71.4285714285714,4,2,1,80,0,1
124331,-66.6666666666667,4,2,1,80,0,1
124562,-100,4,2,1,80,0,1
124793,-66.6666666666667,4,2,1,80,0,1
125024,-100,4,2,1,80,0,1
125255,-66.6666666666667,4,2,1,80,0,1
125562,-55.5555555555556,4,2,1,80,0,1
125793,-100,4,2,1,80,0,1
126024,-55.5555555555556,4,2,1,80,0,1
126255,-100,4,2,1,80,0,1
126485,-55.5555555555556,4,2,1,80,0,1
126793,-100,4,2,1,80,0,1
129255,-66.6666666666667,4,2,1,80,0,1
129485,-100,4,2,1,80,0,1
129716,-66.6666666666667,4,2,1,80,0,1
129946,-100,4,2,1,80,0,1
130178,-74.0740740740741,4,2,1,80,0,1
130485,-66.6666666666667,4,2,1,80,0,1
130715,-100,4,2,1,80,0,1
130947,-66.6666666666667,4,2,1,80,0,1
131177,-100,4,2,1,80,0,1
131408,-74.0740740740741,4,2,1,80,0,1
131716,-66.6666666666667,4,2,1,80,0,1
131946,-100,4,2,1,80,0,1
132178,-66.6666666666667,4,2,1,80,0,1
132408,-100,4,2,1,80,0,1
132639,-74.0740740740741,4,2,1,80,0,1
132947,-66.6666666666667,4,2,1,80,0,1
133177,-100,4,2,1,80,0,1
133408,-66.6666666666667,4,2,1,80,0,1
133638,-100,4,2,1,80,0,1
133870,-74.0740740740741,4,2,1,80,0,1
134639,-66.6666666666667,4,2,1,80,0,1
134793,-57.1428571428571,4,2,1,80,0,1
135408,-50,4,2,1,80,0,1
136639,-83.3333333333333,4,2,1,80,0,1
139101,-66.6666666666667,4,2,1,80,0,1
139331,-100,4,2,1,80,0,1
139562,-66.6666666666667,4,2,1,80,0,1
139793,-100,4,2,1,80,0,1
140024,-74.0740740740741,4,2,1,80,0,1
140331,-76.9230769230769,4,2,1,80,0,1
140561,-100,4,2,1,80,0,1
140793,-66.6666666666667,4,2,1,80,0,1
141023,-100,4,2,1,80,0,1
141255,-74.0740740740741,4,2,1,80,0,1
142024,-66.6666666666667,4,2,1,80,0,1
142254,-100,4,2,1,80,0,1
142485,-74.0740740740741,4,2,1,80,0,1
142793,-66.6666666666667,4,2,1,80,0,1
143023,-100,4,2,1,80,0,1
143255,-66.6666666666667,4,2,1,80,0,1
143485,-100,4,2,1,80,0,1
144024,-74.0740740740741,4,2,1,80,0,1
144485,-66.6666666666667,4,2,1,80,0,1
144639,-57.1428571428571,4,2,1,80,0,1
145255,-50,4,2,1,80,0,1
146485,-83.3333333333333,4,2,1,80,0,1
147716,-500,4,2,1,50,0,0
148639,-66.6666666666667,4,2,2,80,0,1
148947,-125,4,2,1,50,0,0
152639,-142.857142857143,4,2,1,50,0,0
153177,-142.857142857143,4,2,1,5,0,0
153178,-142.857142857143,4,2,1,5,0,0
153255,-166.666666666667,4,2,1,50,0,0
153793,-166.666666666667,4,2,1,5,0,0
153870,-125,4,2,2,50,0,0
154485,-125,4,2,1,50,0,0
154638,-125,4,2,2,50,0,0
155408,-166.666666666667,4,2,1,60,0,0
155638,-166.666666666667,4,2,1,5,0,0
155639,-100,4,2,1,5,0,0
155716,-166.666666666667,4,2,1,60,0,0
155946,-166.666666666667,4,2,1,5,0,0
155947,-166.666666666667,4,2,1,5,0,0
156024,-166.666666666667,4,2,1,60,0,0
156254,-166.666666666667,4,2,2,5,0,0
156255,-166.666666666667,4,2,2,5,0,0
156331,-100,4,2,2,50,0,0
156947,-100,4,2,1,50,0,0
157101,-100,4,2,2,50,0,0
157562,-166.666666666667,4,2,2,40,0,0
158331,-166.666666666667,4,2,2,45,0,0
158485,-100,4,2,2,50,0,0
158639,-100,4,2,2,55,0,0
158793,-125,4,2,1,50,0,0
162485,-142.857142857143,4,2,1,50,0,0
163023,-142.857142857143,4,2,1,5,0,0
163024,-142.857142857143,4,2,1,5,0,0
163101,-166.666666666667,4,2,1,50,0,0
163639,-166.666666666667,4,2,1,5,0,0
163716,-100,4,2,2,60,0,0
165870,-100,4,2,3,50,0,0
166331,-200,4,2,1,20,0,0
166793,-142.857142857143,4,2,1,30,0,0
167101,-111.111111111111,4,2,1,40,0,0
167716,-142.857142857143,4,2,1,30,0,0
168024,-303.030303030303,4,2,1,20,0,0
168254,-303.030303030303,4,2,1,5,0,0
168255,-303.030303030303,4,2,1,5,0,0
168331,-71.4285714285714,4,2,1,60,0,0
168561,-71.4285714285714,4,2,1,5,0,0
168562,-83.3333333333333,4,2,1,5,0,0
168639,-285.714285714286,4,2,1,20,0,0
178485,-125,4,2,1,40,0,0
180947,-100,4,2,1,45,0,0
183408,-100,4,2,1,50,0,0
184639,-100,4,2,1,55,0,0
185870,-100,4,2,1,60,0,0
186485,-100,4,2,1,70,0,0
187101,-100,4,2,1,30,0,0
187408,-83.3333333333333,4,2,1,40,0,0
187716,-71.4285714285714,4,2,1,50,0,0
188024,-62.5,4,2,2,70,0,0
188331,-66.6666666666667,4,2,1,80,0,1
188562,-100,4,2,1,80,0,1
188792,-66.6666666666667,4,2,1,80,0,1
189024,-100,4,2,1,80,0,1
189254,-74.0740740740741,4,2,1,80,0,1
189561,-66.6666666666667,4,2,1,80,0,1
189793,-100,4,2,1,80,0,1
190023,-66.6666666666667,4,2,1,80,0,1
190255,-100,4,2,1,80,0,1
190484,-74.0740740740741,4,2,1,80,0,1
190792,-66.6666666666667,4,2,1,80,0,1
191024,-100,4,2,1,80,0,1
191254,-66.6666666666667,4,2,1,80,0,1
191485,-100,4,2,1,80,0,1
191715,-74.0740740740741,4,2,1,80,0,1
192023,-66.6666666666667,4,2,1,80,0,1
192255,-100,4,2,1,80,0,1
192484,-66.6666666666667,4,2,1,80,0,1
192716,-100,4,2,1,80,0,1
192946,-74.0740740740741,4,2,1,80,0,1
193715,-66.6666666666667,4,2,1,80,0,1
193869,-57.1428571428571,4,2,1,80,0,1
194484,-50,4,2,1,80,0,1
195716,-83.3333333333333,4,2,1,80,0,1
198024,-76.9230769230769,4,2,1,80,0,1
198178,-66.6666666666667,4,2,1,80,0,1
198408,-100,4,2,1,80,0,1
198638,-66.6666666666667,4,2,1,80,0,1
198870,-100,4,2,1,80,0,1
199101,-74.0740740740741,4,2,1,80,0,1
199407,-66.6666666666667,4,2,1,80,0,1
199639,-100,4,2,1,80,0,1
199869,-66.6666666666667,4,2,1,80,0,1
200101,-100,4,2,1,80,0,1
200331,-74.0740740740741,4,2,1,80,0,1
201100,-66.6666666666667,4,2,1,80,0,1
201331,-100,4,2,1,80,0,1
201562,-74.0740740740741,4,2,1,80,0,1
201869,-66.6666666666667,4,2,1,80,0,1
202101,-100,4,2,1,80,0,1
202331,-66.6666666666667,4,2,1,80,0,1
202561,-100,4,2,1,80,0,1
203101,-74.0740740740741,4,2,1,80,0,1
203562,-66.6666666666667,4,2,1,80,0,1
203716,-57.1428571428571,4,2,1,80,0,1
204331,-50,4,2,1,80,0,1
205562,-83.3333333333333,4,2,1,80,0,1
206793,-500,4,2,1,50,0,0
207716,-66.6666666666667,4,2,1,80,0,1
208024,-500,4,2,1,60,0,0
208331,-66.6666666666667,4,2,4,50,0,0
209255,-500,4,2,1,60,0,0
209562,-66.6666666666667,4,2,4,50,0,0
210485,-500,4,2,1,60,0,0
210793,-66.6666666666667,4,2,4,50,0,0
211716,-125,4,2,1,50,0,0
212947,-500,4,2,1,60,0,0
213255,-66.6666666666667,4,2,4,50,0,0
214178,-500,4,2,1,60,0,0
214485,-66.6666666666667,4,2,4,50,0,0
215408,-500,4,2,1,60,0,0
215716,-66.6666666666667,4,2,4,50,0,0
216639,-100,4,2,1,50,0,0
217870,-500,4,2,1,70,0,0
218178,-55.5555555555556,4,2,4,60,0,0
219101,-500,4,2,1,70,0,0
219408,-55.5555555555556,4,2,4,60,0,0
220331,-500,4,2,1,70,0,0
220639,-55.5555555555556,4,2,4,60,0,0
221562,-100,4,2,1,50,0,0
222793,-500,4,2,1,70,0,0
223101,-55.5555555555556,4,2,4,60,0,0
223306,-54.054054054054,4,2,1,63,0,0
223511,-52.6315789473684,4,2,1,66,0,0
223716,-51.2820512820513,4,2,1,69,0,0
223921,-50,4,2,1,69,0,0
224024,-50,4,2,1,72,0,0
224126,-50,4,2,1,72,0,0
224229,-50,4,2,1,72,0,0
224331,-50,4,2,1,75,0,0
224434,-50,4,2,1,78,0,0
224536,-50,4,2,1,75,0,0
224537,-50,4,2,1,80,0,0
224639,-50,4,2,1,78,0,0
224742,-50,4,2,1,84,0,0
224844,-50,4,2,1,78,0,0
224947,-50,4,2,1,81,0,0
225049,-50,4,2,1,81,0,0
225152,-50,4,2,1,81,0,0
225254,-50,4,2,1,50,0,0
225255,-200,4,2,1,50,0,0
226485,-250,4,2,1,50,0,0
227716,-333.333333333333,4,2,1,50,0,0
228947,-500,4,2,1,50,0,0
230178,-500,4,2,1,40,0,0
230793,-500,4,2,1,35,0,0
231408,-500,4,2,1,30,0,0
232024,-500,4,2,1,25,0,0
232639,-500,4,2,1,20,0,0
233255,-500,4,2,1,15,0,0
233870,-500,4,2,1,10,0,0
234485,-500,4,2,1,5,0,0

[Colours]
Combo1 : 220,116,228
Combo2 : 99,126,190
Combo3 : 189,160,220
Combo4 : 136,221,227

[HitObjects]
97,101,20947,5,4,1:0:0:0:
92,118,21101,1,0,0:0:0:0:
87,135,21255,1,0,0:0:0:0:
142,315,21408,5,4,1:0:0:0:
87,135,21562,1,0,0:0:0:0:
92,118,21639,1,0,0:0:0:0:
97,101,21716,1,0,0:0:0:0:
103,84,21793,1,0,0:0:0:0:
109,67,21870,2,0,P|137:48|211:57,1,90,0|0,1:0|0:0,0:0:0:0:
214,147,22178,6,0,B|279:171|262:128|335:160,2,101.250003862381,0|0|0,0:1|0:1|0:1,0:0:0:0:
43,68,22793,1,0,1:0:0:0:
35,79,22870,1,0,0:0:0:0:
42,89,22947,1,0,0:0:0:0:
36,101,23024,1,0,0:0:0:0:
43,112,23101,5,0,0:0:0:0:
65,137,23178,1,0,0:0:0:0:
74,169,23255,1,0,0:0:0:0:
74,202,23331,1,0,0:0:0:0:
65,234,23408,5,4,1:0:0:0:
41,297,23562,1,0,0:0:0:0:
104,320,23716,1,0,0:0:0:0:
306,143,23870,1,4,1:0:0:0:
131,255,24024,5,0,0:0:0:0:
141,263,24101,1,0,0:0:0:0:
151,271,24178,1,0,0:0:0:0:
161,279,24255,1,0,0:0:0:0:
170,287,24331,1,0,1:0:0:0:
245,316,24485,1,0,0:0:0:0:
376,221,24639,6,2,B|396:220|396:220|397:237|415:235|415:235|416:255|436:253|436:253|432:273|450:278|450:278|442:292|457:301|457:301|448:311|455:326|455:326|443:332|452:343|452:343|441:351|448:364|448:364|430:365,1,202.500007724762,2|2,1:0|0:1,0:0:0:0:
445,355,24947,2,0,L|352:363,1,67.5000025749208,2|0,0:1|0:0,0:0:0:0:
272,200,25101,2,0,L|311:284,1,67.5000025749208,2|0,0:1|0:0,0:0:0:0:
295,347,25255,6,0,B|224:355|224:355|197:332|197:332|118:340,1,175.499991966248,8|0,0:0|0:0,0:0:0:0:
70,369,25562,5,0,0:0:0:0:
104,340,25638,1,0,0:0:0:0:
116,298,25715,1,0,0:0:0:0:
102,256,25792,1,0,0:0:0:0:
66,229,25869,5,4,1:0:0:0:
87,159,26024,1,0,0:0:0:0:
107,89,26178,1,0,0:0:0:0:
37,107,26331,1,4,1:0:0:0:
157,138,26485,1,0,0:0:0:0:
174,136,26562,1,0,0:0:0:0:
191,134,26639,1,0,0:0:0:0:
208,132,26716,1,0,0:0:0:0:
225,130,26793,1,0,1:0:0:0:
201,298,26947,1,0,1:0:0:0:
376,353,27101,5,4,1:0:0:0:
352,185,27255,1,0,0:0:0:0:
507,268,27408,2,0,L|489:372,1,90,8|0,0:0|0:0,0:0:0:0:
352,185,27716,2,0,L|367:96,1,90,0|0,1:0|0:0,0:0:0:0:
340,38,27947,1,0,1:0:0:0:
278,24,28024,2,0,P|262:37|246:60,1,45,8|0,0:0|0:0,0:0:0:0:
164,113,28178,2,0,P|166:136|183:162,1,45,0|0,1:0|0:0,0:0:0:0:
129,275,28331,6,0,P|145:310|190:329,1,77.9999964294435,12|0,1:2|0:0,0:0:0:0:
325,310,28537,2,0,P|347:278|341:230,1,77.9999964294435,8|0,1:0|0:0,0:0:0:0:
256,136,28742,2,0,P|217:132|178:161,1,77.9999964294435,8|0,1:0|0:0,0:0:0:0:
169,364,28947,6,0,B|209:337|209:337|219:284,1,96,12|0,1:2|0:0,0:0:0:0:
448,181,29152,2,0,B|405:160|405:160|354:178,1,96,8|0,1:0|0:0,0:0:0:0:
150,30,29357,2,0,B|153:78|153:78|194:113,1,96,8|0,1:0|0:0,0:0:0:0:
272,192,29562,5,12,1:0:0:0:
247,177,29665,1,8,1:0:0:0:
247,206,29767,1,8,1:0:0:0:
272,163,29870,5,8,1:0:0:0:
222,192,29972,1,8,1:0:0:0:
272,220,30075,1,8,1:0:0:0:
277,112,30178,6,0,L|274:52,1,60,8|0,1:0|0:0,0:0:0:0:
258,38,30485,6,0,B|261:110|261:110|280:131|280:131|267:153|267:153|271:220,1,192,2|0,0:1|0:0,0:0:0:0:
320,325,30793,6,0,B|304:329|304:329|296:318|277:324|277:324|276:304|256:306|256:306|261:289|244:278|244:278|259:268|246:255|246:255|260:250|253:232|253:232|265:229,1,180,4|0,0:0|1:0,0:0:0:0:
464,211,31255,2,0,L|452:271,1,45
464,280,31408,1,0,1:0:0:0:
382,183,31562,2,0,L|370:243,1,45
382,252,31715,1,0,1:0:0:0:
296,157,31870,2,0,L|284:217,1,45
296,226,32023,1,0,1:0:0:0:
208,134,32178,2,0,L|196:194,1,45
208,203,32331,1,0,1:0:0:0:
117,114,32485,2,0,L|105:174,1,45
123,220,32639,2,0,L|111:280,3,45,0|0|0|0,1:0|0:0|0:0|0:0,0:0:0:0:
128,326,32947,1,0,1:0:0:0:
145,331,33024,1,0,0:0:0:0:
160,335,33101,6,0,P|183:310|176:258,2,67.5000025749208,2|0|0,0:0|0:0|1:0,0:0:0:0:
43,244,33408,6,0,L|31:184,1,45
16,179,33562,1,0,1:0:0:0:
119,211,33716,2,0,L|107:151,1,45
97,144,33870,2,0,L|105:188,1,45,0|0,1:0|0:0,0:0:0:0:
194,179,34024,2,0,L|182:119,1,45
167,114,34178,1,0,1:0:0:0:
269,145,34331,2,0,L|257:85,1,45
242,80,34485,1,0,1:0:0:0:
345,111,34639,2,0,L|333:51,1,45
318,46,34793,1,0,1:0:0:0:
420,79,34947,2,0,L|408:19,1,45
393,14,35101,2,0,L|401:58,1,45,0|0,1:0|0:0,0:0:0:0:
470,127,35255,2,0,P|462:148|444:169,1,45
429,271,35408,6,0,B|371:295|394:251|314:275,3,90,2|0|0|0,1:1|0:1|0:1|0:1,0:0:0:0:
341,268,35716,5,0,1:0:0:0:
225,349,35870,1,0,0:0:0:0:
220,331,35947,1,0,0:0:0:0:
215,313,36024,1,0,1:0:0:0:
123,293,36178,1,0,0:0:0:0:
118,275,36255,1,0,0:0:0:0:
113,257,36332,1,0,1:0:0:0:
107,240,36408,1,0,0:0:0:0:
101,222,36485,1,0,0:0:0:0:
95,204,36562,1,0,0:0:0:0:
90,186,36639,1,0,1:0:0:0:
151,113,36793,1,0,0:0:0:0:
147,95,36870,1,0,0:0:0:0:
143,77,36947,2,0,B|228:95|198:40|279:57,1,135,0|0,1:0|0:0,0:0:0:0:
271,55,37255,6,0,B|280:88|263:115|263:115|287:145|287:145|265:176|275:227,1,161.999995056153,2|2,1:0|0:0,0:0:0:0:
203,232,37562,2,0,P|261:202|323:284,1,161.999995056153,2|2,1:0|0:0,0:0:0:0:
259,272,37870,1,0,1:0:0:0:
390,247,38024,2,0,L|453:258,1,53.9999983520508,2|0,0:0|0:0,0:0:0:0:
502,300,38178,5,0,1:0:0:0:
419,171,38331,2,0,L|429:127,2,45,0|0|0,1:0|0:0|0:0,0:0:0:0:
395,316,38639,1,0,0:0:0:0:
370,327,38715,1,0,0:0:0:0:
344,330,38792,1,0,1:0:0:0:
317,324,38869,1,0,0:0:0:0:
295,310,38946,1,0,0:0:0:0:
279,288,39023,1,0,0:0:0:0:
270,263,39100,1,0,1:0:0:0:
302,101,39255,1,0,1:0:0:0:
136,167,39408,5,4,1:0:0:0:
149,237,39562,2,0,P|115:217|66:218,2,72,0|0|0,0:0|1:0|0:0,0:0:0:0:
174,300,40024,2,0,B|246:314|219:266|303:295,1,108,8|0,0:0|0:0,0:0:0:0:
334,347,40331,1,0,0:0:0:0:
297,325,40407,1,0,0:0:0:0:
278,287,40484,1,0,0:0:0:0:
283,245,40561,1,0,0:0:0:0:
311,213,40639,6,0,B|323:210|323:210|316:192|330:187|330:187|317:174|330:163|330:163|315:153|318:137|318:137|300:138|296:120|296:120|280:124|267:112|267:112|246:120,1,180,4|8,1:2|0:0,0:0:0:0:
111,192,41101,1,0,0:0:0:0:
112,200,41177,1,0,0:0:0:0:
114,209,41254,1,0,1:0:0:0:
115,218,41331,1,0,0:0:0:0:
117,227,41408,1,0,0:0:0:0:
118,236,41485,1,0,0:0:0:0:
120,245,41562,1,8,0:0:0:0:
63,314,41716,1,0,0:0:0:0:
79,320,41793,1,0,0:0:0:0:
95,325,41870,1,0,1:0:0:0:
176,299,42024,5,0,0:0:0:0:
192,305,42101,1,0,0:0:0:0:
208,310,42178,1,8,0:0:0:0:
290,351,42331,1,0,0:0:0:0:
291,342,42408,1,0,0:0:0:0:
293,333,42485,1,0,1:0:0:0:
294,324,42562,1,0,0:0:0:0:
296,315,42639,1,0,0:0:0:0:
297,306,42716,1,0,0:0:0:0:
299,297,42792,1,8,0:0:0:0:
282,113,42947,6,0,L|299:187,1,53.9999983520508,2|0,0:0|0:0,0:0:0:0:
306,230,43101,1,0,1:0:0:0:
154,197,43255,6,0,L|219:188,1,45
221,205,43408,1,8,0:0:0:0:
170,287,43562,1,0,0:0:0:0:
161,288,43638,1,0,0:0:0:0:
152,289,43715,1,0,1:0:0:0:
143,290,43792,1,0,0:0:0:0:
134,292,43869,1,0,0:0:0:0:
125,293,43946,1,0,0:0:0:0:
116,294,44023,1,8,0:0:0:0:
40,209,44178,1,0,0:0:0:0:
57,207,44255,1,0,0:0:0:0:
74,205,44331,1,0,1:0:0:0:
132,93,44485,1,0,0:0:0:0:
134,110,44562,1,0,0:0:0:0:
136,127,44638,1,8,0:0:0:0:
250,190,44793,5,0,0:0:0:0:
233,192,44870,1,0,0:0:0:0:
216,194,44946,1,2,1:2:0:0:
197,224,45023,1,2,0:2:0:0:
194,259,45100,1,2,0:2:0:0:
209,291,45177,1,2,0:2:0:0:
238,312,45254,1,10,1:2:0:0:
388,300,45408,2,0,L|444:292,1,45,0|0,1:0|0:0,0:0:0:0:
502,316,45562,5,2,1:0:0:0:
412,176,45716,2,0,L|463:198,1,45
471,214,45870,1,10,0:1:0:0:
328,198,46024,1,0,0:0:0:0:
321,171,46100,1,0,0:0:0:0:
325,145,46177,1,2,1:0:0:0:
339,122,46254,1,0,0:0:0:0:
360,105,46331,1,0,0:0:0:0:
386,98,46408,1,0,0:0:0:0:
413,101,46485,1,10,0:1:0:0:
308,72,46639,1,0,1:0:0:0:
203,44,46793,5,2,1:0:0:0:
84,139,46947,1,0,1:0:0:0:
236,131,47101,1,10,0:1:0:0:
108,47,47255,1,0,1:0:0:0:
166,194,47408,1,2,1:0:0:0:
171,229,47484,1,0,1:0:0:0:
161,263,47561,1,0,1:0:0:0:
135,288,47638,1,0,1:0:0:0:
101,299,47716,2,0,L|61:291,6,22.5,2|0|0|0|0|0|0,0:1|0:0|0:0|0:0|0:0|0:0|0:0,0:0:0:0:
146,359,48024,5,0,0:0:0:0:
225,358,48178,2,0,L|288:365,2,45,0|2|0,0:0|0:0|0:0,0:0:0:0:
213,278,48639,2,0,L|279:253,1,62.9999980773926,2|0,0:0|0:0,0:0:0:0:
153,222,48947,2,0,L|182:137,1,80.9999975280763,2|0,0:0|0:0,0:0:0:0:
179,145,49255,6,0,L|153:222,1,80.9999975280763,2|0,0:0|0:0,0:0:0:0:
271,255,49562,2,0,L|213:278,1,62.9999980773926,2|0,0:0|0:0,0:0:0:0:
269,362,49870,2,0,L|225:358,1,45,2|0,0:0|0:0,0:0:0:0:
225,358,50178,6,0,B|275:364|275:364|299:333|306:301|295:258|252:230,1,188.999994232178,10|0,0:1|0:0,0:0:0:0:
200,208,50485,1,4,0:1:0:0:
256,192,50562,12,0,52947,0:0:0:0:
198,146,54178,5,0,0:0:0:0:
198,146,54485,2,0,L|180:147,2,18
302,134,55408,5,0,0:0:0:0:
302,134,55716,2,0,L|298:93,2,36
314,238,56639,5,0,0:0:0:0:
314,238,56947,2,0,L|376:234,2,53.9999983520508
210,250,57870,5,0,0:0:0:0:
210,250,58178,2,0,L|214:329,2,72
198,146,59101,5,0,0:0:0:0:
198,146,59409,2,0,L|103:151,2,90
336,39,60331,5,4,0:1:0:0:
378,32,60639,2,0,P|356:30|336:39,1,45,0|0,0:0|1:0,0:0:0:0:
349,110,60947,2,0,P|339:129|341:156,1,45,8|0,0:0|0:0,0:0:0:0:
406,180,61255,2,0,P|424:193|455:194,1,45,0|0,1:0|0:0,0:0:0:0:
481,258,61562,6,0,P|461:243|389:249,1,90,0|0,0:0|1:0,0:0:0:0:
355,301,62024,1,0,0:0:0:0:
298,345,62178,2,0,B|239:354|267:327|196:330,1,90,8|0,0:0|0:0,0:0:0:0:
141,347,62639,1,0,0:0:0:0:
141,347,62793,6,0,P|113:358|96:357,1,45,0|0,1:0|0:0,0:0:0:0:
101,284,63101,2,0,P|79:273|65:252,1,45,0|0,0:0|1:0,0:0:0:0:
121,209,63408,2,0,L|135:105,1,90,8|0,0:0|1:0,0:0:0:0:
142,47,63870,1,0,0:0:0:0:
142,47,64024,6,0,P|157:71|217:78,1,90,0|0,0:0|1:0,0:0:0:0:
274,39,64485,1,0,0:0:0:0:
237,100,64639,2,0,P|224:120|220:143,1,45,8|0,0:0|0:0,0:0:0:0:
246,208,64947,2,0,P|262:227|291:236,1,45,0|0,1:0|0:0,0:0:0:0:
355,240,65255,6,0,L|375:143,1,80.9999975280763,0|0,1:0|0:0,0:0:0:0:
371,160,65716,1,0,0:0:0:0:
252,268,65870,6,0,L|297:196,1,72,0|0,1:0|0:0,0:0:0:0:
290,206,66331,1,0,0:0:0:0:
145,254,66485,6,0,L|204:206,1,62.9999980773926,0|0,1:0|0:0,0:0:0:0:
193,214,66946,1,0,0:0:0:0:
52,204,67101,6,0,L|111:182,1,53.9999983520508,0|0,1:0|0:0,0:0:0:0:
102,185,67562,1,0,0:0:0:0:
8,116,67716,6,0,L|56:116,1,45,0|0,1:0|0:0,0:0:0:0:
53,116,68177,1,0,0:0:0:0:
1,21,68331,6,0,L|36:35,1,36,0|0,1:0|0:0,0:0:0:0:
34,34,68792,1,0,0:0:0:0:
34,34,70178,6,0,B|121:55|91:11|183:39,2,144,4|2|2,1:0|0:0|0:0,0:0:0:0:
34,34,70947,1,2,0:0:0:0:
136,112,71101,1,0,0:0:0:0:
153,231,71255,2,0,P|111:175|135:111,1,144,2|0,0:0|0:0,0:0:0:0:
263,160,71716,2,0,B|232:172|232:172|194:167,1,72,2|0,0:0|0:0,0:0:0:0:
134,111,72024,5,2,0:0:0:0:
232,87,72178,1,0,0:0:0:0:
193,166,72331,1,2,0:0:0:0:
289,189,72485,1,2,0:0:0:0:
277,36,72639,6,0,B|365:48|365:48|304:16,2,144,0|2|2,0:0|0:0|0:0,0:0:0:0:
162,21,73408,1,2,0:0:0:0:
65,84,73562,1,0,0:0:0:0:
176,111,73716,2,0,P|206:132|193:241,1,144,2|0,0:0|0:0,0:0:0:0:
70,335,74178,2,0,P|76:298|106:275,1,72,2|0,0:0|0:0,0:0:0:0:
256,319,74485,5,2,0:0:0:0:
161,327,74639,1,0,0:0:0:0:
301,242,74793,1,2,0:0:0:0:
206,250,74947,1,2,0:0:0:0:
352,170,75101,6,0,B|376:80|323:120|351:15,2,144,2|2|2,0:0|0:0|0:0,0:0:0:0:
211,303,75870,1,2,0:0:0:0:
211,303,76024,1,0,0:0:0:0:
29,236,76178,2,0,B|58:251|58:251|146:230|146:230|183:255,1,144,2|0,0:0|0:0,0:0:0:0:
240,368,76639,2,0,L|144:356,1,72,2|0,0:0|0:0,0:0:0:0:
137,176,76947,5,2,0:0:0:0:
207,162,77101,1,0,0:0:0:0:
221,233,77255,1,2,0:0:0:0:
151,247,77408,1,2,0:0:0:0:
126,102,77562,6,0,B|253:79|253:79|195:133,2,180,2|2|2,0:0|0:0|0:0,0:0:0:0:
36,114,78331,1,2,0:0:0:0:
200,201,78485,1,8,0:0:0:0:
205,218,78562,1,8,0:0:0:0:
196,234,78639,1,8,0:0:0:0:
203,250,78716,1,8,0:0:0:0:
198,265,78793,6,0,P|225:290|281:289,1,77.9999964294435,0|0,1:0|0:0,0:0:0:0:
348,205,78998,2,0,P|356:169|327:121,1,77.9999964294435,8|0,0:0|0:0,0:0:0:0:
221,105,79203,2,0,P|186:116|159:165,1,77.9999964294435,8|0,0:0|0:0,0:0:0:0:
260,339,79408,6,0,L|368:322,1,96,0|0,1:0|0:0,0:0:0:0:
126,121,79613,2,0,L|87:223,1,96,8|0,0:0|0:0,0:0:0:0:
381,115,79819,2,0,L|312:30,1,96,8|0,0:0|0:0,0:0:0:0:
126,121,80024,6,0,P|116:89|29:70,1,120,4|0,1:0|0:0,0:0:0:0:
71,159,80331,2,0,B|122:151|122:151|140:161|140:161|211:152,1,120,8|0,0:0|0:0,0:0:0:0:
283,147,80639,2,0,P|302:123|304:86,2,60,2|2|2,0:0|0:0|0:0,0:0:0:0:
251,238,80947,2,0,P|280:248|324:235,2,60,10|2|2,0:0|0:0|0:0,0:0:0:0:
91,208,81255,6,0,B|81:255|81:255|94:279|94:279|81:350,1,120
179,341,81562,2,0,B|240:328|240:328|181:293,1,120,8|0,0:0|0:0,0:0:0:0:
175,203,81870,2,0,L|187:143,2,60,2|2|2,0:0|0:0|0:0,0:0:0:0:
93,151,82178,1,10,0:0:0:0:
100,116,82280,1,2,0:0:0:0:
108,80,82383,1,2,0:0:0:0:
283,31,82485,6,0,P|232:60|168:29,1,120,2|0,0:0|0:0,0:0:0:0:
32,64,82793,2,0,P|82:93|87:164,1,120,2|0,0:0|0:0,0:0:0:0:
60,241,83101,1,2,0:0:0:0:
73,311,83203,1,2,0:0:0:0:
141,287,83306,1,2,0:0:0:0:
191,338,83408,2,0,L|266:327,2,60,2|2|10,0:0|0:0|0:0,0:0:0:0:
53,356,83716,6,0,B|4:364|4:364|72:305,1,120,2|0,0:0|0:0,0:0:0:0:
207,233,84024,2,0,P|156:261|92:230,1,120,10|0,0:0|0:0,0:0:0:0:
82,172,84331,1,2,0:0:0:0:
99,101,84434,1,2,0:0:0:0:
59,40,84537,1,2,0:0:0:0:
156,150,84639,2,0,P|176:120|173:88,2,60,10|2|2,0:0|0:0|0:0,0:0:0:0:
82,172,84947,5,14,0:0:0:0:
67,242,85049,1,8,0:0:0:0:
82,312,85152,1,8,0:0:0:0:
141,353,85255,5,10,0:0:0:0:
158,349,85357,1,8,0:0:0:0:
175,345,85460,1,8,0:0:0:0:
228,296,85562,6,0,P|265:269|316:282,2,90.0000034332277,10|10|10,0:0|0:0|0:0,0:0:0:0:
283,342,85870,5,10,0:0:0:0:
306,275,85972,1,10,0:0:0:0:
289,204,86075,1,10,0:0:0:0:
223,173,86178,6,0,B|179:177|179:177|221:144,2,90.0000034332277,14|8|8,0:0|0:0|0:0,0:0:0:0:
281,90,86485,2,0,B|325:86|325:86|283:119,2,90.0000034332277,10|8|8,0:0|0:0|0:0,0:0:0:0:
195,70,86793,1,10,1:2:0:0:
125,50,86895,1,8,0:0:0:0:
56,31,86998,1,10,1:2:0:0:
86,115,87101,5,8,0:0:0:0:
103,119,87203,1,10,1:2:0:0:
120,124,87306,1,8,0:0:0:0:
160,200,87408,5,12,0:0:0:0:
210,275,87511,1,8,0:0:0:0:
199,363,87613,1,8,0:0:0:0:
313,363,87716,5,10,0:0:0:0:
302,275,87818,1,8,0:0:0:0:
352,200,87921,1,8,0:0:0:0:
330,112,88024,6,0,P|373:110|424:149,2,90.0000034332277,14|8|8,0:0|0:0|0:0,0:0:0:0:
182,112,88331,6,0,P|139:110|88:149,2,90.0000034332277,10|8|8,0:0|0:0|0:0,0:0:0:0:
256,12,88639,5,2,1:2:0:0:
256,102,88742,1,2,1:2:0:0:
256,191,88844,1,2,1:2:0:0:
220,255,88947,5,2,1:2:0:0:
220,130,89049,1,2,1:2:0:0:
328,192,89152,1,2,1:2:0:0:
238,336,89255,6,0,B|213:286|213:286|220:254|220:254|193:239|193:239|167:183,1,180.000006866455,12|0,1:0|0:0,0:0:0:0:
220,14,89562,6,0,B|252:83|252:83|244:153|244:153|205:67,1,210.000002002716,14|0,1:0|0:0,0:0:0:0:
220,14,89870,6,0,L|196:12,1,24,4|0,1:0|0:0,0:0:0:0:
23,57,90178,6,0,L|126:48,1,90.0000034332277,2|0,0:1|0:0,0:0:0:0:
226,119,90383,2,0,L|123:110,1,90.0000034332277,2|0,0:1|0:0,0:0:0:0:
20,181,90588,2,0,L|123:172,1,90.0000034332277,2|0,0:1|0:0,0:0:0:0:
223,243,90793,2,0,L|120:234,1,90.0000034332277,2|0,0:1|0:0,0:0:0:0:
26,356,91101,6,0,L|22:332,1,24,0|0,1:0|0:0,0:0:0:0:
119,215,91408,6,0,P|88:247|81:291,1,90.0000034332277,2|0,0:1|0:0,0:0:0:0:
177,358,91613,2,0,P|159:317|168:273,1,90.0000034332277,2|0,0:1|0:0,0:0:0:0:
288,235,91819,2,0,P|253:262|240:305,1,90.0000034332277,2|0,0:1|0:0,0:0:0:0:
360,377,92024,2,0,P|329:344|322:300,1,90.0000034332277,2|0,0:1|0:0,0:0:0:0:
393,204,92255,1,0,1:0:0:0:
439,224,92331,6,0,L|462:228,1,24,0|0,1:0|0:0,0:0:0:0:
482,223,92639,6,0,L|371:200,1,90.0000034332277,2|0,0:1|0:0,0:0:0:0:
296,65,92844,2,0,L|331:171,1,90.0000034332277,2|0,0:1|0:0,0:0:0:0:
417,296,93049,2,0,L|306:273,1,90.0000034332277,2|0,0:1|0:0,0:0:0:0:
231,138,93254,2,0,L|266:244,1,90.0000034332277,2|0,0:1|0:0,0:0:0:0:
259,223,93562,5,0,1:0:0:0:
328,277,93716,2,0,L|407:265,2,72,0|2|0,0:0|0:0|0:0,0:0:0:0:
210,284,94178,2,0,B|171:290|171:290|156:308|156:308|107:317,1,108,8|0,0:0|0:0,0:0:0:0:
66,360,94485,1,2,0:0:0:0:
101,336,94561,1,2,0:0:0:0:
116,296,94638,1,2,0:0:0:0:
104,255,94715,1,2,0:0:0:0:
71,229,94793,6,0,L|47:232,1,24,4|0,1:0|0:0,0:0:0:0:
44,77,95101,6,0,L|25:194,1,90.0000034332277,2|0,0:1|0:0,0:0:0:0:
180,93,95306,2,0,L|118:194,1,90.0000034332277,2|0,0:1|0:0,0:0:0:0:
298,169,95511,2,0,L|203:239,1,90.0000034332277,2|0,0:1|0:0,0:0:0:0:
362,283,95716,2,0,L|247:313,1,90.0000034332277,2|0,0:1|0:0,0:0:0:0:
274,305,96024,6,0,L|297:307,1,24,0|0,1:0|0:0,0:0:0:0:
416,176,96331,6,0,L|371:276,1,90.0000034332277,2|0,0:1|0:0,0:0:0:0:
277,106,96537,2,0,L|293:214,1,90.0000034332277,2|0,0:1|0:0,0:0:0:0:
125,122,96742,2,0,L|198:203,1,90.0000034332277,2|0,0:1|0:0,0:0:0:0:
7,225,96947,2,0,L|112:253,1,90.0000034332277,2|0,0:1|0:0,0:0:0:0:
173,325,97178,1,0,1:0:0:0:
179,349,97255,6,0,P|170:356|158:357,1,24,0|0,1:0|0:0,0:0:0:0:
232,283,97562,6,0,P|261:315|262:378,1,90.0000034332277,2|0,0:1|0:0,0:0:0:0:
207,207,97767,2,0,P|164:216|109:185,1,90.0000034332277,2|0,0:1|0:0,0:0:0:0:
285,222,97972,2,0,P|298:180|352:148,1,90.0000034332277,2|0,0:1|0:0,0:0:0:0:
432,266,98178,1,0,1:0:0:0:
370,302,98280,1,0,1:0:0:0:
370,230,98383,1,0,1:0:0:0:
500,289,98485,6,0,L|510:224,2,60,0|0|0,1:0|0:0|0:0,0:0:0:0:
434,162,98793,2,0,L|424:97,2,60,2|0|0,0:0|0:0|0:0,0:0:0:0:
455,296,99101,6,0,L|507:287,1,45,10|0,0:1|0:0,0:0:0:0:
387,320,99255,2,0,L|431:327,1,45,2|0,0:1|0:0,0:0:0:0:
282,252,99408,2,0,L|340:246,1,45,2|0,0:1|0:0,0:0:0:0:
173,300,99562,2,0,L|217:304,1,45,2|0,0:1|0:0,0:0:0:0:
80,249,99716,6,0,L|103:247,1,24,4|0,1:0|0:0,0:0:0:0:
206,188,100024,6,0,B|197:143|211:120|211:120|226:137|220:198,1,107.999996704102,2|0,1:0|0:0,0:0:0:0:
272,212,100229,2,0,B|317:203|340:217|340:217|323:232|262:226,1,107.999996704102,2|0,1:0|0:0,0:0:0:0:
242,271,100434,2,0,B|251:316|237:339|237:339|222:322|228:261,1,107.999996704102,2|0,1:0|0:0,0:0:0:0:
176,245,100639,2,0,B|131:254|108:240|108:240|125:225|186:231,1,107.999996704102,2|0,1:0|0:0,0:0:0:0:
206,188,100844,1,2,0:0:0:0:
222,122,100947,6,0,L|214:99,1,24,0|0,1:0|0:0,0:0:0:0:
142,29,101255,6,0,P|152:66|102:142,1,107.999996704102,2|0,1:0|0:0,0:0:0:0:
266,22,101460,2,0,P|269:60|342:114,1,107.999996704102,2|0,1:0|0:0,0:0:0:0:
143,209,101665,2,0,P|190:232|204:284,1,107.999996704102,2|0,1:0|0:0,0:0:0:0:
317,176,101870,2,0,P|287:219|301:271,1,107.999996704102,2|0,1:0|0:0,0:0:0:0:
367,306,102075,1,2,0:0:0:0:
440,318,102178,6,0,L|463:314,1,24,0|0,1:0|0:0,0:0:0:0:
490,325,102485,6,0,B|449:333|449:333|420:318|420:318|386:324,1,107.999996704102,2|0,1:0|0:0,0:0:0:0:
251,344,102690,2,0,P|295:316|304:261,1,107.999996704102,2|0,1:0|0:0,0:0:0:0:
188,182,102896,2,0,P|190:234|233:269,1,107.999996704102,2|0,1:0|0:0,0:0:0:0:
357,212,103101,2,0,P|310:187|258:207,2,107.999996704102,2|0|2,1:0|1:0|1:0,0:0:0:0:
374,291,103408,6,0,B|391:297|391:297|404:285|420:289|420:289|424:271|441:271|441:271|439:256|453:247|453:247|441:235|454:224|454:224|442:216|450:205|450:205|436:187,1,180,0|2,1:0|0:0,0:0:0:0:
389,130,103870,1,0,0:0:0:0:
374,292,104024,2,0,B|386:363|386:363|407:340,1,90,8|0,0:0|0:0,0:0:0:0:
487,224,104331,2,0,L|425:217,1,45,2|0,0:0|0:0,0:0:0:0:
369,168,104485,2,0,L|351:126,1,45
368,255,104639,6,0,L|354:274,1,24,4|0,1:0|0:0,0:0:0:0:
261,276,104947,6,0,P|275:288|279:374,1,107.999996704102,2|0,1:0|0:0,0:0:0:0:
181,291,105152,6,0,P|175:308|96:347,1,110.999999576569,2|0,1:0|0:0,0:0:0:0:
123,236,105357,6,0,P|104:238|36:179,1,113.999996955872,2|0,1:0|0:0,0:0:0:0:
134,150,105562,6,0,P|124:134|159:41,1,117.00000044632,2|0,1:0|0:0,0:0:0:0:
231,136,105767,6,0,P|241:120|343:116,1,120,2|0,1:0|0:0,0:0:0:0:
215,230,105972,6,0,P|196:228|138:142,1,123.000001876831,2|0,1:0|0:0,0:0:0:0:
305,202,106178,6,0,P|312:218|264:309,1,125.999996154785,2|0,1:0|0:0,0:0:0:0:
156,306,106383,6,0,B|98:319|98:319|141:246,1,129.000001968384,2|0,1:0|0:0,0:0:0:0:
203,125,106588,2,0,B|220:68|220:68|259:150,1,132.00000402832,2|0,1:0|0:0,0:0:0:0:
329,258,106793,2,0,B|369:301|369:301|275:294,2,135.000005149841,0|0|0,1:0|1:0|1:0,0:0:0:0:
341,163,107101,6,0,P|340:135|392:88,1,90,8|0,0:0|0:0,0:0:0:0:
498,184,107408,2,0,P|489:210|424:237,1,90,8|0,0:0|0:0,0:0:0:0:
286,225,107716,2,0,B|218:230|218:230|181:207|181:207|108:212,1,180,8|8,0:0|0:0,0:0:0:0:
112,211,108178,1,0,0:0:0:0:
123,45,108331,5,8,0:0:0:0:
123,45,108485,1,8,0:0:0:0:
319,55,108639,1,8,0:0:0:0:
319,55,108793,1,8,0:0:0:0:
310,227,108947,1,8,0:0:0:0:
354,221,109023,1,8,0:0:0:0:
399,216,109100,1,8,0:0:0:0:
444,210,109177,1,8,0:0:0:0:
488,205,109255,6,0,B|453:231|400:204|400:204|390:224|390:224|347:197|285:242,1,202.500007724762,10|0,0:0|0:0,0:0:0:0:
273,300,109562,6,0,B|306:343|306:343|365:348,1,107.999996704102,6|0,1:2|0:0,0:0:0:0:
180,272,109870,2,0,B|138:298|138:298|115:359,1,107.999996704102,8|0,1:0|0:0,0:0:0:0:
166,166,110178,2,0,B|122:141|122:141|50:153,1,107.999996704102,2|0,1:2|0:0,0:0:0:0:
65,150,110485,1,8,1:0:0:0:
232,64,110639,6,0,L|242:8,1,53.9999983520508,2|0,0:1|0:0,0:0:0:0:
291,107,110793,1,0,1:0:0:0:
441,198,110947,6,0,L|431:142,1,53.9999983520508,2|0,0:1|0:0,0:0:0:0:
382,241,111101,1,8,1:0:0:0:
441,69,111255,5,2,0:1:0:0:
382,241,111408,2,0,P|332:252|271:211,1,107.999996704102,2|0,1:0|0:0,0:0:0:0:
214,24,111716,1,10,1:0:0:0:
214,24,111870,1,0,1:0:0:0:
27,134,112024,6,0,P|75:150|143:106,1,107.999996704102,2|0,1:0|0:0,0:0:0:0:
334,23,112331,2,0,P|296:56|300:137,1,107.999996704102,10|0,1:0|0:0,0:0:0:0:
315,216,112639,1,2,1:1:0:0:
342,320,112793,1,2,0:1:0:0:
467,212,112947,1,10,1:2:0:0:
440,108,113101,1,2,0:1:0:0:
315,216,113255,6,2,B|247:237|247:237|207:217,1,107.999996704102,2|0,1:0|1:0,0:1:0:0:
164,178,113485,1,2,0:1:0:0:
164,178,113562,2,0,L|50:196,1,107.999996704102,8|2,1:0|1:0,0:0:0:0:
277,339,113870,2,2,L|383:322,1,107.999996704102,2|0,1:0|0:0,0:1:0:0:
447,336,114101,1,2,1:0:0:0:
447,336,114178,2,0,B|511:354|511:354|472:308,1,107.999996704102,8|0,1:0|1:0,0:0:0:0:
322,131,114485,6,0,B|377:117|377:117|413:136|413:136|481:122,1,157.500001502037,6|0,1:0|0:0,0:0:0:0:
471,123,114716,2,0,P|459:154|463:176,1,45,2|8,0:0|1:0,0:0:0:0:
408,341,114947,6,0,B|382:356|382:356|286:331|286:331|254:352,1,157.500001502037,6|0,1:0|0:0,0:0:0:0:
262,346,115178,2,0,P|276:316|270:292,1,45,2|0,0:0|0:0,0:0:0:0:
229,26,115408,6,0,P|236:70|330:94,1,135.000005149842,14|0,1:0|0:0,0:0:0:0:
377,78,115639,1,0,1:0:0:0:
377,78,115716,6,0,B|312:102|312:102|420:129,1,157.500001502037,6|0,1:0|0:0,0:0:0:0:
397,123,115947,2,0,P|409:146|411:178,1,45,2|8,0:0|1:0,0:0:0:0:
377,332,116178,6,0,P|365:287|439:310,1,157.500001502037,6|0,1:0|0:0,0:0:0:0:
439,302,116408,2,0,L|505:296,1,45,2|0,0:0|0:0,0:0:0:0:
311,360,116639,6,0,L|199:350,1,90,10|0,1:0|0:0,0:0:0:0:
154,375,116870,1,0,1:0:0:0:
188,347,116946,1,6,1:0:0:0:
195,304,117023,1,0,1:0:0:0:
170,268,117100,1,0,1:0:0:0:
127,259,117177,1,2,1:0:0:0:
87,282,117255,2,0,P|66:264|73:194,1,90,8|2,1:0|0:1,0:0:0:0:
186,28,117562,5,6,1:0:0:0:
178,63,117638,1,0,1:0:0:0:
170,98,117715,1,0,1:0:0:0:
163,133,117792,1,2,1:0:0:0:
155,168,117869,1,8,1:0:0:0:
209,288,118024,1,2,0:1:0:0:
73,156,118178,5,2,1:0:0:0:
73,156,118331,1,0,1:0:0:0:
313,44,118485,1,8,1:0:0:0:
313,44,118639,1,2,1:0:0:0:
443,152,118793,1,0,1:0:0:0:
426,193,118869,1,0,1:0:0:0:
392,222,118946,1,0,1:0:0:0:
349,231,119023,1,0,1:0:0:0:
306,218,119101,6,0,P|334:233|330:345,1,135.000005149842,10|2,1:0|0:0,0:0:0:0:
97,313,119408,6,0,P|141:301|195:351,1,107.999996704102,2|0,1:2|0:0,0:0:0:0:
119,151,119716,2,0,P|162:164|181:235,1,107.999996704102,8|0,1:0|0:0,0:0:0:0:
265,39,120024,2,0,P|287:78|253:143,1,107.999996704102,2|0,1:2|0:0,0:0:0:0:
268,133,120331,1,8,1:0:0:0:
84,69,120485,6,0,L|97:143,1,53.9999983520508,2|0,0:1|0:0,0:0:0:0:
56,189,120639,1,0,1:0:0:0:
187,362,120793,6,0,L|174:288,1,53.9999983520508,2|0,0:1|0:0,0:0:0:0:
215,242,120947,1,8,1:0:0:0:
397,310,121101,5,2,0:1:0:0:
215,242,121255,2,0,L|194:120,1,107.999996704102,2|0,1:0|0:0,0:0:0:0:
399,13,121562,1,10,1:0:0:0:
399,13,121716,1,0,1:0:0:0:
205,108,121870,2,0,P|242:108|291:181,1,107.999996704102,6|0,1:0|0:0,0:0:0:0:
103,338,122178,2,0,P|70:319|65:231,1,107.999996704102,10|0,1:0|0:0,0:0:0:0:
148,27,122485,6,0,P|148:65|74:113,1,107.999996704102,2|0,1:0|0:0,0:0:0:0:
150,194,122716,2,0,P|117:175|111:87,1,107.999996704102,2|0,0:1|0:0,0:0:0:0:
226,170,122947,2,0,P|233:198|226:224,1,53.9999983520508,2|0,0:1|0:0,0:0:0:0:
106,315,123101,6,0,L|253:300,1,125.999996154785,6|0,1:0|0:0,0:0:0:0:
231,302,123331,1,0,1:0:0:0:
231,302,123408,1,10,1:0:0:0:
483,333,123562,2,0,L|407:326,1,62.9999980773926,2|0,1:0|0:0,0:0:0:0:
370,372,123716,2,0,P|406:335|385:255,1,125.999996154785,6|0,1:0|0:0,0:0:0:0:
353,218,123947,1,0,1:0:0:0:
353,218,124024,2,0,P|343:165|399:109,1,125.999996154785,10|2,1:0|1:2,0:0:0:0:
450,112,124255,1,2,0:0:0:0:
450,112,124331,6,0,B|377:132|410:86|302:96,1,135.000005149842,6|0,1:0|0:0,0:0:0:0:
319,94,124562,2,0,P|300:108|284:131,1,45,0|8,1:0|1:0,0:0:0:0:
251,287,124793,6,0,B|324:307|291:261|399:271,1,135.000005149842,6|0,1:0|0:0,0:0:0:0:
381,269,125024,2,0,P|400:282|416:305,1,45,0|0,1:0|0:0,0:0:0:0:
438,359,125178,1,0,1:0:0:0:
438,359,125255,2,0,P|418:287|478:250,1,135.000005149842,10|0,1:0|1:0,0:0:0:0:
462,73,125562,6,0,B|430:109|395:98|395:98|389:113|389:113|343:99|298:141,1,161.999995056153,6|0,1:0|0:0,0:0:0:0:
322,122,125793,2,0,P|319:144|327:172,1,45,0|8,1:0|1:0,0:0:0:0:
261,354,126024,6,0,B|249:292|249:292|264:253|264:253|252:190,1,161.999995056153,6|0,1:0|0:0,0:0:0:0:
253,196,126255,2,0,P|239:177|207:172,1,45,0|0,1:0|0:0,0:0:0:0:
144,168,126408,1,0,1:0:0:0:
144,168,126485,2,0,L|316:150,1,161.999995056153,10|0,1:0|1:0,0:0:0:0:
440,66,126793,5,6,1:0:0:0:
409,83,126869,1,0,1:0:0:0:
389,113,126946,1,0,1:0:0:0:
384,148,127023,1,0,1:0:0:0:
395,182,127101,2,0,P|410:208|413:273,1,90,8|2,1:0|0:1,0:0:0:0:
313,351,127408,5,6,1:0:0:0:
277,346,127484,1,0,1:0:0:0:
241,342,127561,1,0,1:0:0:0:
205,338,127638,1,0,1:0:0:0:
169,334,127715,1,8,1:0:0:0:
36,365,127870,1,2,0:1:0:0:
150,264,128024,5,2,1:0:0:0:
150,264,128178,1,0,1:0:0:0:
91,122,128331,1,10,1:0:0:0:
91,122,128485,1,0,1:0:0:0:
201,12,128639,1,2,1:0:0:0:
203,47,128716,1,0,1:0:0:0:
221,77,128793,1,0,1:0:0:0:
254,90,128870,1,0,1:0:0:0:
289,93,128947,1,2,1:0:0:0:
324,87,129024,1,0,1:0:0:0:
359,95,129101,1,0,1:0:0:0:
387,117,129178,1,0,1:0:0:0:
410,142,129255,6,0,P|431:192|394:272,1,135.000005149842,6|0,1:0|0:0,0:0:0:0:
403,264,129485,2,0,L|348:278,1,45,2|8,0:0|1:0,0:0:0:0:
135,309,129716,6,0,P|176:338|257:307,1,135.000005149842,2|0,1:0|0:0,0:0:0:0:
251,314,129947,2,0,L|261:254,1,45,2|8,0:0|1:0,0:0:0:0:
265,77,130178,6,0,L|189:88,1,60.7500002317429,2|0,1:0|0:0,0:0:0:0:
412,139,130331,2,0,L|351:130,1,60.7500002317429,2|2,0:1|0:0,0:0:0:0:
200,96,130485,6,0,B|116:111|156:72|64:87,1,135.000005149842,6|0,1:0|0:0,0:0:0:0:
68,86,130716,2,0,P|59:113|61:140,1,45,2|8,0:0|1:0,0:0:0:0:
48,295,130947,6,0,B|132:310|92:271|184:286,1,135.000005149842,2|0,1:0|0:0,0:0:0:0:
179,285,131178,2,0,P|188:311|186:338,1,45,2|8,0:0|1:0,0:0:0:0:
89,222,131408,6,0,P|116:197|138:193,1,60.7500002317429,2|0,1:0|0:0,0:0:0:0:
269,237,131562,2,0,P|283:260|281:298,1,60.7500002317429,2|0,1:0|0:0,0:0:0:0:
273,142,131716,6,0,P|246:142|187:60,1,135.000005149842,6|0,1:0|0:0,0:0:0:0:
186,64,131947,2,0,P|191:34|209:17,1,45,2|8,0:0|1:0,0:0:0:0:
357,203,132178,6,0,P|369:179|471:169,1,135.000005149842,2|0,1:0|0:0,0:0:0:0:
467,166,132409,2,0,P|491:185|501:207,1,45,2|8,0:0|1:0,0:0:0:0:
396,318,132639,6,0,L|321:309,1,60.7500002317429,2|0,1:0|0:0,0:0:0:0:
264,243,132793,2,0,L|240:187,1,60.7500002317429,2|2,0:1|0:0,0:0:0:0:
240,342,132947,6,0,B|165:371|165:371|206:320,1,135.000005149842,6|0,1:0|0:0,0:0:0:0:
199,328,133178,2,0,L|136:318,1,45,2|8,0:0|1:0,0:0:0:0:
33,208,133408,6,0,B|133:192|133:192|91:232,1,135.000005149842,2|0,1:0|0:0,0:0:0:0:
108,215,133639,2,0,P|92:226|80:260,1,45,2|8,0:0|1:0,0:0:0:0:
223,172,133870,6,0,P|209:137|184:124,1,60.7500002317429,2|0,1:0|0:0,0:0:0:0:
82,98,134024,1,10,0:0:0:0:
82,98,134101,1,8,0:0:0:0:
82,98,134178,6,0,P|131:132|190:125,1,121.500000463486,6|0,1:0|0:0,0:0:0:0:
246,74,134408,1,0,1:0:0:0:
246,74,134485,2,0,L|231:147,1,60.7500002317429,8|0,1:0|0:0,0:0:0:0:
244,298,134639,6,0,L|261:217,1,67.5000025749208,2|0,1:0|0:0,0:0:0:0:
300,182,134793,6,0,B|289:240|289:240|300:263|300:263|281:353,1,157.500001502037,6|0,1:0|0:0,0:0:0:0:
203,356,135024,1,0,1:0:0:0:
203,356,135101,2,0,P|177:328|176:277,1,78.7500007510185,10|0,1:2|0:0,0:0:0:0:
186,147,135255,2,0,P|201:111|247:90,1,78.7500007510185,2|0,1:0|0:0,0:0:0:0:
402,141,135408,6,0,B|510:152|510:152|445:113,1,180,6|0,1:0|0:0,0:0:0:0:
341,84,135639,1,2,0:1:0:0:
341,84,135716,2,0,P|311:155|383:224,1,180,8|2,1:0|0:1,0:0:0:0:
446,232,135947,1,0,0:0:0:0:
446,232,136024,6,0,B|441:290|419:260|410:330,1,90,2|0,1:0|0:0,0:0:0:0:
252,350,136178,2,0,P|279:332|345:342,1,90,2|0,0:0|0:0,0:0:0:0:
176,296,136331,2,0,P|178:328|136:380,1,90,10|0,1:2|0:0,0:0:0:0:
262,257,136485,2,0,P|232:242|208:180,1,90,2|0,0:0|0:0,0:0:0:0:
235,68,136639,6,0,L|369:57,1,107.999996704102,2|0,1:2|0:0,0:0:0:0:
488,42,136947,1,8,1:0:0:0:
337,72,137101,1,2,0:0:0:0:
481,186,137255,5,2,1:2:0:0:
495,270,137408,1,2,0:0:0:0:
352,348,137562,1,10,1:0:0:0:
366,264,137715,1,2,0:0:0:0:
356,88,137870,6,0,L|369:160,1,53.9999983520508,2|0,1:2|0:0,0:0:0:0:
337,72,138024,2,0,L|350:144,1,53.9999983520508,0|0,1:0|0:0,0:0:0:0:
243,256,138178,6,0,L|230:328,1,53.9999983520508,10|0,1:2|0:0,0:0:0:0:
262,240,138332,2,0,L|249:312,1,53.9999983520508,0|0,1:0|0:0,0:0:0:0:
134,356,138485,2,0,P|96:343|71:266,1,107.999996704102,2|0,1:2|0:0,0:0:0:0:
77,219,138716,1,0,1:0:0:0:
77,219,138793,2,0,L|89:103,1,107.999996704102,10|0,1:0|1:0,0:0:0:0:
230,32,139101,6,0,B|231:70|221:87|221:87|204:108|204:108|194:131|194:171,1,135.000005149842,6|0,1:0|0:0,0:0:0:0:
194,158,139331,2,0,P|201:185|221:203,1,45,2|8,0:0|1:0,0:0:0:0:
351,330,139562,6,0,B|350:292|360:275|360:275|377:254|377:254|387:231|387:191,1,135.000005149842,2|0,1:0|0:0,0:0:0:0:
386,203,139793,2,0,P|379:176|359:158,1,45,2|8,0:0|1:0,0:0:0:0:
212,77,140024,6,0,P|210:109|226:134,1,60.7500002317429,2|0,1:0|0:0,0:0:0:0:
126,174,140178,2,0,P|124:207|103:236,1,60.7500002317429,10|2,1:0|1:2,0:0:0:0:
19,310,140331,6,0,L|152:298,1,116.999994644165,6|0,1:0|0:0,0:0:0:0:
135,299,140562,2,0,P|156:328|161:348,1,45,2|8,0:0|1:0,0:0:0:0:
360,343,140793,6,0,P|323:346|246:276,1,135.000005149842,2|0,1:0|0:0,0:0:0:0:
249,288,141024,2,0,P|247:263|254:241,1,45,2|8,0:0|1:0,0:0:0:0:
374,27,141255,6,0,L|339:93,1,60.7500002317429,2|0,1:0|0:0,0:0:0:0:
349,184,141408,2,0,L|382:236,1,60.7500002317429,10|8,0:1|0:0,0:0:0:0:
254,137,141562,2,0,L|194:140,3,60.7500002317429,2|0|0|0,1:0|1:0|1:0|1:0,0:0:0:0:
129,104,141870,1,8,1:0:0:0:
134,127,141947,1,0,0:0:0:0:
140,153,142024,6,0,B|162:244|162:244|120:201,1,135.000005149842,2|0,1:0|0:0,0:0:0:0:
133,214,142255,2,0,P|106:209|85:212,1,45,2|8,0:0|1:0,0:0:0:0:
116,354,142485,6,0,P|88:365|59:361,1,60.7500002317429,2|0,1:0|0:0,0:0:0:0:
223,223,142639,2,0,P|221:253|207:280,1,60.7500002317429,10|0,1:0|0:0,0:0:0:0:
134,64,142793,6,0,B|160:91|160:91|210:114|268:81,1,135.000005149842,6|0,1:0|0:0,0:0:0:0:
254,88,143024,2,0,P|273:75|306:65,1,45,2|8,0:0|1:0,0:0:0:0:
460,216,143255,6,0,B|475:142|475:142|416:189,1,135.000005149842,2|0,1:0|0:0,0:0:0:0:
428,179,143485,2,0,L|368:167,1,45,2|8,0:0|1:0,0:0:0:0:
231,299,143716,1,2,1:2:0:0:
275,295,143792,1,10,0:0:0:0:
320,292,143869,1,10,0:0:0:0:
365,289,143946,1,10,0:0:0:0:
410,285,144024,6,0,L|477:302,1,60.7500002317429,2|0,1:2|1:0,0:0:0:0:
434,138,144178,2,0,L|460:204,1,60.7500002317429,0|0,1:0|1:0,0:0:0:0:
479,40,144331,1,10,0:1:0:0:
479,40,144485,6,0,P|439:55|410:52,1,67.5000025749208,2|0,1:0|0:0,0:0:0:0:
258,18,144639,6,0,P|288:33|310:85,1,78.7500007510185,2|0,1:2|1:0,0:0:0:0:
293,196,144793,2,0,P|272:224|224:241,1,78.7500007510185,0|0,1:0|1:0,0:0:0:0:
104,218,144947,2,0,B|163:210|163:210|203:227|203:227|286:210,1,157.500001502037,10|2,0:1|1:0,0:0:0:0:
454,195,145255,6,0,P|416:227|461:341,1,180,2|0,1:1|1:0,0:0:0:0:
468,342,145485,1,2,1:0:0:0:
468,342,145562,2,0,B|334:368|334:368|370:333,1,180,8|2,1:0|1:0,0:0:0:0:
378,163,145870,2,0,P|365:138|275:121,1,90,10|0,1:0|0:0,0:0:0:0:
284,314,146024,2,0,P|309:301|326:211,1,90,0|0,1:0|0:0,0:0:0:0:
133,220,146178,2,0,P|146:245|236:262,1,90,10|0,1:0|0:0,0:0:0:0:
227,69,146331,2,0,P|202:82|185:172,1,90,0|0,1:0|0:0,0:0:0:0:
285,315,146485,5,10,1:2:0:0:
327,322,146562,1,0,1:0:0:0:
369,329,146639,1,8,1:0:0:0:
411,336,146716,1,0,1:0:0:0:
453,343,146793,1,10,1:2:0:0:
477,295,146869,1,0,1:0:0:0:
474,242,146946,1,8,1:0:0:0:
444,198,147023,1,0,1:0:0:0:
396,176,147100,5,10,0:0:0:0:
367,150,147178,1,8,0:0:0:0:
353,120,147255,1,8,0:0:0:0:
355,93,147331,1,10,0:0:0:0:
365,74,147408,1,8,0:0:0:0:
376,62,147485,1,8,0:0:0:0:
386,59,147562,1,10,0:0:0:0:
391,59,147639,1,8,0:0:0:0:
395,62,147716,6,0,L|387:135,1,72,6|0,1:0|0:0,0:0:0:0:
386,151,148639,6,2,P|398:64|327:120,1,202.500007724762,10|0,0:1|0:0,0:1:0:0:
317,168,148947,6,0,B|318:184|318:184|305:190|308:210|308:210|290:209|287:227|287:227|271:219|257:234|257:234|249:221|235:228|235:228|224:220,1,144,0|0,1:0|0:0,0:0:0:0:
217,215,149331,1,0,0:0:0:0:
219,229,149408,1,0,0:0:0:0:
221,243,149485,1,0,0:0:0:0:
224,257,149562,2,0,L|210:340,1,72,8|0,1:0|0:0,0:0:0:0:
84,292,149870,2,0,L|98:375,1,72
219,229,150178,6,0,L|206:305,1,72
90,261,150486,2,0,L|102:337,1,72,0|0,1:0|0:0,0:0:0:0:
235,204,150793,6,0,L|218:299,1,72,8|0,1:0|0:0,0:0:0:0:
72,244,151101,2,0,L|88:339,1,72
235,354,151408,6,0,B|256:359|256:359|272:355|272:355|286:359|286:359|299:355|299:355|311:360|311:360|324:355|324:355|336:360|336:360|348:354|348:354|360:360|360:360|373:355|373:355|385:360,1,144,0|0,1:0|0:0,0:0:0:0:
382,348,151793,1,0,0:0:0:0:
388,335,151870,1,0,1:0:0:0:
390,320,151947,1,0,0:0:0:0:
387,305,152024,2,0,L|403:232,1,72,8|0,1:0|0:0,0:0:0:0:
490,201,152331,2,0,L|474:128,1,72
461,23,152639,5,0,1:0:0:0:
392,120,152793,1,0,0:0:0:0:
302,46,152947,2,0,P|268:56|233:116,1,94.499997116089,2|0,0:0|0:0,0:0:0:0:
461,23,153255,5,0,1:0:0:0:
392,120,153409,1,0,0:0:0:0:
239,89,153563,2,0,P|264:58|302:46,1,80.9999975280763,2|0,0:0|0:0,0:0:0:0:
324,48,153870,6,0,B|310:55|310:55|312:70|293:78|293:78|304:92|290:103|290:103|306:114|301:132|301:132|319:134|316:150|316:150|331:154,1,144,2|2,1:0|0:1,0:0:0:0:
335,161,154255,1,0,0:0:0:0:
344,171,154331,1,0,0:0:0:0:
350,183,154408,1,0,0:0:0:0:
353,197,154485,2,0,L|342:297,1,72,10|0,0:0|0:0,0:0:0:0:
207,277,154793,2,0,L|218:377,1,72,2|0,0:1|0:0,0:0:0:0:
339,179,155101,6,0,L|328:279,1,72,2|0,0:1|0:0,0:0:0:0:
226,263,155408,6,0,L|238:361,1,80.9999975280763,2|0,1:0|0:0,0:0:0:0:
185,162,155716,6,0,L|87:174,1,80.9999975280763,2|0,1:0|0:0,0:0:0:0:
286,121,156024,6,0,L|274:23,1,80.9999975280763,2|0,1:0|0:0,0:0:0:0:
327,222,156331,6,0,B|412:239|377:199|468:211,1,135,2|0,1:0|0:0,0:0:0:0:
473,220,156639,1,2,0:1:0:0:
475,237,156716,1,0,0:0:0:0:
472,254,156793,2,0,L|460:310,1,45,0|0,1:0|0:0,0:0:0:0:
481,370,156947,1,10,0:1:0:0:
481,370,157101,1,0,1:0:0:0:
316,287,157255,1,0,1:0:0:0:
316,287,157408,1,0,1:0:0:0:
137,357,157562,6,0,L|207:348,1,53.9999983520508,0|0,1:0|1:0,0:0:0:0:
136,261,157870,2,0,L|181:207,1,53.9999983520508,0|0,0:0|1:0,0:0:0:0:
69,205,158178,2,0,L|67:134,1,53.9999983520508,2|2,0:0|0:0,0:0:0:0:
59,13,158485,1,2,0:0:0:0:
170,79,158639,1,2,0:0:0:0:
319,28,158793,6,0,B|303:33|303:33|301:51|284:53|284:53|292:69|277:79|277:79|289:91|283:109|283:109|298:117|296:133|296:133|319:143,1,144,4|0,1:0|0:0,0:0:0:0:
312,145,159178,1,0,0:0:0:0:
318,157,159255,1,0,0:0:0:0:
321,170,159331,1,0,0:0:0:0:
323,185,159408,2,0,L|309:268,1,72,8|0,0:0|0:0,0:0:0:0:
188,252,159716,2,0,L|202:335,1,72
318,157,160024,6,0,L|305:233,1,72
194,221,160332,2,0,L|206:297,1,72,0|0,1:0|0:0,0:0:0:0:
334,132,160639,6,0,L|317:227,1,72,8|0,0:0|0:0,0:0:0:0:
176,204,160947,2,0,L|192:299,1,72
350,363,161255,6,0,B|351:341|351:341|344:326|344:326|346:311|346:311|339:299|339:299|342:287|342:287|335:275|335:275|338:262|338:262|330:251|330:251|334:238|334:238|327:226|327:226|329:214,1,144,0|0,1:0|0:0,0:0:0:0:
334,216,161639,1,0,0:0:0:0:
343,205,161716,1,0,1:0:0:0:
355,197,161793,1,0,0:0:0:0:
368,191,161870,2,0,L|461:204,1,72,8|0,0:0|0:0,0:0:0:0:
351,55,162178,2,0,L|421:116,1,72
439,200,162485,5,0,1:0:0:0:
474,314,162639,1,0,0:0:0:0:
358,345,162793,2,0,P|330:318|342:240,1,94.499997116089
439,200,163101,5,0,1:0:0:0:
474,314,163255,1,0,0:0:0:0:
323,277,163409,2,0,P|329:317|358:345,1,80.9999975280763
366,345,163716,6,0,B|383:348|383:348|390:334|404:340|404:340|407:329|420:328|420:328|421:316|432:313|432:313|431:301|440:297|440:297|434:286|441:281|441:281|432:271|439:261|439:261|431:255|436:246|436:246|423:232,1,180,4|0,1:0|1:0,0:0:0:0:
368,53,164178,2,0,L|423:48,1,45
387,123,164331,2,0,L|297:118,1,90,0|0,1:0|0:0,0:0:0:0:
229,27,164639,2,0,L|139:31,1,90,0|0,1:0|0:0,0:0:0:0:
64,186,164947,5,4,1:0:0:0:
106,197,165023,1,0,1:0:0:0:
133,232,165100,1,0,1:0:0:0:
132,276,165177,1,0,1:0:0:0:
103,310,165254,1,0,1:0:0:0:
27,263,165408,1,0,1:0:0:0:
215,201,165562,1,2,1:0:0:0:
171,370,165716,1,0,1:0:0:0:
27,263,165870,5,8,0:0:0:0:
32,245,165947,1,8,0:0:0:0:
35,227,166024,1,8,0:0:0:0:
33,209,166101,1,8,0:0:0:0:
28,191,166178,1,0,0:0:0:0:
93,110,166331,6,0,L|111:47,2,45,0|2|0,0:0|0:0|0:0,0:0:0:0:
160,177,166793,2,0,L|225:149,1,62.9999980773926,2|0,0:0|0:0,0:0:0:0:
165,279,167101,2,0,L|258:298,1,80.9999975280763,2|0,0:0|0:0,0:0:0:0:
244,295,167408,6,0,L|165:279,1,80.9999975280763,2|0,0:0|0:0,0:0:0:0:
217,152,167716,2,0,L|160:177,1,62.9999980773926,2|0,0:0|0:0,0:0:0:0:
105,66,168024,2,0,L|92:112,1,44.5499998640442,2|0,0:0|0:0,0:0:0:0:
92,108,168331,6,0,B|104:64|104:64|128:45|167:25|219:35|248:66,1,188.999994232178
290,112,168639,5,2,0:0:0:0:
339,160,169870,5,2,0:0:0:0:
273,161,170485,1,0,0:0:0:0:
406,161,171101,5,2,0:0:0:0:
306,104,172331,5,2,0:0:0:0:
373,219,172947,1,0,0:0:0:0:
373,104,173562,5,2,0:0:0:0:
306,219,174793,5,2,0:0:0:0:
440,219,175101,1,0,0:0:0:0:
342,277,175408,1,2,0:0:0:0:
406,278,175716,1,0,0:0:0:0:
240,219,176024,5,2,0:0:0:0:
436,104,176639,1,2,0:0:0:0:
274,278,177255,5,2,0:0:0:0:
241,104,177870,1,2,0:0:0:0:
373,219,178485,6,0,L|283:212,1,72,8|0,0:0|0:0,0:0:0:0:
396,142,178793,2,0,L|306:135,1,72,8|0,0:0|0:0,0:0:0:0:
291,220,179101,6,0,L|201:213,1,72,8|0,0:0|0:0,0:0:0:0:
314,143,179409,2,0,L|224:136,1,72,8|2,0:0|0:0,0:0:0:0:
205,219,179716,6,0,L|115:212,1,72,10|0,0:0|0:0,0:0:0:0:
228,142,180024,2,0,L|138:135,1,72,8|0,0:0|0:0,0:0:0:0:
118,217,180331,6,0,L|28:210,1,72,8|0,0:0|0:0,0:0:0:0:
141,140,180639,2,0,L|51:133,1,72,10|10,0:0|0:0,0:0:0:0:
47,72,180870,1,10,0:0:0:0:
102,25,180947,6,0,P|122:59|105:113,1,90,12|0,0:1|0:0,0:0:0:0:
262,153,181255,2,0,P|222:153|184:111,1,90,8|0,0:0|0:0,0:0:0:0:
70,224,181562,2,0,P|89:189|144:177,1,90,10|0,0:0|0:0,0:0:0:0:
181,275,181870,2,0,P|150:300|94:293,1,90,8|0,0:0|0:0,0:0:0:0:
164,77,182178,6,0,P|198:109|189:172,1,90,10|0,0:0|0:0,0:0:0:0:
326,266,182485,2,0,P|284:233|236:232,1,90,10|0,0:0|0:0,0:0:0:0:
278,94,182793,2,0,P|305:53|296:6,1,90,10|0,0:0|0:0,0:0:0:0:
314,168,183101,2,0,P|357:179|384:227,1,90,8|8,0:0|0:0,0:0:0:0:
393,286,183331,1,8,0:0:0:0:
350,342,183408,5,10,0:0:0:0:
350,342,183562,1,8,0:0:0:0:
210,310,183716,5,10,0:0:0:0:
210,310,183870,1,8,0:0:0:0:
361,207,184024,5,10,0:0:0:0:
361,207,184178,1,8,0:0:0:0:
192,101,184331,5,10,0:0:0:0:
192,101,184485,1,8,0:0:0:0:
394,20,184639,5,10,0:0:0:0:
415,126,184793,1,8,0:0:0:0:
314,84,184947,5,10,0:0:0:0:
335,190,185101,1,8,0:0:0:0:
213,43,185255,5,10,0:0:0:0:
234,149,185409,1,8,0:0:0:0:
133,115,185562,5,10,0:0:0:0:
154,221,185716,1,8,0:0:0:0:
65,176,185870,5,10,0:0:0:0:
77,187,185947,1,8,0:0:0:0:
80,205,186024,1,8,0:0:0:0:
69,220,186101,1,8,0:0:0:0:
51,221,186178,1,8,0:0:0:0:
36,211,186254,1,8,0:0:0:0:
35,192,186331,1,8,0:0:0:0:
46,178,186408,1,8,0:0:0:0:
63,173,186485,5,10,0:0:0:0:
106,181,186561,1,8,0:0:0:0:
141,209,186638,1,8,0:0:0:0:
157,250,186715,1,8,0:0:0:0:
152,295,186793,2,0,L|180:290,6,22.5,8|0|0|0|0|0|0,0:0|0:0|0:0|0:0|0:0|0:0|0:0,0:0:0:0:
237,251,187101,6,0,L|214:355,1,90,2|0,0:0|0:0,0:0:0:0:
256,232,187408,6,0,L|231:348,1,107.999996704102,2|0,0:0|0:0,0:0:0:0:
280,213,187716,6,0,L|251:342,1,125.999996154785,2|0,0:0|0:0,0:0:0:0:
300,196,188024,6,2,B|281:277|281:277|336:226,1,144,10|0,0:1|0:0,0:1:0:0:
421,124,188331,6,0,B|439:42|439:42|392:88,1,135.000005149842,6|0,1:0|0:0,0:0:0:0:
340,113,188562,2,0,L|277:103,1,45,2|8,0:0|1:0,0:0:0:0:
150,34,188793,6,0,B|207:27|207:27|231:37|231:37|302:26,1,135.000005149842,2|0,1:0|0:0,0:0:0:0:
368,52,189024,2,0,P|341:64|332:87,1,45,2|8,0:0|1:0,0:0:0:0:
356,257,189255,6,0,L|348:188,1,60.7500002317429,2|0,1:0|0:0,0:0:0:0:
283,320,189408,2,0,L|275:251,1,60.7500002317429,2|2,0:1|0:0,0:0:0:0:
196,79,189562,6,0,B|197:117|187:134|187:134|170:155|170:155|160:178|160:218,1,135.000005149842,6|0,1:0|0:0,0:0:0:0:
169,276,189793,2,0,P|187:296|206:302,1,45,2|8,0:0|1:0,0:0:0:0:
417,344,190024,6,0,B|418:306|408:289|408:289|391:268|391:268|381:245|381:205,1,135.000005149842,2|0,1:0|0:0,0:0:0:0:
400,147,190255,2,0,P|400:123|389:99,1,45,2|8,0:0|1:0,0:0:0:0:
269,17,190485,6,0,P|248:40|247:78,1,60.7500002317429,2|0,1:0|0:0,0:0:0:0:
81,83,190639,2,0,P|110:110|112:142,1,60.7500002317429,2|0,1:0|0:0,0:0:0:0:
88,231,190793,6,0,B|83:288|83:288|104:310|104:310|100:368,1,135.000005149842,6|0,1:0|0:0,0:0:0:0:
93,368,191024,2,0,L|148:360,1,45,2|8,0:0|1:0,0:0:0:0:
350,248,191255,6,0,P|306:263|284:355,1,135.000005149842,2|0,1:0|0:0,0:0:0:0:
346,369,191485,2,0,L|401:361,1,45,2|8,0:0|1:0,0:0:0:0:
420,189,191716,6,0,P|394:167|343:164,1,60.7500002317429,2|0,1:0|0:0,0:0:0:0:
251,199,191870,2,0,P|223:218|206:266,1,60.7500002317429,2|2,0:1|0:0,0:0:0:0:
32,166,192024,6,0,P|66:196|157:169,1,135.000005149842,6|0,1:0|0:0,0:0:0:0:
176,113,192255,2,0,L|151:69,1,45,2|8,0:0|1:0,0:0:0:0:
297,20,192485,6,0,B|381:15|334:58|440:46,1,135.000005149842,2|0,1:0|0:0,0:0:0:0:
486,6,192716,2,0,L|467:74,1,45,2|8,0:0|1:0,0:0:0:0:
351,231,192947,6,0,P|380:242|423:238,1,60.7500002317429,2|0,1:0|0:0,0:0:0:0:
461,194,193101,1,10,0:0:0:0:
461,194,193178,1,8,0:0:0:0:
461,194,193255,6,0,L|437:323,1,121.500000463486,6|0,1:0|0:0,0:0:0:0:
382,359,193485,1,0,1:0:0:0:
382,359,193562,2,0,P|350:361|318:340,1,60.7500002317429,8|0,1:0|0:0,0:0:0:0:
254,169,193716,6,0,P|281:184|295:241,1,67.5000025749208,2|0,1:0|0:0,0:0:0:0:
219,307,193870,6,0,B|115:340|165:278|33:313,1,157.500001502037,6|0,1:0|0:0,0:0:0:0:
11,353,194101,1,0,1:0:0:0:
11,353,194178,2,0,B|35:320|35:320|-6:330,1,78.7500007510185,10|0,1:2|0:0,0:0:0:0:
59,160,194331,2,0,B|35:193|35:193|76:183,1,78.7500007510185,2|0,1:0|0:0,0:0:0:0:
243,159,194485,6,0,B|206:185|206:185|111:171|111:171|78:201,1,180,6|0,1:0|0:0,0:0:0:0:
60,259,194716,1,2,0:1:0:0:
60,259,194793,2,0,P|81:192|-8:105,1,180,8|2,1:0|0:1,0:0:0:0:
10,109,195024,1,0,0:0:0:0:
0,108,195101,6,0,L|101:85,1,90,2|0,1:2|0:0,0:0:0:0:
173,12,195255,2,0,L|196:112,1,90,2|0,0:0|0:0,0:0:0:0:
261,161,195408,2,0,L|160:184,1,90,10|0,1:2|0:0,0:0:0:0:
109,255,195562,2,0,L|85:154,1,90,2|0,0:0|0:0,0:0:0:0:
275,79,195716,6,0,P|317:97|344:172,1,107.999996704102,2|0,1:2|0:0,0:0:0:0:
330,280,196024,1,8,1:0:0:0:
330,280,196178,1,2,0:0:0:0:
243,225,196331,5,2,1:2:0:0:
385,190,196485,1,2,0:0:0:0:
420,331,196639,1,10,1:2:0:0:
279,367,196793,1,2,0:0:0:0:
243,225,196947,6,0,L|254:155,1,53.9999983520508,2|0,1:2|0:0,0:0:0:0:
222,232,197101,2,0,L|233:162,1,53.9999983520508,0|0,1:0|0:0,0:0:0:0:
329,75,197255,6,0,L|318:5,1,53.9999983520508,10|0,1:2|0:0,0:0:0:0:
350,82,197409,2,0,L|339:12,1,53.9999983520508,0|0,1:0|0:0,0:0:0:0:
183,22,197562,6,0,P|157:57|77:52,1,107.999996704102,2|0,1:2|0:0,0:0:0:0:
16,127,197793,1,0,1:0:0:0:
16,127,197870,2,0,P|59:132|94:203,1,107.999996704102,10|0,0:0|1:0,0:0:0:0:
57,340,198178,6,0,B|145:363|109:313|220:343,1,135.000005149842,6|0,1:0|0:0,0:0:0:0:
254,369,198408,2,0,P|238:337|236:322,1,45,2|8,0:0|1:0,0:0:0:0:
327,139,198639,6,0,B|317:192|317:192|330:218|330:218|320:281,1,135.000005149842,2|0,1:0|0:0,0:0:0:0:
314,284,198870,2,0,L|374:275,1,45,2|8,0:0|1:0,0:0:0:0:
480,145,199101,6,0,L|452:207,1,60.7500002317429,2|0,1:0|0:0,0:0:0:0:
388,53,199255,2,0,L|402:113,1,60.7500002317429,10|2,1:0|1:2,0:0:0:0:
444,276,199408,6,0,B|389:284|389:284|364:268|364:268|287:278,1,135.000005149842,6|0,1:0|0:0,0:0:0:0:
245,252,199639,2,0,P|239:270|216:288,1,45,2|8,0:0|1:0,0:0:0:0:
30,232,199870,6,0,B|80:224|80:224|97:233|97:233|112:220|112:220|162:213,1,135.000005149842,2|0,1:0|0:0,0:0:0:0:
203,157,200101,2,0,P|190:142|186:113,1,45,2|8,0:0|1:0,0:0:0:0:
351,18,200331,6,0,P|329:44|295:47,1,60.7500002317429,2|0,1:0|0:0,0:0:0:0:
185,117,200485,2,0,P|218:123|238:150,1,60.7500002317429,10|8,0:1|0:0,0:0:0:0:
356,202,200639,2,0,P|344:169|358:139,3,60.7500002317429,2|0|0|0,1:0|1:0|1:0|1:0,0:0:0:0:
422,169,200947,1,8,1:0:0:0:
422,169,201024,1,0,0:0:0:0:
422,169,201101,6,0,B|377:231|377:231|460:215,1,135.000005149842,2|0,1:0|0:0,0:0:0:0:
454,286,201331,2,0,L|400:276,1,45,2|8,0:0|1:0,0:0:0:0:
247,335,201562,6,0,P|261:349|310:362,1,60.7500002317429,2|0,1:0|0:0,0:0:0:0:
239,157,201716,2,0,P|228:173|226:224,1,60.7500002317429,10|0,1:0|0:0,0:0:0:0:
433,103,201870,6,0,P|421:87|301:97,1,135.000005149842,6|0,1:0|0:0,0:0:0:0:
303,152,202101,2,0,L|316:201,1,45,2|8,0:0|1:0,0:0:0:0:
90,83,202331,6,0,P|82:101|151:200,1,135.000005149842,2|0,1:0|0:0,0:0:0:0:
204,187,202562,2,0,L|191:244,1,45,2|8,0:0|1:0,0:0:0:0:
107,361,202793,1,2,1:2:0:0:
151,357,202870,1,10,0:0:0:0:
195,353,202947,1,10,0:0:0:0:
239,349,203024,1,10,0:0:0:0:
287,344,203101,6,0,L|364:371,1,60.7500002317429,2|0,1:2|1:0,0:0:0:0:
353,206,203255,2,0,L|366:266,1,60.7500002317429,0|0,1:0|1:0,0:0:0:0:
475,136,203408,1,10,0:1:0:0:
475,136,203562,6,0,P|470:98|506:65,1,67.5000025749208,2|0,1:0|0:0,0:0:0:0:
308,23,203716,6,0,P|337:49|341:86,1,78.7500007510185,2|0,1:2|1:0,0:0:0:0:
220,229,203870,2,0,P|209:191|225:158,1,78.7500007510185,0|0,1:0|1:0,0:0:0:0:
296,258,204024,2,0,L|125:242,1,157.500001502037,10|2,0:1|1:0,0:0:0:0:
59,45,204331,6,0,P|143:56|164:170,1,180,2|0,1:1|1:0,0:0:0:0:
113,174,204562,1,2,1:0:0:0:
113,174,204639,2,0,B|166:162|166:162|191:136|191:136|222:150|222:150|305:132,1,180,8|2,1:0|1:0,0:0:0:0:
464,161,204947,6,0,B|505:179|505:179|459:182,1,90,10|0,1:0|0:0,0:0:0:0:
377,241,205101,2,0,B|359:282|359:282|355:236,1,90,0|0,1:0|0:0,0:0:0:0:
292,161,205255,2,0,B|251:143|251:143|296:139,1,90,10|0,1:0|0:0,0:0:0:0:
383,82,205408,2,0,B|401:41|401:41|404:86,1,90,0|0,1:0|0:0,0:0:0:0:
378,241,205562,5,10,1:2:0:0:
359,281,205638,1,0,1:0:0:0:
325,309,205715,1,8,1:0:0:0:
281,319,205792,1,0,1:0:0:0:
238,309,205870,1,10,1:2:0:0:
206,266,205946,1,0,1:0:0:0:
157,245,206023,1,8,1:0:0:0:
104,250,206100,1,0,1:0:0:0:
60,280,206177,5,10,0:0:0:0:
78,234,206255,1,8,0:0:0:0:
75,196,206331,1,8,0:0:0:0:
62,166,206408,1,10,0:0:0:0:
40,149,206485,1,8,0:0:0:0:
25,133,206562,1,8,0:0:0:0:
21,117,206639,1,10,0:0:0:0:
23,106,206716,1,8,0:0:0:0:
29,98,206793,6,0,L|106:89,1,72,6|0,1:0|0:0,0:0:0:0:
106,87,207716,6,2,P|78:130|172:115,1,202.500007724762,10|0,0:1|0:0,0:1:0:0:
179,64,208024,6,0,L|175:40,1,24,4|0,1:0|0:0,0:0:0:0:
260,41,208331,6,0,P|260:92|224:136,1,90.0000034332277,2|0,0:1|0:0,0:0:0:0:
311,168,208537,2,0,P|273:191|229:190,1,90.0000034332277,2|0,0:1|0:0,0:0:0:0:
202,281,208742,2,0,P|168:252|157:210,1,90.0000034332277,2|0,0:1|0:0,0:0:0:0:
65,233,208947,2,0,P|75:190|106:158,1,90.0000034332277,2|0,0:1|0:0,0:0:0:0:
260,41,209255,6,0,L|283:38,1,24,0|0,1:0|0:0,0:0:0:0:
372,16,209562,6,0,B|346:81|346:81|392:65,1,90.0000034332277,10|0,0:1|0:0,0:0:0:0:
456,169,209767,2,0,B|391:143|391:143|407:189,1,90.0000034332277,2|0,0:1|0:0,0:0:0:0:
304,256,209972,2,0,B|330:191|330:191|284:207,1,90.0000034332277,2|0,0:1|0:0,0:0:0:0:
220,102,210178,2,0,B|285:128|285:128|269:82,1,90.0000034332277,10|0,0:1|0:0,0:0:0:0:
208,36,210408,1,0,1:0:0:0:
184,42,210485,6,0,P|173:45|166:54,1,24,0|0,1:0|0:0,0:0:0:0:
151,127,210793,6,0,P|123:146|56:130,1,90.0000034332277,10|0,0:1|0:0,0:0:0:0:
235,168,210998,2,0,P|232:134|279:84,1,90.0000034332277,2|0,0:1|0:0,0:0:0:0:
159,222,211203,2,0,P|189:236|209:302,1,90.0000034332277,2|0,0:1|0:0,0:0:0:0:
96,371,211408,2,0,P|94:337|143:288,2,90.0000034332277,10|0|0,1:0|1:0|1:0,0:0:0:0:
171,350,211716,5,0,1:0:0:0:
286,298,211870,2,0,L|377:281,2,72,0|2|0,0:0|0:0|0:0,0:0:0:0:
155,275,212331,2,0,P|123:259|49:295,1,108,8|0,0:0|0:0,0:0:0:0:
20,331,212639,1,2,0:0:0:0:
49,300,212715,1,2,0:0:0:0:
60,259,212792,1,2,0:0:0:0:
49,217,212869,1,2,0:0:0:0:
19,187,212947,6,0,L|25:163,1,24,4|0,1:0|0:0,0:0:0:0:
58,42,213255,6,0,P|63:85|97:114,1,90.0000034332277,10|0,0:1|0:0,0:0:0:0:
261,42,213460,2,0,P|256:85|222:114,1,90.0000034332277,2|0,0:1|0:0,0:0:0:0:
102,219,213665,2,0,P|96:251|44:292,1,90.0000034332277,2|0,0:1|0:0,0:0:0:0:
216,219,213870,2,0,P|222:251|274:292,1,90.0000034332277,10|0,0:1|0:0,0:0:0:0:
480,269,214178,6,0,L|457:277,1,24,0|0,1:0|0:0,0:0:0:0:
338,332,214485,6,0,L|449:348,1,90.0000034332277,10|0,0:1|0:0,0:0:0:0:
243,246,214690,2,0,L|332:233,1,90.0000034332277,2|0,0:1|0:0,0:0:0:0:
144,346,214896,2,0,L|255:362,1,90.0000034332277,2|0,0:1|0:0,0:0:0:0:
110,177,215101,2,0,L|199:164,1,90.0000034332277,10|0,0:1|0:0,0:0:0:0:
246,53,215331,1,0,1:0:0:0:
235,34,215408,6,0,P|225:30|213:27,1,24,0|0,1:0|0:0,0:0:0:0:
60,35,215716,6,0,P|104:60|158:51,1,90.0000034332277,10|0,0:1|0:0,0:0:0:0:
302,43,215921,2,0,P|258:68|239:119,1,90.0000034332277,2|0,0:1|0:0,0:0:0:0:
254,240,216126,2,0,P|274:280|316:298,1,90.0000034332277,2|0,0:1|0:0,0:0:0:0:
464,327,216331,2,0,P|419:324|382:351,2,90.0000034332277,8|0|0,1:0|1:0|1:0,0:0:0:0:
464,327,216639,5,0,1:0:0:0:
470,193,216793,2,0,L|463:256,1,45,2|0,0:1|0:0,0:0:0:0:
460,174,216947,2,0,L|453:237,1,45,2|0,0:1|0:0,0:0:0:0:
450,155,217101,2,0,L|443:218,1,45,2|0,0:1|0:0,0:0:0:0:
464,327,217255,6,0,L|357:314,1,90,8|0,0:0|0:0,0:0:0:0:
331,136,217562,2,0,L|318:243,1,90
295,344,217870,6,0,P|285:349|273:350,1,24,4|0,1:0|0:0,0:0:0:0:
153,272,218178,6,0,P|205:261|256:279,1,107.999996704102,10|0,1:0|0:0,0:0:0:0:
365,257,218383,2,0,P|313:245|262:263,1,107.999996704102,2|0,0:1|1:0,0:0:0:0:
153,245,218588,2,0,P|204:233|255:251,1,107.999996704102,2|0,0:1|0:0,0:0:0:0:
364,229,218793,2,0,P|312:217|261:235,1,107.999996704102,10|0,1:0|0:0,0:0:0:0:
222,286,218998,1,2,0:0:0:0:
182,339,219101,6,0,L|158:338,1,24,0|0,1:0|0:0,0:0:0:0:
60,252,219408,6,0,B|76:330|76:330|92:297,1,107.999996704102,10|0,1:0|0:0,0:0:0:0:
175,150,219613,2,0,B|145:224|145:224|177:205,1,107.999996704102,2|0,0:1|1:0,0:0:0:0:
332,143,219819,2,0,B|267:189|267:189|303:190,1,107.999996704102,2|0,0:1|0:0,0:0:0:0:
466,219,220024,2,0,B|386:222|386:222|416:243,1,107.999996704102,10|0,1:0|0:0,0:0:0:0:
456,292,220229,1,2,0:0:0:0:
417,353,220331,6,0,L|420:329,1,24,0|0,1:0|0:0,0:0:0:0:
409,238,220639,6,0,P|455:215|461:139,1,107.999996704102,10|0,1:0|0:0,0:0:0:0:
352,161,220844,2,0,P|349:109|282:73,1,107.999996704102,2|0,0:1|1:0,0:0:0:0:
246,166,221049,2,0,P|198:147|137:193,1,107.999996704102,2|0,0:1|0:0,0:0:0:0:
200,266,221255,2,0,P|163:302|181:376,1,107.999996704102,10|0,1:0|0:0,0:0:0:0:
234,329,221460,1,2,1:0:0:0:
234,329,221562,6,0,B|244:345|244:345|259:345|270:357|270:357|283:349|296:361|296:361|306:353|321:352|321:352|326:337|341:335|341:335|342:321|352:311|352:311|351:291,1,180,0|2,1:0|0:0,0:0:0:0:
333,146,222024,1,0,0:0:0:0:
452,226,222178,2,0,B|501:225|501:225|461:195,1,90,8|0,0:0|0:0,0:0:0:0:
333,146,222485,2,0,L|396:137,1,45,2|0,0:0|0:0,0:0:0:0:
232,72,222639,2,0,L|276:78,1,45
150,158,222793,6,0,L|173:153,1,24,4|0,1:0|0:0,0:0:0:0:
296,70,223101,6,0,P|237:63|202:0,1,107.999996704102,2|0,1:0|0:0,0:0:0:0:
323,163,223306,6,0,P|357:115|431:116,1,110.999999576569,2|0,1:0|0:0,0:0:0:0:
217,143,223511,6,0,P|240:196|202:264,1,113.999996955872,2|0,1:0|0:0,0:0:0:0:
24,205,223716,6,0,P|30:146|98:113,1,117.00000044632,2|0,1:0|0:0,0:0:0:0:
145,103,223921,1,2,1:0:0:0:
214,132,224024,6,0,B|204:189|204:189|256:141,2,120,4|0|0,1:0|1:0|1:0,0:0:0:0:
306,56,224331,6,0,B|261:18|261:18|277:87,2,120,0|0|0,1:0|1:0|1:0,0:0:0:0:
331,174,224639,6,0,B|385:154|385:154|317:133,2,120,4|0|0,1:0|1:0|1:0,0:0:0:0:
282,242,224947,1,0,1:0:0:0:
332,310,225049,1,0,1:0:0:0:
411,284,225152,1,0,1:0:0:0:
411,200,225254,5,4,1:0:0:0:
411,200,225562,2,0,L|459:200,1,45,2|0,0:0|0:0,0:0:0:0:
411,284,225870,2,0,L|435:325,1,45,2|0,0:0|0:0,0:0:0:0:
332,310,226178,2,0,L|309:353,1,45,2|0,0:0|0:0,0:0:0:0:
256,193,226485,5,0,0:0:0:0:
101,200,226793,2,0,L|62:198,1,36,2|0,0:0|0:0,0:0:0:0:
101,284,227101,2,0,L|79:318,1,36,2|0,0:0|0:0,0:0:0:0:
180,310,227409,2,0,L|198:346,1,36,2|0,0:0|0:0,0:0:0:0:
256,193,227716,5,0,0:0:0:0:
411,184,228024,2,0,L|448:185,1,26.9999991760254,2|0,0:0|0:0,0:0:0:0:
411,100,228332,2,0,L|430:68,1,26.9999991760254,2|0,0:0|0:0,0:0:0:0:
332,74,228640,2,0,L|315:41,1,26.9999991760254,2|0,0:0|0:0,0:0:0:0:
256,191,228947,5,0,0:0:0:0:
101,184,229255,2,0,L|78:186,1,18,2|0,0:0|0:0,0:0:0:0:
101,100,229563,2,0,L|87:81,1,18,2|0,0:0|0:0,0:0:0:0:
180,74,229871,2,0,L|190:51,1,18,2|0,0:0|0:0,0:0:0:0:
256,191,230178,5,0,0:0:0:0:
256,192,230255,12,0,235101,0:0:0:0:
