osu file format v14

[General]
AudioFilename: audio.mp3
AudioLeadIn: 0
PreviewTime: 109485
Countdown: 0
SampleSet: Soft
StackLeniency: 0.4
Mode: 0
LetterboxInBreaks: 0
WidescreenStoryboard: 1

[Editor]
Bookmarks: 1255,20947,30793,40639,50485,60331,70178,80024,89870,99716,109562,119408,129255,137408,139101,148947,158793,168639,178485,188331,190024,198178,208024,217870,225255,235101
DistanceSpacing: 1.4
BeatDivisor: 4
GridSize: 8
TimelineZoom: 1.799998

[Metadata]
Title:Destroy -agitato-
TitleUnicode:Destroy -agitato-
Artist:Yooh
ArtistUnicode:Yooh
Creator:Realazy
Version:KKip's Hard
Source:SOUND VOLTEX III GRAVITY WARS
Tags:Trynna Ayyri eiri- taku KKipalt Reol [_HalLoWeeN_] z1085684963 kiryu Symphonic Hardcore SDVX 3 Yoohsic Roomz Destopia YACT-006
BeatmapID:1861089
BeatmapSetID:839273

[Difficulty]
HPDrainRate:4.5
CircleSize:3.8
OverallDifficulty:6
ApproachRate:8
SliderMultiplier:1.1
SliderTickRate:1

[Events]
//Background and Video events
0,0,"destroy.jpg",0,0
//Break Periods
2,50685,59431
2,166377,177585
//Storyboard Layer 0 (Background)
//Storyboard Layer 1 (Fail)
//Storyboard Layer 2 (Pass)
//Storyboard Layer 3 (Foreground)
//Storyboard Layer 4 (Overlay)
//Storyboard Sound Samples

[TimingPoints]
1255,307.692307692308,4,2,1,50,1,0
20947,-100,4,2,1,70,0,0
22178,-100,4,2,1,70,0,0
24639,-100,4,2,1,70,0,0
25255,-100,4,2,1,70,0,0
25562,-100,4,2,1,70,0,0
28331,-100,4,2,1,70,0,0
28947,-100,4,2,1,70,0,0
30178,-100,4,2,1,70,0,0
30485,-100,4,2,1,70,0,0
30793,-100,4,2,1,30,0,0
33101,-100,4,2,1,30,0,0
33255,-100,4,2,1,30,0,0
35408,-100,4,2,1,30,0,0
35716,-100,4,2,1,35,0,0
37255,-100,4,2,1,35,0,0
38178,-100,4,2,1,35,0,0
39408,-100,4,2,1,55,0,0
39562,-100,4,2,1,55,0,0
40639,-100,4,2,1,40,0,0
40946,-100,4,2,2,40,0,0
40947,-100,4,2,2,40,0,0
42947,-100,4,2,2,40,0,0
43101,-100,4,2,2,40,0,0
45562,-100,4,2,2,45,0,0
48178,-100,4,2,2,20,0,0
48639,-100,4,2,2,30,0,0
48947,-100,4,2,2,40,0,0
49562,-100,4,2,2,30,0,0
49870,-100,4,2,2,20,0,0
50178,-100,4,2,2,40,0,0
50793,-100,4,2,2,35,0,0
51101,-100,4,2,2,30,0,0
51408,-100,4,2,2,25,0,0
51716,-100,4,2,2,20,0,0
52024,-100,4,2,2,15,0,0
52331,-100,4,2,2,10,0,0
52639,-100,4,2,2,5,0,0
54178,-100,4,2,1,10,0,0
55408,-100,4,2,1,15,0,0
56639,-100,4,2,1,20,0,0
57870,-100,4,2,1,25,0,0
59101,-100,4,2,1,30,0,0
60331,-100,4,2,3,40,0,0
65255,-100,4,2,3,35,0,0
65870,-100,4,2,3,32,0,0
66485,-100,4,2,3,29,0,0
67100,-100,4,2,3,26,0,0
67101,-100,4,2,3,26,0,0
67716,-100,4,2,3,23,0,0
68331,-100,4,2,3,20,0,0
70178,-100,4,2,1,40,0,0
72639,-100,4,2,1,45,0,0
75101,-100,4,2,1,50,0,0
77562,-100,4,2,1,55,0,0
78485,-100,4,2,3,45,0,0
78793,-100,4,2,2,60,0,0
79408,-100,4,2,2,70,0,0
80024,-100,4,2,2,50,0,0
81255,-100,4,2,2,55,0,0
82485,-100,4,2,2,60,0,0
83716,-100,4,2,2,65,0,0
84947,-100,4,2,1,50,0,0
86178,-100,4,2,1,55,0,0
87408,-100,4,2,1,60,0,0
87716,-100,4,2,1,65,0,0
88024,-100,4,2,1,70,0,0
88331,-100,4,2,1,75,0,0
88639,-100,4,2,1,40,0,0
88947,-100,4,2,1,45,0,0
89047,-100,4,2,1,50,0,0
89152,-100,4,2,1,55,0,0
89255,-100,4,2,1,60,0,0
89562,-100,4,2,1,70,0,0
89870,-100,4,2,1,50,0,0
90178,-100,4,2,1,40,0,0
91101,-100,4,2,1,50,0,0
91408,-100,4,2,1,40,0,0
92331,-100,4,2,1,50,0,0
92639,-100,4,2,1,40,0,0
93562,-100,4,2,1,45,0,0
94793,-100,4,2,1,50,0,0
95101,-100,4,2,1,40,0,0
96024,-100,4,2,1,50,0,0
96331,-100,4,2,1,40,0,0
97254,-100,4,2,1,50,0,0
97255,-100,4,2,1,50,0,0
97562,-100,4,2,1,40,0,0
98485,-100,4,2,1,50,0,0
99716,-100,4,2,1,60,0,0
100024,-100,4,2,1,50,0,0
100946,-100,4,2,1,60,0,0
100947,-100,4,2,1,60,0,0
101255,-100,4,2,1,50,0,0
102177,-100,4,2,1,60,0,0
102178,-100,4,2,1,60,0,0
102485,-100,4,2,1,50,0,0
103408,-100,4,2,1,55,0,0
104639,-100,4,2,1,60,0,0
104947,-100,4,2,1,50,0,0
105152,-100,4,2,1,53,0,0
105357,-100,4,2,1,56,0,0
105562,-100,4,2,1,59,0,0
105767,-100,4,2,1,62,0,0
105972,-100,4,2,1,65,0,0
106178,-100,4,2,1,68,0,0
106383,-100,4,2,1,71,0,0
106588,-100,4,2,1,74,0,0
106793,-100,4,2,1,77,0,0
107100,-100,4,2,1,60,0,0
107101,-100,4,2,1,60,0,0
109254,-100,4,2,2,50,0,0
109255,-100,4,2,2,50,0,0
109562,-83.3333333333333,4,2,1,80,0,1
114485,-83.3333333333333,4,2,1,80,0,1
114716,-83.3333333333333,4,2,1,80,0,1
114947,-83.3333333333333,4,2,1,80,0,1
115178,-83.3333333333333,4,2,1,80,0,1
115408,-83.3333333333333,4,2,1,80,0,1
115716,-83.3333333333333,4,2,1,80,0,1
115947,-83.3333333333333,4,2,1,80,0,1
116178,-83.3333333333333,4,2,1,80,0,1
116408,-83.3333333333333,4,2,1,80,0,1
116639,-83.3333333333333,4,2,1,80,0,1
119101,-83.3333333333333,4,2,1,80,0,1
119408,-83.3333333333333,4,2,1,80,0,1
123101,-83.3333333333333,4,2,1,80,0,1
124331,-83.3333333333333,4,2,1,80,0,1
124562,-83.3333333333333,4,2,1,80,0,1
124793,-83.3333333333333,4,2,1,80,0,1
125024,-83.3333333333333,4,2,1,80,0,1
125255,-83.3333333333333,4,2,1,80,0,1
125562,-83.3333333333333,4,2,1,80,0,1
125793,-83.3333333333333,4,2,1,80,0,1
126024,-83.3333333333333,4,2,1,80,0,1
126255,-83.3333333333333,4,2,1,80,0,1
126485,-83.3333333333333,4,2,1,80,0,1
126793,-83.3333333333333,4,2,1,80,0,1
129255,-83.3333333333333,4,2,1,80,0,1
129485,-83.3333333333333,4,2,1,80,0,1
129716,-83.3333333333333,4,2,1,80,0,1
129946,-83.3333333333333,4,2,1,80,0,1
130178,-83.3333333333333,4,2,1,80,0,1
130485,-83.3333333333333,4,2,1,80,0,1
130715,-83.3333333333333,4,2,1,80,0,1
130947,-83.3333333333333,4,2,1,80,0,1
131177,-83.3333333333333,4,2,1,80,0,1
131408,-83.3333333333333,4,2,1,80,0,1
131716,-83.3333333333333,4,2,1,80,0,1
131946,-83.3333333333333,4,2,1,80,0,1
132178,-83.3333333333333,4,2,1,80,0,1
132408,-83.3333333333333,4,2,1,80,0,1
132639,-83.3333333333333,4,2,1,80,0,1
132947,-83.3333333333333,4,2,1,80,0,1
133177,-83.3333333333333,4,2,1,80,0,1
133408,-83.3333333333333,4,2,1,80,0,1
133638,-83.3333333333333,4,2,1,80,0,1
133870,-83.3333333333333,4,2,1,80,0,1
134639,-83.3333333333333,4,2,1,80,0,1
134793,-83.3333333333333,4,2,1,80,0,1
135408,-83.3333333333333,4,2,1,80,0,1
136639,-83.3333333333333,4,2,1,80,0,1
139101,-83.3333333333333,4,2,1,80,0,1
139331,-83.3333333333333,4,2,1,80,0,1
139562,-83.3333333333333,4,2,1,80,0,1
139793,-83.3333333333333,4,2,1,80,0,1
140024,-83.3333333333333,4,2,1,80,0,1
140331,-83.3333333333333,4,2,1,80,0,1
140561,-83.3333333333333,4,2,1,80,0,1
140793,-83.3333333333333,4,2,1,80,0,1
141023,-83.3333333333333,4,2,1,80,0,1
141255,-83.3333333333333,4,2,1,80,0,1
142024,-83.3333333333333,4,2,1,80,0,1
142254,-83.3333333333333,4,2,1,80,0,1
142485,-83.3333333333333,4,2,1,80,0,1
142793,-83.3333333333333,4,2,1,80,0,1
143023,-83.3333333333333,4,2,1,80,0,1
143255,-83.3333333333333,4,2,1,80,0,1
143485,-83.3333333333333,4,2,1,80,0,1
144024,-83.3333333333333,4,2,1,80,0,1
144485,-83.3333333333333,4,2,1,80,0,1
144639,-83.3333333333333,4,2,1,80,0,1
145255,-83.3333333333333,4,2,1,80,0,1
146485,-83.3333333333333,4,2,1,80,0,1
147716,-100,4,2,1,50,0,0
148639,-100,4,2,2,80,0,1
148947,-100,4,2,1,50,0,0
152639,-100,4,2,1,50,0,0
153178,-100,4,2,1,5,0,0
153255,-100,4,2,1,50,0,0
153793,-100,4,2,1,5,0,0
153870,-100,4,2,2,50,0,0
154485,-100,4,2,1,50,0,0
154792,-100,4,2,2,50,0,0
155408,-100,4,2,1,60,0,0
155638,-100,4,2,1,5,0,0
155639,-100,4,2,1,5,0,0
155716,-100,4,2,1,60,0,0
155946,-100,4,2,1,5,0,0
155947,-100,4,2,1,5,0,0
156024,-100,4,2,1,60,0,0
156255,-100,4,2,2,5,0,0
156331,-100,4,2,2,50,0,0
156947,-100,4,2,1,50,0,0
157100,-100,4,2,2,50,0,0
157562,-100,4,2,2,40,0,0
158331,-100,4,2,2,45,0,0
158485,-100,4,2,2,50,0,0
158638,-100,4,2,2,55,0,0
158639,-100,4,2,2,55,0,0
158793,-100,4,2,1,50,0,0
162485,-100,4,2,1,50,0,0
163024,-100,4,2,1,5,0,0
163101,-100,4,2,1,50,0,0
163639,-100,4,2,1,5,0,0
163716,-100,4,2,2,60,0,0
165870,-100,4,2,3,50,0,0
166331,-100,4,2,1,20,0,0
166793,-100,4,2,1,30,0,0
167101,-100,4,2,1,40,0,0
167716,-100,4,2,1,30,0,0
168024,-100,4,2,1,20,0,0
168255,-100,4,2,1,5,0,0
168331,-100,4,2,1,60,0,0
168562,-100,4,2,1,5,0,0
168639,-100,4,2,1,20,0,0
178485,-100,4,2,1,40,0,0
180946,-100,4,2,1,45,0,0
180947,-100,4,2,1,45,0,0
183408,-100,4,2,1,50,0,0
184639,-100,4,2,1,55,0,0
185870,-100,4,2,1,60,0,0
186485,-100,4,2,1,70,0,0
187100,-100,4,2,1,30,0,0
187101,-100,4,2,1,30,0,0
187408,-100,4,2,1,40,0,0
187716,-100,4,2,1,50,0,0
188024,-100,4,2,2,70,0,0
188331,-83.3333333333333,4,2,1,80,0,1
188562,-83.3333333333333,4,2,1,80,0,1
188792,-83.3333333333333,4,2,1,80,0,1
189024,-83.3333333333333,4,2,1,80,0,1
189254,-83.3333333333333,4,2,1,80,0,1
189561,-83.3333333333333,4,2,1,80,0,1
189793,-83.3333333333333,4,2,1,80,0,1
190023,-83.3333333333333,4,2,1,80,0,1
190255,-83.3333333333333,4,2,1,80,0,1
190484,-83.3333333333333,4,2,1,80,0,1
190792,-83.3333333333333,4,2,1,80,0,1
191024,-83.3333333333333,4,2,1,80,0,1
191254,-83.3333333333333,4,2,1,80,0,1
191485,-83.3333333333333,4,2,1,80,0,1
191715,-83.3333333333333,4,2,1,80,0,1
192023,-83.3333333333333,4,2,1,80,0,1
192255,-83.3333333333333,4,2,1,80,0,1
192484,-83.3333333333333,4,2,1,80,0,1
192716,-83.3333333333333,4,2,1,80,0,1
192946,-83.3333333333333,4,2,1,80,0,1
193715,-83.3333333333333,4,2,1,80,0,1
193869,-83.3333333333333,4,2,1,80,0,1
194484,-83.3333333333333,4,2,1,80,0,1
195716,-83.3333333333333,4,2,1,80,0,1
198024,-83.3333333333333,4,2,1,80,0,1
198178,-83.3333333333333,4,2,1,80,0,1
198408,-83.3333333333333,4,2,1,80,0,1
198638,-83.3333333333333,4,2,1,80,0,1
198870,-83.3333333333333,4,2,1,80,0,1
199101,-83.3333333333333,4,2,1,80,0,1
199407,-83.3333333333333,4,2,1,80,0,1
199639,-83.3333333333333,4,2,1,80,0,1
199869,-83.3333333333333,4,2,1,80,0,1
200101,-83.3333333333333,4,2,1,80,0,1
200331,-83.3333333333333,4,2,1,80,0,1
201100,-83.3333333333333,4,2,1,80,0,1
201331,-83.3333333333333,4,2,1,80,0,1
201562,-83.3333333333333,4,2,1,80,0,1
201869,-83.3333333333333,4,2,1,80,0,1
202101,-83.3333333333333,4,2,1,80,0,1
202331,-83.3333333333333,4,2,1,80,0,1
202561,-83.3333333333333,4,2,1,80,0,1
203101,-83.3333333333333,4,2,1,80,0,1
203562,-83.3333333333333,4,2,1,80,0,1
203716,-83.3333333333333,4,2,1,80,0,1
204331,-83.3333333333333,4,2,1,80,0,1
205562,-83.3333333333333,4,2,1,80,0,1
206793,-100,4,2,1,50,0,0
207716,-100,4,2,1,80,0,1
208024,-100,4,2,1,60,0,0
208331,-100,4,2,4,50,0,0
209255,-100,4,2,1,60,0,0
209562,-100,4,2,4,50,0,0
210485,-100,4,2,1,60,0,0
210793,-100,4,2,4,50,0,0
211716,-100,4,2,1,50,0,0
212947,-100,4,2,1,60,0,0
213255,-100,4,2,4,50,0,0
214178,-100,4,2,1,60,0,0
214485,-100,4,2,4,50,0,0
215408,-100,4,2,1,60,0,0
215716,-100,4,2,4,50,0,0
216639,-100,4,2,1,50,0,0
217870,-100,4,2,1,70,0,0
218178,-100,4,2,4,60,0,0
219101,-100,4,2,1,70,0,0
219408,-100,4,2,4,60,0,0
220331,-100,4,2,1,70,0,0
220639,-100,4,2,4,60,0,0
221562,-100,4,2,1,50,0,0
222793,-100,4,2,1,70,0,0
223101,-100,4,2,4,60,0,0
223306,-100,4,2,1,63,0,0
223511,-100,4,2,1,66,0,0
223716,-100,4,2,1,69,0,0
223921,-100,4,2,1,69,0,0
224024,-100,4,2,1,72,0,0
224126,-100,4,2,1,72,0,0
224229,-100,4,2,1,72,0,0
224331,-100,4,2,1,75,0,0
224434,-100,4,2,1,75,0,0
224537,-100,4,2,1,75,0,0
224639,-100,4,2,1,78,0,0
224742,-100,4,2,1,78,0,0
224844,-100,4,2,1,78,0,0
224946,-100,4,2,1,81,0,0
224947,-100,4,2,1,81,0,0
225049,-100,4,2,1,81,0,0
225152,-100,4,2,1,81,0,0
225255,-100,4,2,1,50,0,0
226485,-100,4,2,1,50,0,0
227716,-100,4,2,1,50,0,0
228947,-100,4,2,1,50,0,0
230178,-100,4,2,1,40,0,0
230793,-100,4,2,1,35,0,0
231408,-100,4,2,1,30,0,0
232024,-100,4,2,1,25,0,0
232639,-100,4,2,1,20,0,0
233255,-100,4,2,1,15,0,0
233870,-100,4,2,1,10,0,0
234485,-100,4,2,1,5,0,0

[Colours]
Combo1 : 220,116,228
Combo2 : 99,126,190
Combo3 : 189,160,220
Combo4 : 136,221,227

[HitObjects]
17,163,20947,6,0,P|83:155|138:163,1,110,4|0,1:0|0:0,0:0:0:0:
176,218,21408,2,0,L|167:332,1,110,4|0,1:0|0:0,0:0:0:0:
231,371,21870,1,0,1:0:0:0:
352,276,22178,2,0,L|345:193,2,82.5,0|0|0,0:1|0:1|0:1,0:0:0:0:
413,322,22793,2,0,L|411:356,6,27.5,0|0|0|0|0|0|0,1:0|0:0|0:0|0:0|0:0|0:0|0:0,0:0:0:0:
460,256,23408,6,0,L|451:146,1,110,4|0,1:0|0:0,0:0:0:0:
496,83,23870,2,0,P|441:88|387:80,1,110,4|0,1:0|0:0,0:0:0:0:
329,28,24331,1,0,1:0:0:0:
211,128,24639,2,2,L|97:116,1,110,2|2,1:0|0:1,0:0:0:0:
37,72,25101,1,2,0:1:0:0:
37,72,25255,1,8,0:0:0:0:
51,225,25562,2,0,L|49:259,2,27.5
127,214,25870,6,0,P|123:277|116:332,1,110,4|0,1:0|0:0,0:0:0:0:
57,372,26331,2,0,L|171:363,1,110,4|0,1:0|0:0,0:0:0:0:
224,311,26793,2,0,L|297:319,1,55,0|0,1:0|1:0,0:0:0:0:
340,363,27101,2,0,L|454:354,1,110,4|8,1:0|0:0,0:0:0:0:
512,234,27716,2,0,L|457:230,1,55,0|0,1:0|0:0,0:0:0:0:
385,202,28024,2,0,L|392:139,1,55,8|0,0:0|1:0,0:0:0:0:
399,70,28331,6,0,L|323:80,2,73.3333333333333,12|8|8,1:2|1:0|1:0,0:0:0:0:
297,52,28947,2,0,L|221:62,2,73.3333333333333,12|8|8,1:2|1:0|1:0,0:0:0:0:
195,39,29562,2,0,L|190:121,1,73.3333333333333,12|8,1:0|1:0,0:0:0:0:
214,158,29870,2,0,L|138:148,1,73.3333333333333,8|8,1:0|1:0,0:0:0:0:
90,159,30178,1,8,1:0:0:0:
0,36,30485,1,2,0:1:0:0:
90,159,30793,6,0,L|98:269,1,110,4|0,0:0|1:0,0:0:0:0:
251,252,31408,2,0,L|243:362,1,110,0|0,1:0|1:0,0:0:0:0:
89,378,32024,2,0,L|81:268,1,110,0|0,1:0|1:0,0:0:0:0:
196,165,32639,2,0,P|248:160|300:196,1,110,0|0,1:0|1:0,0:0:0:0:
327,260,33101,1,2,0:0:0:0:
327,260,33255,6,0,L|437:251,1,110,0|0,1:0|1:0,0:0:0:0:
512,384,33870,2,0,L|479:382,4,27.5,0|0|0|0|0,1:0|0:0|0:0|0:0|1:0,0:0:0:0:
436,251,34485,2,0,L|445:177,2,55,0|0|0,1:0|0:0|1:0,0:0:0:0:
307,337,35101,2,0,L|274:335,2,27.5,0|0|0,1:0|0:0|0:0,0:0:0:0:
327,260,35408,2,0,B|315:231|315:231|318:186,1,55,2|0,1:1|0:1,0:0:0:0:
355,140,35716,6,0,B|302:149|302:149|236:142,1,110,0|0,1:0|1:0,0:0:0:0:
139,33,36331,2,0,L|141:0,2,27.5,0|0|0,1:0|0:0|0:0,0:0:0:0:
216,40,36639,1,0,1:0:0:0:
68,83,36947,2,0,L|75:178,1,82.5,0|0,1:0|0:0,0:0:0:0:
46,193,37255,2,0,L|53:288,1,82.5,2|2,1:0|0:0,0:0:0:0:
36,310,37562,2,0,P|73:301|164:298,1,110,2|0,1:0|1:0,0:0:0:0:
208,343,38024,1,2,0:0:0:0:
208,343,38178,6,0,L|318:335,1,110,0|0,1:0|0:0,0:0:0:0:
462,283,38793,2,0,L|489:284,2,27.5,0|0|0,1:0|0:0|0:0,0:0:0:0:
404,230,39101,2,0,P|404:199|395:156,1,55,0|0,1:0|1:0,0:0:0:0:
343,123,39408,2,0,L|233:115,2,110,4|0|8,1:0|1:0|0:0,0:0:0:0:
468,33,40331,2,0,L|495:34,2,27.5
391,46,40639,6,0,L|281:38,1,110,4|8,1:2|0:0,0:0:0:0:
144,110,41255,2,0,L|146:138,2,27.5,0|0|0,1:0|0:0|0:0,0:0:0:0:
116,37,41562,1,8,0:0:0:0:
236,115,41870,2,0,L|346:123,1,110,0|8,1:0|0:0,0:0:0:0:
478,201,42485,2,0,L|506:199,2,27.5,0|0|0,1:0|0:0|0:0,0:0:0:0:
405,229,42793,2,0,L|335:222,1,55,8|2,0:0|0:0,0:0:0:0:
275,241,43100,6,0,B|253:293|253:293|253:346,1,110,0|8,1:0|0:0,0:0:0:0:
105,300,43716,2,0,L|77:298,2,27.5,0|0|0,1:0|0:0|0:0,0:0:0:0:
178,328,44024,1,8,0:0:0:0:
205,176,44331,2,0,B|151:176|151:176|99:197,1,110,0|8,1:0|0:0,0:0:0:0:
18,65,44947,2,8,L|19:38,2,27.5,2|2|2,1:2|0:2|0:2,0:0:0:0:
82,107,45255,2,0,L|136:101,1,55,10|0,1:2|1:0,0:0:0:0:
199,56,45562,6,0,P|246:49|308:72,1,110,2|10,1:0|0:1,0:0:0:0:
447,127,46178,2,0,P|393:119|342:139,1,110,2|10,1:0|0:1,0:0:0:0:
309,209,46639,1,0,1:0:0:0:
309,209,46793,2,0,L|316:263,1,55,2|0,1:0|1:0,0:0:0:0:
281,332,47101,2,0,L|226:338,1,55,10|0,0:1|1:0,0:0:0:0:
149,328,47408,2,0,L|154:287,2,27.5,2|0|0,1:0|1:0|1:0,0:0:0:0:
193,263,47716,2,0,L|190:245,8,13.75,2|0|0|0|0|0|0|0|0,0:1|0:0|0:0|0:0|0:0|0:0|0:0|0:0|0:0,0:0:0:0:
256,192,48062,12,4,50485,0:1:0:0:
21,98,60331,6,0,P|161:91|188:94,1,165,4|0,0:1|1:0,0:0:0:0:
185,93,61255,1,0,1:0:0:0:
131,317,61716,2,0,L|125:262,1,55,0|0,1:0|1:0,0:0:0:0:
238,156,62178,1,8,0:0:0:0:
238,156,62793,6,0,P|378:163|405:160,1,165,0|0,1:0|1:0,0:0:0:0:
402,161,63716,1,0,1:0:0:0:
224,292,64178,2,0,L|218:237,1,55,0|0,0:0|1:0,0:0:0:0:
372,240,64639,2,0,L|360:349,1,110,8|0,0:0|1:0,0:0:0:0:
505,297,65255,5,0,1:0:0:0:
434,80,65870,1,0,1:0:0:0:
360,358,66485,1,0,1:0:0:0:
512,131,67100,1,0,1:0:0:0:
226,13,67716,6,0,L|232:128,1,110,0|0,1:0|0:0,0:0:0:0:
140,247,68331,2,0,L|145:137,1,110,0|0,1:0|0:0,0:0:0:0:
133,137,70178,6,0,L|141:271,1,110,4|2,1:0|0:0,0:0:0:0:
13,336,70793,2,0,P|5:280|5:278,2,55,2|2|0,0:0|0:0|0:0,0:0:0:0:
81,298,71255,2,0,L|191:303,1,110,2|0,0:0|0:0,0:0:0:0:
341,367,71870,1,0,0:0:0:0:
341,367,72024,1,2,0:0:0:0:
399,316,72178,1,0,0:0:0:0:
399,316,72331,2,0,L|392:254,1,55,2|2,0:0|0:0,0:0:0:0:
457,219,72639,6,0,P|449:164|462:111,1,110,0|2,0:0|0:0,0:0:0:0:
318,55,73255,2,0,L|311:-7,2,55,2|2|0,0:0|0:0|0:0,0:0:0:0:
265,111,73716,2,0,L|375:106,2,110,2|0|0,0:0|0:0|0:0,0:0:0:0:
190,130,74485,2,0,L|197:68,3,55,2|0|2|2,0:0|0:0|0:0|0:0,0:0:0:0:
153,10,75101,6,0,L|43:5,1,110,2|2,0:0|0:0,0:0:0:0:
55,158,75716,2,0,L|0:161,2,55,2|2|0,0:0|0:0|0:0,0:0:0:0:
124,191,76178,2,0,P|136:244|129:301,1,110,2|0,0:0|0:0,0:0:0:0:
271,358,76793,1,0,0:0:0:0:
271,358,76947,1,2,0:0:0:0:
309,291,77101,1,0,0:0:0:0:
313,294,77255,2,0,L|306:239,1,55,2|2,0:0|0:0,0:0:0:0:
386,254,77562,6,0,P|439:266|496:259,1,110,2|2,0:0|0:0,0:0:0:0:
468,106,78178,2,0,L|413:107,1,55,2|2,0:0|0:0,0:0:0:0:
361,50,78485,2,0,L|365:10,2,27.5,8|8|8,0:0|0:0|0:0,0:0:0:0:
296,93,78793,2,0,L|208:96,2,73.3333333333333,0|8|8,1:0|0:0|0:0,0:0:0:0:
364,169,79408,2,0,L|360:242,2,73.3333333333333,0|8|8,1:0|0:0|0:0,0:0:0:0:
261,176,80024,6,0,L|139:180,1,110,4|8,1:0|0:0,0:0:0:0:
65,237,80537,1,0,0:0:0:0:
65,237,80639,2,0,L|15:236,3,36.6666666666667,2|2|2|10,0:0|0:0|0:0|0:0,0:0:0:0:
82,324,81152,1,2,0:0:0:0:
82,324,81255,2,0,P|144:308|191:320,1,110,0|8,0:0|0:0,0:0:0:0:
266,384,81767,1,0,0:0:0:0:
266,384,81870,2,0,L|265:334,3,36.6666666666667,2|2|2|10,0:0|0:0|0:0|0:0,0:0:0:0:
322,260,82383,1,2,0:0:0:0:
322,260,82486,6,0,P|384:276|431:263,1,110,2|2,0:0|0:0,0:0:0:0:
475,356,82999,1,0,0:0:0:0:
475,356,83101,2,0,L|525:355,3,36.6666666666667,2|2|2|2,0:0|0:0|0:0|0:0,0:0:0:0:
448,274,83613,1,10,0:0:0:0:
448,274,83716,1,2,0:0:0:0:
500,186,83921,1,0,0:0:0:0:
500,186,84024,1,10,0:0:0:0:
417,124,84229,1,0,0:0:0:0:
417,124,84331,2,0,L|418:74,3,36.6666666666667,2|2|2|10,0:0|0:0|0:0|0:0,0:0:0:0:
492,16,84844,1,2,0:0:0:0:
492,16,84947,6,0,P|430:32|382:19,1,110,14|10,0:0|0:0,0:0:0:0:
317,97,85459,1,8,0:0:0:0:
317,97,85562,2,0,L|231:84,1,73.3333333333333,10|10,0:0|0:0,0:0:0:0:
202,115,85870,2,0,L|207:165,2,36.6666666666667,10|10|10,0:0|0:0|0:0,0:0:0:0:
165,78,86178,2,0,L|170:28,2,36.6666666666667,14|8|8,0:0|0:0|0:0,0:0:0:0:
123,108,86485,2,0,L|126:144,2,36.6666666666667,10|8|8,0:0|0:0|0:0,0:0:0:0:
89,68,86793,2,0,L|5:59,2,73.3333333333333,10|10|10,1:2|1:2|1:2,0:0:0:0:
19,143,87408,2,0,P|13:184|24:229,1,73.3333333333333,12|8,0:0|0:0,0:0:0:0:
49,256,87716,2,0,L|46:292,2,36.6666666666667,10|8|8,0:0|0:0|0:0,0:0:0:0:
100,249,88024,2,0,L|183:253,1,73.3333333333333,14|8,0:0|0:0,0:0:0:0:
221,269,88331,2,0,L|225:320,2,36.6666666666667,10|8|8,0:0|0:0|0:0,0:0:0:0:
259,234,88639,2,0,P|268:199|261:149,1,73.3333333333333,2|2,1:2|1:2,0:0:0:0:
245,114,88947,2,0,L|295:110,2,36.6666666666667,2|2|2,1:2|1:2|1:2,0:0:0:0:
214,72,89255,1,12,1:0:0:0:
346,156,89562,1,14,1:0:0:0:
433,29,89870,6,0,L|440:115,1,73.3333333333333,4|0,1:0|0:0,0:0:0:0:
479,133,90178,1,2,0:1:0:0:
473,139,90383,2,0,L|466:225,2,73.3333333333333,2|2|2,0:1|0:1|0:1,0:0:0:0:
397,349,91101,2,0,L|391:275,1,73.3333333333333,0|0,1:0|0:0,0:0:0:0:
356,237,91409,2,0,P|318:228|270:230,3,73.3333333333333,2|2|2|2,0:1|0:1|0:1|0:1,0:0:0:0:
189,268,92255,1,0,1:0:0:0:
189,268,92331,6,0,L|183:341,1,73.3333333333333,0|0,1:0|0:0,0:0:0:0:
147,365,92639,1,2,0:1:0:0:
141,371,92844,2,0,P|104:370|68:362,2,73.3333333333333,2|2|2,0:1|0:1|0:1,0:0:0:0:
11,218,93562,2,0,L|4:95,1,110,0|2,1:0|0:0,0:0:0:0:
57,51,94024,1,0,0:0:0:0:
57,51,94178,2,0,L|122:57,1,55,8|0,0:0|0:0,0:0:0:0:
187,40,94485,2,0,L|185:12,2,27.5,2|2|2,0:0|0:0|0:0,0:0:0:0:
254,77,94793,6,0,L|261:163,1,73.3333333333333,4|0,1:0|0:0,0:0:0:0:
238,187,95101,1,2,0:1:0:0:
232,193,95306,2,0,L|146:186,2,73.3333333333333,2|2|2,0:1|0:1|0:1,0:0:0:0:
98,329,96024,2,0,L|171:323,1,73.3333333333333,0|0,1:0|0:0,0:0:0:0:
210,289,96332,2,0,P|247:280|296:282,3,73.3333333333333,2|2|2|2,0:1|0:1|0:1|0:1,0:0:0:0:
365,340,97178,1,0,1:0:0:0:
365,340,97254,6,0,L|371:266,1,73.3333333333333,0|0,1:0|0:0,0:0:0:0:
414,239,97562,2,0,P|450:236|486:242,2,73.3333333333333,2|2|2,0:1|0:1|0:1,0:0:0:0:
317,202,98178,2,0,L|280:197,2,36.6666666666667,0|0|0,1:0|1:0|1:0,0:0:0:0:
359,173,98485,2,0,P|367:115|361:56,1,110,0|2,1:0|0:0,0:0:0:0:
218,8,99101,2,0,L|224:73,1,55,10|2,0:1|0:1,0:0:0:0:
160,107,99408,2,0,L|154:172,1,55,2|2,0:1|0:1,0:0:0:0:
173,237,99716,6,0,L|87:244,1,73.3333333333333,4|0,1:0|0:0,0:0:0:0:
61,277,100024,2,0,P|58:313|67:348,1,73.3333333333333,2|2,1:0|1:0,0:0:0:0:
166,375,100434,2,0,L|239:380,1,73.3333333333333,2|2,1:0|1:0,0:0:0:0:
335,345,100844,2,0,L|340:291,1,36.6666666666667,2|0,0:0|1:0,0:0:0:0:
287,162,101255,2,0,P|284:198|293:233,1,73.3333333333333,2|2,1:0|1:0,0:0:0:0:
395,241,101665,2,0,P|407:206|407:169,1,73.3333333333333,2|2,1:0|1:0,0:0:0:0:
354,80,102075,2,0,L|359:26,1,36.6666666666667,2|0,0:0|1:0,0:0:0:0:
218,109,102485,6,0,P|181:108|145:100,1,73.3333333333333,2|2,1:0|1:0,0:0:0:0:
74,25,102896,1,2,1:0:0:0:
45,123,103101,2,0,L|-4:113,2,36.6666666666667,2|0|2,1:0|1:0|1:0,0:0:0:0:
79,160,103408,2,0,P|85:208|65:271,1,110,0|2,1:0|0:0,0:0:0:0:
170,381,104024,2,0,L|164:326,1,55,8|0,0:0|0:0,0:0:0:0:
206,261,104331,2,0,L|204:233,2,27.5,2|0|0,0:0|0:0|0:0,0:0:0:0:
271,302,104639,6,0,L|357:309,1,73.3333333333333,4|0,1:0|0:0,0:0:0:0:
387,335,104947,2,0,L|381:261,2,73.3333333333333,2|2|2,1:0|1:0|1:0,0:0:0:0:
398,233,105562,2,0,L|392:159,2,73.3333333333333,2|2|2,1:0|1:0|1:0,0:0:0:0:
409,131,106178,2,0,L|403:57,2,73.3333333333333,2|2|2,1:0|1:0|1:0,0:0:0:0:
309,105,106793,2,0,L|312:66,2,36.6666666666667,0|0|0,1:0|1:0|1:0,0:0:0:0:
291,152,107100,6,0,P|233:167|159:148,1,110,8|8,0:0|0:0,0:0:0:0:
43,95,107716,2,0,P|100:79|175:99,1,110,8|8,0:0|0:0,0:0:0:0:
167,240,108331,2,0,L|162:294,1,55,8|8,0:0|0:0,0:0:0:0:
239,296,108639,2,0,L|243:350,1,55,8|8,0:0|0:0,0:0:0:0:
317,254,108947,2,0,L|312:299,4,27.5,8|8|8|8|10,0:0|0:0|0:0|0:0|0:0,0:0:0:0:
477,192,109562,6,0,P|483:124|468:52,1,131.99999597168,6|8,1:2|1:0,0:0:0:0:
299,44,110178,2,0,P|287:108|293:174,1,131.99999597168,2|8,1:2|1:0,0:0:0:0:
318,255,110639,2,0,B|403:246|403:246|448:269,2,131.99999597168,2|2|2,0:1|0:1|0:1,0:0:0:0:
245,301,111408,2,0,L|175:289,1,65.9999979858399,2|0,1:0|0:0,0:0:0:0:
196,374,111716,1,10,1:0:0:0:
196,374,111870,1,0,1:0:0:0:
115,345,112024,6,0,P|109:277|124:205,1,131.99999597168,2|10,1:0|1:0,0:0:0:0:
143,44,112639,2,0,P|151:89|146:136,1,65.9999979858399,2|2,1:1|0:1,0:0:0:0:
70,141,112947,2,0,L|4:149,1,65.9999979858399,10|2,1:2|0:1,0:0:0:0:
120,214,113255,2,2,L|185:222,1,65.9999979858399,2|0,1:0|1:0,0:1:0:0:
264,188,113562,1,8,1:0:0:0:
264,188,113716,1,2,1:0:0:0:
332,239,113870,2,2,L|322:355,2,98.9999969787599,2|2|0,1:0|1:0|1:0,0:1:0:0:
410,203,114485,6,0,B|417:153|417:153|415:98,1,98.9999969787599,6|2,1:0|0:0,0:0:0:0:
428,92,114793,1,8,1:0:0:0:
363,35,114947,2,0,L|259:41,1,98.9999969787599,6|2,1:0|0:0,0:0:0:0:
159,115,115408,2,0,L|52:105,1,98.9999969787599,14|0,1:0|1:0,0:0:0:0:
24,130,115716,2,0,B|17:180|17:180|19:235,1,98.9999969787599,6|2,1:0|0:0,0:0:0:0:
29,243,116024,1,8,1:0:0:0:
111,268,116178,2,0,L|212:264,2,98.9999969787599,6|2|10,1:0|0:0|1:0,0:0:0:0:
249,370,116947,6,0,L|308:374,4,32.99999899292,6|0|0|2|8,1:0|1:0|1:0|1:0|1:0,0:0:0:0:
354,234,117562,2,0,L|413:230,4,32.99999899292,6|0|0|2|8,1:0|1:0|1:0|1:0|1:0,0:0:0:0:
493,335,118178,2,0,L|500:252,1,65.9999979858399,2|0,1:0|1:0,0:0:0:0:
458,200,118485,1,8,1:0:0:0:
458,200,118639,1,2,1:0:0:0:
406,131,118793,2,0,L|408:98,2,32.99999899292,0|0|0,1:0|1:0|1:0,0:0:0:0:
397,140,119024,1,0,1:0:0:0:
389,149,119101,2,0,P|345:150|302:137,1,65.9999979858399,10|2,1:0|0:0,0:0:0:0:
280,71,119408,6,0,P|212:65|140:79,1,131.99999597168,2|8,1:2|1:0,0:0:0:0:
168,247,120024,2,0,P|233:253|298:241,1,131.99999597168,2|8,1:2|1:0,0:0:0:0:
240,177,120485,2,0,B|148:170|148:170|110:191,2,131.99999597168,2|2|2,0:1|0:1|0:1,0:0:0:0:
298,240,121254,2,0,L|286:305,1,65.9999979858399,2|0,1:0|0:0,0:0:0:0:
353,359,121562,1,10,1:0:0:0:
353,359,121716,1,0,1:0:0:0:
437,346,121870,6,0,P|431:278|446:206,1,131.99999597168,6|10,1:0|1:0,0:0:0:0:
488,50,122485,2,0,P|495:82|495:115,1,65.9999979858399,2|0,1:0|0:0,0:0:0:0:
410,135,122793,2,0,L|344:127,1,65.9999979858399,0|2,0:0|0:1,0:0:0:0:
264,95,123101,2,0,B|247:41|247:41|254:-21,2,98.9999969787599,6|0|2,1:0|1:0|1:0,0:0:0:0:
191,141,123716,2,0,L|181:257,2,98.9999969787599,6|0|2,1:0|1:0|1:2,0:0:0:0:
146,67,124331,6,0,B|96:60|96:60|41:62,1,98.9999969787599,6|0,1:0|1:0,0:0:0:0:
32,53,124639,1,8,1:0:0:0:
2,133,124793,2,0,L|7:231,1,98.9999969787599,6|0,1:0|1:0,0:0:0:0:
75,340,125254,2,0,L|173:330,1,98.9999969787599,10|0,1:0|0:0,0:0:0:0:
211,351,125562,2,0,B|261:344|261:344|316:346,1,98.9999969787599,6|0,1:0|1:0,0:0:0:0:
322,335,125870,1,8,1:0:0:0:
277,261,126024,2,0,L|267:154,2,98.9999969787599,6|0|10,1:0|1:0|1:0,0:0:0:0:
427,344,126793,6,0,L|486:348,4,32.99999899292,6|0|0|0|8,1:0|1:0|1:0|1:0|1:0,0:0:0:0:
424,172,127408,2,0,L|483:168,4,32.99999899292,6|0|0|0|8,1:0|1:0|1:0|1:0|1:0,0:0:0:0:
277,261,128024,2,0,L|284:178,1,65.9999979858399,2|0,1:0|1:0,0:0:0:0:
337,129,128331,1,10,1:0:0:0:
337,129,128485,1,0,1:0:0:0:
259,92,128639,2,0,L|257:59,4,32.99999899292,2|0|0|0|2,1:0|1:0|1:0|1:0|1:0,0:0:0:0:
217,168,129101,1,0,1:0:0:0:
217,168,129178,1,0,1:0:0:0:
217,168,129255,6,0,P|164:156|75:168,1,131.99999597168,6|8,1:0|1:0,0:0:0:0:
18,215,129716,2,0,L|26:324,1,98.9999969787599,2|2,1:0|0:0,0:0:0:0:
37,326,130023,1,8,1:0:0:0:
122,340,130178,2,0,P|120:307|107:278,1,65.9999979858399,2|2,1:0|0:1,0:0:0:0:
205,313,130485,2,0,P|257:324|343:306,1,131.99999597168,6|8,1:0|1:0,0:0:0:0:
409,350,130947,2,0,L|416:251,1,98.9999969787599,2|2,1:0|0:0,0:0:0:0:
428,239,131255,2,0,L|426:168,1,65.9999979858399,8|2,1:0|1:0,0:0:0:0:
494,121,131562,1,2,1:0:0:0:
461,41,131716,6,0,P|408:29|309:43,1,131.99999597168,6|8,1:0|1:0,0:0:0:0:
285,109,132178,2,0,P|232:120|161:110,1,98.9999969787599,2|2,1:0|0:0,0:0:0:0:
174,111,132485,1,8,1:0:0:0:
103,61,132639,2,0,P|89:91|88:123,1,65.9999979858399,2|2,1:0|0:1,0:0:0:0:
26,185,132947,2,0,L|33:283,1,98.9999969787599,6|2,1:0|0:0,0:0:0:0:
46,293,133254,1,8,1:0:0:0:
109,350,133408,2,0,L|116:251,1,98.9999969787599,2|2,1:0|0:0,0:0:0:0:
158,243,133716,2,0,P|187:256|220:258,1,65.9999979858399,8|2,1:0|1:0,0:0:0:0:
295,215,134024,1,10,0:0:0:0:
295,215,134101,1,8,0:0:0:0:
295,215,134178,6,0,P|301:139|294:89,2,98.9999969787599,6|0|2,1:0|1:0|1:0,0:0:0:0:
369,257,134793,2,0,L|376:365,1,98.9999969787599,6|0,1:0|1:0,0:0:0:0:
411,380,135101,2,0,L|494:385,1,65.9999979858399,10|2,1:2|1:0,0:0:0:0:
461,299,135408,2,0,P|454:223|462:173,2,98.9999969787599,6|2|2,1:0|0:1|0:1,0:0:0:0:
379,269,136024,2,0,L|374:203,1,65.9999979858399,2|2,1:0|0:0,0:0:0:0:
298,161,136331,2,0,L|302:95,1,65.9999979858399,10|2,1:2|0:0,0:0:0:0:
241,33,136639,6,0,P|164:26|100:37,1,131.99999597168,2|8,1:2|1:0,0:0:0:0:
22,182,137255,2,0,L|99:189,1,65.9999979858399,2|2,1:2|0:0,0:0:0:0:
161,132,137562,2,0,L|168:209,1,65.9999979858399,10|2,1:0|0:0,0:0:0:0:
116,268,137870,2,0,L|109:345,1,65.9999979858399,2|0,1:2|1:0,0:0:0:0:
200,310,138178,1,10,1:2:0:0:
200,310,138331,1,0,1:0:0:0:
246,238,138485,2,0,P|307:236|355:249,1,98.9999969787599,2|0,1:2|1:0,0:0:0:0:
378,270,138793,2,0,L|384:336,1,65.9999979858399,10|0,1:0|1:0,0:0:0:0:
442,217,139101,6,0,P|454:164|442:75,1,131.99999597168,6|8,1:0|1:0,0:0:0:0:
365,116,139562,2,0,L|256:108,1,98.9999969787599,2|2,1:0|0:0,0:0:0:0:
254,97,139869,1,8,1:0:0:0:
240,12,140024,2,0,P|273:14|302:27,1,65.9999979858399,2|10,1:0|1:0,0:0:0:0:
177,69,140331,2,0,P|125:80|39:62,1,131.99999597168,6|8,1:0|1:0,0:0:0:0:
1,138,140793,2,0,L|8:237,1,98.9999969787599,2|2,1:0|0:0,0:0:0:0:
20,249,141101,2,0,L|18:320,1,65.9999979858399,8|2,1:0|1:0,0:0:0:0:
80,373,141408,1,10,0:1:0:0:
150,323,141562,6,0,L|144:290,4,32.99999899292,2|0|0|0|8,1:0|1:0|1:0|1:0|1:0,0:0:0:0:
221,371,142024,2,0,P|274:382|345:372,1,98.9999969787599,2|2,1:0|0:0,0:0:0:0:
332,373,142331,1,8,1:0:0:0:
382,303,142485,2,0,P|352:289|320:288,1,65.9999979858399,2|10,1:0|1:0,0:0:0:0:
458,345,142793,2,0,L|465:247,1,98.9999969787599,6|2,1:0|0:0,0:0:0:0:
478,237,143100,1,8,1:0:0:0:
403,193,143254,2,0,L|396:94,1,98.9999969787599,2|2,1:0|0:0,0:0:0:0:
354,86,143562,2,0,P|325:99|292:101,1,65.9999979858399,8|2,1:0|1:2,0:0:0:0:
217,54,143870,1,10,0:0:0:0:
217,54,143947,1,10,0:0:0:0:
217,54,144024,6,0,L|222:-3,4,32.99999899292,2|0|0|0|10,1:2|1:0|1:0|1:0|0:1,0:0:0:0:
72,147,144639,2,0,L|67:90,4,32.99999899292,2|0|0|0|10,1:2|1:0|1:0|1:0|0:1,0:0:0:0:
134,206,145101,1,2,1:0:0:0:
85,275,145254,2,0,P|161:268|211:276,1,98.9999969787599,2|2,1:1|1:0,0:0:0:0:
211,303,145562,2,0,L|216:369,1,65.9999979858399,8|2,1:0|1:0,0:0:0:0:
302,361,145870,2,0,L|297:295,1,65.9999979858399,10|0,1:0|1:0,0:0:0:0:
383,287,146178,2,0,L|388:353,1,65.9999979858399,10|0,1:0|1:0,0:0:0:0:
451,237,146485,6,0,L|510:243,4,32.99999899292,10|0|8|0|10,1:2|1:0|1:0|1:0|1:2,0:0:0:0:
404,163,146947,1,8,1:0:0:0:
404,163,147024,1,0,1:0:0:0:
404,163,147101,2,0,P|399:111|398:57,2,98.9999969787599,10|10|10,0:0|0:0|0:0,0:0:0:0:
347,215,147716,2,0,B|296:224|296:224|181:186|181:186|134:199,1,220,6|0,1:0|0:0,0:0:0:0:
11,107,148639,2,2,L|5:173,1,55,10|0,0:1|0:0,0:1:0:0:
63,214,148947,6,0,B|51:274|51:274|62:323,1,110,0|0,1:0|0:0,0:0:0:0:
207,368,149562,2,0,L|332:366,1,110,8|0,1:0|0:0,0:0:0:0:
392,231,150178,1,0,0:0:0:0:
433,378,150485,1,0,1:0:0:0:
309,285,150793,2,0,P|297:231|311:178,1,110,8|0,1:0|0:0,0:0:0:0:
231,46,151408,6,0,B|227:101|227:101|237:97|237:97|233:152,1,110,0|0,1:0|0:0,0:0:0:0:
172,188,151870,1,0,1:0:0:0:
118,132,152024,2,0,L|-7:130,1,110,8|0,1:0|0:0,0:0:0:0:
87,256,152639,2,0,P|82:216|83:193,1,55,0|0,1:0|0:0,0:0:0:0:
118,132,152947,1,2,0:0:0:0:
227,240,153255,2,0,P|226:267|222:294,2,55,0|0|2,1:0|0:0|0:0,0:0:0:0:
309,369,153870,6,0,B|370:377|370:377|430:367,1,110,2|2,1:0|0:1,0:0:0:0:
500,238,154485,2,0,L|497:113,1,110,10|2,0:0|0:1,0:0:0:0:
373,36,155101,1,2,0:1:0:0:
241,115,155408,2,0,L|137:102,1,82.5,2|0,1:0|0:0,0:0:0:0:
122,117,155716,2,0,L|18:104,1,82.5,2|0,1:0|0:0,0:0:0:0:
2,116,156024,1,2,1:0:0:0:
56,259,156331,6,0,P|128:235|181:246,1,110,2|2,1:0|0:1,0:0:0:0:
234,215,156793,1,0,1:0:0:0:
279,277,156947,2,0,L|273:339,1,55,10|0,0:1|1:0,0:0:0:0:
331,383,157255,1,0,1:0:0:0:
396,342,157408,2,0,L|386:225,1,110,0|0,1:0|1:0,0:0:0:0:
492,119,158024,1,0,1:0:0:0:
492,119,158178,1,2,0:0:0:0:
425,80,158331,1,2,0:0:0:0:
425,80,158485,2,0,L|428:17,1,55,2|2,0:0|0:0,0:0:0:0:
352,6,158793,6,0,B|300:-3|300:-3|244:7,1,110,4|0,1:0|0:0,0:0:0:0:
133,114,159408,2,0,L|135:239,1,110,8|0,0:0|0:0,0:0:0:0:
57,358,160024,1,0,0:0:0:0:
52,204,160331,1,0,1:0:0:0:
179,298,160639,2,0,P|233:310|286:296,1,110,8|0,0:0|0:0,0:0:0:0:
427,355,161254,6,0,B|372:351|372:351|376:361|376:361|321:357,1,110,0|0,1:0|0:0,0:0:0:0:
284,296,161716,1,0,1:0:0:0:
328,233,161870,2,0,L|329:123,1,110,8|0,0:0|0:0,0:0:0:0:
211,24,162485,2,0,P|171:19|148:20,1,55,0|0,1:0|0:0,0:0:0:0:
87,55,162793,1,0,0:0:0:0:
230,111,163101,2,0,P|229:138|225:165,2,55,0|0|0,1:0|0:0|0:0,0:0:0:0:
87,55,163716,5,4,1:0:0:0:
153,194,164024,1,0,1:0:0:0:
359,194,164331,1,0,1:0:0:0:
425,55,164639,1,0,1:0:0:0:
256,38,164947,2,0,L|256:11,4,27.5,4|0|0|0|0,1:0|1:0|1:0|1:0|1:0,0:0:0:0:
256,115,165408,1,0,1:0:0:0:
256,115,165562,2,0,L|256:179,1,55,2|0,1:0|1:0,0:0:0:0:
256,247,165870,2,0,L|256:274,4,27.5,8|8|8|8|0,0:0|0:0|0:0|0:0|0:0,0:0:0:0:
35,326,178485,6,0,P|120:310|161:315,1,110,8|8,0:0|0:0,0:0:0:0:
289,359,179101,2,0,P|374:375|415:370,1,110,8|8,0:0|0:0,0:0:0:0:
504,262,179716,2,0,L|494:152,1,110,10|8,0:0|0:0,0:0:0:0:
427,13,180331,2,0,L|417:122,1,110,8|10,0:0|0:0,0:0:0:0:
348,158,180793,6,0,L|355:198,2,27.5,10|10|12,0:0|0:0|0:1,0:0:0:0:
164,158,181255,1,8,0:0:0:0:
255,281,181562,1,10,0:0:0:0:
257,126,181870,1,8,0:0:0:0:
407,241,182178,1,10,0:0:0:0:
341,380,182486,1,10,0:0:0:0:
171,380,182793,1,10,0:0:0:0:
105,241,183101,1,8,0:0:0:0:
159,185,183255,1,8,0:0:0:0:
159,185,183331,1,8,0:0:0:0:
159,185,183408,6,0,L|153:113,1,55,10|8,0:0|0:0,0:0:0:0:
211,77,183716,2,0,L|217:5,1,55,10|8,0:0|0:0,0:0:0:0:
296,22,184024,2,0,L|301:77,1,55,10|8,0:0|0:0,0:0:0:0:
357,130,184332,2,0,L|353:185,1,55,10|8,0:0|0:0,0:0:0:0:
387,254,184639,1,10,0:0:0:0:
387,254,184793,1,8,0:0:0:0:
459,280,184947,2,0,P|461:241|458:218,1,55,10|8,0:0|0:0,0:0:0:0:
398,337,185255,1,10,0:0:0:0:
398,337,185409,1,8,0:0:0:0:
319,309,185563,2,0,P|317:348|320:371,1,55,10|8,0:0|0:0,0:0:0:0:
243,347,185870,6,0,L|202:351,6,27.5,10|8|8|8|8|8|8,0:0|0:0|0:0|0:0|0:0|0:0|0:0,0:0:0:0:
170,291,186485,2,0,L|129:295,2,27.5,10|8|8,0:0|0:0|0:0,0:0:0:0:
103,331,186793,2,0,L|84:328,8,13.75,8|0|0|0|0|0|0|0|2,0:0|0:0|0:0|0:0|0:0|0:0|0:0|0:0|0:0,0:0:0:0:
504,256,188024,2,2,L|422:251,1,82.5,10|0,0:1|0:0,0:1:0:0:
383,231,188331,6,0,P|371:178|383:89,1,131.99999597168,6|8,1:0|1:0,0:0:0:0:
327,32,188793,2,0,L|217:40,1,98.9999969787599,2|2,1:0|0:0,0:0:0:0:
216,51,189101,1,8,1:0:0:0:
264,120,189254,2,0,P|234:134|202:136,1,65.9999979858399,2|2,1:0|0:1,0:0:0:0:
135,81,189562,2,0,P|146:133|128:219,1,131.99999597168,6|8,1:0|1:0,0:0:0:0:
60,257,190024,2,0,L|67:356,1,98.9999969787599,2|2,1:0|0:0,0:0:0:0:
79,368,190331,2,0,L|150:370,1,65.9999979858399,8|2,1:0|1:0,0:0:0:0:
218,325,190638,1,2,1:0:0:0:
287,375,190793,6,0,P|352:382|416:369,1,131.99999597168,6|8,1:0|1:0,0:0:0:0:
464,297,191255,2,0,P|453:244|463:173,1,98.9999969787599,2|2,1:0|0:0,0:0:0:0:
462,186,191561,1,8,1:0:0:0:
449,100,191716,2,0,P|482:101|512:115,1,65.9999979858399,2|2,1:0|0:1,0:0:0:0:
384,151,192024,2,0,L|286:158,1,98.9999969787599,6|2,1:0|0:0,0:0:0:0:
276,171,192330,1,8,1:0:0:0:
206,120,192485,2,0,L|107:113,1,98.9999969787599,2|2,1:0|0:0,0:0:0:0:
99,71,192793,2,0,P|112:42|114:9,1,65.9999979858399,8|2,1:0|1:0,0:0:0:0:
37,135,193100,1,10,0:0:0:0:
37,135,193177,1,8,0:0:0:0:
37,135,193255,6,0,P|31:211|38:261,2,98.9999969787599,6|0|2,1:0|1:0|1:0,0:0:0:0:
107,184,193870,2,0,L|111:296,1,98.9999969787599,6|0,1:0|1:0,0:0:0:0:
84,317,194177,2,0,L|1:322,1,65.9999979858399,10|2,1:2|1:0,0:0:0:0:
161,347,194485,2,0,P|237:340|287:348,2,98.9999969787599,6|2|2,1:0|0:1|0:1,0:0:0:0:
191,265,195101,2,0,L|187:200,1,65.9999979858399,2|2,1:2|0:0,0:0:0:0:
260,154,195408,2,0,L|326:158,1,65.9999979858399,10|2,1:2|0:0,0:0:0:0:
381,224,195716,6,0,P|446:215|511:222,1,131.99999597168,2|8,1:2|1:0,0:0:0:0:
494,51,196331,2,0,L|488:116,1,65.9999979858399,2|2,1:2|0:0,0:0:0:0:
410,79,196639,2,0,L|404:13,1,65.9999979858399,10|2,1:2|0:0,0:0:0:0:
331,59,196947,2,0,L|324:136,1,65.9999979858399,2|0,1:2|1:0,0:0:0:0:
248,86,197254,1,10,1:2:0:0:
248,86,197407,1,0,1:0:0:0:
175,40,197562,2,0,P|114:38|66:51,1,98.9999969787599,2|0,1:2|1:0,0:0:0:0:
43,72,197870,2,0,L|37:138,1,65.9999979858399,10|0,0:0|1:0,0:0:0:0:
115,174,198177,6,0,P|127:227|115:316,1,131.99999597168,6|8,1:0|1:0,0:0:0:0:
154,382,198639,2,0,L|263:374,1,98.9999969787599,2|2,1:0|0:0,0:0:0:0:
265,363,198947,1,8,1:0:0:0:
279,278,199101,2,0,P|246:280|217:293,1,65.9999979858399,2|10,1:0|1:0,0:0:0:0:
342,335,199408,2,0,P|406:348|470:337,1,131.99999597168,6|8,1:0|1:0,0:0:0:0:
493,254,199870,2,0,L|500:155,1,98.9999969787599,2|2,1:0|0:0,0:0:0:0:
512,143,200178,2,0,L|441:145,1,65.9999979858399,8|2,1:0|1:0,0:0:0:0:
378,197,200485,1,10,0:1:0:0:
308,147,200639,6,0,L|314:114,4,32.99999899292,2|0|0|0|8,1:0|1:0|1:0|1:0|1:0,0:0:0:0:
253,213,201101,2,0,P|200:224|129:214,1,98.9999969787599,2|2,1:0|0:0,0:0:0:0:
142,215,201408,1,8,1:0:0:0:
92,145,201562,2,0,P|122:131|154:130,1,65.9999979858399,2|10,1:0|1:0,0:0:0:0:
56,226,201870,2,0,L|49:324,1,98.9999969787599,6|2,1:0|0:0,0:0:0:0:
36,334,202178,1,8,1:0:0:0:
107,381,202331,2,0,L|206:374,1,98.9999969787599,2|2,1:0|0:0,0:0:0:0:
214,332,202639,2,0,P|243:319|276:317,1,65.9999979858399,8|2,1:0|1:2,0:0:0:0:
357,347,202947,1,10,0:0:0:0:
357,347,203024,1,10,0:0:0:0:
357,347,203101,6,0,L|362:290,4,32.99999899292,2|0|0|0|10,1:2|1:0|1:0|1:0|0:1,0:0:0:0:
505,261,203716,2,0,L|500:204,4,32.99999899292,2|0|0|0|10,1:2|1:0|1:0|1:0|0:1,0:0:0:0:
425,227,204177,1,2,1:0:0:0:
463,150,204331,2,0,P|387:157|337:149,1,98.9999969787599,2|2,1:1|1:0,0:0:0:0:
334,123,204639,2,0,L|329:57,1,65.9999979858399,8|2,1:0|1:0,0:0:0:0:
243,65,204947,2,0,L|248:131,1,65.9999979858399,10|0,1:0|1:0,0:0:0:0:
162,141,205255,2,0,L|157:75,1,65.9999979858399,10|0,1:0|1:0,0:0:0:0:
102,200,205562,6,0,L|43:194,4,32.99999899292,10|0|8|0|10,1:2|1:0|1:0|1:0|1:2,0:0:0:0:
149,274,206024,1,8,1:0:0:0:
149,274,206101,1,0,1:0:0:0:
149,274,206178,2,0,P|154:326|155:380,2,98.9999969787599,10|10|10,0:0|0:0|0:0,0:0:0:0:
236,237,206793,2,0,B|322:243|322:243|351:215|351:215|451:220,1,220,6|0,1:0|0:0,0:0:0:0:
334,135,207716,2,2,L|339:63,1,55,10|0,0:1|0:0,0:1:0:0:
271,39,208024,6,0,L|185:46,1,73.3333333333333,4|0,1:0|0:0,0:0:0:0:
167,73,208332,1,2,0:1:0:0:
161,79,208537,2,0,L|75:72,2,73.3333333333333,2|2|2,0:1|0:1|0:1,0:0:0:0:
51,188,209255,2,0,L|57:262,1,73.3333333333333,0|0,1:0|0:0,0:0:0:0:
92,300,209563,2,0,P|130:309|178:307,3,73.3333333333333,10|2|2|10,0:1|0:1|0:1|0:1,0:0:0:0:
250,364,210408,1,0,1:0:0:0:
250,364,210485,6,0,L|256:291,1,73.3333333333333,0|0,1:0|0:0,0:0:0:0:
298,261,210793,2,0,P|335:262|371:270,2,73.3333333333333,10|2|2,0:1|0:1|0:1,0:0:0:0:
243,173,211408,2,0,L|206:168,2,36.6666666666667,10|0|0,1:0|1:0|1:0,0:0:0:0:
289,151,211716,2,0,L|282:28,1,110,0|2,1:0|0:0,0:0:0:0:
360,39,212178,1,0,0:0:0:0:
360,39,212332,2,0,L|366:104,1,55,8|0,0:0|0:0,0:0:0:0:
415,152,212639,2,0,L|413:180,2,27.5,2|2|2,0:0|0:0|0:0,0:0:0:0:
486,121,212947,6,0,L|493:207,1,73.3333333333333,4|0,1:0|0:0,0:0:0:0:
470,231,213255,1,10,0:1:0:0:
464,237,213460,2,0,L|457:323,2,73.3333333333333,2|2|10,0:1|0:1|0:1,0:0:0:0:
375,363,214178,2,0,L|302:357,1,73.3333333333333,0|0,1:0|0:0,0:0:0:0:
263,323,214486,2,0,P|272:286|270:237,3,73.3333333333333,10|2|2|10,0:1|0:1|0:1|0:1,0:0:0:0:
176,214,215331,1,0,1:0:0:0:
176,214,215408,6,0,L|170:140,1,73.3333333333333,0|0,1:0|0:0,0:0:0:0:
127,113,215716,2,0,P|91:110|55:116,2,73.3333333333333,10|2|2,0:1|0:1|0:1,0:0:0:0:
223,62,216332,2,0,L|228:25,2,36.6666666666667,8|0|0,1:0|1:0|1:0,0:0:0:0:
252,104,216639,2,0,L|311:110,1,55,0|2,1:0|0:1,0:0:0:0:
382,95,216947,2,0,L|441:101,1,55,2|2,0:1|0:1,0:0:0:0:
486,159,217255,2,0,L|492:224,1,55,8|0,0:0|0:0,0:0:0:0:
415,226,217562,2,0,L|409:161,1,55
463,286,217870,5,4,1:0:0:0:
334,371,218178,2,0,L|228:364,1,73.3333333333333,10|2,1:0|0:1,0:0:0:0:
218,337,218485,2,0,L|112:330,1,73.3333333333333,0|0,1:0|0:0,0:0:0:0:
102,303,218793,2,0,L|90:197,1,73.3333333333333,10|2,1:0|0:0,0:0:0:0:
132,195,219101,1,0,1:0:0:0:
264,272,219408,2,0,L|370:265,1,73.3333333333333,10|2,1:0|0:1,0:0:0:0:
380,238,219715,2,0,L|486:231,1,73.3333333333333,0|0,1:0|0:0,0:0:0:0:
496,204,220023,2,0,L|507:98,1,73.3333333333333,10|2,1:0|0:0,0:0:0:0:
466,96,220331,5,0,1:0:0:0:
340,5,220639,2,0,L|234:12,1,73.3333333333333,10|2,1:0|0:1,0:0:0:0:
224,39,220946,2,0,L|118:46,1,73.3333333333333,0|0,1:0|0:0,0:0:0:0:
108,73,221254,2,0,L|1:80,1,73.3333333333333,10|2,1:0|1:0,0:0:0:0:
0,113,221562,2,0,P|-6:161|14:224,1,110,0|2,1:0|0:0,0:0:0:0:
143,298,222178,2,0,L|149:243,1,55,8|0,0:0|0:0,0:0:0:0:
215,204,222485,2,0,L|213:176,2,27.5,2|0|0,0:0|0:0|0:0,0:0:0:0:
271,256,222793,6,0,L|357:263,1,73.3333333333333,4|0,1:0|0:0,0:0:0:0:
380,298,223101,2,0,L|374:372,2,73.3333333333333,2|2|2,1:0|1:0|1:0,0:0:0:0:
479,322,223716,2,0,L|473:248,1,73.3333333333333,2|2,1:0|1:0,0:0:0:0:
441,208,224024,2,0,L|391:201,2,36.6666666666667,4|0|0,1:0|1:0|1:0,0:0:0:0:
465,163,224331,2,0,L|515:156,2,36.6666666666667,0|0|0,1:0|1:0|1:0,0:0:0:0:
436,119,224639,2,0,L|386:112,2,36.6666666666667,4|0|0,1:0|1:0|1:0,0:0:0:0:
460,74,224946,2,0,L|510:67,2,36.6666666666667,0|0|0,1:0|1:0|1:0,0:0:0:0:
431,30,225255,5,4,1:0:0:0:
256,192,225331,12,0,230178,0:0:0:0:
256,192,230255,12,0,235101,0:0:0:0:
