osu file format v14

[General]
AudioFilename: audio.mp3
AudioLeadIn: 0
PreviewTime: 109485
Countdown: 0
SampleSet: Soft
StackLeniency: 0.4
Mode: 0
LetterboxInBreaks: 0
WidescreenStoryboard: 1

[Editor]
Bookmarks: 1255,20947,89870,99716,109562,119408,129255,139101,148947,158793,168639,188331,198178,208024,217870,225255,235101
DistanceSpacing: 1.2
BeatDivisor: 4
GridSize: 32
TimelineZoom: 1.799998

[Metadata]
Title:Destroy -agitato-
TitleUnicode:Destroy -agitato-
Artist:Yooh
ArtistUnicode:Yooh
Creator:Realazy
Version:Ayynna's Normal
Source:SOUND VOLTEX III GRAVITY WARS
Tags:Trynna Ayyri eiri- taku KKipalt Reol [_HalLoWeeN_] z1085684963 kiryu Symphonic Hardcore SDVX 3 Yoohsic Roomz Destopia YACT-006
BeatmapID:2157230
BeatmapSetID:839273

[Difficulty]
HPDrainRate:3.5
CircleSize:3.5
OverallDifficulty:4
ApproachRate:6
SliderMultiplier:0.9
SliderTickRate:1

[Events]
//Background and Video events
0,0,"destroy.jpg",0,0
//Break Periods
//Storyboard Layer 0 (Background)
//Storyboard Layer 1 (Fail)
//Storyboard Layer 2 (Pass)
//Storyboard Layer 3 (Foreground)
//Storyboard Layer 4 (Overlay)
//Storyboard Sound Samples

[TimingPoints]
1255,307.692307692308,4,2,1,50,1,0
20947,-100,4,2,1,70,0,0
22178,-100,4,2,1,70,0,0
24639,-100,4,2,1,70,0,0
25255,-100,4,2,1,70,0,0
25562,-100,4,2,1,70,0,0
28331,-100,4,2,1,70,0,0
28947,-100,4,2,1,70,0,0
30178,-100,4,2,1,70,0,0
30485,-100,4,2,1,70,0,0
30793,-100,4,2,1,30,0,0
33101,-100,4,2,1,30,0,0
33255,-100,4,2,1,30,0,0
35408,-100,4,2,1,30,0,0
35716,-100,4,2,1,35,0,0
37255,-100,4,2,1,35,0,0
38178,-100,4,2,1,35,0,0
39408,-100,4,2,1,55,0,0
39562,-100,4,2,1,55,0,0
40639,-100,4,2,1,40,0,0
40946,-100,4,2,2,40,0,0
40947,-100,4,2,2,40,0,0
42947,-100,4,2,2,40,0,0
43101,-100,4,2,2,40,0,0
45562,-100,4,2,2,45,0,0
48178,-100,4,2,2,20,0,0
48639,-100,4,2,2,30,0,0
48946,-100,4,2,2,40,0,0
48947,-100,4,2,2,40,0,0
49562,-100,4,2,2,30,0,0
49870,-100,4,2,2,20,0,0
50178,-100,4,2,2,40,0,0
50793,-100,4,2,2,35,0,0
51101,-100,4,2,2,30,0,0
51408,-100,4,2,2,25,0,0
51716,-100,4,2,2,20,0,0
52024,-100,4,2,2,15,0,0
52331,-100,4,2,2,10,0,0
52639,-100,4,2,2,5,0,0
54178,-100,4,2,1,10,0,0
55408,-100,4,2,1,15,0,0
56639,-100,4,2,1,20,0,0
57870,-100,4,2,1,25,0,0
59101,-100,4,2,1,30,0,0
60331,-100,4,2,3,40,0,0
65255,-100,4,2,3,35,0,0
65870,-100,4,2,3,32,0,0
66485,-100,4,2,3,29,0,0
67101,-100,4,2,3,26,0,0
67716,-100,4,2,3,23,0,0
68331,-100,4,2,3,20,0,0
70178,-100,4,2,1,40,0,0
72639,-100,4,2,1,45,0,0
75100,-100,4,2,1,50,0,0
75101,-100,4,2,1,50,0,0
77562,-100,4,2,1,55,0,0
78485,-100,4,2,3,45,0,0
78793,-100,4,2,2,60,0,0
79408,-100,4,2,2,70,0,0
80023,-100,4,2,2,50,0,0
80024,-100,4,2,2,50,0,0
81255,-100,4,2,2,55,0,0
82485,-100,4,2,2,60,0,0
83716,-100,4,2,2,65,0,0
84947,-100,4,2,1,50,0,0
86178,-100,4,2,1,55,0,0
87408,-100,4,2,1,60,0,0
87715,-100,4,2,1,65,0,0
87716,-100,4,2,1,65,0,0
88024,-100,4,2,1,70,0,0
88331,-100,4,2,1,75,0,0
88639,-100,4,2,1,40,0,0
88947,-100,4,2,1,45,0,0
89047,-100,4,2,1,50,0,0
89152,-100,4,2,1,55,0,0
89254,-100,4,2,1,60,0,0
89255,-100,4,2,1,60,0,0
89562,-100,4,2,1,70,0,0
89870,-100,4,2,1,50,0,0
90178,-100,4,2,1,40,0,0
91101,-100,4,2,1,50,0,0
91408,-100,4,2,1,40,0,0
92331,-100,4,2,1,50,0,0
92639,-100,4,2,1,40,0,0
93562,-100,4,2,1,45,0,0
94793,-100,4,2,1,50,0,0
95101,-100,4,2,1,40,0,0
96024,-100,4,2,1,50,0,0
96331,-100,4,2,1,40,0,0
97254,-100,4,2,1,50,0,0
97255,-100,4,2,1,50,0,0
97562,-100,4,2,1,40,0,0
98485,-100,4,2,1,50,0,0
99716,-100,4,2,1,60,0,0
100024,-100,4,2,1,50,0,0
100947,-100,4,2,1,60,0,0
101255,-100,4,2,1,50,0,0
102178,-100,4,2,1,60,0,0
102485,-100,4,2,1,50,0,0
103408,-100,4,2,1,55,0,0
104639,-100,4,2,1,60,0,0
104947,-100,4,2,1,50,0,0
105152,-100,4,2,1,53,0,0
105357,-100,4,2,1,56,0,0
105562,-100,4,2,1,59,0,0
105767,-100,4,2,1,62,0,0
105972,-100,4,2,1,65,0,0
106178,-100,4,2,1,68,0,0
106383,-100,4,2,1,71,0,0
106588,-100,4,2,1,74,0,0
106793,-100,4,2,1,77,0,0
107101,-100,4,2,1,60,0,0
109254,-100,4,2,2,50,0,0
109255,-100,4,2,2,50,0,0
109562,-100,4,2,1,80,0,1
114485,-100,4,2,1,80,0,1
114716,-100,4,2,1,80,0,1
114947,-100,4,2,1,80,0,1
115178,-100,4,2,1,80,0,1
115408,-100,4,2,1,80,0,1
115716,-100,4,2,1,80,0,1
115947,-100,4,2,1,80,0,1
116178,-100,4,2,1,80,0,1
116408,-100,4,2,1,80,0,1
116639,-100,4,2,1,80,0,1
119101,-100,4,2,1,80,0,1
119408,-100,4,2,1,80,0,1
123101,-100,4,2,1,80,0,1
124331,-100,4,2,1,80,0,1
124562,-100,4,2,1,80,0,1
124793,-100,4,2,1,80,0,1
125024,-100,4,2,1,80,0,1
125255,-100,4,2,1,80,0,1
125562,-100,4,2,1,80,0,1
125793,-100,4,2,1,80,0,1
126024,-100,4,2,1,80,0,1
126255,-100,4,2,1,80,0,1
126485,-100,4,2,1,80,0,1
126793,-100,4,2,1,80,0,1
129255,-100,4,2,1,80,0,1
129485,-100,4,2,1,80,0,1
129716,-100,4,2,1,80,0,1
129946,-100,4,2,1,80,0,1
130178,-100,4,2,1,80,0,1
130485,-100,4,2,1,80,0,1
130715,-100,4,2,1,80,0,1
130947,-100,4,2,1,80,0,1
131177,-100,4,2,1,80,0,1
131408,-100,4,2,1,80,0,1
131716,-100,4,2,1,80,0,1
131946,-100,4,2,1,80,0,1
132178,-100,4,2,1,80,0,1
132408,-100,4,2,1,80,0,1
132639,-100,4,2,1,80,0,1
132947,-100,4,2,1,80,0,1
133177,-100,4,2,1,80,0,1
133408,-100,4,2,1,80,0,1
133638,-100,4,2,1,80,0,1
133870,-100,4,2,1,80,0,1
134639,-100,4,2,1,80,0,1
134793,-100,4,2,1,80,0,1
135408,-100,4,2,1,80,0,1
136639,-100,4,2,1,80,0,1
139101,-100,4,2,1,80,0,1
139331,-100,4,2,1,80,0,1
139562,-100,4,2,1,80,0,1
139793,-100,4,2,1,80,0,1
140024,-100,4,2,1,80,0,1
140331,-100,4,2,1,80,0,1
140561,-100,4,2,1,80,0,1
140793,-100,4,2,1,80,0,1
141023,-100,4,2,1,80,0,1
141255,-100,4,2,1,80,0,1
142024,-100,4,2,1,80,0,1
142254,-100,4,2,1,80,0,1
142485,-100,4,2,1,80,0,1
142793,-100,4,2,1,80,0,1
143023,-100,4,2,1,80,0,1
143255,-100,4,2,1,80,0,1
143485,-100,4,2,1,80,0,1
144024,-100,4,2,1,80,0,1
144485,-100,4,2,1,80,0,1
144639,-100,4,2,1,80,0,1
145255,-100,4,2,1,80,0,1
146485,-100,4,2,1,80,0,1
147716,-100,4,2,1,50,0,0
148639,-100,4,2,2,80,0,1
148947,-100,4,2,1,50,0,0
152639,-100,4,2,1,50,0,0
153178,-100,4,2,1,5,0,0
153255,-100,4,2,1,50,0,0
153793,-100,4,2,1,5,0,0
153870,-100,4,2,2,50,0,0
154485,-100,4,2,1,50,0,0
154793,-100,4,2,2,50,0,0
155408,-100,4,2,1,60,0,0
155639,-100,4,2,1,5,0,0
155716,-100,4,2,1,60,0,0
155947,-100,4,2,1,5,0,0
156024,-100,4,2,1,60,0,0
156255,-100,4,2,2,5,0,0
156331,-100,4,2,2,50,0,0
156947,-100,4,2,1,50,0,0
157100,-100,4,2,2,50,0,0
157562,-100,4,2,2,40,0,0
158331,-100,4,2,2,45,0,0
158485,-100,4,2,2,50,0,0
158639,-100,4,2,2,55,0,0
158793,-100,4,2,1,50,0,0
162485,-100,4,2,1,50,0,0
163024,-100,4,2,1,5,0,0
163101,-100,4,2,1,50,0,0
163639,-100,4,2,1,5,0,0
163716,-100,4,2,2,60,0,0
165870,-100,4,2,3,50,0,0
166331,-100,4,2,1,20,0,0
166792,-100,4,2,1,30,0,0
166793,-100,4,2,1,30,0,0
167101,-100,4,2,1,40,0,0
167716,-100,4,2,1,30,0,0
168024,-100,4,2,1,20,0,0
168255,-100,4,2,1,5,0,0
168331,-100,4,2,1,60,0,0
168562,-100,4,2,1,5,0,0
168639,-100,4,2,1,20,0,0
178485,-100,4,2,1,40,0,0
180947,-100,4,2,1,45,0,0
183408,-100,4,2,1,50,0,0
184639,-100,4,2,1,55,0,0
185870,-100,4,2,1,60,0,0
186485,-100,4,2,1,70,0,0
187101,-100,4,2,1,30,0,0
187408,-100,4,2,1,40,0,0
187716,-100,4,2,1,50,0,0
188024,-100,4,2,2,70,0,0
188331,-100,4,2,1,80,0,1
188562,-100,4,2,1,80,0,1
188792,-100,4,2,1,80,0,1
189024,-100,4,2,1,80,0,1
189254,-100,4,2,1,80,0,1
189561,-100,4,2,1,80,0,1
189793,-100,4,2,1,80,0,1
190023,-100,4,2,1,80,0,1
190255,-100,4,2,1,80,0,1
190484,-100,4,2,1,80,0,1
190792,-100,4,2,1,80,0,1
191024,-100,4,2,1,80,0,1
191254,-100,4,2,1,80,0,1
191485,-100,4,2,1,80,0,1
191715,-100,4,2,1,80,0,1
192023,-100,4,2,1,80,0,1
192255,-100,4,2,1,80,0,1
192484,-100,4,2,1,80,0,1
192716,-100,4,2,1,80,0,1
192946,-100,4,2,1,80,0,1
193715,-100,4,2,1,80,0,1
193869,-100,4,2,1,80,0,1
194484,-100,4,2,1,80,0,1
195716,-100,4,2,1,80,0,1
198024,-100,4,2,1,80,0,1
198178,-100,4,2,1,80,0,1
198408,-100,4,2,1,80,0,1
198638,-100,4,2,1,80,0,1
198870,-100,4,2,1,80,0,1
199101,-100,4,2,1,80,0,1
199407,-100,4,2,1,80,0,1
199639,-100,4,2,1,80,0,1
199869,-100,4,2,1,80,0,1
200101,-100,4,2,1,80,0,1
200331,-100,4,2,1,80,0,1
201100,-100,4,2,1,80,0,1
201331,-100,4,2,1,80,0,1
201562,-100,4,2,1,80,0,1
201869,-100,4,2,1,80,0,1
202101,-100,4,2,1,80,0,1
202331,-100,4,2,1,80,0,1
202561,-100,4,2,1,80,0,1
203101,-100,4,2,1,80,0,1
203562,-100,4,2,1,80,0,1
203716,-100,4,2,1,80,0,1
204331,-100,4,2,1,80,0,1
205562,-100,4,2,1,80,0,1
206793,-100,4,2,1,50,0,0
207715,-100,4,2,1,80,0,0
207716,-100,4,2,1,80,0,1
208024,-100,4,2,1,60,0,0
208331,-100,4,2,4,50,0,0
209255,-100,4,2,1,60,0,0
209562,-100,4,2,4,50,0,0
210485,-100,4,2,1,60,0,0
210793,-100,4,2,4,50,0,0
211716,-100,4,2,1,50,0,0
212947,-100,4,2,1,60,0,0
213255,-100,4,2,4,50,0,0
214178,-100,4,2,1,60,0,0
214485,-100,4,2,4,50,0,0
215408,-100,4,2,1,60,0,0
215716,-100,4,2,4,50,0,0
216639,-100,4,2,1,50,0,0
217870,-100,4,2,1,70,0,0
218178,-100,4,2,4,60,0,0
219101,-100,4,2,1,70,0,0
219408,-100,4,2,4,60,0,0
220331,-100,4,2,1,70,0,0
220639,-100,4,2,4,60,0,0
221562,-100,4,2,1,50,0,0
222793,-100,4,2,1,70,0,0
223101,-100,4,2,4,60,0,0
223306,-100,4,2,1,63,0,0
223511,-100,4,2,1,66,0,0
223716,-100,4,2,1,69,0,0
223921,-100,4,2,1,69,0,0
224024,-100,4,2,1,72,0,0
224126,-100,4,2,1,72,0,0
224229,-100,4,2,1,72,0,0
224331,-100,4,2,1,75,0,0
224434,-100,4,2,1,75,0,0
224537,-100,4,2,1,75,0,0
224639,-100,4,2,1,78,0,0
224742,-100,4,2,1,78,0,0
224844,-100,4,2,1,78,0,0
224947,-100,4,2,1,81,0,0
225049,-100,4,2,1,81,0,0
225152,-100,4,2,1,81,0,0
225255,-100,4,2,1,50,0,0
226485,-100,4,2,1,50,0,0
227716,-100,4,2,1,50,0,0
228947,-100,4,2,1,50,0,0
230178,-100,4,2,1,40,0,0
230793,-100,4,2,1,35,0,0
231408,-100,4,2,1,30,0,0
232024,-100,4,2,1,25,0,0
232639,-100,4,2,1,20,0,0
233255,-100,4,2,1,15,0,0
233870,-100,4,2,1,10,0,0
234485,-100,4,2,1,5,0,0

[Colours]
Combo1 : 220,116,228
Combo2 : 99,126,190
Combo3 : 189,160,220
Combo4 : 136,221,227

[HitObjects]
467,83,20947,6,0,P|434:68|417:55,1,45,4|0,1:0|0:0,0:0:0:0:
395,18,21255,2,0,P|349:18|307:34,1,90
255,127,21870,2,0,L|248:174,1,45,0|0,1:0|0:0,0:0:0:0:
287,208,22178,2,0,P|320:197|353:191,2,67.5,0|0|0,0:1|0:1|0:1,0:0:0:0:
253,250,22793,2,0,P|208:252|166:236,1,90,0|0,1:0|0:0,0:0:0:0:
69,284,23408,6,0,P|58:263|52:242,1,45,4|0,1:0|0:0,0:0:0:0:
8,210,23716,1,0,0:0:0:0:
78,127,24024,2,0,L|88:68,2,45,0|0|0,0:0|0:0|1:0,0:0:0:0:
116,165,24485,1,0,0:0:0:0:
116,165,24639,2,2,P|157:136|203:132,1,90,2|2,1:0|0:1,0:0:0:0:
245,151,25101,2,0,L|244:203,1,45,2|8,0:1|0:0,0:0:0:0:
332,257,25562,2,0,L|386:250,1,45
428,267,25870,6,0,P|440:221|442:210,1,45,4|0,1:0|0:0,0:0:0:0:
415,175,26178,2,0,P|400:124|397:67,1,90
304,30,26793,2,0,L|257:37,1,45,0|0,1:0|1:0,0:0:0:0:
223,77,27101,1,4,1:0:0:0:
126,125,27408,1,8,0:0:0:0:
23,89,27716,2,0,L|25:21,2,67.5,0|0|0,1:0|1:0|1:0,0:0:0:0:
256,192,28331,12,8,30178,1:0:0:0:
39,303,30793,6,0,P|69:290|128:288,1,90,4|0,0:0|1:0,0:0:0:0:
173,261,31255,1,0,0:0:0:0:
173,261,31408,2,0,P|203:274|262:276,1,90,0|0,1:0|1:0,0:0:0:0:
353,330,32024,2,0,L|451:323,2,90,0|0|0,1:0|1:0|1:0,0:0:0:0:
392,229,32947,2,0,L|389:182,1,45,0|2,1:0|0:0,0:0:0:0:
414,135,33255,6,0,P|380:100|332:95,1,90,0|0,1:0|1:0,0:0:0:0:
305,52,33716,1,0,0:0:0:0:
305,52,33870,2,0,L|207:62,1,90,0|0,1:0|1:0,0:0:0:0:
111,89,34485,2,0,B|118:44|118:44|105:1,2,90,0|0|0,1:0|1:0|1:0,0:0:0:0:
48,177,35408,2,0,L|57:223,1,45,2|0,1:1|0:1,0:0:0:0:
41,273,35716,6,0,P|94:264|140:289,1,90,0|0,1:0|1:0,0:0:0:0:
226,317,36331,2,0,L|270:311,2,45,0|0|0,1:0|0:0|1:0,0:0:0:0:
200,211,36947,2,0,P|192:166|195:121,2,90,0|2|2,1:0|1:0|1:0,0:0:0:0:
299,169,37870,2,0,L|347:172,1,45,0|2,1:0|0:0,0:0:0:0:
384,207,38178,6,0,L|482:198,1,90,0|0,1:0|0:0,0:0:0:0:
493,92,38793,2,0,P|465:59|413:42,1,90,0|0,1:0|1:0,0:0:0:0:
379,74,39255,1,0,1:0:0:0:
379,74,39408,2,0,L|315:80,2,45,4|0|0,1:0|0:0|1:0,0:0:0:0:
368,181,40024,2,0,L|274:190,1,90,8|0,0:0|0:0,0:0:0:0:
183,241,40639,6,0,B|169:196|169:196|176:151,1,90,4|8,1:2|0:0,0:0:0:0:
147,114,41101,1,0,0:0:0:0:
147,114,41255,2,0,L|89:124,2,45,0|0|8,1:0|0:0|0:0,0:0:0:0:
220,35,41870,2,0,P|257:39|307:75,1,90,0|8,1:0|0:0,0:0:0:0:
353,78,42331,1,0,0:0:0:0:
353,78,42485,2,0,L|351:123,1,45,0|0,1:0|0:0,0:0:0:0:
309,223,42947,1,2,0:0:0:0:
309,223,43101,6,0,P|349:241|374:291,1,90,0|8,1:0|0:0,0:0:0:0:
420,311,43562,1,0,0:0:0:0:
420,311,43716,2,0,P|432:281|447:262,2,45,0|0|8,1:0|0:0|0:0,0:0:0:0:
315,363,44331,2,0,L|214:368,1,90,0|8,1:0|0:0,0:0:0:0:
177,333,44793,1,0,0:0:0:0:
177,333,44947,1,2,1:2:0:0:
62,309,45255,2,0,P|57:285|56:264,1,45,10|0,1:2|1:0,0:0:0:0:
89,222,45562,6,0,P|105:191|99:121,1,90,2|10,1:0|0:1,0:0:0:0:
139,94,46024,1,0,0:0:0:0:
139,94,46178,2,0,P|126:58|124:32,2,45,2|0|10,1:0|0:0|0:1,0:0:0:0:
234,145,46793,2,0,L|299:137,1,45,2|0,1:0|1:0,0:0:0:0:
323,108,47101,1,10,0:1:0:0:
395,186,47408,2,0,L|444:197,1,45,2|0,1:0|1:0,0:0:0:0:
469,240,47716,2,0,P|442:269|432:286,1,45,2|0,0:1|0:0,0:0:0:0:
441,327,48024,6,0,P|380:313|338:314,1,90,0|2,0:0|0:0,0:0:0:0:
258,259,48639,2,0,P|214:270|169:273,1,90,2|2,0:0|0:0,0:0:0:0:
66,241,49255,2,0,L|73:330,2,90,2|2|2,0:0|0:0|0:0,0:0:0:0:
144,166,50178,1,10,0:1:0:0:
85,75,50485,5,4,0:1:0:0:
256,192,50562,12,0,52947,0:0:0:0:
40,93,54178,6,0,P|92:85|138:67,1,90
170,171,54793,2,0,P|212:185|257:191,1,90
340,122,55408,6,0,P|330:68|326:17,2,90
418,195,56331,1,0,0:0:0:0:
337,267,56639,2,0,P|327:321|323:372,2,90
257,191,57562,1,0,0:0:0:0:
171,257,57870,6,0,L|81:266,1,90
68,158,58485,2,0,L|157:148,1,90
242,81,59101,2,0,P|209:50|166:42,1,90
120,13,59562,2,0,P|35:36|-13:109,1,180
16,154,60331,6,0,B|26:195|26:195|24:243,1,90,4|0,0:1|0:0,0:0:0:0:
3,293,60793,1,0,1:0:0:0:
3,293,60947,2,0,P|72:283|111:293,1,90,8|0,0:0|1:0,0:0:0:0:
190,329,61562,2,0,L|234:321,1,45,0|0,0:0|1:0,0:0:0:0:
278,289,61870,2,0,L|367:299,1,90,0|8,1:0|0:0,0:0:0:0:
456,237,62485,1,0,0:0:0:0:
455,127,62793,6,0,P|411:133|374:158,1,90,0|0,1:0|0:0,0:0:0:0:
324,177,63255,1,0,1:0:0:0:
324,177,63408,2,0,P|330:125|325:78,1,90,8|0,0:0|1:0,0:0:0:0:
245,16,64024,1,0,0:0:0:0:
245,16,64178,2,0,L|192:26,1,45,0|0,0:0|1:0,0:0:0:0:
132,107,64639,2,0,L|38:98,1,90,8|0,0:0|1:0,0:0:0:0:
80,199,65255,6,0,P|103:231|115:285,1,90,0|0,1:0|0:0,0:0:0:0:
223,281,65870,2,0,P|239:244|279:207,1,90,0|0,1:0|0:0,0:0:0:0:
219,116,66485,2,0,P|178:120|126:103,1,90,0|0,1:0|0:0,0:0:0:0:
195,18,67101,2,0,P|235:13|287:30,1,90,0|0,1:0|0:0,0:0:0:0:
351,112,67716,6,0,P|393:125|438:121,1,90,0|0,1:0|0:0,0:0:0:0:
494,28,68332,2,0,P|451:14|406:18,1,90,0|0,1:0|0:0,0:0:0:0:
351,112,68947,2,0,B|323:184|366:240|366:240|410:303|383:371,1,270
288,320,70178,6,0,P|253:295|191:290,1,90,4|2,1:0|0:0,0:0:0:0:
130,211,70793,2,0,P|93:236|49:243,1,90,2|0,0:0|0:0,0:0:0:0:
7,209,71255,1,2,0:0:0:0:
55,112,71562,1,0,0:0:0:0:
55,112,71716,2,0,L|40:19,2,90,2|2|2,0:0|0:0|0:0,0:0:0:0:
159,140,72639,6,0,P|212:130|243:105,1,90,0|2,0:0|0:0,0:0:0:0:
302,20,73255,2,0,P|346:26|382:51,1,90,2|0,0:0|0:0,0:0:0:0:
484,87,73870,2,0,L|462:187,1,90,0|2,0:0|0:0,0:0:0:0:
358,192,74485,6,0,L|380:292,2,90,2|2|2,0:0|0:0|0:0,0:0:0:0:
259,147,75408,1,2,0:0:0:0:
175,216,75716,2,0,P|128:231|71:222,1,90,2|0,0:0|0:0,0:0:0:0:
72,120,76331,2,0,P|119:105|176:114,1,90,0|2,0:0|0:0,0:0:0:0:
259,147,76947,2,0,L|351:137,1,90,2|2,0:0|0:0,0:0:0:0:
440,81,77562,6,0,P|408:49|366:35,1,90,2|2,0:0|0:0,0:0:0:0:
257,39,78178,1,2,0:0:0:0:
148,51,78485,2,0,L|86:56,1,45,8|8,0:0|0:0,0:0:0:0:
50,38,78793,6,0,P|45:110|28:225,2,180,0|0|4,1:0|1:0|1:0,0:0:0:0:
148,51,80331,1,8,0:0:0:0:
211,138,80639,2,0,P|204:159|189:236,1,90,2|10,0:0|0:0,0:0:0:0:
233,324,81255,2,0,P|185:333|126:360,2,90,0|8|2,0:0|0:0|0:0,0:0:0:0:
321,262,82178,1,10,0:0:0:0:
423,294,82485,6,0,L|439:205,1,90,2|2,0:0|0:0,0:0:0:0:
384,111,83101,2,0,L|400:22,1,90,2|2,0:0|0:0,0:0:0:0:
297,54,83716,1,2,0:0:0:0:
198,97,84024,1,10,0:0:0:0:
100,50,84331,2,0,P|67:19|23:13,1,90,2|10,0:0|0:0,0:0:0:0:
17,121,84947,6,0,L|29:222,1,90,14|10,0:0|0:0,0:0:0:0:
134,194,85562,2,0,L|122:295,1,90,10|10,0:0|0:0,0:0:0:0:
214,341,86178,1,14,0:0:0:0:
308,288,86485,1,10,0:0:0:0:
394,353,86793,2,0,P|421:305|421:264,1,90,10|8,1:2|0:0,0:0:0:0:
462,170,87408,6,0,P|450:131|445:82,1,90,12|10,0:0|0:0,0:0:0:0:
346,37,88024,2,0,P|307:49|258:54,1,90,14|10,0:0|0:0,0:0:0:0:
241,160,88639,2,0,B|142:169|179:93|75:114,1,180,2|12,1:2|1:0,0:0:0:0:
88,221,89562,1,14,1:0:0:0:
42,319,89870,5,4,1:0:0:0:
136,371,90178,2,0,L|211:358,3,60,2|2|2|2,0:1|0:1|0:1|0:1,0:0:0:0:
301,340,91101,5,0,1:0:0:0:
395,288,91408,2,0,L|470:301,3,60,2|2|2|2,0:1|0:1|0:1|0:1,0:0:0:0:
424,194,92331,5,0,1:0:0:0:
318,215,92639,2,0,L|243:228,3,60,2|2|2|2,0:1|0:1|0:1|0:1,0:0:0:0:
153,204,93562,5,0,1:0:0:0:
207,110,93870,1,2,0:0:0:0:
139,25,94178,2,0,P|97:43|57:82,1,90,8|2,0:0|0:0,0:0:0:0:
7,164,94793,5,4,1:0:0:0:
81,241,95101,2,0,L|74:314,3,60,2|2|2|2,0:1|0:1|0:1|0:1,0:0:0:0:
169,353,96024,5,0,1:0:0:0:
243,276,96332,2,0,L|236:203,3,60,2|2|2|2,0:1|0:1|0:1|0:1,0:0:0:0:
331,164,97254,5,0,1:0:0:0:
405,241,97562,2,0,L|398:314,3,60,2|2|2|0,0:1|0:1|0:1|1:0,0:0:0:0:
493,353,98485,5,0,1:0:0:0:
497,244,98793,2,0,P|479:192|454:148,1,90,2|10,0:0|0:1,0:0:0:0:
423,123,99255,1,2,0:1:0:0:
423,123,99408,2,0,L|426:64,1,45,2|2,0:1|0:1,0:0:0:0:
390,36,99716,5,4,1:0:0:0:
293,83,100024,2,0,L|233:75,3,60,2|2|2|2,1:0|1:0|1:0|1:0,0:0:0:0:
145,138,100947,5,0,1:0:0:0:
40,109,101255,2,0,P|33:137|42:166,3,60,2|2|2|2,1:0|1:0|1:0|1:0,0:0:0:0:
15,271,102178,5,0,1:0:0:0:
103,332,102485,2,0,L|162:339,3,60,2|2|2|2,1:0|1:0|1:0|1:0,0:0:0:0:
143,232,103408,5,0,1:0:0:0:
232,172,103716,2,0,P|251:185|266:202,1,45,2|0,0:0|0:0,0:0:0:0:
299,245,104024,2,0,P|341:251|389:217,1,90,8|2,0:0|0:0,0:0:0:0:
432,245,104485,1,0,0:0:0:0:
432,245,104639,5,4,1:0:0:0:
455,139,104947,2,0,L|511:180,2,60,2|2|2,1:0|1:0|1:0,0:0:0:0:
376,125,105562,2,0,L|312:152,2,60,2|2|2,1:0|1:0|1:0,0:0:0:0:
426,63,106178,2,0,L|433:-5,2,60,2|2|2,1:0|1:0|1:0,0:0:0:0:
455,139,106793,1,0,1:0:0:0:
376,214,107101,6,0,P|336:232|293:224,1,90,8|8,0:0|0:0,0:0:0:0:
216,301,107716,1,8,0:0:0:0:
135,228,108024,1,8,0:0:0:0:
208,148,108331,2,0,L|198:103,1,45,8|8,0:0|0:0,0:0:0:0:
146,85,108639,2,0,L|136:40,1,45,8|8,0:0|0:0,0:0:0:0:
88,15,108947,2,0,P|42:37|28:85,1,90,8|10,0:0|0:0,0:0:0:0:
62,173,109562,6,0,L|52:276,1,90,6|8,1:2|1:0,0:0:0:0:
160,276,110178,2,0,L|170:173,1,90,2|8,1:2|1:0,0:0:0:0:
179,133,110639,2,0,P|205:125|228:124,1,45,2|0,0:1|1:0,0:0:0:0:
269,151,110947,2,0,P|295:159|318:160,1,45,2|8,0:1|1:0,0:0:0:0:
365,147,111255,1,2,0:1:0:0:
365,147,111408,1,2,1:0:0:0:
348,40,111716,1,10,1:0:0:0:
348,40,111870,1,0,1:0:0:0:
348,40,112024,6,0,L|448:55,1,90,2|10,1:0|1:0,0:0:0:0:
437,161,112639,2,0,L|380:170,2,45,2|2|10,1:1|0:1|1:2,0:0:0:0:
482,190,113101,1,2,0:1:0:0:
482,190,113255,2,2,P|488:231|478:270,1,67.5,2|2,1:0|0:1,0:1:0:0:
435,322,113716,1,2,1:0:0:0:
435,322,113870,2,2,L|351:309,1,67.5,2|2,1:0|1:0,0:1:0:0:
290,335,114331,1,0,1:0:0:0:
290,335,114485,5,6,1:0:0:0:
247,178,114947,1,6,1:0:0:0:
110,264,115408,1,14,1:0:0:0:
42,179,115716,6,0,L|52:79,1,90,6|8,1:0|1:0,0:0:0:0:
61,36,116178,2,0,L|168:26,1,90,6|0,1:0|0:0,0:0:0:0:
191,63,116639,1,10,1:0:0:0:
288,17,116947,6,0,P|319:10|358:14,2,67.5,6|2|2,1:0|1:0|0:1,0:0:0:0:
321,59,117562,2,0,P|347:75|372:106,2,67.5,6|2|2,1:0|1:0|0:1,0:0:0:0:
314,112,118178,1,2,1:0:0:0:
156,150,118639,2,0,L|145:238,1,67.5,2|0,1:0|1:0,0:0:0:0:
169,295,119101,1,10,1:0:0:0:
266,341,119408,6,0,P|302:331|342:292,1,90,2|8,1:2|1:0,0:0:0:0:
443,327,120024,2,0,L|440:222,1,90,2|8,1:2|1:0,0:0:0:0:
472,193,120485,2,0,P|448:172|374:171,1,90,2|2,0:1|0:1,0:0:0:0:
292,122,121101,1,2,0:1:0:0:
292,122,121255,2,0,L|228:129,1,45,2|0,1:0|0:0,0:0:0:0:
209,165,121562,2,0,L|145:172,1,45,10|0,1:0|1:0,0:0:0:0:
119,200,121870,6,0,P|105:150|110:110,1,90,6|10,1:0|1:0,0:0:0:0:
184,34,122485,2,0,L|266:47,2,67.5,2|2|2,1:0|0:1|0:1,0:0:0:0:
137,61,123101,2,0,L|60:71,1,67.5,6|0,1:0|1:0,0:0:0:0:
19,132,123562,1,2,1:0:0:0:
19,132,123716,2,0,L|25:199,1,67.5,6|0,1:0|1:0,0:0:0:0:
86,258,124178,1,2,1:2:0:0:
85,258,124331,6,0,P|119:258|147:276,1,67.5,6|0,1:0|1:0,0:0:0:0:
212,326,124793,2,0,P|245:325|273:307,1,67.5,6|0,1:0|1:0,0:0:0:0:
302,231,125255,1,10,1:0:0:0:
405,260,125562,2,0,L|472:254,1,67.5,6|0,1:0|1:0,0:0:0:0:
467,173,126024,2,0,L|399:178,1,67.5,6|0,1:0|1:0,0:0:0:0:
344,118,126485,1,10,1:0:0:0:
319,12,126793,6,0,P|267:31|247:72,1,90,6|8,1:0|1:0,0:0:0:0:
166,127,127408,2,0,P|218:146|238:187,1,90,6|8,1:0|1:0,0:0:0:0:
297,262,128024,1,2,1:0:0:0:
229,346,128331,1,10,1:0:0:0:
128,305,128639,2,0,L|73:316,1,45,2|0,1:0|1:0,0:0:0:0:
43,349,128947,1,2,1:0:0:0:
6,247,129255,6,0,L|13:164,1,67.5,6|2,1:0|0:0,0:0:0:0:
88,153,129716,2,0,L|81:70,1,67.5,2|2,1:0|0:0,0:0:0:0:
76,4,130178,1,2,1:0:0:0:
178,37,130485,2,0,P|224:32|257:13,1,67.5,6|2,1:0|0:0,0:0:0:0:
319,50,130947,2,0,P|365:55|398:74,1,67.5,2|2,1:0|0:0,0:0:0:0:
453,124,131408,1,2,1:0:0:0:
374,198,131716,6,0,L|382:267,1,67.5,6|2,1:0|0:0,0:0:0:0:
390,345,132178,2,0,L|321:337,1,67.5,2|2,1:0|0:0,0:0:0:0:
242,325,132639,1,2,1:0:0:0:
272,221,132947,2,0,P|266:184|252:149,1,67.5,6|2,1:0|0:0,0:0:0:0:
191,205,133408,2,0,P|172:233|148:256,1,67.5,2|2,1:0|0:0,0:0:0:0:
78,299,133870,1,2,1:0:0:0:
11,213,134178,6,0,L|14:109,1,90,6|8,1:0|1:0,0:0:0:0:
16,69,134639,1,2,1:0:0:0:
16,69,134793,2,0,P|77:91|104:89,1,90,6|10,1:0|1:2,0:0:0:0:
153,75,135255,1,2,1:0:0:0:
153,75,135408,1,6,1:0:0:0:
217,162,135716,1,0,0:0:0:0:
318,125,136024,2,0,L|324:179,1,45,2|2,1:0|0:0,0:0:0:0:
354,213,136331,2,0,L|348:267,1,45,10|2,1:2|0:0,0:0:0:0:
336,310,136639,5,2,1:2:0:0:
442,294,136947,1,8,1:0:0:0:
467,188,137255,2,0,L|455:84,1,90,2|10,1:2|1:0,0:0:0:0:
349,114,137870,1,2,1:2:0:0:
349,114,138024,1,0,1:0:0:0:
349,114,138178,2,0,L|287:104,1,45,10|0,1:2|1:0,0:0:0:0:
258,78,138485,2,0,L|167:94,1,90,2|10,1:2|1:0,0:0:0:0:
63,68,139101,6,0,L|70:135,1,67.5,6|2,1:0|0:0,0:0:0:0:
34,207,139562,2,0,P|10:232|-2:268,1,67.5,2|2,1:0|0:0,0:0:0:0:
35,330,140024,1,2,1:0:0:0:
136,293,140331,2,0,L|206:302,1,67.5,6|2,1:0|0:0,0:0:0:0:
265,353,140793,2,0,L|331:344,1,67.5,2|2,1:0|0:0,0:0:0:0:
385,283,141255,1,2,1:0:0:0:
478,230,141562,6,0,P|452:195|411:177,1,90,2|8,1:0|1:0,0:0:0:0:
358,189,142024,2,0,L|356:111,1,67.5,2|2,1:0|0:0,0:0:0:0:
359,40,142485,1,2,1:0:0:0:
257,78,142793,2,0,L|178:70,1,67.5,6|2,1:0|0:0,0:0:0:0:
136,132,143255,2,0,L|57:124,1,67.5,2|2,1:0|0:0,0:0:0:0:
30,53,143716,1,2,1:2:0:0:
65,155,144024,6,0,L|50:260,1,90,2|10,1:2|0:1,0:0:0:0:
66,296,144485,1,2,1:0:0:0:
66,296,144639,2,0,P|131:283|171:295,1,90,2|10,1:2|0:1,0:0:0:0:
196,320,145101,1,2,1:0:0:0:
196,320,145255,1,2,1:1:0:0:
242,222,145562,1,8,1:0:0:0:
191,126,145870,2,0,L|178:67,1,45,10|0,1:0|1:0,0:0:0:0:
227,53,146178,2,0,L|240:-6,1,45,10|0,1:0|1:0,0:0:0:0:
290,1,146485,6,0,P|331:16|349:75,1,90,10|10,1:2|1:2,0:0:0:0:
418,140,147101,2,0,L|499:115,2,67.5,10|10|10,0:0|0:0|0:0,0:0:0:0:
391,187,147716,2,0,B|291:195|336:263|238:266,1,180,6|0,1:0|0:0,0:0:0:0:
153,198,148639,1,10,0:1:0:0:
224,117,148947,6,0,L|212:7,1,90,0|0,1:0|0:0,0:0:0:0:
116,72,149562,1,8,1:0:0:0:
202,137,149870,1,0,0:0:0:0:
142,226,150178,6,0,L|34:217,1,90,0|0,0:0|1:0,0:0:0:0:
102,314,150793,2,0,L|210:323,1,90,8|0,1:0|0:0,0:0:0:0:
299,332,151408,6,0,P|341:308|349:251,1,90,0|0,1:0|0:0,0:0:0:0:
336,218,151870,1,0,1:0:0:0:
336,218,152024,1,8,1:0:0:0:
229,236,152331,1,0,0:0:0:0:
174,142,152639,6,0,L|184:35,1,90,0|2,1:0|0:0,0:0:0:0:
290,63,153255,2,0,L|280:170,1,90,0|2,1:0|0:0,0:0:0:0:
267,259,153870,5,2,1:0:0:0:
373,240,154178,2,0,L|475:258,2,90,2|10|2,0:1|0:0|0:1,0:0:0:0:
267,259,155101,1,2,0:1:0:0:
256,151,155408,6,0,L|250:90,1,45,2|0,1:0|0:0,0:0:0:0:
246,52,155716,2,0,L|185:58,1,45,2|0,1:0|0:0,0:0:0:0:
147,62,156024,2,0,L|153:123,1,45,2|0,1:0|0:0,0:0:0:0:
158,160,156331,5,2,1:0:0:0:
130,264,156639,1,2,0:1:0:0:
130,264,156793,1,0,1:0:0:0:
130,264,156947,2,0,L|71:258,2,45,10|0|0,0:1|1:0|1:0,0:0:0:0:
156,311,157408,1,0,1:0:0:0:
156,311,157562,6,0,L|247:302,1,90,0|0,1:0|0:0,0:0:0:0:
301,209,158178,2,0,L|392:218,1,90,2|2,0:0|0:0,0:0:0:0:
467,141,158793,6,0,P|458:101|398:76,1,90,4|0,1:0|0:0,0:0:0:0:
373,45,159255,1,0,0:0:0:0:
373,45,159408,2,0,L|329:55,1,45,8|0,0:0|0:0,0:0:0:0:
230,100,159870,2,0,L|130:86,1,90
103,48,160331,1,0,1:0:0:0:
103,48,160485,2,0,P|72:62|31:118,1,90
60,152,160947,1,0,0:0:0:0:
47,259,161255,5,0,1:0:0:0:
148,221,161562,1,0,0:0:0:0:
148,221,161716,2,0,L|200:225,1,45,0|8,1:0|0:0,0:0:0:0:
235,257,162024,2,0,P|278:221|276:178,1,90
250,144,162485,2,0,L|254:48,1,90,0|0,1:0|0:0,0:0:0:0:
362,60,163101,2,0,L|358:149,1,90,0|0,1:0|0:0,0:0:0:0:
447,211,163716,5,4,1:0:0:0:
415,314,164024,2,0,P|374:298|327:294,1,90,0|0,1:0|1:0,0:0:0:0:
226,330,164639,1,0,1:0:0:0:
205,223,164947,2,0,L|200:178,2,45,4|0|0,1:0|1:0|1:0,0:0:0:0:
166,260,165408,1,0,1:0:0:0:
166,260,165562,1,2,1:0:0:0:
84,331,165870,6,0,P|54:297|47:253,1,90,8|0,0:0|0:0,0:0:0:0:
69,204,166331,1,0,0:0:0:0:
69,204,166485,2,0,L|61:97,1,90,2|2,0:0|0:0,0:0:0:0:
136,35,167101,2,0,L|243:27,1,90,2|2,0:0|0:0,0:0:0:0:
316,87,167716,1,2,0:0:0:0:
253,175,168024,2,0,L|260:270,1,90,2|0,0:0|0:0,0:0:0:0:
271,372,168639,5,2,0:0:0:0:
411,207,169255,2,0,L|491:198,2,60
362,183,169870,1,2,0:0:0:0:
189,313,170485,1,0,0:0:0:0:
113,110,171101,5,2,0:0:0:0:
326,79,171716,2,0,L|386:69,2,60,2|0|0,0:0|0:0|0:0,0:0:0:0:
299,126,172331,1,2,0:0:0:0:
90,67,172947,1,0,0:0:0:0:
122,170,173255,1,0,0:0:0:0:
45,246,173562,5,2,0:0:0:0:
467,138,174793,1,2,0:0:0:0:
453,245,175101,1,0,0:0:0:0:
345,234,175408,1,2,0:0:0:0:
359,341,175716,1,0,0:0:0:0:
359,341,176024,5,2,0:0:0:0:
147,295,176639,1,2,0:0:0:0:
156,79,177255,1,2,0:0:0:0:
147,295,177870,1,2,0:0:0:0:
143,104,178485,6,0,L|40:114,2,90,8|8|8,0:0|0:0|0:0,0:0:0:0:
230,167,179408,1,8,0:0:0:0:
317,103,179716,2,0,L|420:113,1,90,10|8,0:0|0:0,0:0:0:0:
459,206,180331,2,0,L|356:216,1,90,8|10,0:0|0:0,0:0:0:0:
333,255,180793,1,10,0:0:0:0:
333,255,180947,6,0,L|230:245,1,90,12|8,0:1|0:0,0:0:0:0:
135,234,181562,1,10,0:0:0:0:
52,303,181870,1,8,0:0:0:0:
9,203,182178,2,0,L|19:104,1,90,10|10,0:0|0:0,0:0:0:0:
33,6,182793,2,0,L|132:16,1,90,10|8,0:0|0:0,0:0:0:0:
159,54,183255,1,8,0:0:0:0:
159,54,183408,6,0,L|152:108,1,45,10|8,0:0|0:0,0:0:0:0:
171,149,183716,2,0,L|225:156,1,45,10|8,0:0|0:0,0:0:0:0:
269,162,184024,1,10,0:0:0:0:
354,96,184331,1,10,0:0:0:0:
434,168,184639,6,0,L|441:222,1,45,10|8,0:0|0:0,0:0:0:0:
422,263,184947,2,0,L|368:270,1,45,10|8,0:0|0:0,0:0:0:0:
324,276,185255,1,10,0:0:0:0:
239,210,185562,1,10,0:0:0:0:
227,102,185870,6,0,L|220:48,1,45,10|8,0:0|0:0,0:0:0:0:
218,3,186178,1,8,0:0:0:0:
218,3,186331,1,8,0:0:0:0:
218,3,186485,2,0,L|163:14,1,45,10|8,0:0|0:0,0:0:0:0:
128,41,186793,2,0,L|73:30,1,45,8|0,0:0|0:0,0:0:0:0:
36,59,187101,5,2,0:0:0:0:
54,165,187408,1,2,0:0:0:0:
72,271,187716,1,2,0:0:0:0:
178,253,188024,1,10,0:1:0:0:
242,339,188331,6,0,L|315:329,1,67.5,6|2,1:0|0:0,0:0:0:0:
387,351,188793,2,0,P|398:322|391:273,1,67.5,2|2,1:0|0:0,0:0:0:0:
454,229,189255,1,2,1:0:0:0:
404,133,189562,2,0,L|405:52,1,67.5,6|2,1:0|0:0,0:0:0:0:
340,15,190024,2,0,P|305:33|271:39,1,67.5,2|2,1:0|0:0,0:0:0:0:
230,104,190485,1,2,1:0:0:0:
123,82,190793,6,0,L|111:-3,1,67.5,6|2,1:0|0:0,0:0:0:0:
33,27,191255,2,0,L|42:93,1,67.5,2|2,1:0|0:0,0:0:0:0:
5,166,191716,1,2,1:0:0:0:
65,255,192024,2,0,L|69:327,1,67.5,6|2,1:0|0:0,0:0:0:0:
139,361,192485,2,0,P|176:351|195:319,1,67.5,2|2,1:0|0:0,0:0:0:0:
186,247,192947,1,2,1:0:0:0:
260,167,193255,6,0,L|347:195,1,90,6|8,1:0|1:0,0:0:0:0:
398,182,193716,1,2,1:0:0:0:
398,182,193870,2,0,B|417:143|417:143|408:92,1,90,6|10,1:0|1:2,0:0:0:0:
441,54,194331,1,2,1:0:0:0:
441,54,194485,2,0,P|483:73|499:105,1,67.5,6|2,1:0|0:1,0:0:0:0:
497,225,195101,2,0,L|496:282,1,45,2|2,1:2|0:0,0:0:0:0:
451,301,195408,2,0,L|450:358,1,45,10|2,1:2|0:0,0:0:0:0:
400,368,195716,6,0,P|352:336|306:339,1,90,2|8,1:2|1:0,0:0:0:0:
225,284,196331,2,0,L|168:285,1,45,2|2,1:2|0:0,0:0:0:0:
135,315,196639,2,0,L|71:320,1,45,10|2,1:2|0:0,0:0:0:0:
44,348,196947,2,0,L|43:251,1,90,2|10,1:2|1:2,0:0:0:0:
81,220,197408,1,0,1:0:0:0:
81,220,197562,2,0,L|83:127,1,90,2|10,1:2|0:0,0:0:0:0:
85,21,198178,6,0,L|159:31,1,67.5,6|2,1:0|0:0,0:0:0:0:
216,79,198639,2,0,L|290:69,1,67.5,2|2,1:0|0:0,0:0:0:0:
363,56,199101,1,2,1:0:0:0:
433,137,199408,2,0,P|438:170|431:210,1,67.5,6|2,1:0|0:0,0:0:0:0:
458,281,199870,2,0,P|438:307|404:331,1,67.5,2|2,1:0|0:0,0:0:0:0:
330,333,200331,1,2,1:0:0:0:
267,244,200639,6,0,L|164:254,1,90,2|8,1:0|1:0,0:0:0:0:
123,257,201101,2,0,L|137:177,1,67.5,2|2,1:0|0:0,0:0:0:0:
115,111,201562,1,2,1:0:0:0:
201,45,201870,2,0,P|231:61|262:91,1,67.5,6|2,1:0|0:0,0:0:0:0:
307,146,202331,2,0,P|337:130|368:100,1,67.5,2|2,1:0|0:0,0:0:0:0:
391,31,202793,1,2,1:2:0:0:
488,77,203101,6,0,L|484:136,2,45,2|0|10,1:2|1:0|0:1,0:0:0:0:
393,129,203716,2,0,L|397:188,2,45,2|0|10,1:2|1:0|0:1,0:0:0:0:
311,58,204331,6,0,P|279:49|240:45,1,67.5,2|2,1:1|1:0,0:0:0:0:
166,66,204793,1,2,1:0:0:0:
166,66,204947,2,0,L|173:122,1,45,10|0,1:0|1:0,0:0:0:0:
205,153,205255,2,0,L|198:209,1,45,10|0,1:0|1:0,0:0:0:0:
193,251,205562,6,0,L|293:239,1,90,10|10,1:2|1:2,0:0:0:0:
378,189,206178,1,10,0:0:0:0:
422,256,206408,1,10,0:0:0:0:
502,235,206639,1,10,0:0:0:0:
502,235,206793,5,6,1:0:0:0:
287,261,207408,2,0,L|187:273,1,90,0|10,0:0|0:1,0:0:0:0:
101,322,208024,5,4,1:0:0:0:
58,223,208331,2,0,L|64:163,3,60,2|2|2|2,0:1|0:1|0:1|0:1,0:0:0:0:
37,58,209255,5,0,1:0:0:0:
142,79,209562,2,0,L|201:72,3,60,10|2|2|10,0:1|0:1|0:1|0:1,0:0:0:0:
275,151,210485,5,0,1:0:0:0:
378,119,210793,2,0,P|379:148|373:178,3,60,10|2|2|10,0:1|0:1|0:1|1:0,0:0:0:0:
323,273,211716,5,0,1:0:0:0:
417,326,212024,1,2,0:0:0:0:
479,238,212331,2,0,P|496:196|504:148,1,90,8|2,0:0|0:0,0:0:0:0:
476,47,212947,5,4,1:0:0:0:
384,103,213255,2,0,L|312:94,3,60,10|2|2|10,0:1|0:1|0:1|0:1,0:0:0:0:
240,27,214178,5,0,1:0:0:0:
205,128,214485,2,0,L|176:186,3,60,10|2|2|10,0:1|0:1|0:1|0:1,0:0:0:0:
83,234,215408,5,0,1:0:0:0:
167,300,215716,2,0,P|219:291|239:281,3,60,10|2|2|8,0:1|0:1|0:1|1:0,0:0:0:0:
314,227,216639,1,0,1:0:0:0:
398,294,216947,1,2,0:1:0:0:
396,185,217255,2,0,P|375:155|304:134,1,90,8|0,0:0|0:0,0:0:0:0:
219,135,217870,5,4,1:0:0:0:
141,210,218178,2,0,L|81:202,3,60,10|2|2|10,1:0|0:1|0:1|1:0,0:0:0:0:
19,290,219101,5,0,1:0:0:0:
104,356,219409,2,0,P|132:360|160:349,3,60,10|2|2|10,1:0|0:1|0:1|1:0,0:0:0:0:
238,273,220332,5,0,1:0:0:0:
332,323,220639,2,0,L|397:319,3,60,10|2|2|10,1:0|0:1|0:1|1:0,0:0:0:0:
438,221,221562,5,0,1:0:0:0:
357,149,221870,2,0,L|364:86,1,45,2|0,0:0|0:0,0:0:0:0:
363,49,222178,2,0,P|333:44|271:61,1,90,8|2,0:0|0:0,0:0:0:0:
238,97,222639,1,0,0:0:0:0:
238,97,222793,5,4,1:0:0:0:
320,166,223101,2,0,L|376:207,2,60,2|2|2,1:0|1:0|1:0,0:0:0:0:
241,152,223716,2,0,L|177:179,2,60,2|2|0,1:0|1:0|1:0,0:0:0:0:
291,90,224332,2,0,L|298:22,2,60,0|0|0,1:0|1:0|1:0,0:0:0:0:
320,166,224947,1,0,1:0:0:0:
274,264,225255,5,4,1:0:0:0:
256,192,225331,12,0,230101,0:0:0:0:
256,192,230178,12,0,235101,0:0:0:0:
