osu file format v14

[General]
AudioFilename: audio.mp3
AudioLeadIn: 0
PreviewTime: 109485
Countdown: 0
SampleSet: Soft
StackLeniency: 0.4
Mode: 0
LetterboxInBreaks: 0
WidescreenStoryboard: 1

[Editor]
DistanceSpacing: 0.5
BeatDivisor: 3
GridSize: 4
TimelineZoom: 2.999998

[Metadata]
Title:Destroy -agitato-
TitleUnicode:Destroy -agitato-
Artist:Yooh
ArtistUnicode:Yooh
Creator:Realazy
Version:AXE
Source:SOUND VOLTEX III GRAVITY WARS
Tags:Trynna Ayyri eiri- taku KKipalt Reol [_HalLoWeeN_] z1085684963 kiryu Symphonic Hardcore SDVX 3 Yoohsic Roomz Destopia YACT-006
BeatmapID:1794985
BeatmapSetID:839273

[Difficulty]
HPDrainRate:6
CircleSize:4.2
OverallDifficulty:9.4
ApproachRate:9.6
SliderMultiplier:1.92
SliderTickRate:1

[Events]
//Background and Video events
0,0,"destroy.jpg",0,0
//Break Periods
2,50685,59822
2,168839,177870
//Storyboard Layer 0 (Background)
//Storyboard Layer 1 (Fail)
//Storyboard Layer 2 (Pass)
//Storyboard Layer 3 (Foreground)
//Storyboard Layer 4 (Overlay)
//Storyboard Sound Samples

[TimingPoints]
1255,307.692307692308,4,2,1,50,1,0
20947,-100,4,2,1,70,0,1
21331,-100,4,2,1,70,0,0
21408,-100,4,2,1,70,0,1
21793,-100,4,2,1,70,0,0
21870,-100,4,2,1,70,0,1
22178,-66.6666666666667,4,2,1,70,0,0
23101,-100,4,2,1,70,0,0
23408,-100,4,2,1,70,0,1
23793,-100,4,2,1,70,0,0
23870,-100,4,2,1,70,0,1
24255,-100,4,2,1,70,0,0
24331,-100,4,2,1,70,0,1
24639,-66.6666666666667,4,2,1,70,0,0
25255,-83.3333333333333,4,2,1,70,0,0
25562,-100,4,2,1,70,0,0
25870,-100,4,2,1,70,0,1
26255,-100,4,2,1,70,0,0
26331,-100,4,2,1,70,0,1
26716,-100,4,2,1,70,0,0
26793,-66.6666666666667,4,2,1,70,0,1
26947,-50,4,2,1,70,0,1
27024,-50,4,2,1,70,0,0
27101,-100,4,2,1,70,0,1
27716,-66.6666666666667,4,2,1,70,0,1
28331,-66.6666666666667,4,2,1,70,0,0
30178,-500,4,2,1,70,0,0
30485,-50,4,2,1,70,0,0
30793,-200,4,2,1,30,0,0
33101,-50,4,2,1,30,0,0
33255,-200,4,2,1,30,0,0
35408,-66.6666666666667,4,2,1,30,0,0
35716,-200,4,2,1,35,0,0
36947,-66.6666666666667,4,2,1,35,0,0
37255,-50,4,2,1,35,0,0
37870,-100,4,2,1,35,0,0
38485,-200,4,2,1,35,0,0
39408,-133.333333333333,4,2,1,55,0,0
40639,-66.6666666666667,4,2,1,40,0,0
40947,-133.333333333333,4,2,2,40,0,0
42947,-50,4,2,2,40,0,0
43101,-133.333333333333,4,2,2,40,0,0
45562,-100,4,2,2,45,0,0
48178,-100,4,2,2,20,0,0
48639,-100,4,2,2,30,0,0
48947,-100,4,2,2,40,0,0
49562,-100,4,2,2,30,0,0
49870,-100,4,2,2,20,0,0
50178,-100,4,2,2,40,0,0
60331,-133.333333333333,4,2,3,40,0,0
65255,-133.333333333333,4,2,3,35,0,0
65870,-133.333333333333,4,2,3,32,0,0
66485,-133.333333333333,4,2,3,29,0,0
67101,-133.333333333333,4,2,3,26,0,0
67716,-153.846153846153,4,2,3,23,0,0
68331,-181.818181818181,4,2,3,20,0,0
70178,-100,4,2,1,40,0,0
72639,-100,4,2,1,45,0,0
75101,-100,4,2,1,50,0,0
77562,-100,4,2,1,55,0,0
78485,-100,4,2,3,45,0,0
78793,-100,4,2,2,60,0,0
79408,-66.6666666666667,4,2,2,70,0,0
80024,-100,4,2,2,50,0,0
81255,-100,4,2,2,55,0,0
82485,-100,4,2,2,60,0,0
83716,-100,4,2,2,65,0,0
84947,-100,4,2,1,50,0,0
86177,-100,4,2,1,55,0,0
86178,-100,4,2,1,55,0,0
87408,-100,4,2,1,60,0,0
87716,-100,4,2,1,65,0,0
88024,-100,4,2,1,70,0,0
88331,-100,4,2,1,75,0,0
88638,-100,4,2,1,40,0,0
88639,-100,4,2,1,40,0,0
88947,-100,4,2,1,45,0,0
89047,-100,4,2,1,50,0,0
89152,-100,4,2,1,55,0,0
89255,-50,4,2,1,60,0,0
89562,-50,4,2,1,70,0,0
89870,-66.6666666666667,4,2,1,50,0,0
90178,-66.6666666666667,4,2,1,40,0,0
91101,-66.6666666666667,4,2,1,50,0,0
91408,-66.6666666666667,4,2,1,40,0,0
92331,-66.6666666666667,4,2,1,50,0,0
92639,-66.6666666666667,4,2,1,40,0,0
93562,-100,4,2,1,45,0,0
94793,-66.6666666666667,4,2,1,50,0,0
95101,-66.6666666666667,4,2,1,40,0,0
96024,-66.6666666666667,4,2,1,50,0,0
96331,-66.6666666666667,4,2,1,40,0,0
97255,-66.6666666666667,4,2,1,50,0,0
97562,-66.6666666666667,4,2,1,40,0,0
98485,-66.6666666666667,4,2,1,50,0,0
99255,-100,4,2,1,50,0,0
99408,-80,4,2,1,50,0,0
99562,-66.6666666666667,4,2,1,50,0,0
99716,-33.3333333333333,4,2,1,60,0,0
100024,-33.3333333333333,4,2,1,50,0,0
100947,-33.3333333333333,4,2,1,60,0,0
101255,-33.3333333333333,4,2,1,50,0,0
102178,-33.3333333333333,4,2,1,60,0,0
102485,-33.3333333333333,4,2,1,50,0,0
103408,-100,4,2,1,55,0,0
104639,-100,4,2,1,60,0,0
104947,-100,4,2,1,50,0,0
105152,-90.9090909090909,4,2,1,53,0,0
105357,-83.3333333333333,4,2,1,56,0,0
105562,-76.9230769230769,4,2,1,59,0,0
105767,-71.4285714285714,4,2,1,62,0,0
105972,-66.6666666666667,4,2,1,65,0,0
106178,-62.5,4,2,1,68,0,0
106383,-58.8235294117647,4,2,1,71,0,0
106588,-55.5555555555556,4,2,1,74,0,0
106793,-52.6315789473684,4,2,1,77,0,0
107101,-100,4,2,1,60,0,0
109255,-50,4,2,2,50,0,0
109562,-66.6666666666667,4,2,1,80,0,1
111716,-50,4,2,1,80,0,1
112024,-66.6666666666667,4,2,1,80,0,1
112639,-33.3333333333333,4,2,1,80,0,1
112793,-66.6666666666667,4,2,1,80,0,1
114178,-100,4,2,1,80,0,1
114485,-50,4,2,1,80,0,1
116793,-66.6666666666667,4,2,1,80,0,1
121562,-50,4,2,1,80,0,1
121870,-66.6666666666667,4,2,1,80,0,1
124331,-50,4,2,1,80,0,1
126639,-66.6666666666667,4,2,1,80,0,1
147716,-133.333333333333,4,2,1,50,0,0
148331,-83.3333333333333,4,2,1,50,0,0
148638,-83.3333333333333,4,2,2,80,0,0
148639,-83.3333333333333,4,2,2,80,0,0
148947,-83.3333333333333,4,2,1,50,0,0
149562,-100,4,2,1,50,0,0
151408,-83.3333333333333,4,2,1,50,0,0
152024,-100,4,2,1,50,0,0
153255,-100,4,2,1,50,0,0
153870,-83.3333333333333,4,2,2,50,0,0
154485,-100,4,2,1,50,0,0
154638,-100,4,2,2,50,0,0
155408,-66.6666666666667,4,2,1,60,0,0
155638,-66.6666666666667,4,2,1,5,0,0
155639,-66.6666666666667,4,2,1,5,0,0
155716,-66.6666666666667,4,2,1,60,0,0
155946,-66.6666666666667,4,2,1,5,0,0
155947,-66.6666666666667,4,2,1,5,0,0
156024,-66.6666666666667,4,2,1,60,0,0
156254,-66.6666666666667,4,2,2,5,0,0
156255,-66.6666666666667,4,2,2,5,0,0
156331,-100,4,2,2,50,0,0
156947,-100,4,2,1,50,0,0
157101,-100,4,2,2,50,0,0
157562,-100,4,2,2,40,0,0
158331,-100,4,2,2,45,0,0
158485,-100,4,2,2,50,0,0
158639,-100,4,2,2,55,0,0
158793,-83.3333333333333,4,2,1,50,0,0
159408,-100,4,2,1,50,0,0
161255,-83.3333333333333,4,2,1,50,0,0
161870,-100,4,2,1,50,0,0
163101,-100,4,2,1,50,0,0
163716,-66.6666666666667,4,2,2,60,0,0
164024,-83.3333333333333,4,2,2,60,0,0
165870,-83.3333333333333,4,2,3,50,0,0
166331,-83.3333333333333,4,2,1,20,0,0
166793,-83.3333333333333,4,2,1,30,0,0
167101,-83.3333333333333,4,2,1,40,0,0
167716,-83.3333333333333,4,2,1,30,0,0
168024,-83.3333333333333,4,2,1,20,0,0
168331,-83.3333333333333,4,2,1,60,0,0
168639,-83.3333333333333,4,2,1,20,0,0
178485,-66.6666666666667,4,2,1,40,0,0
180947,-66.6666666666667,4,2,1,45,0,0
183408,-66.6666666666667,4,2,1,50,0,0
184639,-66.6666666666667,4,2,1,55,0,0
185870,-66.6666666666667,4,2,1,60,0,0
186485,-66.6666666666667,4,2,1,70,0,0
187101,-100,4,2,1,30,0,0
187408,-100,4,2,1,40,0,0
187716,-66.6666666666667,4,2,1,50,0,0
188024,-50,4,2,2,70,0,0
188331,-66.6666666666667,4,2,1,80,0,1
206793,-133.333333333333,4,2,1,50,0,0
207408,-83.3333333333333,4,2,1,50,0,0
207716,-50,4,2,1,80,0,0
208024,-66.6666666666667,4,2,1,60,0,1
208331,-66.6666666666667,4,2,4,50,0,0
209255,-66.6666666666667,4,2,1,60,0,0
209562,-66.6666666666667,4,2,4,50,0,0
210485,-66.6666666666667,4,2,1,60,0,0
210793,-66.6666666666667,4,2,4,50,0,0
211716,-100,4,2,1,50,0,0
212947,-66.6666666666667,4,2,1,60,0,0
213255,-66.6666666666667,4,2,4,50,0,0
214178,-66.6666666666667,4,2,1,60,0,0
214485,-66.6666666666667,4,2,4,50,0,0
215408,-66.6666666666667,4,2,1,60,0,0
215716,-66.6666666666667,4,2,4,50,0,0
216639,-66.6666666666667,4,2,1,50,0,0
217870,-66.6666666666667,4,2,1,70,0,0
218178,-66.6666666666667,4,2,4,60,0,1
219101,-66.6666666666667,4,2,1,70,0,1
219408,-66.6666666666667,4,2,4,60,0,1
220331,-66.6666666666667,4,2,1,70,0,1
220639,-66.6666666666667,4,2,4,60,0,1
221562,-100,4,2,1,50,0,0
222793,-90.9090909090909,4,2,1,70,0,0
223101,-50,4,2,4,60,0,0
223306,-50,4,2,1,63,0,0
223511,-50,4,2,1,66,0,0
223716,-50,4,2,1,69,0,0
224023,-50,4,2,1,72,0,0
224024,-50,4,2,1,72,0,0
224331,-50,4,2,1,75,0,0
224639,-50,4,2,1,78,0,0
224947,-50,4,2,1,81,0,0
225255,-50,4,2,1,50,0,0
230178,-50,4,2,1,40,0,0
230793,-50,4,2,1,35,0,0
231408,-50,4,2,1,30,0,0
232024,-50,4,2,1,25,0,0
232639,-50,4,2,1,20,0,0
233255,-50,4,2,1,15,0,0
233870,-50,4,2,1,10,0,0
234485,-50,4,2,1,5,0,0

[Colours]
Combo1 : 220,116,228
Combo2 : 99,126,190
Combo3 : 189,160,220
Combo4 : 136,221,227

[HitObjects]
104,112,20947,5,4,1:0:0:0:
228,200,21101,1,0,0:0:0:0:
243,49,21255,1,0,0:0:0:0:
192,120,21408,5,4,1:0:0:0:
140,192,21562,1,0,0:0:0:0:
140,192,21639,1,0,0:0:0:0:
140,192,21716,1,0,0:0:0:0:
279,129,21870,5,0,1:0:0:0:
155,40,22024,1,0,0:0:0:0:
60,364,22178,6,0,B|84:292|44:228|44:228|120:260|128:340|128:340|160:308|168:268|168:268|184:288|188:324|188:324|212:312|228:292|228:292|248:304,1,504.000019226075,0|0,0:1|0:0,0:0:0:0:
304,352,22793,6,0,L|412:364,1,72.0000027465821,0|0,1:0|0:0,0:0:0:0:
320,272,22947,2,0,L|428:284,1,72.0000027465821
436,124,23101,6,0,L|483:118,1,48
452,204,23255,2,0,L|499:198,1,48
364,32,23408,5,4,1:0:0:0:
240,124,23562,1,0,0:0:0:0:
88,92,23716,2,0,P|80:56|80:16,1,48
292,8,23870,5,4,1:0:0:0:
230,149,24024,1,0,0:0:0:0:
82,197,24178,2,0,P|57:169|37:135,1,48
217,23,24331,5,0,1:0:0:0:
234,176,24485,1,0,0:0:0:0:
130,290,24639,6,2,B|163:292|163:292|194:284|194:284|274:306|274:306|307:299|307:299|340:301,1,216.000008239746,2|2,1:0|0:1,0:0:0:0:
412,344,24947,2,0,B|428:312|428:312|412:220,1,72.0000027465821,2|0,0:1|0:0,0:0:0:0:
284,60,25101,2,0,B|277:95|277:95|293:127,1,72.0000027465821,2|0,0:1|0:0,0:0:0:0:
441,144,25255,6,0,B|393:120|393:120|360:156|360:156|228:176,1,230.39999296875,8|0,0:0|0:0,0:0:0:0:
212,252,25639,2,0,L|208:320,2,48
220,176,25870,5,4,1:0:0:0:
144,40,26024,1,0,0:0:0:0:
128,36,26101,1,0,0:0:0:0:
112,32,26178,1,0,0:0:0:0:
212,252,26331,5,4,1:0:0:0:
336,104,26485,1,0,0:0:0:0:
368,100,26561,1,0,0:0:0:0:
400,96,26638,1,0,0:0:0:0:
160,380,26793,6,0,L|152:284,1,72.0000027465821,0|0,1:0|0:0,0:0:0:0:
284,336,26947,6,0,L|292:235,1,96,0|0,1:0|0:0,0:0:0:0:
228,96,27101,5,4,1:0:0:0:
96,256,27255,1,0,0:0:0:0:
48,260,27332,1,0,0:0:0:0:
0,264,27408,1,8,0:0:0:0:
360,300,27562,1,0,0:0:0:0:
168,16,27716,6,0,B|124:76|124:76|152:172,1,144.000005493164,0|0,1:0|0:0,0:0:0:0:
211,93,27947,1,0,1:0:0:0:
228,96,28024,2,0,L|316:108,1,72.0000027465821,8|0,0:0|0:0,0:0:0:0:
388,120,28178,2,0,L|476:132,1,72.0000027465821,0|0,1:0|0:0,0:0:0:0:
456,216,28331,5,12,1:2:0:0:
364,336,28537,1,8,1:0:0:0:
300,24,28742,1,8,1:0:0:0:
212,360,28947,5,12,1:2:0:0:
148,48,29153,1,8,1:0:0:0:
56,168,29358,1,8,1:0:0:0:
240,142,29562,5,12,1:0:0:0:
221,230,29665,1,8,1:0:0:0:
306,202,29767,1,8,1:0:0:0:
195,115,29870,5,8,1:0:0:0:
219,282,29972,1,8,1:0:0:0:
352,178,30075,1,8,1:0:0:0:
256,192,30178,6,0,L|252:224,1,32,8|0,1:0|0:0,0:0:0:0:
24,200,30485,6,0,B|112:164|188:244|128:272|204:348|304:312,1,320,2|0,0:1|0:0,0:0:0:0:
480,172,30793,6,0,L|472:248,1,72,4|0,0:0|0:0,0:0:0:0:
416,292,31101,6,0,L|420:320,1,24,0|0,1:0|0:0,0:0:0:0:
400,296,31255,2,0,L|404:324,1,24
484,356,31408,1,0,1:0:0:0:
324,320,31562,6,0,L|280:324,2,24,0|0|0,0:0|0:0|1:0,0:0:0:0:
372,220,31870,2,0,L|376:176,2,24,0|0|0,0:0|0:0|1:0,0:0:0:0:
440,96,32178,2,0,L|484:100,2,24,0|0|0,0:0|0:0|1:0,0:0:0:0:
320,32,32485,2,0,L|276:36,1,24
244,88,32639,1,0,1:0:0:0:
220,86,32715,1,0,0:0:0:0:
196,84,32792,1,0,0:0:0:0:
172,83,32869,1,0,0:0:0:0:
148,81,32946,1,0,1:0:0:0:
100,240,33101,6,0,L|88:124,1,96,2|0,0:0|0:0,0:0:0:0:
80,24,33255,1,0,1:0:0:0:
76,316,33408,6,0,L|44:320,2,24,0|0|0,0:0|0:0|1:0,0:0:0:0:
180,204,33716,2,0,L|177:227,1,24
236,276,33870,5,0,1:0:0:0:
233,299,33946,1,0,0:0:0:0:
230,323,34023,1,0,0:0:0:0:
227,347,34100,1,0,0:0:0:0:
224,371,34177,1,0,1:0:0:0:
100,240,34331,6,0,L|68:236,2,24,0|0|0,0:0|0:0|1:0,0:0:0:0:
312,156,34639,2,0,L|309:132,2,24,0|0|0,0:0|0:0|1:0,0:0:0:0:
76,32,34947,2,0,L|73:55,1,24
60,132,35101,5,0,1:0:0:0:
83,130,35177,1,0,0:0:0:0:
107,128,35254,1,0,0:0:0:0:
131,126,35331,1,0,0:0:0:0:
155,124,35408,6,0,B|200:120|188:152|236:144|236:144|232:88|280:64|280:64|292:0,1,216.000008239746,2|0,1:1|0:1,0:0:0:0:
288,20,35716,5,0,1:0:0:0:
420,64,35870,2,0,L|452:56,2,24,0|0|0,0:0|0:0|1:0,0:0:0:0:
460,192,36178,2,0,L|483:197,1,24
504,272,36331,1,0,1:0:0:0:
501,295,36407,1,0,0:0:0:0:
498,319,36484,1,0,0:0:0:0:
495,343,36561,1,0,0:0:0:0:
492,367,36638,1,0,1:0:0:0:
304,264,36793,6,0,L|312:300,1,24
428,264,36947,6,0,B|400:276|400:276|332:236|332:236|299:246,1,144.000005493164,0|0,1:0|0:0,0:0:0:0:
299,246,37255,6,0,B|312:220|312:220|276:160|276:160|216:208|216:208|236:376,1,320,2|0,1:0|0:0,0:0:0:0:
132,148,37562,2,0,B|148:290|148:290|88:338|88:338|52:278|52:278|65:251,1,320,2|0,1:0|0:0,0:0:0:0:
0,44,37870,5,0,1:0:0:0:
16,88,37947,1,0,0:0:0:0:
56,112,38024,1,2,0:0:0:0:
104,108,38101,1,0,0:0:0:0:
132,148,38178,5,0,1:0:0:0:
163,145,38254,1,0,0:0:0:0:
190,129,38331,1,0,1:0:0:0:
206,102,38408,1,0,0:0:0:0:
204,72,38485,5,0,0:0:0:0:
280,56,38639,2,0,L|284:20,1,24
344,104,38793,1,0,1:0:0:0:
345,127,38869,1,0,0:0:0:0:
347,151,38946,1,0,0:0:0:0:
349,175,39023,1,0,0:0:0:0:
351,199,39100,1,0,1:0:0:0:
424,108,39255,1,0,1:0:0:0:
272,200,39408,6,0,L|268:284,1,72.0000027465821,4|0,1:0|0:0,0:0:0:0:
44,252,39716,1,0,1:0:0:0:
232,372,39870,2,0,L|228:312,1,36.0000013732911
120,260,40024,6,0,L|216:268,1,72.0000027465821,8|0,0:0|0:0,0:0:0:0:
336,312,40331,6,0,P|364:320|392:324,1,36.0000013732911
432,272,40485,2,0,P|460:264|486:254,1,36.0000013732911
424,380,40639,6,0,P|480:288|412:156,1,216.000008239746,4|0,1:2|0:0,0:0:0:0:
400,136,40947,1,8,0:0:0:0:
272,208,41101,2,0,P|248:220|216:224,1,36.0000013732911
176,176,41255,1,0,1:0:0:0:
141,186,41331,1,0,0:0:0:0:
105,184,41408,1,0,0:0:0:0:
72,170,41485,1,0,0:0:0:0:
45,147,41562,1,8,0:0:0:0:
120,60,41716,6,0,P|124:84|128:120,1,36.0000013732911
88,264,41870,1,0,1:0:0:0:
316,136,42024,2,0,P|318:118|321:100,2,36.0000013732911,0|0|8,0:0|0:0|0:0,0:0:0:0:
284,324,42331,5,0,0:0:0:0:
284,324,42408,1,0,0:0:0:0:
284,324,42485,1,0,1:0:0:0:
318,334,42561,1,0,0:0:0:0:
354,332,42638,1,0,0:0:0:0:
387,318,42715,1,0,0:0:0:0:
414,295,42792,1,8,0:0:0:0:
508,304,42947,6,0,B|504:360|504:360|484:320,1,96,2|0,0:0|0:0,0:0:0:0:
432,212,43101,1,0,1:0:0:0:
228,264,43255,6,0,L|168:256,2,36.0000013732911,0|0|8,0:0|0:0|0:0,0:0:0:0:
340,84,43562,6,0,P|336:60|336:32,1,36.0000013732911
460,136,43716,1,0,1:0:0:0:
424,132,43792,1,0,0:0:0:0:
391,144,43869,1,0,0:0:0:0:
359,160,43946,1,0,0:0:0:0:
323,160,44023,1,8,0:0:0:0:
424,20,44178,6,0,P|422:37|419:55,2,36.0000013732911,0|0|0,0:0|0:0|1:0,0:0:0:0:
392,276,44485,2,0,P|377:265|363:254,2,36.0000013732911,0|0|8,0:0|0:0|0:0,0:0:0:0:
186,120,44793,2,0,P|202:112|219:106,2,36.0000013732911,0|0|2,0:0|0:0|1:2,0:0:0:0:
152,188,45024,1,2,0:2:0:0:
132,176,45101,2,0,L|124:228,1,36.0000013732911,2|2,0:2|0:2,0:0:0:0:
76,276,45255,1,10,1:2:0:0:
232,184,45408,1,0,1:0:0:0:
20,84,45562,6,0,B|68:104|68:104|140:100,1,96,2|0,1:0|0:0,0:0:0:0:
108,24,45793,1,0,0:0:0:0:
108,24,45870,2,0,L|112:92,1,48,10|0,0:1|0:0,0:0:0:0:
24,168,46024,2,0,L|28:236,1,48
148,296,46178,6,0,L|150:248,2,48,2|0|0,1:0|0:0|0:0,0:0:0:0:
140,376,46408,1,0,0:0:0:0:
140,376,46485,2,0,L|212:384,1,48,10|0,0:1|0:0,0:0:0:0:
324,381,46639,2,0,L|372:376,1,48,0|0,1:0|0:0,0:0:0:0:
256,340,46793,5,2,1:0:0:0:
359,84,46947,1,0,1:0:0:0:
446,280,47101,5,10,0:1:0:0:
184,78,47255,1,0,1:0:0:0:
149,248,47408,6,0,P|193:232|217:208,1,48,2|0,1:0|1:0,0:0:0:0:
433,186,47562,2,0,P|389:170|365:146,1,48,0|0,1:0|1:0,0:0:0:0:
270,123,47716,6,0,L|274:167,8,24,2|0|0|0|0|0|0|0|0,0:1|0:0|0:0|0:0|0:0|0:0|0:0|0:0|0:0,0:0:0:0:
256,192,48101,12,4,50485,0:1:0:0:
100,140,60331,6,0,B|80:164|80:196|80:196|44:168|56:120|72:128|92:84|56:40,1,216.000008239746,4|0,0:1|1:0,0:0:0:0:
64,51,60947,2,0,P|108:64|152:60,1,72.0000027465821,8|0,0:0|0:0,0:0:0:0:
296,164,61255,2,0,P|208:164|148:200,1,144.000005493164,0|0,1:0|0:0,0:0:0:0:
104,316,61716,1,0,1:0:0:0:
104,316,61870,2,0,L|252:328,1,144.000005493164,0|8,1:0|0:0,0:0:0:0:
432,340,62485,2,0,L|444:264,1,72.0000027465821
512,304,62793,6,0,P|468:240|468:96,1,216.000008239746,0|0,1:0|1:0,0:0:0:0:
464,105,63408,2,0,P|396:120|372:120,1,72.0000027465821,8|0,0:0|0:0,0:0:0:0:
496,32,63716,1,0,1:0:0:0:
276,168,63870,2,0,B|352:156|336:208|412:196,1,144.000005493164
244,240,64331,2,0,L|228:88,1,144.000005493164,0|8,1:0|0:0,0:0:0:0:
96,140,64793,1,0,0:0:0:0:
156,8,64947,2,0,L|152:108,1,72.0000027465821,0|0,1:0|0:0,0:0:0:0:
140,320,65255,1,0,1:0:0:0:
140,320,65562,6,0,L|220:320,1,72.0000027465821
372,320,65870,1,0,1:0:0:0:
372,320,66177,6,0,L|292:320,1,72.0000027465821
140,320,66485,1,0,1:0:0:0:
140,320,66793,6,0,L|220:320,1,72.0000027465821
372,320,67101,1,0,1:0:0:0:
372,320,67408,6,0,L|292:320,1,72.0000027465821
120,244,67716,6,0,P|172:236|208:220,1,62.3999971435548,0|0,1:0|0:0,0:0:0:0:
392,244,68024,6,0,P|340:236|304:220,1,62.3999971435548
72,180,68331,6,0,P|120:164|136:156,1,52.8000016113282,0|0,1:0|0:0,0:0:0:0:
440,180,68639,6,0,P|392:164|376:156,1,52.8000016113282
256,20,70178,5,4,1:0:0:0:
200,76,70331,1,0,0:0:0:0:
128,104,70485,2,0,P|224:104|328:160,1,192,2|2,0:0|0:0,0:0:0:0:
240,264,70947,2,0,L|232:368,1,96,2|0,0:0|0:0,0:0:0:0:
504,292,71255,2,0,L|296:312,1,192,2|0,0:0|0:0,0:0:0:0:
160,320,71716,5,2,0:0:0:0:
160,320,71870,1,0,0:0:0:0:
160,320,72024,5,2,0:0:0:0:
136,164,72178,1,0,0:0:0:0:
240,348,72331,5,2,0:0:0:0:
332,84,72485,1,2,0:0:0:0:
464,200,72639,6,0,B|356:216|388:148|280:164,1,192,0|2,0:0|0:0,0:0:0:0:
312,252,73255,5,2,0:0:0:0:
430,115,73408,2,0,P|444:69|432:24,1,96,2|0,0:0|0:0,0:0:0:0:
344,332,73716,6,0,B|371:302|371:302|475:294,1,144,2|0,0:0|0:0,0:0:0:0:
512,196,74024,2,0,L|500:304,2,96,0|2|0,0:0|0:0|0:0,0:0:0:0:
492,380,74485,5,2,0:0:0:0:
312,252,74639,1,0,0:0:0:0:
276,176,74793,1,2,0:0:0:0:
228,244,74947,1,2,0:0:0:0:
28,340,75101,6,0,L|24:140,2,192,2|2|2,0:0|0:0|0:0,0:0:0:0:
132,255,75870,2,0,L|236:243,1,96,2|0,0:0|0:0,0:0:0:0:
180,96,76178,2,0,P|104:56|-12:84,1,192,2|0,0:0|0:0,0:0:0:0:
24,148,76639,1,2,0:0:0:0:
44,224,76793,1,0,0:0:0:0:
24,148,76947,5,2,0:0:0:0:
322,186,77101,1,0,0:0:0:0:
132,255,77255,5,2,0:0:0:0:
384,60,77408,2,0,L|440:68,1,48,2|0,0:0|0:0,0:0:0:0:
448,164,77562,6,0,P|440:112|460:60,1,96,2|0,0:0|0:0,0:0:0:0:
504,224,77870,2,0,P|500:296|384:328,1,192,2|2,0:0|0:0,0:0:0:0:
256,292,78331,1,2,0:0:0:0:
348,276,78485,5,8,0:0:0:0:
322,236,78561,1,8,0:0:0:0:
281,212,78638,1,8,0:0:0:0:
234,208,78715,1,8,0:0:0:0:
189,225,78793,6,0,P|172:264|176:312,1,64,0|0,1:0|0:0,0:0:0:0:
52,188,78998,2,0,P|94:184|133:156,1,64,8|0,0:0|0:0,0:0:0:0:
87,326,79203,2,0,P|61:292|18:272,1,64,8|0,0:0|0:0,0:0:0:0:
200,212,79408,6,0,B|204:244|204:244|264:320,1,96.0000036621095,0|0,1:0|0:0,0:0:0:0:
36,184,79613,6,0,B|61:165|61:165|97:75,1,96.0000036621095,8|0,0:0|0:0,0:0:0:0:
93,341,79819,6,0,B|63:329|63:329|-33:343,1,96.0000036621095,8|0,0:0|0:0,0:0:0:0:
144,160,80024,5,4,1:0:0:0:
440,208,80229,1,0,0:0:0:0:
488,272,80331,2,0,B|456:288|456:288|316:272,1,128,8|0,0:0|0:0,0:0:0:0:
243,294,80639,5,2,0:0:0:0:
235,214,80742,2,0,B|231:182|231:182|247:154,1,64,2|2,0:0|0:0,0:0:0:0:
352,28,80947,2,0,B|379:50|379:50|391:142,1,128,10|2,0:0|0:0,0:0:0:0:
184,24,81255,6,0,B|132:28|132:28|108:24|108:24|92:32|92:32|0:40,1,128
32,116,81562,2,0,B|84:112|84:112|108:116|108:116|124:108|124:108|157:105,1,128,8|0,0:0|0:0,0:0:0:0:
208,180,81870,6,0,L|104:188,2,64,2|2|2,0:0|0:0|0:0,0:0:0:0:
24,248,82178,2,0,L|87:243,2,64,10|2|2,0:0|0:0|0:0,0:0:0:0:
148,292,82485,5,2,0:0:0:0:
166,317,82587,1,0,0:0:0:0:
174,348,82690,1,0,0:0:0:0:
288,216,82793,5,2,0:0:0:0:
292,262,82895,1,0,0:0:0:0:
279,309,82998,1,0,0:0:0:0:
440,256,83101,5,2,0:0:0:0:
414,312,83203,1,2,0:0:0:0:
369,357,83306,1,2,0:0:0:0:
216,260,83408,6,0,P|197:159|197:83,1,128,2|10,0:0|0:0,0:0:0:0:
24,16,83716,6,0,P|48:36|100:40,1,64,2|0,0:0|0:0,0:0:0:0:
304,72,83921,5,0,0:0:0:0:
312,56,84024,2,0,P|281:63|256:83,1,64,10|0,0:0|0:0,0:0:0:0:
40,112,84229,5,0,0:0:0:0:
56,120,84331,2,0,P|86:125|133:102,1,64,2|2,0:0|0:0,0:0:0:0:
204,28,84537,5,2,0:0:0:0:
207,10,84640,2,0,P|178:24|160:50,1,64,10|2,0:0|0:0,0:0:0:0:
36,216,84844,1,2,0:0:0:0:
48,200,84947,5,14,0:0:0:0:
42,263,85049,1,8,0:0:0:0:
69,320,85152,1,8,0:0:0:0:
120,356,85254,1,10,0:0:0:0:
183,362,85357,1,8,0:0:0:0:
241,336,85459,1,8,0:0:0:0:
278,284,85562,5,10,0:0:0:0:
331,250,85664,1,10,0:0:0:0:
393,239,85767,1,10,0:0:0:0:
455,255,85869,1,10,0:0:0:0:
411,208,85972,1,10,0:0:0:0:
393,147,86075,1,10,0:0:0:0:
404,85,86177,5,14,0:0:0:0:
377,28,86280,1,8,0:0:0:0:
317,12,86383,1,8,0:0:0:0:
265,46,86485,1,10,0:0:0:0:
252,108,86587,1,8,0:0:0:0:
205,151,86690,1,8,0:0:0:0:
144,166,86793,6,0,B|112:160|112:160|88:120,1,64,10|8,1:2|0:0,0:0:0:0:
32,80,86998,2,0,B|53:55|53:55|99:54,1,64,10|8,1:2|0:0,0:0:0:0:
162,26,87203,2,0,B|172:56|172:56|150:97,1,64,10|8,1:2|0:0,0:0:0:0:
212,288,87408,5,12,0:0:0:0:
227,227,87510,1,8,0:0:0:0:
277,189,87613,1,8,0:0:0:0:
340,190,87716,1,10,0:0:0:0:
397,163,87818,1,8,0:0:0:0:
412,100,87921,1,8,0:0:0:0:
380,44,88024,5,14,0:0:0:0:
340,30,88126,1,8,0:0:0:0:
304,49,88229,1,8,0:0:0:0:
292,89,88331,1,10,0:0:0:0:
302,107,88433,1,8,0:0:0:0:
322,114,88536,1,8,0:0:0:0:
341,105,88638,5,2,1:2:0:0:
360,101,88742,1,2,1:2:0:0:
379,101,88844,1,2,1:2:0:0:
417,105,88947,1,2,1:2:0:0:
474,144,89049,1,2,1:2:0:0:
495,218,89152,1,2,1:2:0:0:
464,296,89255,6,0,B|415:258|361:273|361:273|288:241|352:135|439:188|415:258,1,288,12|0,1:0|0:0,0:0:0:0:
396,360,89562,6,0,B|352:364|352:364|276:332|252:296|244:232|244:232|216:280|140:276,1,288,14|0,1:0|0:0,0:0:0:0:
116,280,89870,5,4,1:0:0:0:
86,47,90178,6,0,L|84:0,1,48.0000018310548,2|0,0:1|0:0,0:0:0:0:
152,88,90383,2,0,L|220:96,1,48.0000018310548,2|0,0:1|0:0,0:0:0:0:
84,124,90588,2,0,L|16:132,1,48.0000018310548,2|0,0:1|0:0,0:0:0:0:
152,164,90793,2,0,L|148:228,1,48.0000018310548,2|0,0:1|0:0,0:0:0:0:
256,300,91101,5,0,1:0:0:0:
256,48,91408,6,0,L|256:-16,1,48.0000018310548,2|0,0:1|0:0,0:0:0:0:
296,112,91613,2,0,L|344:112,1,48.0000018310548,2|0,0:1|0:0,0:0:0:0:
216,112,91819,2,0,L|152:112,1,48.0000018310548,2|0,0:1|0:0,0:0:0:0:
256,176,92024,2,0,L|256:224,1,48.0000018310548,2|0,0:1|0:0,0:0:0:0:
396,280,92255,5,0,0:0:0:0:
396,280,92331,1,0,1:0:0:0:
425,47,92639,6,0,L|428:0,1,48.0000018310548,2|0,0:1|0:0,0:0:0:0:
428,124,92844,2,0,L|475:129,1,48.0000018310548,2|0,0:1|0:0,0:0:0:0:
360,88,93049,2,0,L|312:93,1,48.0000018310548,2|0,0:1|0:0,0:0:0:0:
360,164,93254,2,0,L|364:228,1,48.0000018310548,2|0,0:1|0:0,0:0:0:0:
256,300,93562,6,0,B|208:296|208:296|184:304|184:304|156:292|156:292|104:288,1,144,0|0,1:0|0:0,0:0:0:0:
36,280,93870,2,0,L|31:232,1,48,2|0,0:0|0:0,0:0:0:0:
136,372,94024,1,0,0:0:0:0:
188,220,94178,6,0,L|194:124,1,96,8|0,0:0|0:0,0:0:0:0:
160,56,94408,1,0,0:0:0:0:
140,60,94485,2,0,L|60:72,1,48,2|2,0:0|0:0,0:0:0:0:
276,8,94639,2,0,L|196:20,1,48,2|2,0:0|0:0,0:0:0:0:
16,52,94793,5,4,1:0:0:0:
88,300,95101,6,0,B|100:252|100:252|148:220,1,96.0000036621095,2|0,0:1|0:0,0:0:0:0:
160,216,95306,2,0,B|112:204|112:204|80:156,1,96.0000036621095,2|0,0:1|0:0,0:0:0:0:
72,144,95511,6,0,B|60:192|60:192|12:224,1,96.0000036621095,2|0,0:1|0:0,0:0:0:0:
0,228,95716,2,0,B|48:240|48:240|80:288,1,96.0000036621095,2|0,0:1|0:0,0:0:0:0:
256,96,96024,5,0,1:0:0:0:
292,352,96331,6,0,B|316:308|316:308|358:291,1,96.0000036621095,2|0,0:1|0:0,0:0:0:0:
358,220,96537,2,0,B|316:204|316:204|292:160,1,96.0000036621095,2|0,0:1|0:0,0:0:0:0:
220,160,96742,6,0,B|196:204|196:204|153:220,1,96.0000036621095,2|0,0:1|0:0,0:0:0:0:
153,291,96948,2,0,B|196:308|196:308|220:352,1,96.0000036621095,2|0,0:1|0:0,0:0:0:0:
496,52,97178,5,0,0:0:0:0:
496,52,97255,1,0,1:0:0:0:
438,278,97562,6,0,B|464:240|464:240|512:228,1,96.0000036621095,2|0,0:1|0:0,0:0:0:0:
490,217,97767,2,0,B|452:192|452:192|440:144,1,96.0000036621095,2|0,0:1|0:0,0:0:0:0:
425,165,97972,6,0,B|400:204|400:204|352:216,1,96.0000036621095,2|0,0:1|0:0,0:0:0:0:
373,226,98177,2,0,B|412:252|412:252|424:300,2,96.0000036621095,0|0|0,1:0|1:0|1:0,0:0:0:0:
261,77,98485,6,0,B|177:29|177:29|69:69,1,192.000007324219,0|0,1:0|0:0,0:0:0:0:
77,149,98793,2,0,B|161:197|161:197|269:157,1,192.000007324219,2|0,0:0|0:0,0:0:0:0:
169,113,99101,1,10,0:1:0:0:
21,97,99255,6,0,L|-39:89,1,48,2|0,0:1|0:0,0:0:0:0:
161,197,99408,2,0,L|155:256,1,60,2|0,0:1|0:0,0:0:0:0:
321,133,99562,2,0,L|392:141,1,72.0000027465821,2|0,0:1|0:0,0:0:0:0:
508,308,99716,5,4,1:0:0:0:
124,364,100024,6,0,B|155:329|155:329|428:300|428:300|432:288|432:288|381:281,3,384.000014648438,2|2|2|2,1:0|1:0|1:0|1:0,0:0:0:0:
460,192,100947,5,0,1:0:0:0:
16,192,101255,6,0,B|88:192|88:192|144:152|144:152|204:232|204:232|260:192|260:192|344:192,3,384.000014648438,2|2|2|2,1:0|1:0|1:0|1:0,0:0:0:0:
508,76,102101,5,0,0:0:0:0:
508,76,102178,1,0,1:0:0:0:
124,20,102485,6,0,B|155:54|155:54|428:84|428:84|432:96|432:96|381:102,3,384.000014648438,2|2|2|2,1:0|1:0|1:0|1:0,0:0:0:0:
408,252,103203,2,0,B|361:268|361:268|321:233|321:233|340:178|340:178|396:184,1,192.000007324219,0|2,1:0|1:0,0:0:0:0:
460,192,103408,6,0,B|496:236|496:236|476:316|476:316|408:340,1,192,0|2,1:0|0:0,0:0:0:0:
300,372,103870,1,0,0:0:0:0:
316,364,103947,1,0,0:0:0:0:
332,356,104024,2,0,B|352:340|352:340|196:328,1,144,8|0,0:0|0:0,0:0:0:0:
193,266,104331,2,0,P|202:243|204:220,1,48,2|0,0:0|0:0,0:0:0:0:
121,293,104485,2,0,P|130:316|132:340,1,48
52,256,104639,5,4,1:0:0:0:
48,64,104947,6,0,P|40:108|36:148,1,64,2|0,1:0|0:0,0:0:0:0:
108,20,105152,6,0,P|79:54|55:86,1,70.4000021484376,2|0,1:0|0:0,0:0:0:0:
196,0,105357,6,0,P|153:15|117:31,1,76.7999976562501,2|0,1:0|0:0,0:0:0:0:
292,24,105562,6,0,P|248:16|208:12,1,83.1999961914064,2|0,1:0|0:0,0:0:0:0:
372,96,105767,6,0,P|336:65|302:41,1,89.5999972656251,2|0,1:0|0:0,0:0:0:0:
400,200,105972,6,0,P|383:152|364:111,1,96.0000036621095,2|0,1:0|0:0,0:0:0:0:
368,308,106178,6,0,P|377:255|382:207,1,102.4,2|0,1:0|0:0,0:0:0:0:
260,376,106383,6,0,P|306:343|346:311,1,108.800002075195,2|0,1:0|0:0,0:0:0:0:
128,352,106588,6,0,P|187:362|241:368,1,115.199996484375,2|0,1:0|0:0,0:0:0:0:
48,236,106793,6,0,P|84:289|121:334,2,121.59999675293,0|0|0,1:0|1:0|1:0,0:0:0:0:
72,104,107101,5,8,0:0:0:0:
72,104,107408,2,0,P|140:96|176:84,1,96,8|0,0:0|0:0,0:0:0:0:
376,4,107716,2,0,P|348:66|341:104,1,96,8|0,0:0|0:0,0:0:0:0:
310,317,108024,2,0,P|269:262|240:236,1,96,8|0,0:0|0:0,0:0:0:0:
192,12,108331,5,8,0:0:0:0:
220,336,108485,1,8,0:0:0:0:
15,218,108639,5,8,0:0:0:0:
430,76,108793,1,8,0:0:0:0:
88,32,108947,6,0,L|96:104,1,48,8|8,0:0|0:0,0:0:0:0:
104,156,109101,2,0,L|109:203,1,48,8|8,0:0|0:0,0:0:0:0:
336,176,109255,6,0,B|248:140|172:220|232:248|156:324|56:288,1,320,10|0,0:0|0:0,0:0:0:0:
360,368,109562,6,0,P|292:300|332:204,1,144.000005493164,6|0,1:2|0:0,0:0:0:0:
292,257,109793,1,0,0:0:0:0:
292,257,109870,1,8,1:0:0:0:
500,340,110024,6,0,P|444:324|400:332,1,72.0000027465821
216,80,110178,6,0,B|244:100|244:100|396:80,1,144.000005493164,2|0,1:2|0:0,0:0:0:0:
372,280,110485,1,8,1:0:0:0:
228,208,110639,6,0,L|95:198,1,72.0000027465821,2|0,0:1|0:0,0:0:0:0:
4,192,110793,1,0,1:0:0:0:
240,220,110947,6,0,L|230:352,1,72.0000027465821,2|0,0:1|0:0,0:0:0:0:
228,384,111101,1,8,1:0:0:0:
256,212,111255,6,0,L|388:221,1,72.0000027465821,2|0,0:1|0:0,0:0:0:0:
480,228,111408,2,0,L|472:76,1,144.000005493164,2|0,1:0|0:0,0:0:0:0:
168,0,111716,6,0,B|144:44|144:44|160:128,1,96,10|0,1:0|0:0,0:0:0:0:
212,148,111870,2,0,B|236:104|236:104|220:20,1,96,0|0,1:0|0:0,0:0:0:0:
76,136,112024,6,0,B|132:164|132:164|160:328,1,216.000008239746,2|0,1:0|0:0,0:0:0:0:
80,304,112331,2,0,L|72:396,2,72.0000027465821,10|0|0,1:0|0:0|0:0,0:0:0:0:
0,72,112639,6,0,B|40:68|40:68|64:56|64:56|80:60|80:60|156:52,1,144.000005493164,2|0,1:1|0:0,0:0:0:0:
488,20,112793,1,2,0:1:0:0:
424,348,112947,5,10,1:2:0:0:
384,304,113024,1,0,0:0:0:0:
344,264,113101,1,2,0:1:0:0:
288,280,113178,1,0,0:0:0:0:
232,296,113255,6,2,B|136:324,1,72.0000027465821,2|0,1:0|0:0,0:1:0:0:
404,208,113408,2,0,B|473:187,1,72.0000027465821,0|2,1:0|0:1,0:0:0:0:
64,164,113562,1,8,1:0:0:0:
424,348,113716,1,2,1:0:0:0:
324,52,113870,6,2,B|312:20|312:20|300:164,1,144.000005493164,2|0,1:0|0:0,0:1:0:0:
296,204,114101,1,2,1:0:0:0:
288,280,114178,2,0,L|280:364,2,48,8|0|0,1:0|0:0|1:0,0:0:0:0:
512,80,114485,6,0,B|390:91|390:91|366:126|366:126|213:139,1,288,6|2,1:0|0:0,0:0:0:0:
408,200,114793,2,0,B|432:160|432:160|416:80,1,96,8|0,1:0|0:0,0:0:0:0:
56,164,114947,6,0,B|178:175|178:175|202:210|202:210|355:223,1,288,6|2,1:0|0:0,0:0:0:0:
180,364,115255,2,0,B|156:324|156:324|172:244,1,96
512,248,115408,6,0,B|390:259|390:259|366:294|366:294|213:307,1,288,14|0,1:0|1:0,0:0:0:0:
72,336,115716,6,0,B|92:240|92:240|56:84,1,192,6|0,1:0|0:0,0:0:0:0:
64,128,115947,2,0,L|164:136,2,96,2|8|0,0:0|1:0|0:0,0:0:0:0:
324,220,116178,6,0,B|304:124|304:124|340:-32,1,192,6|0,1:0|0:0,0:0:0:0:
332,8,116408,2,0,L|432:16,2,96,2|0|0,0:0|0:0|0:0,0:0:0:0:
160,136,116639,1,10,1:0:0:0:
444,380,116793,6,0,B|460:344|460:344|448:292,1,72.0000027465821,0|0,0:0|1:0,0:0:0:0:
479,237,116947,1,6,1:0:0:0:
426,237,117024,1,0,1:0:0:0:
382,268,117101,1,0,1:0:0:0:
335,293,117178,1,2,1:0:0:0:
284,284,117254,1,8,1:0:0:0:
151,68,117408,6,0,B|143:99|143:99|159:135,1,72.0000027465821,2|0,0:1|0:0,0:0:0:0:
8,160,117562,1,6,1:0:0:0:
61,160,117639,1,0,1:0:0:0:
104,191,117716,1,0,1:0:0:0:
151,216,117793,1,2,1:0:0:0:
203,206,117869,1,8,1:0:0:0:
224,40,118024,1,2,0:1:0:0:
40,236,118178,6,0,L|52:384,1,144.000005493164,2|0,1:0|1:0,0:0:0:0:
24,72,118485,1,8,1:0:0:0:
136,308,118639,1,2,1:0:0:0:
248,132,118793,5,0,1:0:0:0:
301,127,118869,1,0,1:0:0:0:
355,122,118946,1,0,1:0:0:0:
409,118,119023,1,0,1:0:0:0:
463,113,119101,2,0,L|356:108,1,72.0000027465821,10|0,1:0|0:0,0:0:0:0:
120,192,119255,2,0,L|191:188,1,72.0000027465821,2|0,0:0|0:0,0:0:0:0:
240,376,119408,6,0,B|244:324|244:324|264:296|264:296|268:224,1,144.000005493164,2|0,1:2|0:0,0:0:0:0:
268,224,119639,1,0,0:0:0:0:
269,209,119716,1,8,1:0:0:0:
302,57,119870,2,0,B|310:93|310:93|294:153,1,72.0000027465821
64,304,120024,6,0,B|60:252|60:252|40:224|40:224|36:166,1,144.000005493164,2|0,1:2|0:0,0:0:0:0:
120,368,120331,1,8,1:0:0:0:
269,209,120485,6,0,L|402:219,1,72.0000027465821,2|0,0:1|0:0,0:0:0:0:
508,226,120639,1,0,1:0:0:0:
260,200,120793,6,0,L|270:67,1,72.0000027465821,2|0,0:1|0:0,0:0:0:0:
280,0,120947,1,8,1:0:0:0:
248,208,121101,6,0,L|115:198,1,72.0000027465821,2|0,0:1|0:0,0:0:0:0:
9,191,121255,2,0,B|-8:120|-8:120|28:40,1,144.000005493164,2|0,1:0|0:0,0:0:0:0:
361,121,121562,6,0,L|201:133,1,96,10|0,1:0|0:0,0:0:0:0:
224,56,121716,2,0,L|319:48,1,96,0|0,1:0|0:0,0:0:0:0:
392,12,121870,2,0,B|420:48|420:48|392:76|392:76|376:228,1,216.000008239746,6|0,1:0|0:0,0:0:0:0:
372,284,122178,1,10,1:0:0:0:
136,140,122331,5,0,0:0:0:0:
136,140,122408,1,0,0:0:0:0:
136,140,122485,2,0,B|108:176|108:176|136:204|136:204|152:356,1,216.000008239746,2|2,1:0|0:1,0:0:0:0:
224,304,122793,6,0,L|344:308,1,72.0000027465821
64,240,122947,2,0,L|-8:242,1,72.0000027465821,2|0,0:1|0:0,0:0:0:0:
208,168,123101,6,0,B|232:76|232:76|180:72,1,144.000005493164,6|0,1:0|0:0,0:0:0:0:
116,36,123331,1,0,1:0:0:0:
104,44,123408,2,0,B|96:80|96:80|116:120,1,72.0000027465821,10|0,1:0|0:0,0:0:0:0:
40,316,123562,2,0,B|48:280|48:280|28:240,1,72.0000027465821,2|0,1:0|0:0,0:0:0:0:
0,176,123716,6,0,B|52:168|52:168|88:192|88:192|184:180,1,144.000005493164,6|0,1:0|0:0,0:0:0:0:
208,168,123947,1,0,1:0:0:0:
232,164,124024,2,0,P|224:204|224:256,1,72.0000027465821,10|0,1:0|0:0,0:0:0:0:
388,372,124178,2,0,P|400:320|400:296,1,72.0000027465821,2|2,1:2|0:0,0:0:0:0:
448,40,124331,6,0,B|464:152|364:216|364:216|380:160|344:100,1,288,6|0,1:0|1:0,0:0:0:0:
348,120,124639,1,8,1:0:0:0:
496,208,124793,6,0,P|420:112|268:148,1,288,6|0,1:0|1:0,0:0:0:0:
200,104,125101,2,0,B|184:152|184:152|236:248,1,96,0|0,0:0|1:0,0:0:0:0:
484,120,125255,6,0,P|404:200|300:160,1,192,10|0,1:0|1:0,0:0:0:0:
0,348,125562,6,0,P|57:275|150:278,1,192,6|0,1:0|0:0,0:0:0:0:
268,328,125793,2,0,B|289:288|289:288|273:240,2,96,0|8|0,1:0|1:0|0:0,0:0:0:0:
120,4,126024,6,0,P|177:76|270:73,1,192,6|0,1:0|0:0,0:0:0:0:
388,24,126255,2,0,B|409:63|409:63|393:111,2,96,0|0|0,1:0|0:0|1:0,0:0:0:0:
60,88,126485,1,10,1:0:0:0:
152,350,126639,6,0,P|152:314|149:278,1,72.0000027465821,0|0,1:0|0:0,0:0:0:0:
4,184,126793,1,6,1:0:0:0:
54,201,126869,1,0,1:0:0:0:
107,193,126946,1,0,1:0:0:0:
150,162,127023,1,0,1:0:0:0:
173,114,127100,1,8,1:0:0:0:
390,183,127255,6,0,P|389:147|392:111,1,72.0000027465821,2|0,0:1|0:0,0:0:0:0:
454,271,127409,1,6,1:0:0:0:
403,288,127485,1,0,1:0:0:0:
350,280,127562,1,0,1:0:0:0:
307,249,127639,1,0,1:0:0:0:
284,201,127716,1,8,1:0:0:0:
320,360,127870,1,2,0:1:0:0:
488,184,128024,5,2,1:0:0:0:
173,114,128178,1,0,1:0:0:0:
428,40,128331,5,10,1:0:0:0:
184,360,128485,1,0,1:0:0:0:
296,16,128639,6,0,P|296:60|316:112,1,72.0000027465821,2|0,1:0|1:0,0:0:0:0:
461,341,128793,2,0,P|461:297|441:245,1,72.0000027465821,0|0,1:0|1:0,0:0:0:0:
88,136,128947,6,0,P|110:174|153:209,1,72.0000027465821,2|0,1:0|1:0,0:0:0:0:
268,344,129101,2,0,P|246:305|202:270,1,72.0000027465821,0|0,1:0|1:0,0:0:0:0:
62,288,129255,6,0,B|120:300|172:252|132:240|188:188|245:205,1,216.000008239746,6|2,1:0|0:0,0:0:0:0:
272,216,129562,1,8,1:0:0:0:
268,48,129716,6,0,B|256:105|304:157|316:117|368:173|351:231,1,216.000008239746,2|2,1:0|0:0,0:0:0:0:
341,257,130023,1,8,1:0:0:0:
352,64,130178,6,0,P|408:48|488:44,1,72.0000027465821,2|0,1:0|0:0,0:0:0:0:
116,188,130331,2,0,P|60:172|-20:168,1,72.0000027465821,2|2,0:1|0:0,0:0:0:0:
111,26,130485,6,0,B|99:83|147:135|159:95|211:151|194:209,1,216.000008239746,6|2,1:0|0:0,0:0:0:0:
183,235,130792,1,8,1:0:0:0:
351,231,130947,6,0,B|293:219|241:267|281:279|225:331|167:314,1,216.000008239746,2|2,1:0|0:0,0:0:0:0:
142,304,131255,1,8,1:0:0:0:
44,264,131408,6,0,P|60:316|60:364,1,72.0000027465821,2|0,1:0|0:0,0:0:0:0:
320,380,131562,2,0,P|325:344|337:310,1,72.0000027465821,2|0,1:0|0:0,0:0:0:0:
480,24,131716,6,0,B|422:12|370:60|410:72|354:124|296:107,1,216.000008239746,6|2,1:0|0:0,0:0:0:0:
271,96,132023,1,8,1:0:0:0:
32,176,132177,6,0,B|90:165|142:213|102:225|158:277|216:260,1,216.000008239746,2|2,1:0|0:0,0:0:0:0:
241,249,132484,1,8,1:0:0:0:
460,104,132639,6,0,P|456:160|444:212,1,72.0000027465821,2|0,1:0|0:0,0:0:0:0:
176,348,132793,2,0,P|232:344|284:332,1,72.0000027465821,2|2,0:1|0:0,0:0:0:0:
428,372,132947,6,0,B|439:314|391:262|379:302|327:246|344:188,1,216.000008239746,6|2,1:0|0:0,0:0:0:0:
356,163,133254,1,8,1:0:0:0:
188,167,133408,6,0,B|245:178|297:130|257:118|313:66|371:83,1,216.000008239746,2|2,1:0|0:0,0:0:0:0:
397,94,133715,1,8,1:0:0:0:
200,84,133870,6,0,P|192:40|192:-4,1,72.0000027465821,2|0,1:0|0:0,0:0:0:0:
356,163,134024,1,10,0:0:0:0:
352,215,134101,1,8,0:0:0:0:
344,267,134178,6,0,L|420:332,1,72.0000027465821,6|0,1:0|0:0,0:0:0:0:
270,379,134331,5,0,0:0:0:0:
270,379,134408,1,0,1:0:0:0:
270,379,134485,2,0,L|265:307,1,72.0000027465821,8|0,1:0|0:0,0:0:0:0:
180,280,134639,2,0,L|134:334,1,72.0000027465821,2|0,1:0|0:0,0:0:0:0:
68,206,134793,6,0,L|140:201,1,72.0000027465821,6|0,1:0|0:0,0:0:0:0:
168,116,134947,5,0,0:0:0:0:
168,116,135024,1,0,1:0:0:0:
168,116,135101,2,0,L|113:70,1,72.0000027465821,10|0,1:2|0:0,0:0:0:0:
241,4,135255,2,0,L|246:76,1,72.0000027465821,2|0,1:0|0:0,0:0:0:0:
331,104,135408,6,0,L|377:49,1,72.0000027465821,6|0,1:0|0:0,0:0:0:0:
443,177,135562,5,0,0:0:0:0:
443,177,135639,1,2,0:1:0:0:
443,177,135716,2,0,L|371:182,1,72.0000027465821
140,201,135870,2,0,L|68:206,1,72.0000027465821,2|0,0:1|0:0,0:0:0:0:
377,49,136024,6,0,L|331:104,1,72.0000027465821,2|0,1:0|0:0,0:0:0:0:
180,280,136178,2,0,L|134:334,1,72.0000027465821,2|0,0:0|0:0,0:0:0:0:
241,4,136331,6,0,L|246:76,1,72.0000027465821,10|0,1:2|0:0,0:0:0:0:
265,307,136485,2,0,L|270:379,1,72.0000027465821,2|0,0:0|0:0,0:0:0:0:
344,267,136639,6,0,P|368:304|416:340,1,72.0000027465821,2|0,1:2|0:0,0:0:0:0:
504,224,136793,2,0,P|508:160|520:124,3,72.0000027465821,0|0|8|0,0:0|0:0|1:0|0:0,0:0:0:0:
436,264,137101,2,0,P|424:220|420:164,1,72.0000027465821,2|2,0:0|0:0,0:0:0:0:
488,56,137255,5,2,1:2:0:0:
466,84,137331,1,0,0:0:0:0:
437,106,137408,1,2,0:0:0:0:
403,117,137485,1,0,0:0:0:0:
367,119,137562,1,10,1:0:0:0:
333,109,137639,1,0,0:0:0:0:
303,90,137716,1,2,0:0:0:0:
279,63,137793,1,0,0:0:0:0:
265,30,137870,6,0,B|300:24|300:24|336:52,1,72.0000027465821,2|0,1:2|0:0,0:0:0:0:
132,64,138024,2,0,B|125:29|125:29|153:-6,1,72.0000027465821,0|0,1:0|0:0,0:0:0:0:
164,188,138178,2,0,B|129:194|129:194|93:166,1,72.0000027465821,10|0,1:2|0:0,0:0:0:0:
297,154,138332,2,0,B|303:188|303:188|275:224,1,72.0000027465821,0|0,1:0|0:0,0:0:0:0:
2,103,138485,6,0,B|30:71|30:71|142:63,1,144.000005493164,2|0,1:2|0:0,0:0:0:0:
170,75,138716,1,0,1:0:0:0:
210,87,138793,2,0,L|206:175,1,72.0000027465821,10|0,1:0|0:0,0:0:0:0:
60,256,138947,1,0,1:0:0:0:
44,168,139101,6,0,B|102:156|154:204|114:216|170:268|227:251,1,216.000008239746,6|2,1:0|0:0,0:0:0:0:
254,240,139408,1,8,1:0:0:0:
400,148,139562,6,0,B|412:206|364:258|352:218|300:274|317:331,1,216.000008239746,2|2,1:0|0:0,0:0:0:0:
328,358,139869,1,8,1:0:0:0:
468,300,140024,2,0,P|412:308|372:320,1,72.0000027465821,2|0,1:0|0:0,0:0:0:0:
80,352,140178,2,0,P|136:360|176:372,1,72.0000027465821,10|2,1:0|1:2,0:0:0:0:
232,384,140331,6,0,B|244:326|196:274|184:314|132:258|149:201,1,216.000008239746,6|2,1:0|0:0,0:0:0:0:
160,174,140638,1,8,1:0:0:0:
252,28,140793,6,0,B|194:16|142:64|182:76|126:128|69:111,1,216.000008239746,2|2,1:0|0:0,0:0:0:0:
42,100,141101,1,8,1:0:0:0:
248,248,141255,2,0,P|260:304|264:344,1,72.0000027465821,2|0,1:0|0:0,0:0:0:0:
328,80,141408,2,0,P|340:24|344:-16,1,72.0000027465821,10|8,0:1|0:0,0:0:0:0:
160,174,141562,5,2,1:0:0:0:
216,164,141639,1,0,1:0:0:0:
272,156,141716,1,0,1:0:0:0:
316,192,141793,1,0,1:0:0:0:
360,228,141870,1,8,1:0:0:0:
504,240,142024,6,0,B|516:182|468:130|456:170|404:114|421:57,1,216.000008239746,2|2,1:0|0:0,0:0:0:0:
432,30,142330,1,8,1:0:0:0:
464,320,142485,2,0,P|412:316|368:304,1,72.0000027465821,2|0,1:0|0:0,0:0:0:0:
356,136,142639,2,0,P|320:142|284:144,1,72.0000027465821,10|0,1:0|0:0,0:0:0:0:
124,0,142793,6,0,B|112:58|160:110|172:70|224:126|207:183,1,216.000008239746,6|2,1:0|0:0,0:0:0:0:
196,210,143100,1,8,1:0:0:0:
116,160,143255,6,0,B|128:218|80:270|68:230|16:286|33:343,1,216.000008239746,2|2,1:0|0:0,0:0:0:0:
44,370,143562,1,8,1:0:0:0:
120,324,143716,2,0,P|168:316|236:320,1,72.0000027465821,2|10,1:2|0:0,0:0:0:0:
256,264,143870,2,0,P|291:265|327:272,1,72.0000027465821,10|10,0:0|0:0,0:0:0:0:
408,364,144024,5,2,1:2:0:0:
396,311,144101,1,0,1:0:0:0:
427,267,144178,1,0,1:0:0:0:
452,220,144255,1,0,1:0:0:0:
443,169,144331,1,10,0:1:0:0:
28,304,144485,6,0,B|52:284|52:284|-4:264,1,72.0000027465821,2|0,1:0|0:0,0:0:0:0:
120,324,144639,1,2,1:2:0:0:
132,271,144716,1,0,1:0:0:0:
101,227,144793,1,0,1:0:0:0:
76,180,144870,1,0,1:0:0:0:
85,129,144946,1,10,0:1:0:0:
408,92,145101,1,2,1:0:0:0:
216,0,145255,6,0,B|196:68|196:68|236:148,1,144.000005493164,2|0,1:1|1:0,0:0:0:0:
300,160,145485,1,2,1:0:0:0:
296,184,145562,6,0,L|284:288,1,72.0000027465821,8|0,1:0|0:0,0:0:0:0:
328,88,145716,2,0,L|336:16,1,72.0000027465821,2|0,1:0|1:0,0:0:0:0:
216,212,145870,6,0,L|204:316,1,72.0000027465821,10|0,1:0|0:0,0:0:0:0:
407,91,146024,2,0,L|416:20,1,72.0000027465821,0|0,1:0|0:0,0:0:0:0:
136,232,146178,6,0,L|124:336,1,72.0000027465821,10|0,1:0|0:0,0:0:0:0:
484,96,146331,2,0,L|492:24,1,72.0000027465821,0|0,1:0|0:0,0:0:0:0:
477,345,146485,5,10,1:2:0:0:
481,333,146562,1,0,1:0:0:0:
453,265,146639,5,8,1:0:0:0:
447,253,146716,1,0,1:0:0:0:
379,225,146793,5,10,1:2:0:0:
366,221,146870,1,0,1:0:0:0:
299,249,146947,5,8,1:0:0:0:
287,255,147024,1,0,1:0:0:0:
252,324,147101,5,10,0:0:0:0:
186,351,147177,1,8,0:0:0:0:
116,340,147254,1,8,0:0:0:0:
104,324,147331,5,10,0:0:0:0:
47,280,147407,1,8,0:0:0:0:
21,214,147484,1,8,0:0:0:0:
30,195,147563,5,10,0:0:0:0:
39,124,147639,1,8,0:0:0:0:
100,168,147716,6,0,B|156:180|220:152|224:88|224:88|204:104|160:108,1,216.000008239746,6|0,1:0|0:0,0:0:0:0:
256,212,148331,6,0,P|171:139|173:28,1,230.39999296875,0|10,0:0|0:1,0:0:0:0:
456,88,148947,6,0,B|460:120|460:120|468:144|468:144|464:160|464:160|468:200|468:200|464:220|464:220|472:240|472:240|476:288,1,172.799994726563,0|0,1:0|0:0,0:0:0:0:
479,358,149255,6,0,P|472:345|468:332,1,28.7999991210938
445,358,149332,2,0,P|446:344|449:330,1,28.7999991210938
416,348,149408,2,0,P|424:336|434:325,1,28.7999991210938
396,323,149485,2,0,P|409:316|423:312,1,28.7999991210938
473,256,149562,6,0,B|478:207|478:207|433:159,1,96,8|0,1:0|0:0,0:0:0:0:
243,149,149870,2,0,B|266:192|266:192|312:200,1,96
491,101,150178,1,0,0:0:0:0:
491,101,150331,2,0,B|446:80|446:80|404:100,1,96,0|0,0:0|1:0,0:0:0:0:
320,286,150639,1,0,0:0:0:0:
320,286,150793,2,0,B|368:276|368:276|390:235,1,96,8|0,1:0|0:0,0:0:0:0:
350,35,151101,2,0,B|316:71|316:71|322:117,1,96
243,149,151408,6,0,B|228:64|228:64|132:8,1,172.799994726563,0|0,1:0|0:0,0:0:0:0:
92,68,151716,6,0,L|56:72,1,28.7999991210938
84,104,151793,2,0,L|48:108,1,28.7999991210938
140,156,151870,6,0,L|176:160,1,28.7999991210938,0|0,1:0|0:0,0:0:0:0:
148,192,151947,2,0,L|184:196,1,28.7999991210938
88,244,152024,6,0,B|84:348,1,96,8|0,1:0|0:0,0:0:0:0:
324,348,152331,2,0,B|327:252,1,96
164,268,152639,5,0,1:0:0:0:
164,268,152793,2,0,B|160:344|160:344|180:372,2,96,0|2|0,0:0|0:0|0:0,0:0:0:0:
244,324,153255,5,0,1:0:0:0:
244,324,153409,2,0,B|248:248|248:248|228:220,2,96,0|2|0,0:0|0:0|0:0,0:0:0:0:
152,128,153870,6,0,P|200:180|320:160,1,172.799994726563,2|0,1:0|0:0,0:0:0:0:
400,176,154178,6,0,P|387:169|373:164,1,28.7999991210938,2|0,0:1|0:0,0:0:0:0:
400,143,154255,2,0,P|385:143|371:146,1,28.7999991210938
389,114,154331,2,0,P|376:121|365:131,1,28.7999991210938
365,94,154408,2,0,P|358:106|353:120,1,28.7999991210938
296,178,154485,6,0,P|272:128|284:76,1,96,10|0,0:0|0:0,0:0:0:0:
460,56,154793,2,0,P|484:106|472:158,1,96,2|0,0:1|0:0,0:0:0:0:
408,348,155101,6,0,B|383:307|383:307|391:248,1,96,2|0,0:1|0:0,0:0:0:0:
464,292,155408,6,0,B|520:300|520:300|320:316,1,216.000008239746,2|0,1:0|0:0,0:0:0:0:
284,308,155716,6,0,B|340:316|340:316|140:332,1,216.000008239746,2|0,1:0|0:0,0:0:0:0:
104,324,156024,6,0,B|160:332|160:332|-40:348,1,216.000008239746,2|0,1:0|0:0,0:0:0:0:
28,260,156331,6,0,P|88:208|52:88,1,192,2|2,1:0|0:1,0:0:0:0:
70,114,156716,1,0,0:0:0:0:
68,123,156793,1,0,1:0:0:0:
66,132,156870,1,0,0:0:0:0:
64,141,156947,1,10,0:1:0:0:
160,248,157101,1,0,1:0:0:0:
280,172,157255,2,0,P|332:156|384:164,1,96,0|0,1:0|1:0,0:0:0:0:
436,288,157562,5,0,1:0:0:0:
436,288,157716,1,0,1:0:0:0:
436,288,157870,2,0,L|300:272,1,96,0|0,0:0|1:0,0:0:0:0:
321,274,158101,1,0,0:0:0:0:
301,271,158178,2,0,L|309:336,1,48,2|0,0:0|0:0,0:0:0:0:
228,304,158331,2,0,L|222:256,1,48,2|0,0:0|0:0,0:0:0:0:
192,372,158485,5,2,0:0:0:0:
212,124,158639,1,2,0:0:0:0:
0,208,158793,6,0,B|44:204|44:204|72:212|72:212|96:200|96:200|196:192,1,172.799994726563,4|0,1:0|0:0,0:0:0:0:
212,124,159101,6,0,P|214:109|219:96,1,28.7999991210938
241,92,159178,2,0,P|250:81|261:71,1,28.7999991210938
285,84,159255,2,0,P|298:79|312:76,1,28.7999991210938
329,99,159331,2,0,P|343:101|356:106,1,28.7999991210938
280,160,159408,6,0,B|274:208|274:208|319:256,1,96,8|0,0:0|0:0,0:0:0:0:
510,267,159716,2,0,B|486:223|486:223|440:215,1,96
262,315,160024,1,0,0:0:0:0:
262,315,160177,2,0,B|306:335|306:335|348:315,1,96,0|0,0:0|1:0,0:0:0:0:
433,130,160485,1,0,0:0:0:0:
433,130,160639,2,0,B|384:139|384:139|362:180,1,96,8|0,0:0|0:0,0:0:0:0:
403,381,160947,2,0,B|436:344|436:344|430:298,1,96
349,314,161255,6,0,B|320:348|320:348|160:364,1,172.799994726563,0|0,1:0|0:0,0:0:0:0:
120,320,161562,6,0,L|116:360,1,28.7999991210938
112,296,161639,2,0,L|108:336,1,28.7999991210938
40,244,161716,6,0,L|44:284,1,28.7999991210938,0|0,1:0|0:0,0:0:0:0:
48,220,161793,2,0,L|52:260,1,28.7999991210938
124,188,161870,6,0,B|112:140|112:140|132:88,1,96,8|0,0:0|0:0,0:0:0:0:
276,20,162178,2,0,B|288:68|288:68|268:120,1,96
196,144,162485,5,0,1:0:0:0:
128,96,162639,2,0,L|8:84,2,96
203,63,163101,5,0,1:0:0:0:
271,111,163255,2,0,L|391:123,2,96
464,88,163716,6,0,B|488:64|476:40|444:36|432:60|432:60|476:128|424:184,1,216.000008239746,4|0,1:0|0:0,0:0:0:0:
366,120,164024,2,0,P|344:72|344:48,1,57.5999982421876,0|0,1:0|0:0,0:0:0:0:
216,164,164178,2,0,P|194:116|194:92,1,57.5999982421876
66,208,164331,6,0,P|44:160|44:136,1,57.5999982421876,0|0,1:0|0:0,0:0:0:0:
80,56,164485,2,0,P|80:64|76:84,2,28.7999991210938
172,240,164639,6,0,P|202:196|223:184,1,57.5999982421876,0|0,1:0|0:0,0:0:0:0:
310,176,164793,2,0,P|303:180|283:186,2,28.7999991210938
197,347,164947,5,4,1:0:0:0:
254,349,165023,1,0,1:0:0:0:
312,351,165100,1,0,1:0:0:0:
369,353,165177,1,0,1:0:0:0:
427,355,165254,1,0,1:0:0:0:
252,264,165408,1,0,1:0:0:0:
488,184,165562,2,0,L|480:300,1,115.199996484375,2|0,1:0|1:0,0:0:0:0:
364,136,165870,5,8,0:0:0:0:
368,160,165947,1,8,0:0:0:0:
340,200,166024,1,8,0:0:0:0:
336,224,166101,1,8,0:0:0:0:
384,260,166178,5,0,0:0:0:0:
256,192,166255,12,2,168639,0:0:0:0:
132,324,178485,6,0,P|208:316|296:300,1,144.000005493164,8|0,0:0|0:0,0:0:0:0:
460,17,178793,2,0,P|472:88|480:160,1,144.000005493164,8|0,0:0|0:0,0:0:0:0:
28,196,179101,6,0,P|98:208|170:215,1,144.000005493164,8|0,0:0|0:0,0:0:0:0:
384,96,179408,2,0,P|376:172|360:260,1,144.000005493164,8|2,0:0|0:0,0:0:0:0:
92,28,179716,6,0,P|100:104|116:192,1,144.000005493164,10|0,0:0|0:0,0:0:0:0:
496,304,180024,2,0,P|425:316|353:323,1,144.000005493164,8|0,0:0|0:0,0:0:0:0:
32,312,180331,2,0,P|103:304|174:292,1,144.000005493164,8|0,0:0|0:0,0:0:0:0:
272,232,180639,2,0,P|264:308|248:396,1,144.000005493164,10|10,0:0|0:0,0:0:0:0:
304,348,180870,1,10,0:0:0:0:
353,323,180947,6,0,P|424:330|495:342,1,144.000005493164,12|0,0:1|0:0,0:0:0:0:
280,104,181255,2,0,P|351:96|422:84,1,144.000005493164,8|0,0:0|0:0,0:0:0:0:
144,288,181562,6,0,P|214:275|286:268,1,144.000005493164,10|0,0:0|0:0,0:0:0:0:
0,144,181870,2,0,P|70:156|142:163,1,144.000005493164,8|0,0:0|0:0,0:0:0:0:
422,84,182178,6,0,P|409:154|402:226,1,144.000005493164,10|0,0:0|0:0,0:0:0:0:
232,360,182485,2,0,P|219:289|212:217,1,144.000005493164,10|0,0:0|0:0,0:0:0:0:
123,20,182793,6,0,P|135:90|142:162,1,144.000005493164,10|0,0:0|0:0,0:0:0:0:
304,276,183101,2,0,P|316:205|323:133,1,144.000005493164,8|8,0:0|0:0,0:0:0:0:
320,112,183331,1,8,0:0:0:0:
316,92,183408,5,10,0:0:0:0:
142,162,183562,1,8,0:0:0:0:
260,32,183716,5,10,0:0:0:0:
176,232,183870,1,8,0:0:0:0:
184,16,184024,5,10,0:0:0:0:
252,256,184178,1,8,0:0:0:0:
108,36,184331,5,10,0:0:0:0:
328,232,184485,1,8,0:0:0:0:
64,104,184639,5,10,0:0:0:0:
428,40,184793,1,8,0:0:0:0:
84,180,184947,5,10,0:0:0:0:
468,160,185101,1,8,0:0:0:0:
64,256,185255,5,10,0:0:0:0:
444,280,185408,1,8,0:0:0:0:
8,312,185562,5,10,0:0:0:0:
368,372,185716,1,8,0:0:0:0:
312,24,185870,5,10,0:0:0:0:
281,44,185946,1,8,0:0:0:0:
248,57,186023,1,8,0:0:0:0:
212,61,186100,1,8,0:0:0:0:
172,104,186178,5,8,0:0:0:0:
226,110,186255,1,8,0:0:0:0:
276,129,186332,1,8,0:0:0:0:
322,159,186408,1,8,0:0:0:0:
376,172,186485,5,10,0:0:0:0:
314,212,186561,1,8,0:0:0:0:
248,238,186638,1,8,0:0:0:0:
176,246,186715,1,8,0:0:0:0:
124,280,186793,6,0,L|112:332,1,36.0000013732911,8|0,0:0|0:0,0:0:0:0:
214,290,186870,6,0,L|184:340,1,36.0000013732911
297,322,186947,6,0,L|252:360,1,36.0000013732911
374,372,187024,6,0,L|336:384,1,36.0000013732911
256,384,187101,5,2,0:0:0:0:
368,272,187408,2,0,L|468:256,1,96,2|0,0:0|0:0,0:0:0:0:
180,208,187716,2,0,L|-29:174,1,144.000005493164,2|0,0:0|0:0,0:0:0:0:
320,72,188024,2,2,L|526:38,1,192,10|0,0:1|0:0,0:1:0:0:
328,152,188331,6,0,B|270:164|218:116|258:104|202:52|145:69,1,216.000008239746,6|2,1:0|0:0,0:0:0:0:
118,80,188638,1,8,1:0:0:0:
264,232,188793,6,0,B|206:220|154:268|194:280|138:332|81:315,1,216.000008239746,2|2,1:0|0:0,0:0:0:0:
54,304,189100,1,8,1:0:0:0:
92,168,189255,6,0,P|100:224|104:280,1,72.0000027465821,2|0,1:0|0:0,0:0:0:0:
236,384,189408,2,0,P|239:348|245:312,1,72.0000027465821,2|2,0:1|0:0,0:0:0:0:
388,24,189562,6,0,B|376:82|424:134|436:94|488:150|471:207,1,216.000008239746,6|2,1:0|0:0,0:0:0:0:
460,234,189869,1,8,1:0:0:0:
317,102,190024,6,0,B|329:160|281:212|269:172|217:228|234:285,1,216.000008239746,2|2,1:0|0:0,0:0:0:0:
245,312,190331,1,8,1:0:0:0:
388,276,190485,6,0,P|324:272|280:276,1,72.0000027465821,2|0,1:0|0:0,0:0:0:0:
84,232,190639,2,0,P|119:231|155:228,1,72.0000027465821,2|0,1:0|0:0,0:0:0:0:
300,192,190793,6,0,B|358:204|410:156|370:144|426:92|483:109,1,216.000008239746,6|2,1:0|0:0,0:0:0:0:
510,120,191100,1,8,1:0:0:0:
24,68,191255,6,0,B|82:56|134:104|94:116|150:168|207:151,1,216.000008239746,2|2,1:0|0:0,0:0:0:0:
234,140,191562,1,8,1:0:0:0:
180,0,191716,6,0,P|184:60|184:100,1,72.0000027465821,2|0,1:0|0:0,0:0:0:0:
40,264,191870,2,0,P|36:324|36:364,1,72.0000027465821,2|2,0:1|0:0,0:0:0:0:
228,308,192024,6,0,B|216:250|264:198|276:238|328:182|311:125,1,216.000008239746,6|2,1:0|0:0,0:0:0:0:
300,98,192331,1,8,1:0:0:0:
116,356,192485,6,0,B|128:298|80:246|68:286|16:230|33:173,1,216.000008239746,2|2,1:0|0:0,0:0:0:0:
44,146,192792,1,8,1:0:0:0:
180,188,192947,2,0,P|144:191|108:193,1,72.0000027465821,2|0,1:0|0:0,0:0:0:0:
140,0,193101,1,10,0:0:0:0:
192,4,193178,1,8,0:0:0:0:
244,12,193255,6,0,L|251:127,1,72.0000027465821,6|0,1:0|0:0,0:0:0:0:
374,56,193408,5,0,0:0:0:0:
374,56,193485,1,0,1:0:0:0:
374,56,193562,2,0,L|298:143,1,72.0000027465821,8|0,1:0|0:0,0:0:0:0:
436,180,193716,2,0,L|320:187,1,72.0000027465821,2|0,1:0|0:0,0:0:0:0:
391,310,193870,6,0,L|304:234,1,72.0000027465821,6|0,1:0|0:0,0:0:0:0:
268,372,194024,5,0,0:0:0:0:
268,372,194101,1,0,1:0:0:0:
268,372,194178,2,0,L|260:256,1,72.0000027465821,10|0,1:2|0:0,0:0:0:0:
137,327,194332,2,0,L|213:240,1,72.0000027465821,2|0,1:0|0:0,0:0:0:0:
76,203,194486,6,0,L|191:196,1,72.0000027465821,6|0,1:0|0:0,0:0:0:0:
120,73,194639,5,0,0:0:0:0:
120,73,194716,1,2,0:1:0:0:
120,73,194793,2,0,L|207:149,1,72.0000027465821
337,263,194947,2,0,L|391:310,1,72.0000027465821,2|0,0:1|0:0,0:0:0:0:
76,203,195101,6,0,L|191:196,1,72.0000027465821,2|0,1:2|0:0,0:0:0:0:
364,184,195255,2,0,L|436:180,1,72.0000027465821,2|0,0:0|0:0,0:0:0:0:
137,327,195408,6,0,L|213:240,1,72.0000027465821,10|0,1:2|0:0,0:0:0:0:
327,110,195562,2,0,L|374:56,1,72.0000027465821,2|0,0:0|0:0,0:0:0:0:
268,372,195716,6,0,L|260:256,1,72.0000027465821,2|0,1:2|0:0,0:0:0:0:
248,83,195870,2,0,L|244:12,5,72.0000027465821,0|0|8|0|2|2,0:0|0:0|1:0|0:0|0:0|0:0,0:0:0:0:
337,263,196331,6,0,L|391:310,1,72.0000027465821,2|0,1:2|0:0,0:0:0:0:
174,120,196485,2,0,L|120:73,1,72.0000027465821,2|0,0:0|0:0,0:0:0:0:
364,184,196639,6,0,L|436:180,1,72.0000027465821,10|0,1:2|0:0,0:0:0:0:
147,199,196793,2,0,L|76:203,1,72.0000027465821,2|0,0:0|0:0,0:0:0:0:
256,192,196947,5,2,1:2:0:0:
47,205,197101,1,0,1:0:0:0:
256,192,197255,5,10,1:2:0:0:
268,372,197408,1,0,1:0:0:0:
256,192,197562,5,2,1:2:0:0:
465,179,197716,1,0,0:0:0:0:
465,179,197793,1,0,1:0:0:0:
465,179,197870,1,10,0:0:0:0:
256,192,198024,5,0,1:0:0:0:
244,12,198178,6,0,B|186:0|134:48|174:60|118:112|61:95,1,216.000008239746,6|2,1:0|0:0,0:0:0:0:
34,84,198485,1,8,1:0:0:0:
228,92,198639,6,0,B|286:80|338:128|298:140|354:192|411:175,1,216.000008239746,2|2,1:0|0:0,0:0:0:0:
438,164,198946,1,8,1:0:0:0:
396,24,199101,6,0,P|392:68|392:116,1,72.0000027465821,2|0,1:0|0:0,0:0:0:0:
116,172,199255,2,0,P|117:207|120:243,1,72.0000027465821,10|2,1:0|1:2,0:0:0:0:
300,327,199408,6,0,B|358:339|410:291|370:279|426:227|483:244,1,216.000008239746,6|2,1:0|0:0,0:0:0:0:
510,256,199715,1,8,1:0:0:0:
212,352,199870,6,0,B|154:364|102:316|142:304|86:252|29:269,1,216.000008239746,2|2,1:0|0:0,0:0:0:0:
2,280,200177,1,8,1:0:0:0:
324,248,200331,6,0,P|329:212|329:176,1,72.0000027465821,2|0,1:0|0:0,0:0:0:0:
188,8,200485,2,0,P|188:43|193:79,1,72.0000027465821,10|8,0:1|0:0,0:0:0:0:
416,110,200639,5,2,1:0:0:0:
360,100,200716,1,0,1:0:0:0:
304,92,200793,1,0,1:0:0:0:
260,128,200870,1,0,1:0:0:0:
216,164,200947,1,8,1:0:0:0:
52,0,201101,6,0,B|40:58|88:110|100:70|152:126|135:183,1,216.000008239746,2|2,1:0|0:0,0:0:0:0:
124,210,201408,1,8,1:0:0:0:
220,352,201562,6,0,P|272:360|316:360,1,72.0000027465821,2|0,1:0|0:0,0:0:0:0:
320,228,201716,2,0,P|355:225|391:219,1,72.0000027465821,10|0,1:0|0:0,0:0:0:0:
384,384,201870,6,0,B|372:326|420:274|432:314|484:258|467:201,1,216.000008239746,6|2,1:0|0:0,0:0:0:0:
456,174,202177,1,8,1:0:0:0:
324,64,202331,6,0,B|336:122|288:174|276:134|224:190|241:247,1,216.000008239746,2|2,1:0|0:0,0:0:0:0:
252,274,202638,1,8,1:0:0:0:
468,20,202793,6,0,P|412:28|348:32,1,72.0000027465821,2|10,1:2|0:0,0:0:0:0:
240,80,202947,2,0,P|204:76|168:70,1,72.0000027465821,10|10,0:0|0:0,0:0:0:0:
320,228,203101,5,2,1:2:0:0:
343,180,203178,1,0,1:0:0:0:
386,149,203255,1,0,1:0:0:0:
439,141,203332,1,0,1:0:0:0:
489,158,203408,1,10,0:1:0:0:
160,302,203562,6,0,P|152:270|128:294,1,72.0000027465821,2|0,1:0|0:0,0:0:0:0:
252,274,203716,1,2,1:2:0:0:
229,226,203793,1,0,1:0:0:0:
186,195,203870,1,0,1:0:0:0:
133,187,203947,1,0,1:0:0:0:
83,204,204023,1,10,0:1:0:0:
424,244,204178,1,2,1:0:0:0:
167,373,204331,6,0,P|166:337|159:301,1,72.0000027465821,2|0,1:1|0:0,0:0:0:0:
36,115,204485,1,0,1:0:0:0:
240,344,204639,6,0,P|248:309|251:273,1,72.0000027465821,8|0,1:0|0:0,0:0:0:0:
181,60,204793,1,2,1:0:0:0:
318,334,204947,6,0,P|335:302|347:268,1,72.0000027465821,10|0,1:0|0:0,0:0:0:0:
335,45,205101,1,0,1:0:0:0:
395,345,205255,6,0,P|419:318|440:289,1,72.0000027465821,10|0,1:0|0:0,0:0:0:0:
488,70,205409,1,0,1:0:0:0:
92,32,205562,5,10,1:2:0:0:
88,44,205639,1,0,1:0:0:0:
116,112,205716,5,8,1:0:0:0:
122,124,205793,1,0,1:0:0:0:
190,152,205870,5,10,1:2:0:0:
203,156,205947,1,0,1:0:0:0:
270,128,206024,5,8,1:0:0:0:
282,122,206101,1,0,1:0:0:0:
332,64,206178,5,10,0:0:0:0:
359,130,206254,1,8,0:0:0:0:
348,200,206331,1,8,0:0:0:0:
416,176,206408,5,10,0:0:0:0:
372,233,206484,1,8,0:0:0:0:
306,259,206561,1,8,0:0:0:0:
360,312,206640,5,10,0:0:0:0:
289,303,206716,1,8,0:0:0:0:
316,372,206793,6,0,B|201:365|201:365|172:368|172:368|156:362|156:362|77:356,1,216.000008239746,6|0,1:0|0:0,0:0:0:0:
101,358,207408,1,0,0:0:0:0:
60,256,207716,6,2,B|-28:284|-28:284|112:292,1,192,10|0,0:1|0:0,0:1:0:0:
180,296,208024,6,0,B|144:252|144:252|164:76,1,216.000008239746,4|0,1:0|0:0,0:0:0:0:
112,32,208331,6,0,B|156:12|156:12|228:28,1,96.0000036621095,2|0,0:1|0:0,0:0:0:0:
268,68,208537,2,0,B|288:112|288:112|272:184,1,96.0000036621095,2|0,0:1|0:0,0:0:0:0:
344,204,208742,2,0,B|388:184|388:184|460:200,1,96.0000036621095,2|0,0:1|0:0,0:0:0:0:
500,240,208948,2,0,B|520:284|520:284|504:356,1,96.0000036621095,2|0,0:1|0:0,0:0:0:0:
256,344,209255,6,0,L|256:92,1,192.000007324219,0|0,1:0|0:0,0:0:0:0:
216,88,209562,6,0,B|172:69|172:69|124:77,1,96.0000036621095,10|0,0:1|0:0,0:0:0:0:
296,88,209767,2,0,B|339:69|339:69|387:77,1,96.0000036621095,2|0,0:1|0:0,0:0:0:0:
184,200,209972,6,0,B|140:218|140:218|92:210,1,96.0000036621095,2|0,0:1|0:0,0:0:0:0:
328,200,210178,2,0,B|371:218|371:218|419:210,1,96.0000036621095,10|0,0:1|0:0,0:0:0:0:
332,296,210408,1,0,0:0:0:0:
332,296,210485,6,0,B|368:252|368:252|348:76,1,216.000008239746,0|0,1:0|0:0,0:0:0:0:
400,32,210793,6,0,B|356:12|356:12|284:28,1,96.0000036621095,10|0,0:1|0:0,0:0:0:0:
244,68,210999,2,0,B|224:112|224:112|240:184,1,96.0000036621095,2|0,0:1|0:0,0:0:0:0:
168,204,211204,2,0,B|124:184|124:184|52:200,1,96.0000036621095,2|0,0:1|0:0,0:0:0:0:
12,240,211408,2,0,B|-8:284|-8:284|8:356,2,96.0000036621095,10|0|0,1:0|1:0|1:0,0:0:0:0:
72,360,211716,6,0,B|120:356|120:356|144:364|144:364|172:352|172:352|224:348,1,144,0|0,1:0|0:0,0:0:0:0:
292,340,212024,1,2,0:0:0:0:
292,340,212178,1,0,0:0:0:0:
512,324,212331,6,0,B|464:328|464:328|440:320|440:320|412:332|412:332|360:336,1,144,8|0,0:0|0:0,0:0:0:0:
292,340,212639,2,0,L|296:284,1,48,2|2,0:0|0:0,0:0:0:0:
304,212,212793,2,0,L|308:156,1,48,2|2,0:0|0:0,0:0:0:0:
180,80,212947,6,0,B|216:124|216:124|200:292,1,192.000007324219,4|0,1:0|0:0,0:0:0:0:
168,332,213255,6,0,B|124:352|124:352|52:332,1,96.0000036621095,10|0,0:1|0:0,0:0:0:0:
28,272,213460,2,0,B|72:252|72:252|144:272,1,96.0000036621095,2|0,0:1|0:0,0:0:0:0:
140,152,213665,6,0,B|96:172|96:172|24:152,1,96.0000036621095,2|0,0:1|0:0,0:0:0:0:
0,92,213870,2,0,B|44:72|44:72|116:92,1,96.0000036621095,10|0,0:1|0:0,0:0:0:0:
256,40,214178,6,0,L|256:252,1,192.000007324219,0|0,1:0|0:0,0:0:0:0:
196,288,214485,6,0,B|172:248|172:248|180:196,1,96.0000036621095,10|0,0:1|0:0,0:0:0:0:
332,199,214690,2,0,B|340:248|340:248|316:288,1,96.0000036621095,2|0,0:1|0:0,0:0:0:0:
176,368,214896,6,0,B|135:345|135:345|116:296,1,96.0000036621095,2|0,0:1|0:0,0:0:0:0:
394,299,215101,2,0,B|376:345|376:345|336:368,1,96.0000036621095,10|0,0:1|0:0,0:0:0:0:
332,80,215331,5,0,0:0:0:0:
332,80,215408,2,0,B|296:124|296:124|312:292,1,192.000007324219,0|0,1:0|0:0,0:0:0:0:
344,332,215716,6,0,B|388:352|388:352|460:332,1,96.0000036621095,10|0,0:1|0:0,0:0:0:0:
484,272,215921,2,0,B|440:252|440:252|368:272,1,96.0000036621095,2|0,0:1|0:0,0:0:0:0:
372,152,216126,6,0,B|416:172|416:172|488:152,1,96.0000036621095,2|0,0:1|0:0,0:0:0:0:
512,92,216331,2,0,B|468:72|468:72|396:92,2,96.0000036621095,8|0|0,1:0|1:0|1:0,0:0:0:0:
332,80,216639,5,0,1:0:0:0:
332,80,216793,6,0,L|200:88,1,72.0000027465821,2|0,0:1|0:0,0:0:0:0:
176,248,216947,2,0,L|168:116,1,72.0000027465821,2|0,0:1|0:0,0:0:0:0:
0,100,217101,2,0,L|71:95,1,72.0000027465821,2|0,0:1|0:0,0:0:0:0:
168,88,217255,5,8,0:0:0:0:
168,88,217357,2,0,B|184:44|184:44|160:-12,1,96.0000036621095
88,176,217562,1,0,0:0:0:0:
88,176,217664,2,0,B|72:220|72:220|96:276,1,96.0000036621095
188,344,217870,6,0,L|424:332,1,192.000007324219,4|0,1:0|0:0,0:0:0:0:
456,360,218178,2,0,B|480:320|480:320|460:200,1,144.000005493164,10|0,1:0|0:0,0:0:0:0:
448,220,218383,1,2,1:1:0:0:
432,216,218434,1,0,1:0:0:0:
416,212,218485,2,0,B|399:115|399:115|423:75,1,144.000005493164,0|0,1:0|0:0,0:0:0:0:
440,56,218690,1,0,1:0:0:0:
456,36,218741,1,0,1:0:0:0:
472,16,218793,2,0,L|312:8,1,144.000005493164,10|0,1:0|0:0,0:0:0:0:
280,108,218998,6,0,B|268:88|268:88|270:63,1,48.0000018310548,2|0,0:0|0:0,0:0:0:0:
352,136,219101,6,0,L|116:148,1,192.000007324219,0|0,1:0|0:0,0:0:0:0:
16,196,219408,6,0,B|1:127|1:127|38:53,1,144.000005493164,10|0,1:0|0:0,0:0:0:0:
63,63,219613,1,2,1:1:0:0:
92,67,219665,1,0,1:0:0:0:
120,69,219716,2,0,B|134:137|134:137|97:211,1,144.000005493164,0|0,1:0|0:0,0:0:0:0:
52,272,219921,1,0,1:0:0:0:
52,272,219972,1,0,1:0:0:0:
52,272,220024,2,0,P|128:284|180:228,1,144.000005493164,10|0,1:0|0:0,0:0:0:0:
248,272,220229,6,0,P|252:304|264:332,1,48.0000018310548,2|0,0:0|0:0,0:0:0:0:
328,280,220331,6,0,L|344:56,1,192.000007324219,0|0,1:0|0:0,0:0:0:0:
380,8,220639,2,0,B|421:69|421:69|417:139,1,144.000005493164,10|0,1:0|0:0,0:0:0:0:
414,162,220844,1,2,1:1:0:0:
413,186,220896,1,0,1:0:0:0:
410,209,220947,2,0,B|405:278|405:278|447:340,1,144.000005493164,0|0,1:0|0:0,0:0:0:0:
413,334,221152,1,0,1:0:0:0:
380,328,221203,1,0,1:0:0:0:
345,321,221255,2,0,B|274:309|274:309|190:352,1,144.000005493164,10|0,1:0|0:0,0:0:0:0:
144,304,221460,6,0,B|132:324|132:324|134:348,1,48.0000018310548,2|0,1:0|0:0,0:0:0:0:
64,376,221562,5,0,1:0:0:0:
264,204,221716,1,0,0:0:0:0:
209,341,221870,1,2,0:0:0:0:
60,196,222024,2,0,L|68:248,1,48
72,273,222178,2,0,P|142:287|207:260,1,144,8|0,0:0|0:0,0:0:0:0:
264,204,222485,6,0,P|232:188|188:184,1,48,2|0,0:0|0:0,0:0:0:0:
192,116,222639,2,0,P|169:122|148:134,1,48
136,209,222793,6,0,B|108:177|108:177|101:27,1,140.800004296875,4|0,1:0|0:0,0:0:0:0:
36,0,223101,6,0,B|88:4|88:4|112:0|112:0|128:8|128:8|220:16,1,128,2|0,1:0|0:0,0:0:0:0:
232,48,223306,2,0,B|284:52|284:52|308:48|308:48|324:56|324:56|416:64,1,128,2|0,1:0|0:0,0:0:0:0:
48,148,223511,6,0,B|100:152|100:152|124:148|124:148|140:156|140:156|232:164,1,128,2|0,1:0|0:0,0:0:0:0:
336,212,223716,2,0,B|388:216|388:216|412:212|412:212|428:220|428:220|520:228,1,128,2|0,1:0|0:0,0:0:0:0:
60,296,223921,6,0,B|112:300|112:300|136:296|136:296|152:304|152:304|244:312,1,128,2|4,1:0|1:0,0:0:0:0:
440,376,224126,5,0,1:0:0:0:
438,350,224229,1,0,1:0:0:0:
360,372,224331,5,0,1:0:0:0:
356,333,224434,1,0,1:0:0:0:
352,294,224537,1,0,1:0:0:0:
280,368,224639,5,4,1:0:0:0:
275,316,224742,1,0,1:0:0:0:
270,264,224844,1,0,1:0:0:0:
200,364,224947,5,0,1:0:0:0:
193,300,225049,1,0,1:0:0:0:
186,236,225152,1,0,1:0:0:0:
436,324,225255,5,4,1:0:0:0:
256,192,225331,12,0,230178,0:0:0:0:
256,192,230255,12,0,235101,0:0:0:0:
