osu file format v14

[General]
AudioFilename: audio.mp3
AudioLeadIn: 0
PreviewTime: 51750
Countdown: 0
SampleSet: Soft
StackLeniency: 0.7
Mode: 3
LetterboxInBreaks: 0
SpecialStyle: 0
WidescreenStoryboard: 0

[Editor]
DistanceSpacing: 0.8
BeatDivisor: 4
GridSize: 32
TimelineZoom: 2.3

[Metadata]
Title:Destroy
TitleUnicode:Destroy
Artist:Yooh
ArtistUnicode:Yooh
Creator:SpectorDG
Version:Wonki's BASIC
Source:SOUND VOLTEX III GRAVITY WARS
Tags:KONAMI SDVX 3 Tsumabuki Left 孤独な決意 13th Episode Wonki Virtue- supekuta Wadu eon 嬬武器烈風刀 BEMANI Video Game Electronic Instrumental
BeatmapID:1128973
BeatmapSetID:532375

[Difficulty]
HPDrainRate:7
CircleSize:4
OverallDifficulty:7
ApproachRate:5
SliderMultiplier:1.4
SliderTickRate:1

[Events]
//Background and Video events
0,0,"BG.jpg",0,0
//Break Periods
//Storyboard Layer 0 (Background)
//Storyboard Layer 1 (Fail)
//Storyboard Layer 2 (Pass)
//Storyboard Layer 3 (Foreground)
//Storyboard Layer 4 (Overlay)
//Storyboard Sound Samples

[TimingPoints]
2520,307.692307692308,4,2,1,50,1,0
51750,-100.0,4,2,1,50,0,1
89904,-100.0,4,2,1,50,0,0

[HitObjects]
320,192,1289,128,0,2519:0:0:0:0:
64,192,2519,1,2,0:0:0:0:
448,192,2519,128,4,2827:0:0:0:0:
448,192,2981,128,6,3289:0:0:0:0:
448,192,3443,1,6,0:0:0:0:
192,192,3750,1,2,0:0:0:0:
320,192,4366,128,10,4673:0:0:0:0:
192,192,4673,128,0,4981:0:0:0:0:
64,192,4981,1,4,0:0:0:0:
448,192,4981,128,2,5289:0:0:0:0:
448,192,5443,128,6,5750:0:0:0:0:
448,192,5904,1,6,0:0:0:0:
192,192,6212,1,2,0:0:0:0:
320,192,6520,1,0,0:0:0:0:
192,192,6827,128,10,7135:0:0:0:0:
320,192,7135,128,0,7443:0:0:0:0:
64,192,7443,1,2,0:0:0:0:
448,192,7443,128,4,7750:0:0:0:0:
448,192,7904,128,6,8212:0:0:0:0:
448,192,8366,1,6,0:0:0:0:
64,192,8673,128,6,8981:0:0:0:0:
448,192,8981,1,8,0:0:0:0:
64,192,9289,1,10,0:0:0:0:
320,192,9596,1,8,0:0:0:0:
192,192,9904,128,10,10314:0:0:0:0:
320,192,10520,128,10,10930:0:0:0:0:
64,192,11135,128,12,11750:0:0:0:0:
448,192,11750,1,12,0:0:0:0:
320,192,12058,1,0,0:0:0:0:
64,192,12366,1,2,0:0:0:0:
448,192,12366,1,4,0:0:0:0:
192,192,12981,1,0,0:0:0:0:
320,192,13596,1,0,0:0:0:0:
448,192,14212,1,0,0:0:0:0:
320,192,14827,1,0,0:0:0:0:
192,192,15443,1,0,0:0:0:0:
64,192,16058,1,0,0:0:0:0:
320,192,16673,1,0,0:0:0:0:
64,192,16981,1,0,0:0:0:0:
192,192,17289,1,0,0:0:0:0:
448,192,17904,1,0,0:0:0:0:
64,192,18520,1,0,0:0:0:0:
320,192,19135,1,0,0:0:0:0:
192,192,19750,1,0,0:0:0:0:
448,192,20366,1,0,0:0:0:0:
320,192,20673,1,0,0:0:0:0:
192,192,20981,128,2,21596:0:0:0:0:
320,192,21596,128,2,22212:0:0:0:0:
64,192,22212,1,6,0:0:0:0:
64,192,22520,128,0,22827:0:0:0:0:
448,192,22827,1,0,0:0:0:0:
448,192,23135,128,0,23443:0:0:0:0:
192,192,23443,1,0,0:0:0:0:
192,192,23750,128,0,24058:0:0:0:0:
320,192,24058,1,0,0:0:0:0:
320,192,24366,128,0,24673:0:0:0:0:
192,192,24673,1,0,0:0:0:0:
64,192,24981,128,0,25289:0:0:0:0:
320,192,25289,1,0,0:0:0:0:
448,192,25596,128,0,25904:0:0:0:0:
64,192,25904,1,0,0:0:0:0:
192,192,26212,128,0,26520:0:0:0:0:
448,192,26520,1,0,0:0:0:0:
320,192,26827,128,0,27135:0:0:0:0:
64,192,27135,128,10,28366:0:0:0:0:
448,192,27443,1,10,0:0:0:0:
320,192,27750,1,10,0:0:0:0:
192,192,28058,1,10,0:0:0:0:
448,192,28366,128,10,29596:0:0:0:0:
192,192,28673,1,10,0:0:0:0:
64,192,28981,1,10,0:0:0:0:
320,192,29289,1,8,0:0:0:0:
192,192,29596,128,8,30212:0:0:0:0:
448,192,29904,1,8,0:0:0:0:
448,192,30212,128,8,30827:0:0:0:0:
64,192,30520,1,8,0:0:0:0:
192,192,30827,128,0,31443:0:0:0:0:
448,192,31443,1,10,0:0:0:0:
320,192,31750,1,10,0:0:0:0:
64,192,32058,1,2,0:0:0:0:
192,192,32058,1,4,0:0:0:0:
448,192,32366,128,2,32981:0:0:0:0:
64,192,33289,1,2,0:0:0:0:
192,192,33289,1,4,0:0:0:0:
448,192,33596,128,2,34212:0:0:0:0:
64,192,34520,1,4,0:0:0:0:
192,192,34520,1,2,0:0:0:0:
448,192,34827,128,2,35443:0:0:0:0:
192,192,35750,1,6,0:0:0:0:
320,192,36058,1,0,0:0:0:0:
192,192,36366,1,10,0:0:0:0:
448,192,36673,1,0,0:0:0:0:
64,192,36981,1,2,0:0:0:0:
192,192,36981,1,4,0:0:0:0:
320,192,37289,128,2,37904:0:0:0:0:
64,192,38212,1,2,0:0:0:0:
192,192,38212,1,0,0:0:0:0:
320,192,38520,128,2,39135:0:0:0:0:
64,192,39443,1,4,0:0:0:0:
192,192,39443,1,2,0:0:0:0:
320,192,39750,128,2,40366:0:0:0:0:
64,192,40366,1,2,0:0:0:0:
64,192,40673,1,6,0:0:0:0:
192,192,40981,1,0,0:0:0:0:
448,192,41289,1,10,0:0:0:0:
320,192,41596,1,0,0:0:0:0:
64,192,41904,1,4,0:0:0:0:
192,192,41904,1,2,0:0:0:0:
448,192,42212,128,2,42827:0:0:0:0:
64,192,43135,1,2,0:0:0:0:
192,192,43135,1,4,0:0:0:0:
320,192,43443,128,2,44058:0:0:0:0:
64,192,44366,1,2,0:0:0:0:
192,192,44366,1,0,0:0:0:0:
448,192,44673,128,2,45289:0:0:0:0:
64,192,45289,1,2,0:0:0:0:
192,192,45596,1,6,0:0:0:0:
64,192,45904,1,0,0:0:0:0:
320,192,46212,1,10,0:0:0:0:
192,192,46520,1,0,0:0:0:0:
320,192,46827,1,4,0:0:0:0:
448,192,46827,1,2,0:0:0:0:
64,192,47135,128,2,47750:0:0:0:0:
448,192,47750,128,2,48366:0:0:0:0:
192,192,48366,128,2,48981:0:0:0:0:
320,192,48981,1,2,0:0:0:0:
64,192,49289,1,8,0:0:0:0:
448,192,49289,1,2,0:0:0:0:
192,192,49596,1,8,0:0:0:0:
448,192,49904,1,8,0:0:0:0:
64,192,50212,1,8,0:0:0:0:
320,192,50520,1,8,0:0:0:0:
192,192,50827,1,8,0:0:0:0:
64,192,51135,128,8,51443:0:0:0:0:
320,192,51443,128,0,51750:0:0:0:0:
64,192,51750,1,2,0:0:0:0:
192,192,51750,1,4,0:0:0:0:
320,192,52058,1,10,0:0:0:0:
448,192,52366,1,2,0:0:0:0:
64,192,52673,1,10,0:0:0:0:
320,192,52981,1,2,0:0:0:0:
192,192,53289,1,10,0:0:0:0:
448,192,53596,128,2,53904:0:0:0:0:
64,192,53904,128,10,54212:0:0:0:0:
320,192,54212,1,2,0:0:0:0:
448,192,54520,1,10,0:0:0:0:
192,192,54827,1,2,0:0:0:0:
320,192,55135,1,10,0:0:0:0:
64,192,55443,128,2,56058:0:0:0:0:
448,192,56058,128,2,56673:0:0:0:0:
192,192,56673,1,2,0:0:0:0:
320,192,56904,1,0,0:0:0:0:
192,192,57135,1,2,0:0:0:0:
320,192,57366,1,0,0:0:0:0:
64,192,57596,1,10,0:0:0:0:
320,192,57904,1,2,0:0:0:0:
192,192,58135,1,0,0:0:0:0:
320,192,58366,1,2,0:0:0:0:
192,192,58596,1,0,0:0:0:0:
448,192,58827,1,10,0:0:0:0:
64,192,59135,1,2,0:0:0:0:
192,192,59366,1,2,0:0:0:0:
320,192,59596,1,0,0:0:0:0:
448,192,59750,1,2,0:0:0:0:
320,192,59981,1,2,0:0:0:0:
192,192,60212,1,0,0:0:0:0:
64,192,60366,1,2,0:0:0:0:
64,192,60673,1,10,0:0:0:0:
320,192,60981,128,2,61289:0:0:0:0:
192,192,61289,128,10,61596:0:0:0:0:
64,192,61596,1,2,0:0:0:0:
448,192,61596,1,4,0:0:0:0:
320,192,61904,1,10,0:0:0:0:
64,192,62212,1,2,0:0:0:0:
192,192,62520,1,10,0:0:0:0:
320,192,62827,1,2,0:0:0:0:
448,192,63135,1,10,0:0:0:0:
192,192,63443,128,2,63750:0:0:0:0:
320,192,63750,128,10,64058:0:0:0:0:
64,192,64058,1,2,0:0:0:0:
448,192,64366,1,10,0:0:0:0:
320,192,64673,1,2,0:0:0:0:
192,192,64981,1,10,0:0:0:0:
448,192,65289,128,2,65904:0:0:0:0:
64,192,65904,128,2,66520:0:0:0:0:
448,192,66520,1,2,0:0:0:0:
192,192,66750,1,2,0:0:0:0:
448,192,66981,1,2,0:0:0:0:
192,192,67212,1,2,0:0:0:0:
448,192,67443,1,10,0:0:0:0:
64,192,67750,1,2,0:0:0:0:
320,192,67981,1,2,0:0:0:0:
64,192,68212,1,2,0:0:0:0:
320,192,68443,1,2,0:0:0:0:
192,192,68673,1,10,0:0:0:0:
448,192,68981,128,2,69289:0:0:0:0:
192,192,69289,1,10,0:0:0:0:
448,192,69596,128,2,69904:0:0:0:0:
64,192,69904,1,10,0:0:0:0:
320,192,70212,1,2,0:0:0:0:
192,192,70520,1,10,0:0:0:0:
64,192,70827,1,2,0:0:0:0:
448,192,71135,1,2,0:0:0:0:
192,192,71443,128,6,71673:0:0:0:0:
448,192,71673,1,2,0:0:0:0:
192,192,71904,128,2,72135:0:0:0:0:
448,192,72135,1,2,0:0:0:0:
64,192,72366,1,2,0:0:0:0:
192,192,72520,1,0,0:0:0:0:
320,192,72673,128,2,72904:0:0:0:0:
64,192,72904,1,2,0:0:0:0:
320,192,73135,128,2,73366:0:0:0:0:
64,192,73366,1,2,0:0:0:0:
448,192,73596,1,2,0:0:0:0:
320,192,73750,1,2,0:0:0:0:
64,192,73904,128,2,74135:0:0:0:0:
320,192,74135,1,2,0:0:0:0:
64,192,74366,128,2,74596:0:0:0:0:
320,192,74596,1,2,0:0:0:0:
64,192,74827,1,2,0:0:0:0:
192,192,74981,1,0,0:0:0:0:
448,192,75135,128,2,75366:0:0:0:0:
192,192,75366,1,2,0:0:0:0:
448,192,75596,128,2,75827:0:0:0:0:
192,192,75827,1,2,0:0:0:0:
448,192,76058,1,2,0:0:0:0:
320,192,76212,1,8,0:0:0:0:
64,192,76366,128,10,76981:0:0:0:0:
192,192,76981,128,2,77596:0:0:0:0:
448,192,77596,128,6,78212:0:0:0:0:
320,192,78212,1,2,0:0:0:0:
192,192,78366,1,0,0:0:0:0:
448,192,78520,1,10,0:0:0:0:
64,192,78673,1,0,0:0:0:0:
320,192,78827,1,2,0:0:0:0:
320,192,79135,1,10,0:0:0:0:
192,192,79443,1,2,0:0:0:0:
192,192,79750,1,10,0:0:0:0:
64,192,80058,128,2,80673:0:0:0:0:
448,192,80673,1,2,0:0:0:0:
64,192,80981,1,8,0:0:0:0:
192,192,80981,1,2,0:0:0:0:
320,192,81289,128,6,81520:0:0:0:0:
64,192,81520,1,2,0:0:0:0:
448,192,81750,128,2,81981:0:0:0:0:
192,192,81981,1,2,0:0:0:0:
64,192,82212,1,2,0:0:0:0:
320,192,82366,1,10,0:0:0:0:
192,192,82520,128,2,82750:0:0:0:0:
448,192,82750,1,2,0:0:0:0:
64,192,82981,128,2,83212:0:0:0:0:
320,192,83212,1,2,0:0:0:0:
448,192,83443,1,2,0:0:0:0:
320,192,83596,1,10,0:0:0:0:
64,192,83750,128,2,84058:0:0:0:0:
448,192,84212,128,2,84443:0:0:0:0:
192,192,84443,1,2,0:0:0:0:
64,192,84673,1,2,0:0:0:0:
320,192,84827,1,10,0:0:0:0:
192,192,84981,128,2,85212:0:0:0:0:
448,192,85212,1,2,0:0:0:0:
320,192,85443,128,2,85673:0:0:0:0:
64,192,85673,1,2,0:0:0:0:
448,192,85904,128,2,86212:0:0:0:0:
64,192,86212,128,10,86520:0:0:0:0:
448,192,86520,1,10,0:0:0:0:
192,192,86827,128,2,87135:0:0:0:0:
320,192,87135,1,10,0:0:0:0:
448,192,87443,1,14,0:0:0:0:
320,192,87750,1,10,0:0:0:0:
64,192,88058,1,10,0:0:0:0:
192,192,88366,1,10,0:0:0:0:
320,192,88673,1,10,0:0:0:0:
320,192,88981,1,10,0:0:0:0:
192,192,89289,128,10,89904:0:0:0:0:
320,192,89596,128,8,89904:0:0:0:0:
448,192,89904,128,4,90520:0:0:0:0:
64,192,90520,128,2,91135:0:0:0:0:
448,192,91135,128,0,91443:0:0:0:0:
192,192,91443,1,2,0:0:0:0:
320,192,91648,1,2,0:0:0:0:
192,192,91853,1,2,0:0:0:0:
320,192,92058,1,2,0:0:0:0:
64,192,92366,128,0,92673:0:0:0:0:
320,192,92673,1,2,0:0:0:0:
192,192,92878,1,2,0:0:0:0:
320,192,93084,1,2,0:0:0:0:
192,192,93289,1,2,0:0:0:0:
448,192,93596,128,6,93904:0:0:0:0:
64,192,93904,1,2,0:0:0:0:
192,192,94109,1,2,0:0:0:0:
320,192,94314,1,2,0:0:0:0:
448,192,94520,1,2,0:0:0:0:
64,192,94827,128,6,95135:0:0:0:0:
320,192,95135,128,0,95443:0:0:0:0:
192,192,95443,128,10,95750:0:0:0:0:
448,192,95750,128,0,96058:0:0:0:0:
64,192,96058,128,6,96366:0:0:0:0:
448,192,96366,1,2,0:0:0:0:
192,192,96571,1,2,0:0:0:0:
448,192,96776,1,2,0:0:0:0:
192,192,96981,1,2,0:0:0:0:
320,192,97289,128,0,97596:0:0:0:0:
64,192,97596,1,2,0:0:0:0:
448,192,97802,1,2,0:0:0:0:
64,192,98007,1,2,0:0:0:0:
448,192,98212,1,2,0:0:0:0:
192,192,98520,128,6,98827:0:0:0:0:
448,192,98827,1,2,0:0:0:0:
320,192,99032,1,2,0:0:0:0:
192,192,99237,1,2,0:0:0:0:
64,192,99443,128,2,99750:0:0:0:0:
448,192,99750,1,6,0:0:0:0:
320,192,99904,1,0,0:0:0:0:
64,192,100058,1,0,0:0:0:0:
192,192,100212,1,0,0:0:0:0:
448,192,100366,128,10,100673:0:0:0:0:
320,192,100673,128,0,100981:0:0:0:0:
64,192,100981,128,6,101289:0:0:0:0:
448,192,101289,1,2,0:0:0:0:
320,192,101596,1,2,0:0:0:0:
448,192,101904,1,2,0:0:0:0:
192,192,102212,128,6,102520:0:0:0:0:
320,192,102520,1,2,0:0:0:0:
64,192,102827,1,2,0:0:0:0:
320,192,103135,1,2,0:0:0:0:
448,192,103443,128,6,103750:0:0:0:0:
64,192,103750,1,2,0:0:0:0:
192,192,104058,1,2,0:0:0:0:
64,192,104366,128,2,104673:0:0:0:0:
320,192,104673,128,6,104981:0:0:0:0:
192,192,104981,1,0,0:0:0:0:
448,192,105289,1,10,0:0:0:0:
64,192,105596,1,0,0:0:0:0:
192,192,105750,1,0,0:0:0:0:
448,192,105904,128,6,106212:0:0:0:0:
64,192,106212,128,2,106417:0:0:0:0:
192,192,106417,128,2,106622:0:0:0:0:
320,192,106622,128,2,106827:0:0:0:0:
448,192,106827,128,2,107032:0:0:0:0:
64,192,107032,128,2,108366:0:0:0:0:
192,192,107750,128,6,108366:0:0:0:0:
320,192,108366,1,2,0:0:0:0:
448,192,108366,1,4,0:0:0:0:
64,192,108673,128,0,108981:0:0:0:0:
192,192,109289,128,0,109596:0:0:0:0:
320,192,109904,128,0,110212:0:0:0:0:
448,192,110520,128,0,110827:0:0:0:0:
64,192,111135,128,0,111443:0:0:0:0:
192,192,111750,128,0,112058:0:0:0:0:
320,192,112366,128,0,112673:0:0:0:0:
448,192,112981,128,0,113289:0:0:0:0:
64,192,113289,1,0,0:0:0:0:
