osu file format v14

[General]
AudioFilename: audio.mp3
AudioLeadIn: 0
PreviewTime: 51750
Countdown: 0
SampleSet: Soft
StackLeniency: 0.7
Mode: 3
LetterboxInBreaks: 0
SpecialStyle: 0
WidescreenStoryboard: 0

[Editor]
DistanceSpacing: 0.8
BeatDivisor: 4
GridSize: 32
TimelineZoom: 3.099998

[Metadata]
Title:Destroy
TitleUnicode:Destroy
Artist:Yooh
ArtistUnicode:Yooh
Creator:SpectorDG
Version:Virtue's ADVANCED
Source:SOUND VOLTEX III GRAVITY WARS
Tags:KONAMI SDVX 3 Tsumabuki Left 孤独な決意 13th Episode Wonki Virtue- supekuta Wadu eon 嬬武器烈風刀 BEMANI Video Game Electronic Instrumental
BeatmapID:3003029
BeatmapSetID:532375

[Difficulty]
HPDrainRate:8
CircleSize:4
OverallDifficulty:7.5
ApproachRate:5
SliderMultiplier:1.4
SliderTickRate:1

[Events]
//Background and Video events
0,0,"BG.jpg",0,0
//Break Periods
//Storyboard Layer 0 (Background)
//Storyboard Layer 1 (Fail)
//Storyboard Layer 2 (Pass)
//Storyboard Layer 3 (Foreground)
//Storyboard Layer 4 (Overlay)
//Storyboard Sound Samples

[TimingPoints]
2520,307.692307692308,4,2,1,50,1,0
3750,-58.8235294117647,4,2,1,50,0,0
3827,-333.333333333333,4,2,1,50,0,0
3904,-100,4,2,1,50,0,0
3981,-58.8235294117647,4,2,1,50,0,0
4058,-333.333333333333,4,2,1,50,0,0
4135,-100,4,2,1,50,0,0
4212,-58.8235294117647,4,2,1,50,0,0
4289,-333.333333333333,4,2,1,50,0,0
4366,-50,4,2,1,50,0,0
4404,-1000,4,2,1,50,0,0
4443,-50,4,2,1,50,0,0
4481,-1000,4,2,1,50,0,0
4520,-50,4,2,1,50,0,0
4558,-1000,4,2,1,50,0,0
4596,-50,4,2,1,50,0,0
4635,-1000,4,2,1,50,0,0
4673,-50,4,2,1,50,0,0
4712,-1000,4,2,1,50,0,0
4750,-50,4,2,1,50,0,0
4789,-1000,4,2,1,50,0,0
4827,-50,4,2,1,50,0,0
4866,-1000,4,2,1,50,0,0
4904,-50,4,2,1,50,0,0
4943,-1000,4,2,1,50,0,0
4981,-100,4,2,1,50,0,0
6212,-58.8235294117647,4,2,1,50,0,0
6289,-125,4,2,1,50,0,0
6366,-200,4,2,1,50,0,0
6443,-100,4,2,1,50,0,0
6520,-58.8235294117647,4,2,1,50,0,0
6558,-333.333333333333,4,2,1,50,0,0
6596,-100,4,2,1,50,0,0
6673,-58.8235294117647,4,2,1,50,0,0
6712,-333.333333333333,4,2,1,50,0,0
6750,-100,4,2,1,50,0,0
6827,-50,4,2,1,50,0,0
6866,-1000,4,2,1,50,0,0
6904,-50,4,2,1,50,0,0
6943,-1000,4,2,1,50,0,0
6981,-50,4,2,1,50,0,0
7020,-1000,4,2,1,50,0,0
7058,-50,4,2,1,50,0,0
7096,-1000,4,2,1,50,0,0
7135,-50,4,2,1,50,0,0
7173,-1000,4,2,1,50,0,0
7212,-50,4,2,1,50,0,0
7250,-1000,4,2,1,50,0,0
7289,-50,4,2,1,50,0,0
7327,-1000,4,2,1,50,0,0
7366,-50,4,2,1,50,0,0
7404,-1000,4,2,1,50,0,0
7443,-100,4,2,1,50,0,0
9904,-58.8235294117647,4,2,1,50,0,0
10007,-333.333333333333,4,2,1,50,0,0
10109,-58.8235294117647,4,2,1,50,0,0
10212,-333.333333333333,4,2,1,50,0,0
10314,-58.8235294117647,4,2,1,50,0,0
10417,-333.333333333333,4,2,1,50,0,0
10520,-58.8235294117647,4,2,1,50,0,0
10622,-333.333333333333,4,2,1,50,0,0
10725,-58.8235294117647,4,2,1,50,0,0
10827,-333.333333333333,4,2,1,50,0,0
10930,-58.8235294117647,4,2,1,50,0,0
11032,-333.333333333333,4,2,1,50,0,0
11135,-58.8235294117647,4,2,1,50,0,0
11186,-333.333333333333,4,2,1,50,0,0
11237,-58.8235294117647,4,2,1,50,0,0
11289,-333.333333333333,4,2,1,50,0,0
11340,-58.8235294117647,4,2,1,50,0,0
11391,-333.333333333333,4,2,1,50,0,0
11443,-58.8235294117647,4,2,1,50,0,0
11494,-333.333333333333,4,2,1,50,0,0
11545,-58.8235294117647,4,2,1,50,0,0
11596,-333.333333333333,4,2,1,50,0,0
11648,-58.8235294117647,4,2,1,50,0,0
11699,-333.333333333333,4,2,1,50,0,0
11750,-58.8235294117647,4,2,1,50,0,0
11827,-76.9230769230769,4,2,1,50,0,0
11904,-142.857142857143,4,2,1,50,0,0
11981,-333.333333333333,4,2,1,50,0,0
12058,-58.8235294117647,4,2,1,50,0,0
12135,-76.9230769230769,4,2,1,50,0,0
12212,-142.857142857143,4,2,1,50,0,0
12289,-333.333333333333,4,2,1,50,0,0
12366,-142.857142857143,4,2,1,50,0,0
16981,-140.845070422535,4,2,1,50,0,0
17097,-138.888888888889,4,2,1,50,0,0
17214,-136.986301369863,4,2,1,50,0,0
17331,-135.135135135135,4,2,1,50,0,0
17447,-133.333333333333,4,2,1,50,0,0
17564,-131.578947368421,4,2,1,50,0,0
17681,-129.87012987013,4,2,1,50,0,0
17798,-128.205128205128,4,2,1,50,0,0
17914,-126.582278481013,4,2,1,50,0,0
18031,-125,4,2,1,50,0,0
18148,-123.456790123457,4,2,1,50,0,0
18264,-121.951219512195,4,2,1,50,0,0
18381,-120.481927710843,4,2,1,50,0,0
18498,-119.047619047619,4,2,1,50,0,0
18615,-117.647058823529,4,2,1,50,0,0
18731,-116.279069767442,4,2,1,50,0,0
18848,-114.942528735632,4,2,1,50,0,0
18965,-113.636363636364,4,2,1,50,0,0
19082,-112.359550561798,4,2,1,50,0,0
19198,-111.111111111111,4,2,1,50,0,0
19315,-109.89010989011,4,2,1,50,0,0
19432,-108.695652173913,4,2,1,50,0,0
19548,-107.52688172043,4,2,1,50,0,0
19665,-106.382978723404,4,2,1,50,0,0
19782,-105.263157894737,4,2,1,50,0,0
19899,-104.166666666667,4,2,1,50,0,0
20015,-103.092783505155,4,2,1,50,0,0
20132,-102.040816326531,4,2,1,50,0,0
20249,-101.010101010101,4,2,1,50,0,0
20366,-100,4,2,1,50,0,0
20673,-50,4,2,1,50,0,0
20712,-1000,4,2,1,50,0,0
20750,-50,4,2,1,50,0,0
20789,-1000,4,2,1,50,0,0
20827,-50,4,2,1,50,0,0
20866,-1000,4,2,1,50,0,0
20904,-50,4,2,1,50,0,0
20943,-1000,4,2,1,50,0,0
20981,-58.8235294117647,4,2,1,50,0,0
21084,-333.333333333333,4,2,1,50,0,0
21186,-58.8235294117647,4,2,1,50,0,0
21289,-333.333333333333,4,2,1,50,0,0
21391,-58.8235294117647,4,2,1,50,0,0
21494,-333.333333333333,4,2,1,50,0,0
21596,-58.8235294117647,4,2,1,50,0,0
21699,-333.333333333333,4,2,1,50,0,0
21802,-58.8235294117647,4,2,1,50,0,0
21904,-333.333333333333,4,2,1,50,0,0
22007,-58.8235294117647,4,2,1,50,0,0
22109,-333.333333333333,4,2,1,50,0,0
22212,-66.6666666666667,4,2,1,50,0,0
22263,-100,4,2,1,50,0,0
22417,-76.9230769230769,4,2,1,50,0,0
22468,-142.857142857143,4,2,1,50,0,0
22520,-66.6666666666667,4,2,1,50,0,0
22571,-100,4,2,1,50,0,0
22725,-76.9230769230769,4,2,1,50,0,0
22776,-142.857142857143,4,2,1,50,0,0
22827,-66.6666666666667,4,2,1,50,0,0
22878,-100,4,2,1,50,0,0
23032,-76.9230769230769,4,2,1,50,0,0
23084,-142.857142857143,4,2,1,50,0,0
23135,-66.6666666666667,4,2,1,50,0,0
23186,-100,4,2,1,50,0,0
23340,-76.9230769230769,4,2,1,50,0,0
23391,-142.857142857143,4,2,1,50,0,0
23443,-66.6666666666667,4,2,1,50,0,0
23494,-100,4,2,1,50,0,0
23648,-76.9230769230769,4,2,1,50,0,0
23699,-142.857142857143,4,2,1,50,0,0
23750,-66.6666666666667,4,2,1,50,0,0
23802,-100,4,2,1,50,0,0
23955,-76.9230769230769,4,2,1,50,0,0
24007,-142.857142857143,4,2,1,50,0,0
24058,-66.6666666666667,4,2,1,50,0,0
24109,-100,4,2,1,50,0,0
24263,-76.9230769230769,4,2,1,50,0,0
24314,-142.857142857143,4,2,1,50,0,0
24366,-66.6666666666667,4,2,1,50,0,0
24417,-100,4,2,1,50,0,0
24571,-76.9230769230769,4,2,1,50,0,0
24622,-142.857142857143,4,2,1,50,0,0
24673,-66.6666666666667,4,2,1,50,0,0
24725,-100,4,2,1,50,0,0
24878,-76.9230769230769,4,2,1,50,0,0
24930,-142.857142857143,4,2,1,50,0,0
24981,-66.6666666666667,4,2,1,50,0,0
25032,-100,4,2,1,50,0,0
25186,-76.9230769230769,4,2,1,50,0,0
25237,-142.857142857143,4,2,1,50,0,0
25289,-66.6666666666667,4,2,1,50,0,0
25340,-100,4,2,1,50,0,0
25494,-76.9230769230769,4,2,1,50,0,0
25545,-142.857142857143,4,2,1,50,0,0
25596,-66.6666666666667,4,2,1,50,0,0
25648,-100,4,2,1,50,0,0
25802,-76.9230769230769,4,2,1,50,0,0
25853,-142.857142857143,4,2,1,50,0,0
25904,-66.6666666666667,4,2,1,50,0,0
25955,-100,4,2,1,50,0,0
26109,-76.9230769230769,4,2,1,50,0,0
26161,-142.857142857143,4,2,1,50,0,0
26212,-66.6666666666667,4,2,1,50,0,0
26263,-100,4,2,1,50,0,0
26417,-76.9230769230769,4,2,1,50,0,0
26468,-142.857142857143,4,2,1,50,0,0
26520,-66.6666666666667,4,2,1,50,0,0
26571,-100,4,2,1,50,0,0
26725,-76.9230769230769,4,2,1,50,0,0
26776,-142.857142857143,4,2,1,50,0,0
26827,-66.6666666666667,4,2,1,50,0,0
26878,-100,4,2,1,50,0,0
27032,-76.9230769230769,4,2,1,50,0,0
27084,-142.857142857143,4,2,1,50,0,0
27135,-100,4,2,1,50,0,0
31443,-50,4,2,1,50,0,0
31468,-200,4,2,1,50,0,0
31596,-76.9230769230769,4,2,1,50,0,0
31750,-50,4,2,1,50,0,0
31776,-200,4,2,1,50,0,0
31904,-76.9230769230769,4,2,1,50,0,0
32058,-50,4,2,1,50,0,0
32084,-100,4,2,1,50,0,0
32366,-200,4,2,1,50,0,0
32520,-50,4,2,1,50,0,0
32545,-100,4,2,1,50,0,0
32571,-200,4,2,1,50,0,0
32725,-50,4,2,1,50,0,0
32750,-100,4,2,1,50,0,0
32776,-200,4,2,1,50,0,0
32930,-50,4,2,1,50,0,0
32955,-100,4,2,1,50,0,0
32981,-200,4,2,1,50,0,0
33237,-50,4,2,1,50,0,0
33263,-100,4,2,1,50,0,0
33289,-50,4,2,1,50,0,0
33314,-100,4,2,1,50,0,0
33596,-200,4,2,1,50,0,0
33750,-50,4,2,1,50,0,0
33775,-100,4,2,1,50,0,0
33801,-200,4,2,1,50,0,0
33955,-50,4,2,1,50,0,0
33980,-100,4,2,1,50,0,0
34006,-200,4,2,1,50,0,0
34160,-50,4,2,1,50,0,0
34185,-100,4,2,1,50,0,0
34211,-200,4,2,1,50,0,0
34391,-50,4,2,1,50,0,0
34417,-100,4,2,1,50,0,0
34443,-58.8235294117647,4,2,1,50,0,0
34481,-333.333333333333,4,2,1,50,0,0
34520,-50,4,2,1,50,0,0
34545,-100,4,2,1,50,0,0
34827,-200,4,2,1,50,0,0
34981,-50,4,2,1,50,0,0
35006,-100,4,2,1,50,0,0
35032,-200,4,2,1,50,0,0
35186,-50,4,2,1,50,0,0
35211,-100,4,2,1,50,0,0
35237,-200,4,2,1,50,0,0
35391,-50,4,2,1,50,0,0
35416,-100,4,2,1,50,0,0
35442,-200,4,2,1,50,0,0
35698,-50,4,2,1,50,0,0
35724,-100,4,2,1,50,0,0
35750,-58.8235294117647,4,2,1,50,0,0
35827,-125,4,2,1,50,0,0
35904,-200,4,2,1,50,0,0
35981,-100,4,2,1,50,0,0
36058,-58.8235294117647,4,2,1,50,0,0
36096,-333.333333333333,4,2,1,50,0,0
36134,-100,4,2,1,50,0,0
36211,-58.8235294117647,4,2,1,50,0,0
36250,-333.333333333333,4,2,1,50,0,0
36288,-100,4,2,1,50,0,0
36365,-50,4,2,1,50,0,0
36404,-1000,4,2,1,50,0,0
36442,-50,4,2,1,50,0,0
36481,-1000,4,2,1,50,0,0
36519,-50,4,2,1,50,0,0
36558,-1000,4,2,1,50,0,0
36596,-50,4,2,1,50,0,0
36634,-1000,4,2,1,50,0,0
36673,-50,4,2,1,50,0,0
36711,-1000,4,2,1,50,0,0
36750,-50,4,2,1,50,0,0
36788,-1000,4,2,1,50,0,0
36827,-50,4,2,1,50,0,0
36865,-1000,4,2,1,50,0,0
36904,-50,4,2,1,50,0,0
36942,-1000,4,2,1,50,0,0
36981,-50,4,2,1,50,0,0
37007,-100,4,2,1,50,0,0
37289,-200,4,2,1,50,0,0
37443,-50,4,2,1,50,0,0
37468,-100,4,2,1,50,0,0
37494,-200,4,2,1,50,0,0
37648,-50,4,2,1,50,0,0
37673,-100,4,2,1,50,0,0
37699,-200,4,2,1,50,0,0
37853,-50,4,2,1,50,0,0
37878,-100,4,2,1,50,0,0
37904,-200,4,2,1,50,0,0
38160,-50,4,2,1,50,0,0
38186,-100,4,2,1,50,0,0
38212,-50,4,2,1,50,0,0
38237,-100,4,2,1,50,0,0
38519,-200,4,2,1,50,0,0
38673,-50,4,2,1,50,0,0
38698,-100,4,2,1,50,0,0
38724,-200,4,2,1,50,0,0
38878,-50,4,2,1,50,0,0
38903,-100,4,2,1,50,0,0
38929,-200,4,2,1,50,0,0
39083,-50,4,2,1,50,0,0
39108,-100,4,2,1,50,0,0
39134,-200,4,2,1,50,0,0
39314,-50,4,2,1,50,0,0
39340,-100,4,2,1,50,0,0
39366,-58.8235294117647,4,2,1,50,0,0
39404,-333.333333333333,4,2,1,50,0,0
39443,-50,4,2,1,50,0,0
39468,-100,4,2,1,50,0,0
39750,-200,4,2,1,50,0,0
39904,-50,4,2,1,50,0,0
39929,-100,4,2,1,50,0,0
39955,-200,4,2,1,50,0,0
40109,-50,4,2,1,50,0,0
40134,-100,4,2,1,50,0,0
40160,-200,4,2,1,50,0,0
40314,-50,4,2,1,50,0,0
40339,-100,4,2,1,50,0,0
40366,-50,4,2,1,50,0,0
40404,-1000,4,2,1,50,0,0
40443,-50,4,2,1,50,0,0
40481,-1000,4,2,1,50,0,0
40520,-50,4,2,1,50,0,0
40558,-1000,4,2,1,50,0,0
40596,-50,4,2,1,50,0,0
40635,-1000,4,2,1,50,0,0
40673,-58.8235294117647,4,2,1,50,0,0
40750,-125,4,2,1,50,0,0
40827,-200,4,2,1,50,0,0
40904,-100,4,2,1,50,0,0
40981,-58.8235294117647,4,2,1,50,0,0
41058,-125,4,2,1,50,0,0
41135,-200,4,2,1,50,0,0
41212,-100,4,2,1,50,0,0
41289,-58.8235294117647,4,2,1,50,0,0
41366,-333.333333333333,4,2,1,50,0,0
41443,-58.8235294117647,4,2,1,50,0,0
41520,-333.333333333333,4,2,1,50,0,0
41596,-62.5,4,2,1,50,0,0
41673,-333.333333333333,4,2,1,50,0,0
41750,-58.8235294117647,4,2,1,50,0,0
41827,-333.333333333333,4,2,1,50,0,0
41904,-50,4,2,1,50,0,0
41930,-100,4,2,1,50,0,0
42212,-200,4,2,1,50,0,0
42366,-50,4,2,1,50,0,0
42391,-100,4,2,1,50,0,0
42417,-200,4,2,1,50,0,0
42571,-50,4,2,1,50,0,0
42596,-100,4,2,1,50,0,0
42622,-200,4,2,1,50,0,0
42776,-50,4,2,1,50,0,0
42801,-100,4,2,1,50,0,0
42827,-200,4,2,1,50,0,0
43007,-50,4,2,1,50,0,0
43032,-100,4,2,1,50,0,0
43058,-58.8235294117647,4,2,1,50,0,0
43096,-333.333333333333,4,2,1,50,0,0
43135,-50,4,2,1,50,0,0
43160,-100,4,2,1,50,0,0
43442,-200,4,2,1,50,0,0
43596,-50,4,2,1,50,0,0
43621,-100,4,2,1,50,0,0
43647,-200,4,2,1,50,0,0
43801,-50,4,2,1,50,0,0
43826,-100,4,2,1,50,0,0
43852,-200,4,2,1,50,0,0
44006,-50,4,2,1,50,0,0
44031,-100,4,2,1,50,0,0
44057,-200,4,2,1,50,0,0
44237,-50,4,2,1,50,0,0
44263,-100,4,2,1,50,0,0
44289,-58.8235294117647,4,2,1,50,0,0
44327,-333.333333333333,4,2,1,50,0,0
44366,-50,4,2,1,50,0,0
44391,-100,4,2,1,50,0,0
44673,-200,4,2,1,50,0,0
44827,-50,4,2,1,50,0,0
44852,-100,4,2,1,50,0,0
44878,-200,4,2,1,50,0,0
45032,-50,4,2,1,50,0,0
45057,-100,4,2,1,50,0,0
45083,-200,4,2,1,50,0,0
45237,-50,4,2,1,50,0,0
45262,-100,4,2,1,50,0,0
45289,-50,4,2,1,50,0,0
45327,-1000,4,2,1,50,0,0
45366,-50,4,2,1,50,0,0
45404,-1000,4,2,1,50,0,0
45443,-50,4,2,1,50,0,0
45481,-1000,4,2,1,50,0,0
45520,-50,4,2,1,50,0,0
45558,-1000,4,2,1,50,0,0
45596,-50,4,2,1,50,0,0
45622,-100,4,2,1,50,0,0
46827,-50,4,2,1,50,0,0
46853,-100,4,2,1,50,0,0
47135,-58.8235294117647,4,2,1,50,0,0
47237,-333.333333333333,4,2,1,50,0,0
47340,-58.8235294117647,4,2,1,50,0,0
47443,-333.333333333333,4,2,1,50,0,0
47545,-58.8235294117647,4,2,1,50,0,0
47648,-333.333333333333,4,2,1,50,0,0
47750,-58.8235294117647,4,2,1,50,0,0
47853,-333.333333333333,4,2,1,50,0,0
47955,-58.8235294117647,4,2,1,50,0,0
48058,-333.333333333333,4,2,1,50,0,0
48161,-58.8235294117647,4,2,1,50,0,0
48263,-333.333333333333,4,2,1,50,0,0
48366,-58.8235294117647,4,2,1,50,0,0
48468,-333.333333333333,4,2,1,50,0,0
48571,-58.8235294117647,4,2,1,50,0,0
48673,-333.333333333333,4,2,1,50,0,0
48776,-58.8235294117647,4,2,1,50,0,0
48878,-333.333333333333,4,2,1,50,0,0
48981,-50,4,2,1,50,0,0
49020,-1000,4,2,1,50,0,0
49058,-50,4,2,1,50,0,0
49096,-1000,4,2,1,50,0,0
49135,-50,4,2,1,50,0,0
49173,-1000,4,2,1,50,0,0
49212,-50,4,2,1,50,0,0
49250,-1000,4,2,1,50,0,0
49289,-58.8235294117647,4,2,1,50,0,0
49366,-76.9230769230769,4,2,1,50,0,0
49443,-142.857142857143,4,2,1,50,0,0
49520,-333.333333333333,4,2,1,50,0,0
49596,-58.8235294117647,4,2,1,50,0,0
49673,-76.9230769230769,4,2,1,50,0,0
49750,-142.857142857143,4,2,1,50,0,0
49827,-333.333333333333,4,2,1,50,0,0
49904,-58.8235294117647,4,2,1,50,0,0
49981,-76.9230769230769,4,2,1,50,0,0
50058,-142.857142857143,4,2,1,50,0,0
50135,-333.333333333333,4,2,1,50,0,0
50212,-58.8235294117647,4,2,1,50,0,0
50289,-76.9230769230769,4,2,1,50,0,0
50366,-142.857142857143,4,2,1,50,0,0
50443,-333.333333333333,4,2,1,50,0,0
50520,-58.8235294117647,4,2,1,50,0,0
50596,-333.333333333333,4,2,1,50,0,0
50673,-58.8235294117647,4,2,1,50,0,0
50750,-333.333333333333,4,2,1,50,0,0
50827,-58.8235294117647,4,2,1,50,0,0
50904,-333.333333333333,4,2,1,50,0,0
50981,-58.8235294117647,4,2,1,50,0,0
51058,-333.333333333333,4,2,1,50,0,0
51135,-58.8235294117647,4,2,1,50,0,0
51173,-333.333333333333,4,2,1,50,0,0
51212,-58.8235294117647,4,2,1,50,0,0
51250,-333.333333333333,4,2,1,50,0,0
51289,-58.8235294117647,4,2,1,50,0,0
51327,-333.333333333333,4,2,1,50,0,0
51366,-58.8235294117647,4,2,1,50,0,0
51404,-333.333333333333,4,2,1,50,0,0
51443,-58.8235294117647,4,2,1,50,0,0
51520,-125,4,2,1,50,0,0
51596,-200,4,2,1,50,0,0
51673,-100,4,2,1,50,0,0
51750,-100,4,2,1,50,0,1
89904,-100,4,2,1,50,0,0
90827,-58.8235294117647,4,2,1,50,0,0
90904,-76.9230769230769,4,2,1,50,0,0
90981,-142.857142857143,4,2,1,50,0,0
91058,-333.333333333333,4,2,1,50,0,0
91135,-50,4,2,1,50,0,0
91161,-100,4,2,1,50,0,0
91443,-200,4,2,1,50,0,0
91597,-50,4,2,1,50,0,0
91622,-100,4,2,1,50,0,0
91648,-200,4,2,1,50,0,0
91802,-50,4,2,1,50,0,0
91827,-100,4,2,1,50,0,0
91853,-200,4,2,1,50,0,0
92007,-50,4,2,1,50,0,0
92032,-100,4,2,1,50,0,0
92058,-200,4,2,1,50,0,0
92314,-50,4,2,1,50,0,0
92340,-100,4,2,1,50,0,0
92366,-50,4,2,1,50,0,0
92391,-100,4,2,1,50,0,0
92673,-200,4,2,1,50,0,0
92827,-50,4,2,1,50,0,0
92852,-100,4,2,1,50,0,0
92878,-200,4,2,1,50,0,0
93032,-50,4,2,1,50,0,0
93057,-100,4,2,1,50,0,0
93083,-200,4,2,1,50,0,0
93237,-50,4,2,1,50,0,0
93262,-100,4,2,1,50,0,0
93288,-200,4,2,1,50,0,0
93468,-50,4,2,1,50,0,0
93494,-100,4,2,1,50,0,0
93520,-58.8235294117647,4,2,1,50,0,0
93558,-333.333333333333,4,2,1,50,0,0
93597,-50,4,2,1,50,0,0
93622,-100,4,2,1,50,0,0
93904,-200,4,2,1,50,0,0
94058,-50,4,2,1,50,0,0
94083,-100,4,2,1,50,0,0
94109,-200,4,2,1,50,0,0
94263,-50,4,2,1,50,0,0
94288,-100,4,2,1,50,0,0
94314,-200,4,2,1,50,0,0
94468,-50,4,2,1,50,0,0
94493,-100,4,2,1,50,0,0
94519,-58.8235294117647,4,2,1,50,0,0
94571,-333.333333333333,4,2,1,50,0,0
94622,-58.8235294117647,4,2,1,50,0,0
94673,-333.333333333333,4,2,1,50,0,0
94725,-58.8235294117647,4,2,1,50,0,0
94776,-333.333333333333,4,2,1,50,0,0
94827,-58.8235294117647,4,2,1,50,0,0
94904,-125,4,2,1,50,0,0
94981,-200,4,2,1,50,0,0
95058,-100,4,2,1,50,0,0
95135,-58.8235294117647,4,2,1,50,0,0
95173,-333.333333333333,4,2,1,50,0,0
95211,-100,4,2,1,50,0,0
95288,-58.8235294117647,4,2,1,50,0,0
95327,-333.333333333333,4,2,1,50,0,0
95365,-100,4,2,1,50,0,0
95442,-50,4,2,1,50,0,0
95481,-1000,4,2,1,50,0,0
95519,-50,4,2,1,50,0,0
95558,-1000,4,2,1,50,0,0
95596,-50,4,2,1,50,0,0
95635,-1000,4,2,1,50,0,0
95673,-50,4,2,1,50,0,0
95711,-1000,4,2,1,50,0,0
95750,-50,4,2,1,50,0,0
95788,-1000,4,2,1,50,0,0
95827,-50,4,2,1,50,0,0
95865,-1000,4,2,1,50,0,0
95904,-50,4,2,1,50,0,0
95942,-1000,4,2,1,50,0,0
95981,-50,4,2,1,50,0,0
96019,-1000,4,2,1,50,0,0
96058,-50,4,2,1,50,0,0
96084,-100,4,2,1,50,0,0
96366,-200,4,2,1,50,0,0
96520,-50,4,2,1,50,0,0
96545,-100,4,2,1,50,0,0
96571,-200,4,2,1,50,0,0
96725,-50,4,2,1,50,0,0
96750,-100,4,2,1,50,0,0
96776,-200,4,2,1,50,0,0
96930,-50,4,2,1,50,0,0
96955,-100,4,2,1,50,0,0
96981,-200,4,2,1,50,0,0
97237,-50,4,2,1,50,0,0
97263,-100,4,2,1,50,0,0
97289,-50,4,2,1,50,0,0
97314,-100,4,2,1,50,0,0
97596,-200,4,2,1,50,0,0
97750,-50,4,2,1,50,0,0
97775,-100,4,2,1,50,0,0
97801,-200,4,2,1,50,0,0
97955,-50,4,2,1,50,0,0
97980,-100,4,2,1,50,0,0
98006,-200,4,2,1,50,0,0
98160,-50,4,2,1,50,0,0
98185,-100,4,2,1,50,0,0
98211,-200,4,2,1,50,0,0
98391,-50,4,2,1,50,0,0
98417,-100,4,2,1,50,0,0
98443,-58.8235294117647,4,2,1,50,0,0
98481,-333.333333333333,4,2,1,50,0,0
98520,-50,4,2,1,50,0,0
98545,-100,4,2,1,50,0,0
98827,-200,4,2,1,50,0,0
98981,-50,4,2,1,50,0,0
99006,-100,4,2,1,50,0,0
99032,-200,4,2,1,50,0,0
99186,-50,4,2,1,50,0,0
99211,-100,4,2,1,50,0,0
99237,-200,4,2,1,50,0,0
99391,-50,4,2,1,50,0,0
99416,-100,4,2,1,50,0,0
99443,-50,4,2,1,50,0,0
99481,-1000,4,2,1,50,0,0
99520,-50,4,2,1,50,0,0
99558,-1000,4,2,1,50,0,0
99597,-50,4,2,1,50,0,0
99635,-1000,4,2,1,50,0,0
99673,-50,4,2,1,50,0,0
99712,-1000,4,2,1,50,0,0
99750,-58.8235294117647,4,2,1,50,0,0
99827,-333.333333333333,4,2,1,50,0,0
99904,-58.8235294117647,4,2,1,50,0,0
99981,-333.333333333333,4,2,1,50,0,0
100058,-58.8235294117647,4,2,1,50,0,0
100135,-333.333333333333,4,2,1,50,0,0
100212,-58.8235294117647,4,2,1,50,0,0
100289,-333.333333333333,4,2,1,50,0,0
100366,-58.8235294117647,4,2,1,50,0,0
100443,-125,4,2,1,50,0,0
100520,-200,4,2,1,50,0,0
100596,-100,4,2,1,50,0,0
100673,-58.8235294117647,4,2,1,50,0,0
100750,-125,4,2,1,50,0,0
100827,-200,4,2,1,50,0,0
100904,-100,4,2,1,50,0,0
100981,-50,4,2,1,50,0,0
101007,-100,4,2,1,50,0,0
105904,-50,4,2,1,50,0,0
105930,-100,4,2,1,50,0,0
106212,-58.8235294117647,4,2,1,50,0,0
106314,-333.333333333333,4,2,1,50,0,0
106417,-58.8235294117647,4,2,1,50,0,0
106520,-333.333333333333,4,2,1,50,0,0
106622,-58.8235294117647,4,2,1,50,0,0
106725,-333.333333333333,4,2,1,50,0,0
106827,-58.8235294117647,4,2,1,50,0,0
106930,-333.333333333333,4,2,1,50,0,0
107032,-58.8235294117647,4,2,1,50,0,0
107084,-333.333333333333,4,2,1,50,0,0
107135,-58.8235294117647,4,2,1,50,0,0
107186,-333.333333333333,4,2,1,50,0,0
107237,-58.8235294117647,4,2,1,50,0,0
107289,-333.333333333333,4,2,1,50,0,0
107340,-58.8235294117647,4,2,1,50,0,0
107391,-333.333333333333,4,2,1,50,0,0
107443,-58.8235294117647,4,2,1,50,0,0
107494,-333.333333333333,4,2,1,50,0,0
107545,-58.8235294117647,4,2,1,50,0,0
107596,-333.333333333333,4,2,1,50,0,0
107648,-58.8235294117647,4,2,1,50,0,0
107699,-333.333333333333,4,2,1,50,0,0
107750,-58.8235294117647,4,2,1,50,0,0
107802,-333.333333333333,4,2,1,50,0,0
107853,-58.8235294117647,4,2,1,50,0,0
107904,-333.333333333333,4,2,1,50,0,0
107955,-58.8235294117647,4,2,1,50,0,0
108007,-333.333333333333,4,2,1,50,0,0
108058,-58.8235294117647,4,2,1,50,0,0
108109,-333.333333333333,4,2,1,50,0,0
108161,-58.8235294117647,4,2,1,50,0,0
108212,-333.333333333333,4,2,1,50,0,0
108263,-58.8235294117647,4,2,1,50,0,0
108314,-333.333333333333,4,2,1,50,0,0
108366,-100,4,2,1,50,0,0

[HitObjects]
64,192,1289,128,0,2519:0:0:0:0:
320,192,2519,128,2,2673:0:0:0:0:
448,192,2519,1,4,0:0:0:0:
64,192,2673,1,0,0:0:0:0:
192,192,2827,128,0,2981:0:0:0:0:
320,192,2981,1,2,0:0:0:0:
448,192,2981,1,4,0:0:0:0:
64,192,3135,128,0,3289:0:0:0:0:
192,192,3212,1,0,0:0:0:0:
320,192,3289,1,0,0:0:0:0:
320,192,3443,128,2,3596:0:0:0:0:
448,192,3443,1,4,0:0:0:0:
192,192,3596,128,0,3750:0:0:0:0:
64,192,3750,128,2,3904:0:0:0:0:
64,192,3981,128,0,4135:0:0:0:0:
64,192,4212,128,0,4366:0:0:0:0:
192,192,4366,128,8,4673:0:0:0:0:
448,192,4366,128,2,4981:0:0:0:0:
320,192,4673,128,0,4981:0:0:0:0:
64,192,4981,1,4,0:0:0:0:
192,192,4981,128,2,5135:0:0:0:0:
320,192,5135,128,0,5289:0:0:0:0:
448,192,5289,128,0,5443:0:0:0:0:
64,192,5443,1,4,0:0:0:0:
192,192,5443,1,2,0:0:0:0:
64,192,5596,128,0,5750:0:0:0:0:
448,192,5673,1,0,0:0:0:0:
320,192,5750,128,0,5904:0:0:0:0:
64,192,5904,1,4,0:0:0:0:
192,192,5904,128,2,6058:0:0:0:0:
448,192,6058,128,0,6212:0:0:0:0:
64,192,6212,128,2,6750:0:0:0:0:
320,192,6212,128,0,6443:0:0:0:0:
320,192,6520,128,0,6596:0:0:0:0:
320,192,6673,128,0,6750:0:0:0:0:
64,192,6827,128,8,7443:0:0:0:0:
448,192,6827,128,2,7135:0:0:0:0:
192,192,7135,128,0,7443:0:0:0:0:
320,192,7443,128,2,7596:0:0:0:0:
448,192,7443,1,4,0:0:0:0:
192,192,7750,128,0,7904:0:0:0:0:
320,192,7904,1,4,0:0:0:0:
448,192,7904,1,2,0:0:0:0:
64,192,8058,128,0,8212:0:0:0:0:
192,192,8135,1,0,0:0:0:0:
320,192,8212,1,0,0:0:0:0:
320,192,8366,1,2,0:0:0:0:
448,192,8366,128,4,8520:0:0:0:0:
192,192,8520,128,2,8673:0:0:0:0:
64,192,8673,1,2,0:0:0:0:
448,192,8673,1,4,0:0:0:0:
192,192,8827,1,0,0:0:0:0:
320,192,8981,1,8,0:0:0:0:
448,192,8981,128,0,9135:0:0:0:0:
192,192,9135,1,2,0:0:0:0:
64,192,9289,1,2,0:0:0:0:
320,192,9289,128,8,9443:0:0:0:0:
448,192,9443,1,0,0:0:0:0:
320,192,9520,1,2,0:0:0:0:
64,192,9596,1,8,0:0:0:0:
192,192,9596,128,0,9750:0:0:0:0:
320,192,9750,128,2,9904:0:0:0:0:
64,192,9904,1,2,0:0:0:0:
448,192,9904,1,8,0:0:0:0:
192,192,10109,1,8,0:0:0:0:
448,192,10109,1,2,0:0:0:0:
320,192,10314,1,2,0:0:0:0:
448,192,10314,1,8,0:0:0:0:
64,192,10520,1,8,0:0:0:0:
192,192,10520,1,2,0:0:0:0:
64,192,10725,1,2,0:0:0:0:
320,192,10725,1,8,0:0:0:0:
64,192,10930,1,2,0:0:0:0:
448,192,10930,1,8,0:0:0:0:
320,192,11135,1,4,0:0:0:0:
448,192,11135,1,8,0:0:0:0:
64,192,11237,1,2,0:0:0:0:
448,192,11340,1,2,0:0:0:0:
64,192,11443,1,8,0:0:0:0:
192,192,11443,1,4,0:0:0:0:
320,192,11545,1,2,0:0:0:0:
192,192,11648,1,2,0:0:0:0:
64,192,11750,1,8,0:0:0:0:
448,192,11750,1,4,0:0:0:0:
320,192,12058,128,0,12366:0:0:0:0:
64,192,12366,128,2,13596:0:0:0:0:
448,192,12366,1,4,0:0:0:0:
448,192,12981,1,0,0:0:0:0:
192,192,13596,128,0,14827:0:0:0:0:
448,192,13596,1,0,0:0:0:0:
448,192,14212,1,0,0:0:0:0:
64,192,14827,1,0,0:0:0:0:
320,192,14827,128,0,16058:0:0:0:0:
64,192,15443,1,0,0:0:0:0:
64,192,16058,1,0,0:0:0:0:
448,192,16058,128,0,17289:0:0:0:0:
64,192,16673,1,0,0:0:0:0:
64,192,16981,1,0,0:0:0:0:
320,192,16981,128,0,17289:0:0:0:0:
64,192,17289,1,0,0:0:0:0:
192,192,17596,128,0,17904:0:0:0:0:
448,192,17904,1,0,0:0:0:0:
320,192,18212,128,0,18520:0:0:0:0:
64,192,18520,1,0,0:0:0:0:
448,192,18827,128,0,19135:0:0:0:0:
192,192,19135,1,0,0:0:0:0:
64,192,19443,128,0,19750:0:0:0:0:
320,192,19750,1,0,0:0:0:0:
192,192,20058,128,0,20366:0:0:0:0:
448,192,20366,1,0,0:0:0:0:
64,192,20673,128,0,20981:0:0:0:0:
192,192,20673,128,0,20981:0:0:0:0:
320,192,20981,1,2,0:0:0:0:
448,192,20981,1,0,0:0:0:0:
192,192,21186,1,8,0:0:0:0:
64,192,21391,1,8,0:0:0:0:
448,192,21391,1,2,0:0:0:0:
320,192,21596,1,2,0:0:0:0:
192,192,21802,1,8,0:0:0:0:
64,192,22007,1,2,0:0:0:0:
448,192,22007,1,8,0:0:0:0:
64,192,22212,1,4,0:0:0:0:
192,192,22212,1,2,0:0:0:0:
448,192,22417,1,0,0:0:0:0:
64,192,22520,1,0,0:0:0:0:
192,192,22520,1,0,0:0:0:0:
320,192,22725,1,0,0:0:0:0:
64,192,22827,1,0,0:0:0:0:
448,192,22827,1,0,0:0:0:0:
192,192,23032,1,0,0:0:0:0:
320,192,23135,1,0,0:0:0:0:
448,192,23135,1,0,0:0:0:0:
64,192,23340,1,0,0:0:0:0:
192,192,23443,1,0,0:0:0:0:
448,192,23443,1,0,0:0:0:0:
320,192,23648,1,0,0:0:0:0:
64,192,23750,1,0,0:0:0:0:
448,192,23750,1,0,0:0:0:0:
192,192,23955,1,0,0:0:0:0:
64,192,24058,1,0,0:0:0:0:
320,192,24058,1,0,0:0:0:0:
448,192,24263,1,0,0:0:0:0:
64,192,24366,1,0,0:0:0:0:
320,192,24366,1,0,0:0:0:0:
192,192,24571,1,0,0:0:0:0:
320,192,24673,1,0,0:0:0:0:
448,192,24673,1,0,0:0:0:0:
64,192,24878,1,0,0:0:0:0:
192,192,24981,1,0,0:0:0:0:
448,192,24981,1,0,0:0:0:0:
320,192,25186,1,0,0:0:0:0:
64,192,25289,1,0,0:0:0:0:
192,192,25289,1,0,0:0:0:0:
448,192,25494,1,0,0:0:0:0:
64,192,25596,1,0,0:0:0:0:
320,192,25596,1,0,0:0:0:0:
192,192,25802,1,0,0:0:0:0:
320,192,25904,1,0,0:0:0:0:
448,192,25904,1,0,0:0:0:0:
64,192,26109,1,0,0:0:0:0:
192,192,26212,1,0,0:0:0:0:
320,192,26212,1,0,0:0:0:0:
448,192,26417,1,0,0:0:0:0:
64,192,26520,1,0,0:0:0:0:
192,192,26520,1,0,0:0:0:0:
320,192,26725,1,0,0:0:0:0:
64,192,26827,1,0,0:0:0:0:
448,192,26827,1,0,0:0:0:0:
192,192,27032,1,0,0:0:0:0:
320,192,27135,1,2,0:0:0:0:
448,192,27135,1,8,0:0:0:0:
64,192,27237,1,8,0:0:0:0:
448,192,27340,1,8,0:0:0:0:
192,192,27443,1,8,0:0:0:0:
320,192,27443,1,2,0:0:0:0:
64,192,27545,1,8,0:0:0:0:
448,192,27648,1,8,0:0:0:0:
64,192,27750,1,8,0:0:0:0:
192,192,27750,1,2,0:0:0:0:
320,192,27853,1,8,0:0:0:0:
192,192,27955,1,8,0:0:0:0:
64,192,28058,1,2,0:0:0:0:
448,192,28058,1,8,0:0:0:0:
320,192,28161,1,8,0:0:0:0:
64,192,28263,1,8,0:0:0:0:
192,192,28366,1,8,0:0:0:0:
448,192,28366,1,2,0:0:0:0:
320,192,28468,1,8,0:0:0:0:
64,192,28571,1,8,0:0:0:0:
320,192,28673,1,8,0:0:0:0:
448,192,28673,1,2,0:0:0:0:
192,192,28776,1,8,0:0:0:0:
448,192,28878,1,8,0:0:0:0:
64,192,28981,1,2,0:0:0:0:
320,192,28981,1,8,0:0:0:0:
192,192,29084,1,8,0:0:0:0:
320,192,29186,1,8,0:0:0:0:
448,192,29186,1,2,0:0:0:0:
64,192,29289,1,8,0:0:0:0:
192,192,29289,1,0,0:0:0:0:
320,192,29391,1,2,0:0:0:0:
448,192,29391,1,8,0:0:0:0:
64,192,29494,1,8,0:0:0:0:
192,192,29596,1,8,0:0:0:0:
448,192,29699,1,8,0:0:0:0:
320,192,29802,1,8,0:0:0:0:
192,192,29904,1,8,0:0:0:0:
64,192,30007,1,8,0:0:0:0:
320,192,30109,1,8,0:0:0:0:
192,192,30212,1,8,0:0:0:0:
448,192,30314,1,8,0:0:0:0:
320,192,30417,1,8,0:0:0:0:
64,192,30520,1,8,0:0:0:0:
192,192,30622,1,8,0:0:0:0:
320,192,30725,1,8,0:0:0:0:
448,192,30827,128,0,30930:0:0:0:0:
320,192,30930,128,0,31032:0:0:0:0:
192,192,31032,128,0,31135:0:0:0:0:
320,192,31135,128,2,31237:0:0:0:0:
192,192,31237,128,2,31340:0:0:0:0:
64,192,31340,128,2,31443:0:0:0:0:
320,192,31443,128,8,31648:0:0:0:0:
448,192,31443,128,2,31648:0:0:0:0:
64,192,31750,128,8,31955:0:0:0:0:
448,192,31750,128,2,31955:0:0:0:0:
64,192,32058,1,2,0:0:0:0:
192,192,32058,1,4,0:0:0:0:
448,192,32058,1,0,0:0:0:0:
320,192,32366,1,2,0:0:0:0:
448,192,32366,1,0,0:0:0:0:
320,192,32571,1,2,0:0:0:0:
448,192,32571,1,0,0:0:0:0:
320,192,32776,1,2,0:0:0:0:
448,192,32776,1,0,0:0:0:0:
320,192,32981,1,2,0:0:0:0:
448,192,32981,1,0,0:0:0:0:
64,192,33289,1,2,0:0:0:0:
192,192,33289,1,4,0:0:0:0:
448,192,33289,1,0,0:0:0:0:
64,192,33596,1,2,0:0:0:0:
192,192,33596,1,0,0:0:0:0:
64,192,33802,1,2,0:0:0:0:
192,192,33802,1,0,0:0:0:0:
64,192,34007,1,2,0:0:0:0:
192,192,34007,1,0,0:0:0:0:
64,192,34212,1,2,0:0:0:0:
192,192,34212,1,0,0:0:0:0:
64,192,34443,1,8,0:0:0:0:
192,192,34443,1,0,0:0:0:0:
320,192,34520,1,4,0:0:0:0:
448,192,34520,1,2,0:0:0:0:
192,192,34827,1,2,0:0:0:0:
320,192,34827,1,0,0:0:0:0:
192,192,35032,1,2,0:0:0:0:
320,192,35032,1,0,0:0:0:0:
192,192,35237,1,2,0:0:0:0:
320,192,35237,1,0,0:0:0:0:
192,192,35443,1,2,0:0:0:0:
320,192,35443,1,0,0:0:0:0:
64,192,35750,128,2,35981:0:0:0:0:
448,192,35750,128,4,36289:0:0:0:0:
64,192,36058,128,0,36135:0:0:0:0:
64,192,36212,128,0,36289:0:0:0:0:
192,192,36366,128,8,36673:0:0:0:0:
448,192,36366,128,2,36981:0:0:0:0:
320,192,36673,128,0,36981:0:0:0:0:
64,192,36981,1,2,0:0:0:0:
192,192,36981,1,4,0:0:0:0:
64,192,37289,1,2,0:0:0:0:
320,192,37289,1,0,0:0:0:0:
64,192,37494,1,2,0:0:0:0:
320,192,37494,1,0,0:0:0:0:
64,192,37699,1,2,0:0:0:0:
320,192,37699,1,0,0:0:0:0:
64,192,37904,1,2,0:0:0:0:
320,192,37904,1,0,0:0:0:0:
64,192,38212,1,2,0:0:0:0:
192,192,38212,1,0,0:0:0:0:
448,192,38212,1,0,0:0:0:0:
192,192,38520,1,2,0:0:0:0:
448,192,38520,1,0,0:0:0:0:
192,192,38725,1,2,0:0:0:0:
448,192,38725,1,0,0:0:0:0:
192,192,38930,1,2,0:0:0:0:
448,192,38930,1,0,0:0:0:0:
192,192,39135,1,2,0:0:0:0:
448,192,39135,1,0,0:0:0:0:
192,192,39366,1,8,0:0:0:0:
448,192,39366,1,0,0:0:0:0:
64,192,39443,1,4,0:0:0:0:
320,192,39443,1,2,0:0:0:0:
64,192,39750,1,2,0:0:0:0:
448,192,39750,1,0,0:0:0:0:
64,192,39955,1,2,0:0:0:0:
448,192,39955,1,0,0:0:0:0:
64,192,40161,1,2,0:0:0:0:
448,192,40161,1,0,0:0:0:0:
320,192,40366,128,2,40673:0:0:0:0:
448,192,40366,128,0,40673:0:0:0:0:
64,192,40673,128,2,40904:0:0:0:0:
192,192,40673,1,4,0:0:0:0:
64,192,40981,128,0,41212:0:0:0:0:
64,192,41289,128,8,41443:0:0:0:0:
448,192,41289,1,2,0:0:0:0:
192,192,41443,128,0,41596:0:0:0:0:
320,192,41596,128,0,41750:0:0:0:0:
448,192,41750,128,0,41904:0:0:0:0:
64,192,41904,1,4,0:0:0:0:
192,192,41904,1,2,0:0:0:0:
320,192,42212,1,2,0:0:0:0:
448,192,42212,1,0,0:0:0:0:
320,192,42417,1,2,0:0:0:0:
448,192,42417,1,0,0:0:0:0:
320,192,42622,1,2,0:0:0:0:
448,192,42622,1,0,0:0:0:0:
320,192,42827,1,2,0:0:0:0:
448,192,42827,1,0,0:0:0:0:
320,192,43058,1,8,0:0:0:0:
448,192,43058,1,0,0:0:0:0:
64,192,43135,1,2,0:0:0:0:
192,192,43135,1,4,0:0:0:0:
192,192,43443,1,2,0:0:0:0:
448,192,43443,1,0,0:0:0:0:
192,192,43648,1,2,0:0:0:0:
448,192,43648,1,0,0:0:0:0:
192,192,43853,1,2,0:0:0:0:
448,192,43853,1,0,0:0:0:0:
192,192,44058,1,2,0:0:0:0:
448,192,44058,1,0,0:0:0:0:
64,192,44289,1,8,0:0:0:0:
320,192,44289,1,0,0:0:0:0:
192,192,44366,1,2,0:0:0:0:
448,192,44366,1,0,0:0:0:0:
64,192,44673,1,2,0:0:0:0:
192,192,44673,1,0,0:0:0:0:
64,192,44878,1,2,0:0:0:0:
192,192,44878,1,0,0:0:0:0:
64,192,45084,1,2,0:0:0:0:
192,192,45084,1,0,0:0:0:0:
64,192,45289,128,2,45596:0:0:0:0:
192,192,45289,128,0,45596:0:0:0:0:
320,192,45596,1,4,0:0:0:0:
448,192,45596,1,2,0:0:0:0:
320,192,45904,128,0,46058:0:0:0:0:
64,192,46058,1,0,0:0:0:0:
192,192,46212,128,2,46366:0:0:0:0:
448,192,46212,1,8,0:0:0:0:
64,192,46520,128,0,46673:0:0:0:0:
448,192,46673,128,0,46827:0:0:0:0:
64,192,46827,1,4,0:0:0:0:
192,192,46827,1,2,0:0:0:0:
320,192,47135,1,2,0:0:0:0:
448,192,47135,1,0,0:0:0:0:
64,192,47340,1,2,0:0:0:0:
320,192,47340,1,0,0:0:0:0:
64,192,47545,1,2,0:0:0:0:
192,192,47545,1,0,0:0:0:0:
320,192,47750,1,2,0:0:0:0:
448,192,47750,1,0,0:0:0:0:
192,192,47955,1,2,0:0:0:0:
448,192,47955,1,0,0:0:0:0:
64,192,48161,1,2,0:0:0:0:
192,192,48161,1,0,0:0:0:0:
64,192,48366,1,2,0:0:0:0:
448,192,48366,1,0,0:0:0:0:
320,192,48571,1,2,0:0:0:0:
448,192,48571,1,0,0:0:0:0:
64,192,48776,1,2,0:0:0:0:
320,192,48776,1,0,0:0:0:0:
64,192,48981,128,2,49289:0:0:0:0:
192,192,48981,128,0,49289:0:0:0:0:
320,192,49289,1,8,0:0:0:0:
448,192,49289,128,2,49596:0:0:0:0:
64,192,49596,128,8,49904:0:0:0:0:
192,192,49596,1,0,0:0:0:0:
192,192,49904,128,8,50212:0:0:0:0:
320,192,49904,1,0,0:0:0:0:
320,192,50212,128,8,50520:0:0:0:0:
448,192,50212,1,0,0:0:0:0:
64,192,50520,1,8,0:0:0:0:
192,192,50520,1,0,0:0:0:0:
320,192,50673,1,8,0:0:0:0:
448,192,50673,1,0,0:0:0:0:
64,192,50827,1,8,0:0:0:0:
192,192,50827,1,0,0:0:0:0:
320,192,50981,1,8,0:0:0:0:
448,192,50981,1,0,0:0:0:0:
64,192,51135,1,8,0:0:0:0:
448,192,51212,1,8,0:0:0:0:
192,192,51289,1,8,0:0:0:0:
320,192,51366,1,8,0:0:0:0:
64,192,51443,128,0,51673:0:0:0:0:
448,192,51443,128,0,51673:0:0:0:0:
64,192,51750,1,2,0:0:0:0:
448,192,51750,128,4,51904:0:0:0:0:
192,192,51904,1,0,0:0:0:0:
320,192,52058,128,2,52212:0:0:0:0:
448,192,52058,1,8,0:0:0:0:
64,192,52212,1,0,0:0:0:0:
192,192,52366,128,2,52520:0:0:0:0:
320,192,52366,1,0,0:0:0:0:
448,192,52520,1,0,0:0:0:0:
64,192,52673,128,2,52827:0:0:0:0:
192,192,52673,1,8,0:0:0:0:
320,192,52827,128,0,52981:0:0:0:0:
64,192,52981,1,2,0:0:0:0:
192,192,52981,1,0,0:0:0:0:
320,192,53135,128,0,53289:0:0:0:0:
64,192,53289,1,8,0:0:0:0:
448,192,53289,1,2,0:0:0:0:
192,192,53443,128,0,53596:0:0:0:0:
320,192,53596,1,2,0:0:0:0:
448,192,53596,128,0,53750:0:0:0:0:
192,192,53750,1,0,0:0:0:0:
64,192,53904,128,2,54058:0:0:0:0:
448,192,53904,1,8,0:0:0:0:
320,192,54058,1,2,0:0:0:0:
448,192,54058,1,0,0:0:0:0:
64,192,54212,1,2,0:0:0:0:
192,192,54212,128,0,54366:0:0:0:0:
448,192,54366,1,0,0:0:0:0:
192,192,54520,1,8,0:0:0:0:
320,192,54520,128,2,54673:0:0:0:0:
64,192,54673,1,0,0:0:0:0:
320,192,54827,1,2,0:0:0:0:
448,192,54827,128,0,54981:0:0:0:0:
64,192,54981,128,0,55135:0:0:0:0:
192,192,55135,1,2,0:0:0:0:
448,192,55135,128,8,55289:0:0:0:0:
320,192,55289,128,0,55443:0:0:0:0:
64,192,55443,1,2,0:0:0:0:
192,192,55443,128,0,55596:0:0:0:0:
320,192,55596,1,2,0:0:0:0:
448,192,55596,1,0,0:0:0:0:
192,192,55673,1,0,0:0:0:0:
64,192,55750,1,2,0:0:0:0:
448,192,55750,1,8,0:0:0:0:
64,192,55904,1,2,0:0:0:0:
192,192,55904,1,0,0:0:0:0:
192,192,56058,1,2,0:0:0:0:
448,192,56058,1,0,0:0:0:0:
320,192,56212,1,0,0:0:0:0:
64,192,56289,1,2,0:0:0:0:
192,192,56289,1,0,0:0:0:0:
320,192,56366,1,8,0:0:0:0:
448,192,56366,1,2,0:0:0:0:
64,192,56520,1,2,0:0:0:0:
448,192,56520,1,0,0:0:0:0:
64,192,56673,128,2,56904:0:0:0:0:
192,192,56673,1,0,0:0:0:0:
448,192,56904,1,0,0:0:0:0:
64,192,56981,1,8,0:0:0:0:
192,192,56981,1,2,0:0:0:0:
64,192,57135,128,2,57366:0:0:0:0:
192,192,57135,1,0,0:0:0:0:
448,192,57366,1,0,0:0:0:0:
64,192,57596,128,8,57750:0:0:0:0:
192,192,57596,1,2,0:0:0:0:
320,192,57750,1,0,0:0:0:0:
192,192,57827,1,2,0:0:0:0:
64,192,57904,1,2,0:0:0:0:
448,192,57904,128,0,58135:0:0:0:0:
64,192,58135,1,0,0:0:0:0:
320,192,58212,1,2,0:0:0:0:
448,192,58212,1,8,0:0:0:0:
320,192,58366,1,2,0:0:0:0:
448,192,58366,128,0,58596:0:0:0:0:
64,192,58596,1,0,0:0:0:0:
320,192,58827,1,8,0:0:0:0:
448,192,58827,128,2,58981:0:0:0:0:
192,192,58981,1,0,0:0:0:0:
64,192,59135,1,2,0:0:0:0:
448,192,59135,1,0,0:0:0:0:
320,192,59212,1,2,0:0:0:0:
192,192,59289,1,2,0:0:0:0:
64,192,59366,1,2,0:0:0:0:
320,192,59443,1,2,0:0:0:0:
448,192,59443,1,8,0:0:0:0:
192,192,59596,1,0,0:0:0:0:
64,192,59750,1,2,0:0:0:0:
448,192,59750,1,0,0:0:0:0:
192,192,59827,1,2,0:0:0:0:
320,192,59904,1,2,0:0:0:0:
448,192,59981,1,2,0:0:0:0:
64,192,60058,1,2,0:0:0:0:
192,192,60058,1,8,0:0:0:0:
320,192,60212,1,0,0:0:0:0:
64,192,60366,1,2,0:0:0:0:
448,192,60366,1,0,0:0:0:0:
448,192,60520,1,2,0:0:0:0:
64,192,60673,1,2,0:0:0:0:
192,192,60673,1,8,0:0:0:0:
64,192,60827,1,2,0:0:0:0:
320,192,60981,1,2,0:0:0:0:
448,192,60981,1,0,0:0:0:0:
64,192,61058,1,2,0:0:0:0:
192,192,61135,1,2,0:0:0:0:
320,192,61212,1,2,0:0:0:0:
64,192,61289,128,8,61443:0:0:0:0:
448,192,61289,1,2,0:0:0:0:
192,192,61443,128,2,61596:0:0:0:0:
320,192,61596,128,2,61750:0:0:0:0:
448,192,61596,1,4,0:0:0:0:
64,192,61750,1,0,0:0:0:0:
192,192,61904,128,8,62058:0:0:0:0:
448,192,61904,1,2,0:0:0:0:
320,192,62058,1,0,0:0:0:0:
64,192,62212,128,2,62366:0:0:0:0:
192,192,62212,1,0,0:0:0:0:
448,192,62366,1,0,0:0:0:0:
64,192,62520,1,2,0:0:0:0:
320,192,62520,128,8,62673:0:0:0:0:
192,192,62673,128,0,62827:0:0:0:0:
320,192,62827,1,2,0:0:0:0:
448,192,62827,1,0,0:0:0:0:
192,192,62981,128,0,63135:0:0:0:0:
64,192,63135,1,2,0:0:0:0:
448,192,63135,1,8,0:0:0:0:
320,192,63289,128,0,63443:0:0:0:0:
64,192,63443,128,2,63596:0:0:0:0:
192,192,63443,1,0,0:0:0:0:
320,192,63596,1,0,0:0:0:0:
64,192,63750,1,2,0:0:0:0:
448,192,63750,128,8,63904:0:0:0:0:
64,192,63904,1,2,0:0:0:0:
192,192,63904,1,0,0:0:0:0:
320,192,64058,128,2,64212:0:0:0:0:
448,192,64058,1,0,0:0:0:0:
64,192,64212,1,0,0:0:0:0:
192,192,64366,128,2,64520:0:0:0:0:
320,192,64366,1,8,0:0:0:0:
448,192,64520,1,0,0:0:0:0:
64,192,64673,128,2,64827:0:0:0:0:
192,192,64673,1,0,0:0:0:0:
320,192,64827,1,0,0:0:0:0:
448,192,64904,128,0,65289:0:0:0:0:
64,192,64981,1,2,0:0:0:0:
192,192,64981,1,8,0:0:0:0:
320,192,65135,128,0,65289:0:0:0:0:
64,192,65289,1,2,0:0:0:0:
192,192,65289,1,0,0:0:0:0:
192,192,65443,1,0,0:0:0:0:
320,192,65520,1,2,0:0:0:0:
448,192,65520,1,0,0:0:0:0:
64,192,65596,1,8,0:0:0:0:
192,192,65596,1,2,0:0:0:0:
320,192,65750,1,2,0:0:0:0:
448,192,65750,1,0,0:0:0:0:
64,192,65904,1,2,0:0:0:0:
448,192,65904,1,0,0:0:0:0:
320,192,66058,1,0,0:0:0:0:
64,192,66135,1,2,0:0:0:0:
192,192,66135,1,0,0:0:0:0:
320,192,66212,1,8,0:0:0:0:
448,192,66212,1,2,0:0:0:0:
64,192,66366,1,2,0:0:0:0:
192,192,66366,1,0,0:0:0:0:
320,192,66520,1,2,0:0:0:0:
448,192,66520,128,0,66750:0:0:0:0:
64,192,66750,1,2,0:0:0:0:
320,192,66827,1,2,0:0:0:0:
448,192,66827,1,8,0:0:0:0:
320,192,66981,1,2,0:0:0:0:
448,192,66981,128,0,67212:0:0:0:0:
64,192,67212,1,2,0:0:0:0:
320,192,67366,1,2,0:0:0:0:
64,192,67443,1,2,0:0:0:0:
448,192,67443,128,8,67596:0:0:0:0:
192,192,67596,1,2,0:0:0:0:
64,192,67750,128,2,67981:0:0:0:0:
448,192,67750,1,0,0:0:0:0:
448,192,67981,1,2,0:0:0:0:
64,192,68058,1,2,0:0:0:0:
192,192,68058,1,8,0:0:0:0:
64,192,68212,128,2,68443:0:0:0:0:
192,192,68212,1,0,0:0:0:0:
448,192,68443,1,2,0:0:0:0:
192,192,68596,1,2,0:0:0:0:
64,192,68673,128,2,68827:0:0:0:0:
448,192,68673,1,8,0:0:0:0:
320,192,68827,1,2,0:0:0:0:
64,192,68981,1,2,0:0:0:0:
448,192,68981,1,0,0:0:0:0:
192,192,69058,1,2,0:0:0:0:
320,192,69135,1,2,0:0:0:0:
448,192,69212,1,2,0:0:0:0:
64,192,69289,1,8,0:0:0:0:
192,192,69289,1,2,0:0:0:0:
320,192,69443,1,0,0:0:0:0:
64,192,69596,1,2,0:0:0:0:
448,192,69596,1,0,0:0:0:0:
320,192,69673,1,2,0:0:0:0:
192,192,69750,1,2,0:0:0:0:
64,192,69827,1,2,0:0:0:0:
320,192,69904,1,2,0:0:0:0:
448,192,69904,1,8,0:0:0:0:
192,192,70058,1,0,0:0:0:0:
64,192,70212,1,2,0:0:0:0:
320,192,70212,1,0,0:0:0:0:
320,192,70366,1,2,0:0:0:0:
192,192,70520,1,8,0:0:0:0:
448,192,70520,1,2,0:0:0:0:
192,192,70673,1,2,0:0:0:0:
320,192,70827,1,2,0:0:0:0:
448,192,70827,1,0,0:0:0:0:
64,192,70904,1,2,0:0:0:0:
192,192,70981,1,2,0:0:0:0:
320,192,71058,1,2,0:0:0:0:
64,192,71135,1,2,0:0:0:0:
448,192,71135,1,0,0:0:0:0:
192,192,71212,1,2,0:0:0:0:
320,192,71289,1,2,0:0:0:0:
448,192,71366,1,2,0:0:0:0:
64,192,71443,128,4,71673:0:0:0:0:
192,192,71443,1,2,0:0:0:0:
448,192,71673,1,2,0:0:0:0:
64,192,71750,1,8,0:0:0:0:
192,192,71750,1,2,0:0:0:0:
64,192,71904,128,2,72135:0:0:0:0:
192,192,71904,1,0,0:0:0:0:
448,192,72135,1,2,0:0:0:0:
64,192,72212,1,2,0:0:0:0:
192,192,72212,1,8,0:0:0:0:
64,192,72366,1,2,0:0:0:0:
448,192,72366,128,0,72520:0:0:0:0:
320,192,72520,128,0,72673:0:0:0:0:
64,192,72673,1,2,0:0:0:0:
192,192,72673,128,0,72904:0:0:0:0:
448,192,72904,1,2,0:0:0:0:
64,192,72981,1,2,0:0:0:0:
192,192,72981,1,8,0:0:0:0:
64,192,73135,1,2,0:0:0:0:
192,192,73135,128,0,73366:0:0:0:0:
448,192,73366,1,2,0:0:0:0:
64,192,73443,1,2,0:0:0:0:
192,192,73443,1,8,0:0:0:0:
320,192,73596,1,2,0:0:0:0:
448,192,73596,128,0,73750:0:0:0:0:
64,192,73750,1,2,0:0:0:0:
192,192,73750,128,0,73904:0:0:0:0:
320,192,73904,128,2,74135:0:0:0:0:
448,192,73904,1,0,0:0:0:0:
64,192,74135,1,2,0:0:0:0:
320,192,74212,1,2,0:0:0:0:
448,192,74212,1,8,0:0:0:0:
320,192,74366,128,2,74596:0:0:0:0:
448,192,74366,1,0,0:0:0:0:
64,192,74596,1,2,0:0:0:0:
320,192,74673,1,2,0:0:0:0:
448,192,74673,1,8,0:0:0:0:
64,192,74827,128,2,74981:0:0:0:0:
448,192,74827,1,0,0:0:0:0:
192,192,74981,128,0,75135:0:0:0:0:
320,192,75135,1,2,0:0:0:0:
448,192,75135,128,0,75366:0:0:0:0:
64,192,75366,1,2,0:0:0:0:
320,192,75443,1,2,0:0:0:0:
448,192,75443,1,8,0:0:0:0:
320,192,75596,1,2,0:0:0:0:
448,192,75596,128,0,75827:0:0:0:0:
64,192,75827,1,2,0:0:0:0:
320,192,75904,1,2,0:0:0:0:
448,192,75904,1,8,0:0:0:0:
64,192,76058,1,2,0:0:0:0:
192,192,76058,128,0,76212:0:0:0:0:
320,192,76212,128,8,76366:0:0:0:0:
192,192,76289,1,8,0:0:0:0:
64,192,76366,1,8,0:0:0:0:
448,192,76366,128,2,76520:0:0:0:0:
320,192,76596,1,2,0:0:0:0:
448,192,76596,1,0,0:0:0:0:
64,192,76673,1,8,0:0:0:0:
192,192,76673,1,2,0:0:0:0:
320,192,76827,1,2,0:0:0:0:
448,192,76827,128,0,76981:0:0:0:0:
64,192,76981,1,2,0:0:0:0:
192,192,76981,128,0,77135:0:0:0:0:
64,192,77212,1,2,0:0:0:0:
192,192,77212,1,0,0:0:0:0:
320,192,77289,1,2,0:0:0:0:
448,192,77289,1,8,0:0:0:0:
192,192,77443,128,2,77596:0:0:0:0:
448,192,77443,1,0,0:0:0:0:
64,192,77596,128,4,77750:0:0:0:0:
320,192,77596,1,2,0:0:0:0:
192,192,77750,1,0,0:0:0:0:
320,192,77827,1,0,0:0:0:0:
64,192,77904,1,2,0:0:0:0:
448,192,77904,1,8,0:0:0:0:
192,192,78058,128,0,78212:0:0:0:0:
320,192,78212,128,2,78366:0:0:0:0:
448,192,78212,1,0,0:0:0:0:
192,192,78366,128,0,78520:0:0:0:0:
64,192,78520,128,2,78673:0:0:0:0:
320,192,78520,1,8,0:0:0:0:
448,192,78673,128,0,78827:0:0:0:0:
64,192,78827,1,2,0:0:0:0:
192,192,78827,1,0,0:0:0:0:
320,192,78981,1,0,0:0:0:0:
64,192,79135,1,8,0:0:0:0:
448,192,79135,1,2,0:0:0:0:
192,192,79289,128,0,79443:0:0:0:0:
64,192,79443,1,2,0:0:0:0:
320,192,79443,128,0,79596:0:0:0:0:
448,192,79596,128,0,79750:0:0:0:0:
64,192,79750,128,2,79904:0:0:0:0:
320,192,79750,1,8,0:0:0:0:
192,192,79904,128,0,80058:0:0:0:0:
320,192,80058,128,2,80212:0:0:0:0:
448,192,80058,1,0,0:0:0:0:
64,192,80212,1,2,0:0:0:0:
192,192,80212,1,0,0:0:0:0:
192,192,80366,1,8,0:0:0:0:
448,192,80366,128,2,80520:0:0:0:0:
64,192,80520,1,2,0:0:0:0:
320,192,80520,1,0,0:0:0:0:
320,192,80673,128,2,80827:0:0:0:0:
448,192,80673,1,0,0:0:0:0:
64,192,80904,1,2,0:0:0:0:
320,192,80904,1,0,0:0:0:0:
192,192,80981,128,8,81289:0:0:0:0:
448,192,80981,1,2,0:0:0:0:
320,192,81135,1,2,0:0:0:0:
64,192,81289,1,2,0:0:0:0:
448,192,81289,128,4,81520:0:0:0:0:
64,192,81520,1,2,0:0:0:0:
320,192,81596,1,2,0:0:0:0:
448,192,81596,1,8,0:0:0:0:
320,192,81750,1,2,0:0:0:0:
448,192,81750,128,0,81981:0:0:0:0:
64,192,81981,1,2,0:0:0:0:
320,192,82058,1,2,0:0:0:0:
448,192,82058,1,8,0:0:0:0:
64,192,82212,128,2,82366:0:0:0:0:
448,192,82212,1,0,0:0:0:0:
192,192,82366,128,10,82520:0:0:0:0:
320,192,82520,128,2,82750:0:0:0:0:
448,192,82520,1,0,0:0:0:0:
64,192,82750,1,2,0:0:0:0:
320,192,82827,1,2,0:0:0:0:
448,192,82827,1,8,0:0:0:0:
320,192,82981,128,2,83212:0:0:0:0:
448,192,82981,1,0,0:0:0:0:
64,192,83212,1,2,0:0:0:0:
320,192,83289,1,2,0:0:0:0:
448,192,83289,1,8,0:0:0:0:
64,192,83443,128,2,83596:0:0:0:0:
192,192,83443,1,0,0:0:0:0:
320,192,83596,128,8,83750:0:0:0:0:
448,192,83596,1,2,0:0:0:0:
64,192,83750,1,2,0:0:0:0:
192,192,83750,128,0,83827:0:0:0:0:
448,192,83827,128,2,83904:0:0:0:0:
64,192,83904,128,2,83981:0:0:0:0:
320,192,83981,128,2,84058:0:0:0:0:
64,192,84058,1,8,0:0:0:0:
192,192,84058,1,2,0:0:0:0:
64,192,84212,1,2,0:0:0:0:
192,192,84212,128,0,84443:0:0:0:0:
448,192,84443,1,2,0:0:0:0:
64,192,84520,1,2,0:0:0:0:
192,192,84520,1,8,0:0:0:0:
64,192,84673,1,2,0:0:0:0:
448,192,84673,128,0,84827:0:0:0:0:
320,192,84827,128,10,84981:0:0:0:0:
64,192,84981,128,2,85212:0:0:0:0:
192,192,84981,1,0,0:0:0:0:
448,192,85212,1,2,0:0:0:0:
64,192,85289,1,2,0:0:0:0:
192,192,85289,1,8,0:0:0:0:
64,192,85443,128,2,85673:0:0:0:0:
192,192,85443,1,0,0:0:0:0:
448,192,85673,1,2,0:0:0:0:
64,192,85750,1,2,0:0:0:0:
192,192,85750,1,8,0:0:0:0:
320,192,85904,128,2,85981:0:0:0:0:
448,192,85904,1,0,0:0:0:0:
64,192,85981,128,8,86058:0:0:0:0:
192,192,86058,128,8,86135:0:0:0:0:
320,192,86135,128,8,86212:0:0:0:0:
64,192,86212,1,8,0:0:0:0:
448,192,86212,128,2,86366:0:0:0:0:
192,192,86289,1,2,0:0:0:0:
320,192,86366,1,2,0:0:0:0:
192,192,86443,1,2,0:0:0:0:
64,192,86520,1,8,0:0:0:0:
448,192,86520,1,2,0:0:0:0:
320,192,86673,128,2,86827:0:0:0:0:
64,192,86827,128,2,86981:0:0:0:0:
448,192,86827,1,0,0:0:0:0:
320,192,86904,1,2,0:0:0:0:
192,192,86981,1,2,0:0:0:0:
320,192,87058,1,2,0:0:0:0:
64,192,87135,1,2,0:0:0:0:
448,192,87135,1,8,0:0:0:0:
192,192,87289,128,2,87443:0:0:0:0:
320,192,87443,128,10,87596:0:0:0:0:
448,192,87443,1,4,0:0:0:0:
64,192,87596,1,2,0:0:0:0:
192,192,87596,1,0,0:0:0:0:
320,192,87673,1,0,0:0:0:0:
64,192,87750,1,2,0:0:0:0:
448,192,87750,1,8,0:0:0:0:
192,192,87904,128,2,87981:0:0:0:0:
448,192,87904,1,0,0:0:0:0:
192,192,88058,128,2,88212:0:0:0:0:
448,192,88058,1,8,0:0:0:0:
64,192,88212,1,2,0:0:0:0:
320,192,88212,128,0,88366:0:0:0:0:
192,192,88366,1,2,0:0:0:0:
448,192,88366,128,8,88520:0:0:0:0:
64,192,88520,128,2,88673:0:0:0:0:
320,192,88520,1,0,0:0:0:0:
448,192,88673,1,10,0:0:0:0:
192,192,88750,1,2,0:0:0:0:
320,192,88827,1,10,0:0:0:0:
64,192,88904,1,2,0:0:0:0:
448,192,88981,1,10,0:0:0:0:
192,192,89058,1,2,0:0:0:0:
320,192,89135,1,10,0:0:0:0:
64,192,89212,1,2,0:0:0:0:
448,192,89289,1,10,0:0:0:0:
320,192,89366,1,8,0:0:0:0:
64,192,89443,1,8,0:0:0:0:
192,192,89520,1,10,0:0:0:0:
320,192,89596,1,8,0:0:0:0:
448,192,89673,1,8,0:0:0:0:
64,192,89750,1,10,0:0:0:0:
192,192,89827,1,8,0:0:0:0:
320,192,89904,128,4,90827:0:0:0:0:
448,192,90520,128,2,90827:0:0:0:0:
64,192,90827,1,0,0:0:0:0:
192,192,90827,1,0,0:0:0:0:
64,192,91135,1,0,0:0:0:0:
320,192,91135,1,0,0:0:0:0:
448,192,91135,1,0,0:0:0:0:
64,192,91443,1,2,0:0:0:0:
192,192,91443,1,0,0:0:0:0:
64,192,91648,1,2,0:0:0:0:
192,192,91648,1,0,0:0:0:0:
64,192,91853,1,2,0:0:0:0:
192,192,91853,1,0,0:0:0:0:
64,192,92058,1,2,0:0:0:0:
192,192,92058,1,0,0:0:0:0:
64,192,92366,1,0,0:0:0:0:
320,192,92366,1,0,0:0:0:0:
448,192,92366,1,0,0:0:0:0:
320,192,92673,1,2,0:0:0:0:
448,192,92673,1,0,0:0:0:0:
320,192,92878,1,2,0:0:0:0:
448,192,92878,1,0,0:0:0:0:
320,192,93084,1,2,0:0:0:0:
448,192,93084,1,0,0:0:0:0:
320,192,93289,1,2,0:0:0:0:
448,192,93289,1,0,0:0:0:0:
320,192,93520,1,8,0:0:0:0:
448,192,93520,1,0,0:0:0:0:
64,192,93596,1,2,0:0:0:0:
192,192,93596,1,4,0:0:0:0:
64,192,93904,1,2,0:0:0:0:
448,192,93904,1,0,0:0:0:0:
64,192,94109,1,2,0:0:0:0:
448,192,94109,1,0,0:0:0:0:
64,192,94314,1,2,0:0:0:0:
448,192,94314,1,0,0:0:0:0:
64,192,94520,1,2,0:0:0:0:
448,192,94520,1,0,0:0:0:0:
320,192,94622,1,2,0:0:0:0:
192,192,94725,1,2,0:0:0:0:
64,192,94827,128,4,95366:0:0:0:0:
448,192,94827,128,2,95058:0:0:0:0:
448,192,95135,128,0,95212:0:0:0:0:
448,192,95289,128,0,95366:0:0:0:0:
64,192,95443,128,8,96058:0:0:0:0:
320,192,95443,128,2,95750:0:0:0:0:
192,192,95750,128,0,96058:0:0:0:0:
320,192,96058,1,4,0:0:0:0:
448,192,96058,1,2,0:0:0:0:
192,192,96366,1,2,0:0:0:0:
448,192,96366,1,0,0:0:0:0:
192,192,96571,1,2,0:0:0:0:
448,192,96571,1,0,0:0:0:0:
192,192,96776,1,2,0:0:0:0:
448,192,96776,1,0,0:0:0:0:
192,192,96981,1,2,0:0:0:0:
448,192,96981,1,0,0:0:0:0:
64,192,97289,1,0,0:0:0:0:
320,192,97289,1,0,0:0:0:0:
448,192,97289,1,0,0:0:0:0:
64,192,97596,1,2,0:0:0:0:
320,192,97596,1,0,0:0:0:0:
64,192,97802,1,2,0:0:0:0:
320,192,97802,1,0,0:0:0:0:
64,192,98007,1,2,0:0:0:0:
320,192,98007,1,0,0:0:0:0:
64,192,98212,1,2,0:0:0:0:
320,192,98212,1,0,0:0:0:0:
64,192,98443,1,8,0:0:0:0:
320,192,98443,1,0,0:0:0:0:
192,192,98520,1,2,0:0:0:0:
448,192,98520,1,4,0:0:0:0:
64,192,98827,1,2,0:0:0:0:
448,192,98827,1,0,0:0:0:0:
64,192,99032,1,2,0:0:0:0:
448,192,99032,1,0,0:0:0:0:
64,192,99237,1,2,0:0:0:0:
448,192,99237,1,0,0:0:0:0:
64,192,99443,128,2,99750:0:0:0:0:
192,192,99443,128,0,99750:0:0:0:0:
320,192,99750,1,2,0:0:0:0:
448,192,99750,128,4,99904:0:0:0:0:
64,192,99904,128,0,100058:0:0:0:0:
320,192,100058,128,0,100212:0:0:0:0:
192,192,100212,128,0,100366:0:0:0:0:
64,192,100366,128,8,100596:0:0:0:0:
448,192,100366,1,2,0:0:0:0:
64,192,100673,128,0,100904:0:0:0:0:
64,192,100981,1,4,0:0:0:0:
320,192,100981,1,2,0:0:0:0:
448,192,100981,1,0,0:0:0:0:
64,192,101289,1,2,0:0:0:0:
192,192,101289,1,0,0:0:0:0:
64,192,101494,1,0,0:0:0:0:
192,192,101494,1,0,0:0:0:0:
320,192,101596,1,2,0:0:0:0:
448,192,101596,1,0,0:0:0:0:
64,192,101699,1,0,0:0:0:0:
192,192,101699,1,0,0:0:0:0:
64,192,101904,1,2,0:0:0:0:
192,192,101904,1,0,0:0:0:0:
320,192,102135,1,8,0:0:0:0:
448,192,102135,1,0,0:0:0:0:
64,192,102212,1,2,0:0:0:0:
192,192,102212,1,4,0:0:0:0:
192,192,102520,1,2,0:0:0:0:
448,192,102520,1,0,0:0:0:0:
192,192,102725,1,0,0:0:0:0:
448,192,102725,1,0,0:0:0:0:
64,192,102827,1,2,0:0:0:0:
320,192,102827,1,0,0:0:0:0:
192,192,102930,1,0,0:0:0:0:
448,192,102930,1,0,0:0:0:0:
192,192,103135,1,2,0:0:0:0:
448,192,103135,1,0,0:0:0:0:
64,192,103366,1,8,0:0:0:0:
320,192,103366,1,0,0:0:0:0:
192,192,103443,1,2,0:0:0:0:
448,192,103443,1,4,0:0:0:0:
320,192,103750,1,2,0:0:0:0:
448,192,103750,1,0,0:0:0:0:
320,192,103955,1,0,0:0:0:0:
448,192,103955,1,0,0:0:0:0:
64,192,104058,1,2,0:0:0:0:
192,192,104058,1,0,0:0:0:0:
320,192,104161,1,0,0:0:0:0:
448,192,104161,1,0,0:0:0:0:
320,192,104366,128,2,104673:0:0:0:0:
448,192,104366,128,0,104673:0:0:0:0:
64,192,104673,1,4,0:0:0:0:
192,192,104673,1,2,0:0:0:0:
192,192,104981,128,0,105135:0:0:0:0:
448,192,105135,1,0,0:0:0:0:
64,192,105289,1,8,0:0:0:0:
320,192,105289,128,2,105443:0:0:0:0:
448,192,105596,128,0,105750:0:0:0:0:
64,192,105750,128,0,105904:0:0:0:0:
320,192,105904,1,2,0:0:0:0:
448,192,105904,1,4,0:0:0:0:
64,192,106212,1,2,0:0:0:0:
320,192,106212,1,0,0:0:0:0:
64,192,106417,1,2,0:0:0:0:
192,192,106417,1,0,0:0:0:0:
320,192,106622,1,2,0:0:0:0:
448,192,106622,1,0,0:0:0:0:
64,192,106827,1,2,0:0:0:0:
448,192,106827,1,0,0:0:0:0:
320,192,107032,1,2,0:0:0:0:
64,192,107135,1,2,0:0:0:0:
448,192,107135,1,4,0:0:0:0:
192,192,107237,1,2,0:0:0:0:
320,192,107340,1,2,0:0:0:0:
64,192,107443,1,2,0:0:0:0:
192,192,107443,1,0,0:0:0:0:
448,192,107545,1,2,0:0:0:0:
64,192,107648,1,2,0:0:0:0:
320,192,107750,1,2,0:0:0:0:
448,192,107750,1,4,0:0:0:0:
192,192,107853,1,2,0:0:0:0:
448,192,107955,1,2,0:0:0:0:
64,192,108058,1,2,0:0:0:0:
320,192,108058,1,0,0:0:0:0:
192,192,108161,1,2,0:0:0:0:
448,192,108263,1,2,0:0:0:0:
64,192,108366,1,2,0:0:0:0:
192,192,108366,1,4,0:0:0:0:
320,192,108520,1,0,0:0:0:0:
448,192,108673,128,0,108827:0:0:0:0:
64,192,108827,1,0,0:0:0:0:
320,192,108981,1,0,0:0:0:0:
192,192,109135,1,0,0:0:0:0:
320,192,109289,128,0,109443:0:0:0:0:
64,192,109443,1,0,0:0:0:0:
448,192,109596,1,0,0:0:0:0:
320,192,109750,1,0,0:0:0:0:
192,192,109904,128,0,110058:0:0:0:0:
448,192,110058,1,0,0:0:0:0:
64,192,110212,1,0,0:0:0:0:
320,192,110366,1,0,0:0:0:0:
64,192,110520,128,0,110673:0:0:0:0:
192,192,110673,1,0,0:0:0:0:
448,192,110827,1,0,0:0:0:0:
320,192,110981,1,0,0:0:0:0:
192,192,111135,128,0,111289:0:0:0:0:
448,192,111289,1,0,0:0:0:0:
64,192,111443,1,0,0:0:0:0:
192,192,111596,1,0,0:0:0:0:
320,192,111750,128,0,111904:0:0:0:0:
64,192,111904,1,0,0:0:0:0:
448,192,112058,1,0,0:0:0:0:
192,192,112212,1,0,0:0:0:0:
64,192,112366,128,0,112520:0:0:0:0:
448,192,112366,128,0,113289:0:0:0:0:
320,192,112520,1,0,0:0:0:0:
192,192,112673,1,0,0:0:0:0:
64,192,112827,1,0,0:0:0:0:
320,192,112981,128,0,113289:0:0:0:0:
64,192,113135,128,0,113289:0:0:0:0:
