osu file format v14

[General]
AudioFilename: audio.mp3
AudioLeadIn: 0
PreviewTime: 51750
Countdown: 0
SampleSet: Soft
StackLeniency: 0.7
Mode: 3
LetterboxInBreaks: 0
SpecialStyle: 0
WidescreenStoryboard: 0

[Editor]
DistanceSpacing: 0.8
BeatDivisor: 4
GridSize: 32
TimelineZoom: 2.4

[Metadata]
Title:Destroy
TitleUnicode:Destroy
Artist:Yooh
ArtistUnicode:Yooh
Creator:SpectorDG
Version:NOVICE
Source:SOUND VOLTEX III GRAVITY WARS
Tags:KONAMI SDVX 3 Tsumabuki Left 孤独な決意 13th Episode Wonki Virtue- supekuta Wadu eon 嬬武器烈風刀 BEMANI Video Game Electronic Instrumental
BeatmapID:1128260
BeatmapSetID:532375

[Difficulty]
HPDrainRate:7.5
CircleSize:4
OverallDifficulty:7
ApproachRate:5
SliderMultiplier:1.4
SliderTickRate:1

[Events]
//Background and Video events
0,0,"BG.jpg",0,0
//Break Periods
//Storyboard Layer 0 (Background)
//Storyboard Layer 1 (Fail)
//Storyboard Layer 2 (Pass)
//Storyboard Layer 3 (Foreground)
//Storyboard Layer 4 (Overlay)
//Storyboard Sound Samples

[TimingPoints]
2520,307.692307692308,4,2,1,50,1,0
51750,-100,4,2,1,50,0,1
89904,-100,4,2,1,50,0,0

[HitObjects]
448,192,1289,128,0,2519:0:0:0:0:
64,192,2519,1,2,0:0:0:0:
192,192,2519,1,4,0:0:0:0:
320,192,2827,1,0,0:0:0:0:
64,192,2981,1,2,0:0:0:0:
448,192,2981,1,4,0:0:0:0:
192,192,3135,1,0,0:0:0:0:
64,192,3443,1,2,0:0:0:0:
448,192,3443,1,4,0:0:0:0:
320,192,3596,1,0,0:0:0:0:
64,192,3750,128,2,4366:0:0:0:0:
192,192,4366,128,10,4981:0:0:0:0:
320,192,4673,128,0,4981:0:0:0:0:
64,192,4981,1,4,0:0:0:0:
448,192,4981,1,2,0:0:0:0:
320,192,5289,1,0,0:0:0:0:
64,192,5443,1,4,0:0:0:0:
192,192,5443,1,2,0:0:0:0:
448,192,5596,1,0,0:0:0:0:
192,192,5750,1,0,0:0:0:0:
320,192,5904,1,4,0:0:0:0:
448,192,5904,1,2,0:0:0:0:
192,192,6058,1,0,0:0:0:0:
64,192,6212,128,2,6520:0:0:0:0:
448,192,6520,1,0,0:0:0:0:
192,192,6673,1,0,0:0:0:0:
448,192,6827,128,10,7443:0:0:0:0:
320,192,7135,128,0,7443:0:0:0:0:
64,192,7443,1,2,0:0:0:0:
192,192,7443,1,4,0:0:0:0:
320,192,7750,1,0,0:0:0:0:
64,192,7904,1,4,0:0:0:0:
448,192,7904,1,2,0:0:0:0:
192,192,8058,1,0,0:0:0:0:
320,192,8366,1,2,0:0:0:0:
448,192,8366,1,4,0:0:0:0:
64,192,8520,1,2,0:0:0:0:
192,192,8673,1,2,0:0:0:0:
448,192,8673,1,4,0:0:0:0:
320,192,8981,128,8,9135:0:0:0:0:
64,192,9289,128,2,9443:0:0:0:0:
448,192,9289,1,8,0:0:0:0:
320,192,9596,128,8,9750:0:0:0:0:
64,192,9750,128,2,9904:0:0:0:0:
192,192,9904,1,2,0:0:0:0:
448,192,9904,1,8,0:0:0:0:
448,192,10109,1,10,0:0:0:0:
448,192,10314,1,10,0:0:0:0:
64,192,10520,1,8,0:0:0:0:
320,192,10520,1,2,0:0:0:0:
192,192,10725,1,10,0:0:0:0:
192,192,10930,1,10,0:0:0:0:
448,192,11135,1,12,0:0:0:0:
320,192,11237,1,2,0:0:0:0:
64,192,11340,1,2,0:0:0:0:
192,192,11443,1,12,0:0:0:0:
448,192,11545,1,2,0:0:0:0:
320,192,11648,1,2,0:0:0:0:
64,192,11750,1,8,0:0:0:0:
192,192,11750,1,4,0:0:0:0:
64,192,12058,128,0,12366:0:0:0:0:
192,192,12366,1,2,0:0:0:0:
448,192,12366,1,4,0:0:0:0:
64,192,12673,1,0,0:0:0:0:
448,192,12981,1,0,0:0:0:0:
448,192,13289,1,0,0:0:0:0:
64,192,13596,1,0,0:0:0:0:
320,192,13904,1,0,0:0:0:0:
192,192,14212,1,0,0:0:0:0:
192,192,14520,1,0,0:0:0:0:
448,192,14827,1,0,0:0:0:0:
320,192,15135,1,0,0:0:0:0:
64,192,15443,1,0,0:0:0:0:
64,192,15750,1,0,0:0:0:0:
320,192,16058,1,0,0:0:0:0:
192,192,16366,1,0,0:0:0:0:
448,192,16673,1,0,0:0:0:0:
64,192,16981,1,0,0:0:0:0:
192,192,17289,1,0,0:0:0:0:
448,192,17596,128,0,17904:0:0:0:0:
192,192,17904,1,0,0:0:0:0:
64,192,18212,128,0,18520:0:0:0:0:
320,192,18520,1,0,0:0:0:0:
448,192,18827,128,0,19135:0:0:0:0:
192,192,19135,1,0,0:0:0:0:
64,192,19443,128,0,19750:0:0:0:0:
448,192,19750,1,0,0:0:0:0:
320,192,20058,128,0,20366:0:0:0:0:
64,192,20366,1,0,0:0:0:0:
192,192,20673,128,0,20981:0:0:0:0:
320,192,20981,1,2,0:0:0:0:
448,192,20981,1,0,0:0:0:0:
64,192,21186,1,8,0:0:0:0:
192,192,21391,1,8,0:0:0:0:
448,192,21391,1,2,0:0:0:0:
64,192,21596,1,2,0:0:0:0:
320,192,21802,1,8,0:0:0:0:
64,192,22007,1,2,0:0:0:0:
192,192,22007,1,8,0:0:0:0:
320,192,22212,1,4,0:0:0:0:
448,192,22212,1,2,0:0:0:0:
192,192,22520,1,0,0:0:0:0:
448,192,22520,128,0,22827:0:0:0:0:
64,192,22827,1,0,0:0:0:0:
320,192,23135,128,0,23443:0:0:0:0:
448,192,23135,1,0,0:0:0:0:
64,192,23443,1,0,0:0:0:0:
192,192,23750,128,0,24058:0:0:0:0:
320,192,23750,1,0,0:0:0:0:
448,192,24058,1,0,0:0:0:0:
64,192,24366,128,0,24673:0:0:0:0:
192,192,24366,1,0,0:0:0:0:
448,192,24673,1,0,0:0:0:0:
192,192,24981,1,0,0:0:0:0:
448,192,24981,128,0,25289:0:0:0:0:
64,192,25289,1,0,0:0:0:0:
320,192,25596,128,0,25904:0:0:0:0:
448,192,25596,1,0,0:0:0:0:
64,192,25904,1,0,0:0:0:0:
192,192,26212,128,0,26520:0:0:0:0:
448,192,26212,1,0,0:0:0:0:
64,192,26520,1,0,0:0:0:0:
64,192,26827,128,0,27135:0:0:0:0:
320,192,26827,1,0,0:0:0:0:
192,192,27135,1,2,0:0:0:0:
448,192,27135,1,8,0:0:0:0:
64,192,27340,1,8,0:0:0:0:
320,192,27443,1,10,0:0:0:0:
448,192,27648,1,8,0:0:0:0:
64,192,27750,1,8,0:0:0:0:
192,192,27750,1,2,0:0:0:0:
320,192,27955,1,8,0:0:0:0:
64,192,28058,1,10,0:0:0:0:
448,192,28263,1,8,0:0:0:0:
64,192,28366,1,8,0:0:0:0:
320,192,28366,1,2,0:0:0:0:
192,192,28571,1,8,0:0:0:0:
448,192,28673,1,10,0:0:0:0:
64,192,28878,1,8,0:0:0:0:
320,192,28981,1,2,0:0:0:0:
448,192,28981,1,8,0:0:0:0:
192,192,29186,1,10,0:0:0:0:
448,192,29289,1,8,0:0:0:0:
320,192,29494,1,8,0:0:0:0:
64,192,29596,128,8,29904:0:0:0:0:
192,192,29904,128,8,30212:0:0:0:0:
320,192,30212,128,8,30520:0:0:0:0:
448,192,30520,128,8,30827:0:0:0:0:
64,192,30827,128,0,31443:0:0:0:0:
192,192,31135,128,2,31443:0:0:0:0:
320,192,31443,1,8,0:0:0:0:
448,192,31443,1,2,0:0:0:0:
64,192,31750,1,8,0:0:0:0:
192,192,31750,1,2,0:0:0:0:
192,192,32058,1,2,0:0:0:0:
320,192,32058,1,4,0:0:0:0:
448,192,32366,1,2,0:0:0:0:
448,192,32571,1,2,0:0:0:0:
448,192,32776,1,2,0:0:0:0:
320,192,32981,1,2,0:0:0:0:
64,192,33289,1,2,0:0:0:0:
192,192,33289,1,4,0:0:0:0:
320,192,33596,1,2,0:0:0:0:
320,192,33802,1,2,0:0:0:0:
320,192,34007,1,2,0:0:0:0:
192,192,34212,1,2,0:0:0:0:
64,192,34520,1,4,0:0:0:0:
448,192,34520,1,2,0:0:0:0:
192,192,34827,1,2,0:0:0:0:
192,192,35032,1,2,0:0:0:0:
192,192,35237,1,2,0:0:0:0:
320,192,35443,1,2,0:0:0:0:
64,192,35750,1,2,0:0:0:0:
448,192,35750,1,4,0:0:0:0:
192,192,36058,1,0,0:0:0:0:
64,192,36366,1,8,0:0:0:0:
448,192,36366,1,2,0:0:0:0:
320,192,36673,1,0,0:0:0:0:
64,192,36827,1,0,0:0:0:0:
192,192,36981,1,2,0:0:0:0:
448,192,36981,1,4,0:0:0:0:
320,192,37289,1,2,0:0:0:0:
320,192,37494,1,2,0:0:0:0:
320,192,37699,1,2,0:0:0:0:
192,192,37904,1,2,0:0:0:0:
64,192,38212,1,2,0:0:0:0:
448,192,38212,1,0,0:0:0:0:
192,192,38520,1,2,0:0:0:0:
192,192,38725,1,2,0:0:0:0:
192,192,38930,1,2,0:0:0:0:
320,192,39135,1,2,0:0:0:0:
64,192,39443,1,4,0:0:0:0:
192,192,39443,1,2,0:0:0:0:
448,192,39750,1,2,0:0:0:0:
448,192,39955,1,2,0:0:0:0:
448,192,40161,1,2,0:0:0:0:
320,192,40366,1,2,0:0:0:0:
64,192,40468,1,2,0:0:0:0:
192,192,40571,1,2,0:0:0:0:
320,192,40673,1,2,0:0:0:0:
448,192,40673,128,4,40981:0:0:0:0:
64,192,40981,128,0,41289:0:0:0:0:
192,192,41289,1,8,0:0:0:0:
448,192,41289,1,2,0:0:0:0:
320,192,41443,1,0,0:0:0:0:
192,192,41596,1,0,0:0:0:0:
320,192,41750,1,0,0:0:0:0:
64,192,41904,1,4,0:0:0:0:
448,192,41904,1,2,0:0:0:0:
192,192,42212,1,2,0:0:0:0:
192,192,42417,1,2,0:0:0:0:
192,192,42622,1,2,0:0:0:0:
320,192,42827,1,2,0:0:0:0:
64,192,43135,1,2,0:0:0:0:
448,192,43135,1,4,0:0:0:0:
320,192,43443,1,2,0:0:0:0:
320,192,43648,1,2,0:0:0:0:
320,192,43853,1,2,0:0:0:0:
192,192,44058,1,2,0:0:0:0:
64,192,44366,1,2,0:0:0:0:
320,192,44366,1,0,0:0:0:0:
448,192,44673,1,2,0:0:0:0:
448,192,44878,1,2,0:0:0:0:
448,192,45084,1,2,0:0:0:0:
320,192,45289,1,2,0:0:0:0:
64,192,45391,1,2,0:0:0:0:
192,192,45494,1,2,0:0:0:0:
320,192,45596,1,4,0:0:0:0:
448,192,45596,1,2,0:0:0:0:
64,192,45904,1,0,0:0:0:0:
192,192,46212,1,2,0:0:0:0:
448,192,46212,1,8,0:0:0:0:
320,192,46520,1,0,0:0:0:0:
64,192,46673,1,0,0:0:0:0:
192,192,46827,1,4,0:0:0:0:
320,192,46827,1,2,0:0:0:0:
448,192,47135,1,2,0:0:0:0:
192,192,47340,1,2,0:0:0:0:
320,192,47545,1,2,0:0:0:0:
64,192,47750,1,2,0:0:0:0:
448,192,47955,1,2,0:0:0:0:
64,192,48161,1,2,0:0:0:0:
320,192,48366,1,2,0:0:0:0:
192,192,48571,1,2,0:0:0:0:
448,192,48776,1,2,0:0:0:0:
192,192,48981,1,2,0:0:0:0:
320,192,49084,1,2,0:0:0:0:
64,192,49186,1,2,0:0:0:0:
192,192,49289,1,8,0:0:0:0:
448,192,49289,128,2,49596:0:0:0:0:
64,192,49596,128,8,49904:0:0:0:0:
320,192,49596,1,0,0:0:0:0:
192,192,49904,1,8,0:0:0:0:
448,192,49904,128,0,50212:0:0:0:0:
64,192,50212,128,8,50520:0:0:0:0:
320,192,50212,1,0,0:0:0:0:
192,192,50520,1,8,0:0:0:0:
320,192,50673,1,8,0:0:0:0:
192,192,50827,1,8,0:0:0:0:
320,192,50981,1,8,0:0:0:0:
448,192,51135,128,8,51750:0:0:0:0:
64,192,51443,128,0,51750:0:0:0:0:
192,192,51750,1,2,0:0:0:0:
320,192,51750,1,4,0:0:0:0:
192,192,52058,1,10,0:0:0:0:
320,192,52366,128,2,52520:0:0:0:0:
448,192,52366,1,0,0:0:0:0:
64,192,52673,1,10,0:0:0:0:
448,192,52827,128,0,52981:0:0:0:0:
192,192,52981,1,2,0:0:0:0:
448,192,53135,128,0,53289:0:0:0:0:
192,192,53289,1,10,0:0:0:0:
64,192,53443,1,0,0:0:0:0:
320,192,53596,128,2,53750:0:0:0:0:
448,192,53596,1,0,0:0:0:0:
64,192,53904,128,10,54058:0:0:0:0:
448,192,54058,1,2,0:0:0:0:
64,192,54212,1,2,0:0:0:0:
192,192,54212,128,0,54366:0:0:0:0:
320,192,54520,1,8,0:0:0:0:
448,192,54520,128,2,54673:0:0:0:0:
64,192,54827,1,2,0:0:0:0:
320,192,54981,1,0,0:0:0:0:
192,192,55135,1,10,0:0:0:0:
448,192,55289,1,0,0:0:0:0:
64,192,55443,1,2,0:0:0:0:
320,192,55673,1,0,0:0:0:0:
64,192,55904,1,2,0:0:0:0:
448,192,56058,1,2,0:0:0:0:
192,192,56289,1,2,0:0:0:0:
320,192,56520,1,2,0:0:0:0:
64,192,56673,128,2,56827:0:0:0:0:
192,192,56673,1,0,0:0:0:0:
448,192,56981,1,10,0:0:0:0:
64,192,57135,1,2,0:0:0:0:
192,192,57135,128,0,57289:0:0:0:0:
448,192,57443,1,0,0:0:0:0:
64,192,57596,128,8,57750:0:0:0:0:
192,192,57596,1,2,0:0:0:0:
320,192,57904,1,2,0:0:0:0:
448,192,57904,128,0,58058:0:0:0:0:
64,192,58212,1,10,0:0:0:0:
320,192,58366,128,2,58520:0:0:0:0:
448,192,58366,1,0,0:0:0:0:
64,192,58673,1,0,0:0:0:0:
320,192,58827,1,8,0:0:0:0:
448,192,58827,128,2,58981:0:0:0:0:
64,192,59135,1,2,0:0:0:0:
192,192,59135,128,0,59443:0:0:0:0:
448,192,59443,1,10,0:0:0:0:
64,192,59750,128,2,60058:0:0:0:0:
192,192,59750,1,0,0:0:0:0:
320,192,60058,1,10,0:0:0:0:
448,192,60366,1,2,0:0:0:0:
320,192,60520,1,2,0:0:0:0:
64,192,60673,1,10,0:0:0:0:
192,192,60827,1,2,0:0:0:0:
320,192,60981,128,2,61289:0:0:0:0:
448,192,60981,1,0,0:0:0:0:
64,192,61289,128,8,61596:0:0:0:0:
192,192,61289,1,2,0:0:0:0:
320,192,61596,1,2,0:0:0:0:
448,192,61596,1,4,0:0:0:0:
64,192,61904,1,10,0:0:0:0:
192,192,62212,1,2,0:0:0:0:
320,192,62212,128,0,62366:0:0:0:0:
448,192,62520,1,10,0:0:0:0:
64,192,62673,128,0,62827:0:0:0:0:
320,192,62827,1,2,0:0:0:0:
64,192,62981,128,0,63135:0:0:0:0:
448,192,63135,1,10,0:0:0:0:
320,192,63289,1,0,0:0:0:0:
64,192,63443,1,2,0:0:0:0:
192,192,63443,128,0,63596:0:0:0:0:
448,192,63750,128,10,63904:0:0:0:0:
192,192,63904,1,2,0:0:0:0:
64,192,64058,128,2,64212:0:0:0:0:
320,192,64058,1,0,0:0:0:0:
320,192,64366,128,2,64520:0:0:0:0:
448,192,64366,1,8,0:0:0:0:
192,192,64673,1,2,0:0:0:0:
448,192,64904,1,0,0:0:0:0:
64,192,65135,1,0,0:0:0:0:
448,192,65289,1,2,0:0:0:0:
192,192,65520,1,2,0:0:0:0:
320,192,65750,1,2,0:0:0:0:
64,192,65904,1,2,0:0:0:0:
448,192,66135,1,2,0:0:0:0:
192,192,66366,1,2,0:0:0:0:
320,192,66520,1,2,0:0:0:0:
448,192,66520,128,0,66673:0:0:0:0:
64,192,66827,1,10,0:0:0:0:
320,192,66981,128,2,67135:0:0:0:0:
448,192,66981,1,0,0:0:0:0:
64,192,67289,1,0,0:0:0:0:
320,192,67443,1,2,0:0:0:0:
448,192,67443,128,8,67596:0:0:0:0:
64,192,67750,128,2,67904:0:0:0:0:
192,192,67750,1,0,0:0:0:0:
448,192,68058,1,10,0:0:0:0:
64,192,68212,1,2,0:0:0:0:
192,192,68212,128,0,68366:0:0:0:0:
448,192,68520,1,0,0:0:0:0:
64,192,68673,128,2,68827:0:0:0:0:
192,192,68673,1,8,0:0:0:0:
320,192,68981,128,2,69289:0:0:0:0:
448,192,68981,1,0,0:0:0:0:
64,192,69289,1,10,0:0:0:0:
192,192,69596,128,2,69904:0:0:0:0:
320,192,69596,1,0,0:0:0:0:
448,192,69904,1,10,0:0:0:0:
64,192,70212,1,2,0:0:0:0:
320,192,70212,1,0,0:0:0:0:
192,192,70520,1,8,0:0:0:0:
448,192,70520,1,2,0:0:0:0:
448,192,70827,128,2,71443:0:0:0:0:
320,192,71135,128,2,71443:0:0:0:0:
64,192,71443,128,4,71596:0:0:0:0:
192,192,71443,1,2,0:0:0:0:
448,192,71750,1,10,0:0:0:0:
64,192,71904,128,2,72058:0:0:0:0:
192,192,71904,1,0,0:0:0:0:
448,192,72212,1,10,0:0:0:0:
64,192,72366,128,2,72520:0:0:0:0:
192,192,72366,1,0,0:0:0:0:
320,192,72673,1,2,0:0:0:0:
448,192,72673,128,0,72827:0:0:0:0:
64,192,72981,1,10,0:0:0:0:
192,192,73135,1,2,0:0:0:0:
448,192,73135,128,0,73289:0:0:0:0:
64,192,73443,1,10,0:0:0:0:
192,192,73596,1,2,0:0:0:0:
448,192,73596,128,0,73750:0:0:0:0:
64,192,73904,128,2,74058:0:0:0:0:
320,192,73904,1,0,0:0:0:0:
448,192,74212,1,10,0:0:0:0:
64,192,74366,128,2,74520:0:0:0:0:
192,192,74366,1,0,0:0:0:0:
448,192,74673,1,10,0:0:0:0:
64,192,74827,128,2,74981:0:0:0:0:
192,192,74827,1,0,0:0:0:0:
320,192,75135,1,2,0:0:0:0:
448,192,75135,128,0,75289:0:0:0:0:
64,192,75443,1,10,0:0:0:0:
192,192,75596,1,2,0:0:0:0:
448,192,75596,128,0,75750:0:0:0:0:
64,192,75904,1,10,0:0:0:0:
192,192,76058,1,2,0:0:0:0:
448,192,76058,128,0,76212:0:0:0:0:
64,192,76366,1,8,0:0:0:0:
192,192,76366,128,2,76673:0:0:0:0:
320,192,76673,1,10,0:0:0:0:
448,192,76827,1,2,0:0:0:0:
64,192,76981,1,2,0:0:0:0:
320,192,77289,1,10,0:0:0:0:
64,192,77443,1,2,0:0:0:0:
448,192,77596,1,6,0:0:0:0:
448,192,77827,1,0,0:0:0:0:
64,192,78058,1,0,0:0:0:0:
448,192,78212,1,2,0:0:0:0:
320,192,78366,1,0,0:0:0:0:
192,192,78520,1,10,0:0:0:0:
64,192,78673,1,0,0:0:0:0:
192,192,78827,1,2,0:0:0:0:
320,192,78827,128,0,79135:0:0:0:0:
64,192,79135,1,10,0:0:0:0:
448,192,79289,1,0,0:0:0:0:
192,192,79443,1,2,0:0:0:0:
320,192,79596,1,0,0:0:0:0:
64,192,79750,1,10,0:0:0:0:
448,192,79904,1,0,0:0:0:0:
64,192,80058,1,2,0:0:0:0:
320,192,80212,1,2,0:0:0:0:
192,192,80366,1,10,0:0:0:0:
448,192,80520,1,2,0:0:0:0:
320,192,80673,1,2,0:0:0:0:
64,192,80904,1,2,0:0:0:0:
448,192,80981,1,10,0:0:0:0:
192,192,81135,1,2,0:0:0:0:
64,192,81289,128,2,81443:0:0:0:0:
448,192,81289,1,4,0:0:0:0:
320,192,81596,1,10,0:0:0:0:
64,192,81750,128,2,81904:0:0:0:0:
192,192,81750,1,0,0:0:0:0:
320,192,82058,1,10,0:0:0:0:
64,192,82212,128,2,82366:0:0:0:0:
192,192,82212,1,0,0:0:0:0:
320,192,82520,1,2,0:0:0:0:
448,192,82520,128,0,82673:0:0:0:0:
64,192,82827,1,10,0:0:0:0:
192,192,82981,1,2,0:0:0:0:
448,192,82981,128,0,83135:0:0:0:0:
64,192,83289,1,10,0:0:0:0:
192,192,83443,1,2,0:0:0:0:
448,192,83443,128,0,83596:0:0:0:0:
64,192,83750,128,2,84058:0:0:0:0:
320,192,83750,1,0,0:0:0:0:
448,192,84058,1,10,0:0:0:0:
64,192,84212,128,2,84366:0:0:0:0:
192,192,84212,1,0,0:0:0:0:
448,192,84443,1,2,0:0:0:0:
64,192,84673,128,2,84827:0:0:0:0:
192,192,84673,1,0,0:0:0:0:
320,192,84981,1,2,0:0:0:0:
448,192,84981,128,0,85135:0:0:0:0:
64,192,85212,1,2,0:0:0:0:
320,192,85443,1,2,0:0:0:0:
448,192,85443,128,0,85596:0:0:0:0:
64,192,85673,1,2,0:0:0:0:
320,192,85904,1,2,0:0:0:0:
448,192,85904,128,0,86212:0:0:0:0:
64,192,86212,128,8,86520:0:0:0:0:
192,192,86212,1,2,0:0:0:0:
448,192,86673,1,2,0:0:0:0:
64,192,86827,1,2,0:0:0:0:
192,192,86827,128,0,87135:0:0:0:0:
448,192,87289,1,2,0:0:0:0:
64,192,87443,1,10,0:0:0:0:
192,192,87443,1,4,0:0:0:0:
320,192,87673,1,0,0:0:0:0:
192,192,87904,1,2,0:0:0:0:
448,192,88058,1,10,0:0:0:0:
64,192,88212,1,2,0:0:0:0:
320,192,88366,1,10,0:0:0:0:
192,192,88520,1,2,0:0:0:0:
64,192,88673,128,2,89904:0:0:0:0:
448,192,88673,1,8,0:0:0:0:
320,192,88827,1,10,0:0:0:0:
192,192,88981,1,10,0:0:0:0:
448,192,89135,1,10,0:0:0:0:
192,192,89289,128,10,89904:0:0:0:0:
448,192,89904,128,4,90520:0:0:0:0:
64,192,90520,128,2,91135:0:0:0:0:
192,192,90827,128,0,91135:0:0:0:0:
320,192,91135,1,0,0:0:0:0:
448,192,91135,1,0,0:0:0:0:
64,192,91443,1,2,0:0:0:0:
64,192,91648,1,2,0:0:0:0:
64,192,91853,1,2,0:0:0:0:
192,192,92058,1,2,0:0:0:0:
320,192,92366,1,0,0:0:0:0:
448,192,92366,1,0,0:0:0:0:
192,192,92673,1,2,0:0:0:0:
192,192,92878,1,2,0:0:0:0:
192,192,93084,1,2,0:0:0:0:
320,192,93289,1,2,0:0:0:0:
64,192,93596,1,2,0:0:0:0:
448,192,93596,1,4,0:0:0:0:
320,192,93904,1,2,0:0:0:0:
320,192,94109,1,2,0:0:0:0:
320,192,94314,1,2,0:0:0:0:
192,192,94520,1,2,0:0:0:0:
448,192,94673,1,0,0:0:0:0:
64,192,94827,1,4,0:0:0:0:
320,192,94827,1,2,0:0:0:0:
192,192,95135,1,0,0:0:0:0:
64,192,95443,1,8,0:0:0:0:
448,192,95443,1,2,0:0:0:0:
192,192,95750,1,0,0:0:0:0:
320,192,95904,1,0,0:0:0:0:
64,192,96058,1,4,0:0:0:0:
448,192,96058,1,2,0:0:0:0:
192,192,96366,1,2,0:0:0:0:
192,192,96571,1,2,0:0:0:0:
192,192,96776,1,2,0:0:0:0:
320,192,96981,1,2,0:0:0:0:
64,192,97289,1,0,0:0:0:0:
448,192,97289,1,0,0:0:0:0:
320,192,97596,1,2,0:0:0:0:
320,192,97802,1,2,0:0:0:0:
320,192,98007,1,2,0:0:0:0:
192,192,98212,1,2,0:0:0:0:
320,192,98520,1,2,0:0:0:0:
448,192,98520,1,4,0:0:0:0:
64,192,98827,1,2,0:0:0:0:
64,192,99032,1,2,0:0:0:0:
64,192,99237,1,2,0:0:0:0:
192,192,99443,1,2,0:0:0:0:
448,192,99545,1,2,0:0:0:0:
320,192,99648,1,2,0:0:0:0:
64,192,99750,1,2,0:0:0:0:
192,192,99750,1,4,0:0:0:0:
448,192,99904,1,0,0:0:0:0:
192,192,100058,1,0,0:0:0:0:
448,192,100212,1,0,0:0:0:0:
64,192,100366,1,8,0:0:0:0:
320,192,100366,1,2,0:0:0:0:
320,192,100673,1,0,0:0:0:0:
64,192,100981,1,4,0:0:0:0:
448,192,100981,1,2,0:0:0:0:
320,192,101289,1,2,0:0:0:0:
192,192,101494,1,0,0:0:0:0:
448,192,101596,1,2,0:0:0:0:
192,192,101699,1,0,0:0:0:0:
192,192,101904,1,2,0:0:0:0:
64,192,102212,1,2,0:0:0:0:
448,192,102212,1,4,0:0:0:0:
192,192,102520,1,2,0:0:0:0:
320,192,102725,1,0,0:0:0:0:
64,192,102827,1,2,0:0:0:0:
320,192,102930,1,0,0:0:0:0:
320,192,103135,1,2,0:0:0:0:
64,192,103443,1,2,0:0:0:0:
448,192,103443,1,4,0:0:0:0:
320,192,103750,1,2,0:0:0:0:
192,192,103955,1,0,0:0:0:0:
448,192,104058,1,2,0:0:0:0:
192,192,104161,1,0,0:0:0:0:
192,192,104366,1,2,0:0:0:0:
448,192,104468,1,0,0:0:0:0:
320,192,104571,1,0,0:0:0:0:
64,192,104673,1,4,0:0:0:0:
192,192,104673,1,2,0:0:0:0:
320,192,104981,1,0,0:0:0:0:
64,192,105289,1,8,0:0:0:0:
448,192,105289,1,2,0:0:0:0:
320,192,105596,1,0,0:0:0:0:
192,192,105750,1,0,0:0:0:0:
320,192,105904,1,2,0:0:0:0:
448,192,105904,1,4,0:0:0:0:
64,192,106212,1,2,0:0:0:0:
192,192,106417,1,2,0:0:0:0:
448,192,106622,1,2,0:0:0:0:
64,192,106827,1,2,0:0:0:0:
320,192,107032,1,2,0:0:0:0:
192,192,107135,1,6,0:0:0:0:
448,192,107237,1,2,0:0:0:0:
64,192,107340,1,2,0:0:0:0:
192,192,107443,1,2,0:0:0:0:
448,192,107545,1,2,0:0:0:0:
320,192,107648,1,2,0:0:0:0:
64,192,107750,1,6,0:0:0:0:
448,192,107853,1,2,0:0:0:0:
192,192,107955,1,2,0:0:0:0:
320,192,108058,1,2,0:0:0:0:
64,192,108161,1,2,0:0:0:0:
448,192,108263,1,2,0:0:0:0:
64,192,108366,1,2,0:0:0:0:
192,192,108366,1,4,0:0:0:0:
320,192,108673,128,0,108981:0:0:0:0:
64,192,109135,1,0,0:0:0:0:
192,192,109289,128,0,109596:0:0:0:0:
448,192,109750,1,0,0:0:0:0:
64,192,109904,128,0,110212:0:0:0:0:
320,192,110366,1,0,0:0:0:0:
192,192,110520,128,0,110827:0:0:0:0:
448,192,110981,1,0,0:0:0:0:
64,192,111135,128,0,111443:0:0:0:0:
320,192,111596,1,0,0:0:0:0:
192,192,111750,128,0,112058:0:0:0:0:
448,192,112212,1,0,0:0:0:0:
64,192,112366,128,0,112673:0:0:0:0:
448,192,112673,128,0,113289:0:0:0:0:
320,192,112981,128,0,113289:0:0:0:0:
64,192,113289,1,0,0:0:0:0:
