osu file format v14

[General]
AudioFilename: audio.mp3
AudioLeadIn: 0
PreviewTime: 51750
Countdown: 0
SampleSet: Soft
StackLeniency: 0.7
Mode: 3
LetterboxInBreaks: 0
SpecialStyle: 0
WidescreenStoryboard: 1

[Editor]
Bookmarks: 2519,12366,32058,51750,71443,91135,113289
DistanceSpacing: 0.8
BeatDivisor: 4
GridSize: 32
TimelineZoom: 2.999998

[Metadata]
Title:Destroy
TitleUnicode:Destroy
Artist:Yooh
ArtistUnicode:Yooh
Creator:SpectorDG
Version:GRAVITY
Source:SOUND VOLTEX III GRAVITY WARS
Tags:KONAMI SDVX 3 Tsumabuki Left 孤独な決意 13th Episode Wonki Virtue- supekuta Wadu eon 嬬武器烈風刀 BEMANI Video Game Electronic Instrumental
BeatmapID:1537243
BeatmapSetID:532375

[Difficulty]
HPDrainRate:8.5
CircleSize:4
OverallDifficulty:8
ApproachRate:5
SliderMultiplier:1.4
SliderTickRate:1

[Events]
//Background and Video events
0,0,"BG.jpg",0,0
//Break Periods
//Storyboard Layer 0 (Background)
//Storyboard Layer 1 (Fail)
//Storyboard Layer 2 (Pass)
//Storyboard Layer 3 (Foreground)
//Storyboard Layer 4 (Overlay)
//Storyboard Sound Samples

[TimingPoints]
2520,307.692307692308,4,2,1,50,1,0
9904,-76.9230769230769,4,2,1,50,0,0
10007,-142.857142857143,4,2,1,50,0,0
10109,-76.9230769230769,4,2,1,50,0,0
10212,-142.857142857143,4,2,1,50,0,0
10314,-76.9230769230769,4,2,1,50,0,0
10417,-142.857142857143,4,2,1,50,0,0
10520,-76.9230769230769,4,2,1,50,0,0
10622,-142.857142857143,4,2,1,50,0,0
10725,-76.9230769230769,4,2,1,50,0,0
10827,-142.857142857143,4,2,1,50,0,0
10930,-100,4,2,1,50,0,0
12058,-66.6666666666667,4,2,1,50,0,0
12173,-133.333333333333,4,2,1,50,0,0
12289,-100,4,2,1,50,0,0
12366,-35.7142857142857,4,2,1,50,0,0
12385,-200,4,2,1,50,0,0
12404,-100,4,2,1,50,0,0
13596,-35.7142857142857,4,2,1,50,0,0
13616,-200,4,2,1,50,0,0
13635,-100,4,2,1,50,0,0
14827,-35.7142857142857,4,2,1,50,0,0
14846,-200,4,2,1,50,0,0
14866,-100,4,2,1,50,0,0
16058,-35.7142857142857,4,2,1,50,0,0
16077,-200,4,2,1,50,0,0
16096,-100,4,2,1,50,0,0
17443,-60.6060606060606,4,2,1,50,0,0
17494,-333.333333333333,4,2,1,50,0,0
17596,-100,4,2,1,50,0,0
18058,-60.6060606060606,4,2,1,50,0,0
18109,-166.666666666667,4,2,1,50,0,0
18212,-100,4,2,1,50,0,0
18673,-60.6060606060606,4,2,1,50,0,0
18725,-166.666666666667,4,2,1,50,0,0
18827,-100,4,2,1,50,0,0
19289,-60.6060606060606,4,2,1,50,0,0
19340,-166.666666666667,4,2,1,50,0,0
19443,-100,4,2,1,50,0,0
19904,-60.6060606060606,4,2,1,50,0,0
19955,-166.666666666667,4,2,1,50,0,0
20058,-100,4,2,1,50,0,0
20981,-71.4285714285714,4,2,1,50,0,0
21084,-166.666666666667,4,2,1,50,0,0
21186,-71.4285714285714,4,2,1,50,0,0
21289,-166.666666666667,4,2,1,50,0,0
21391,-71.4285714285714,4,2,1,50,0,0
21494,-166.666666666667,4,2,1,50,0,0
21596,-71.4285714285714,4,2,1,50,0,0
21699,-166.666666666667,4,2,1,50,0,0
21802,-71.4285714285714,4,2,1,50,0,0
21904,-166.666666666667,4,2,1,50,0,0
22007,-71.4285714285714,4,2,1,50,0,0
22109,-166.666666666667,4,2,1,50,0,0
22212,-33.3333333333333,4,2,1,50,0,0
22231,-200,4,2,1,50,0,0
22250,-100,4,2,1,50,0,0
23443,-33.3333333333333,4,2,1,50,0,0
23462,-200,4,2,1,50,0,0
23481,-100,4,2,1,50,0,0
24673,-33.3333333333333,4,2,1,50,0,0
24693,-200,4,2,1,50,0,0
24712,-100,4,2,1,50,0,0
25904,-33.3333333333333,4,2,1,50,0,0
25923,-200,4,2,1,50,0,0
25943,-100,4,2,1,50,0,0
31443,-153.846153846153,4,2,1,50,0,0
31648,-71.4285714285714,4,2,1,50,0,0
31750,-153.846153846154,4,2,1,50,0,0
31955,-71.4285714285714,4,2,1,50,0,0
32058,-50,4,2,1,50,0,0
32109,-166.666666666667,4,2,1,50,0,0
32263,-100,4,2,1,50,0,0
32366,-74.0740740740741,4,2,1,50,0,0
32468,-153.846153846154,4,2,1,50,0,0
32571,-74.0740740740741,4,2,1,50,0,0
32673,-153.846153846154,4,2,1,50,0,0
32776,-74.0740740740741,4,2,1,50,0,0
32878,-153.846153846154,4,2,1,50,0,0
32981,-100,4,2,1,50,0,0
33289,-50,4,2,1,50,0,0
33340,-166.666666666667,4,2,1,50,0,0
33494,-100,4,2,1,50,0,0
33596,-74.0740740740741,4,2,1,50,0,0
33699,-153.846153846154,4,2,1,50,0,0
33802,-74.0740740740741,4,2,1,50,0,0
33904,-153.846153846154,4,2,1,50,0,0
34007,-74.0740740740741,4,2,1,50,0,0
34109,-153.846153846154,4,2,1,50,0,0
34212,-100,4,2,1,50,0,0
34520,-50,4,2,1,50,0,0
34571,-166.666666666667,4,2,1,50,0,0
34673,-100,4,2,1,50,0,0
34827,-74.0740740740741,4,2,1,50,0,0
34930,-153.846153846154,4,2,1,50,0,0
35032,-74.0740740740741,4,2,1,50,0,0
35135,-153.846153846154,4,2,1,50,0,0
35237,-74.0740740740741,4,2,1,50,0,0
35340,-153.846153846154,4,2,1,50,0,0
35443,-100,4,2,1,50,0,0
36981,-50,4,2,1,50,0,0
37058,-250,4,2,1,50,0,0
37135,-100,4,2,1,50,0,0
37289,-74.0740740740741,4,2,1,50,0,0
37391,-153.846153846154,4,2,1,50,0,0
37494,-74.0740740740741,4,2,1,50,0,0
37596,-153.846153846154,4,2,1,50,0,0
37699,-74.0740740740741,4,2,1,50,0,0
37802,-153.846153846154,4,2,1,50,0,0
37904,-100,4,2,1,50,0,0
38212,-50,4,2,1,50,0,0
38263,-166.666666666667,4,2,1,50,0,0
38417,-100,4,2,1,50,0,0
38520,-74.0740740740741,4,2,1,50,0,0
38622,-153.846153846154,4,2,1,50,0,0
38725,-74.0740740740741,4,2,1,50,0,0
38827,-153.846153846154,4,2,1,50,0,0
38930,-74.0740740740741,4,2,1,50,0,0
39032,-153.846153846154,4,2,1,50,0,0
39135,-100,4,2,1,50,0,0
39443,-50,4,2,1,50,0,0
39494,-166.666666666667,4,2,1,50,0,0
39596,-100,4,2,1,50,0,0
39750,-74.0740740740741,4,2,1,50,0,0
39853,-153.846153846154,4,2,1,50,0,0
39955,-74.0740740740741,4,2,1,50,0,0
40058,-153.846153846154,4,2,1,50,0,0
40161,-74.0740740740741,4,2,1,50,0,0
40263,-153.846153846154,4,2,1,50,0,0
40366,-100,4,2,1,50,0,0
40673,-50,4,2,1,50,0,0
40750,-200,4,2,1,50,0,0
40904,-100,4,2,1,50,0,0
40981,-50,4,2,1,50,0,0
41058,-200,4,2,1,50,0,0
41212,-100,4,2,1,50,0,0
41904,-50,4,2,1,50,0,0
41955,-166.666666666667,4,2,1,50,0,0
42058,-100,4,2,1,50,0,0
42212,-74.0740740740741,4,2,1,50,0,0
42314,-153.846153846154,4,2,1,50,0,0
42417,-74.0740740740741,4,2,1,50,0,0
42520,-153.846153846154,4,2,1,50,0,0
42622,-74.0740740740741,4,2,1,50,0,0
42725,-153.846153846154,4,2,1,50,0,0
42827,-100,4,2,1,50,0,0
43135,-50,4,2,1,50,0,0
43186,-166.666666666667,4,2,1,50,0,0
43289,-100,4,2,1,50,0,0
43443,-74.0740740740741,4,2,1,50,0,0
43545,-153.846153846154,4,2,1,50,0,0
43648,-74.0740740740741,4,2,1,50,0,0
43750,-153.846153846154,4,2,1,50,0,0
43853,-74.0740740740741,4,2,1,50,0,0
43955,-153.846153846154,4,2,1,50,0,0
44058,-100,4,2,1,50,0,0
44366,-50,4,2,1,50,0,0
44417,-166.666666666667,4,2,1,50,0,0
44520,-100,4,2,1,50,0,0
44673,-74.0740740740741,4,2,1,50,0,0
44776,-153.846153846154,4,2,1,50,0,0
44878,-74.0740740740741,4,2,1,50,0,0
44981,-153.846153846154,4,2,1,50,0,0
45084,-74.0740740740741,4,2,1,50,0,0
45186,-153.846153846154,4,2,1,50,0,0
45289,-100,4,2,1,50,0,0
46827,-50,4,2,1,50,0,0
46930,-166.666666666667,4,2,1,50,0,0
47032,-100,4,2,1,50,0,0
51443,-66.6666666666667,4,2,1,50,0,0
51558,-133.333333333333,4,2,1,50,0,0
51673,-100,4,2,1,50,0,0
51750,-100,4,2,1,50,0,1
89904,-100,4,2,1,50,0,0
91135,-50,4,2,1,50,0,0
91186,-166.666666666667,4,2,1,50,0,0
91340,-100,4,2,1,50,0,0
91443,-74.0740740740741,4,2,1,50,0,0
91545,-153.846153846154,4,2,1,50,0,0
91648,-74.0740740740741,4,2,1,50,0,0
91750,-153.846153846154,4,2,1,50,0,0
91853,-74.0740740740741,4,2,1,50,0,0
91955,-153.846153846154,4,2,1,50,0,0
92058,-100,4,2,1,50,0,0
92366,-50,4,2,1,50,0,0
92417,-166.666666666667,4,2,1,50,0,0
92571,-100,4,2,1,50,0,0
92673,-74.0740740740741,4,2,1,50,0,0
92776,-153.846153846154,4,2,1,50,0,0
92878,-74.0740740740741,4,2,1,50,0,0
92981,-153.846153846154,4,2,1,50,0,0
93084,-74.0740740740741,4,2,1,50,0,0
93186,-153.846153846154,4,2,1,50,0,0
93289,-100,4,2,1,50,0,0
93596,-50,4,2,1,50,0,0
93648,-166.666666666667,4,2,1,50,0,0
93750,-100,4,2,1,50,0,0
93904,-74.0740740740741,4,2,1,50,0,0
94007,-153.846153846154,4,2,1,50,0,0
94109,-74.0740740740741,4,2,1,50,0,0
94212,-153.846153846154,4,2,1,50,0,0
94314,-74.0740740740741,4,2,1,50,0,0
94417,-153.846153846154,4,2,1,50,0,0
94520,-100,4,2,1,50,0,0
96058,-50,4,2,1,50,0,0
96109,-166.666666666667,4,2,1,50,0,0
96212,-100,4,2,1,50,0,0
96366,-74.0740740740741,4,2,1,50,0,0
96468,-153.846153846154,4,2,1,50,0,0
96571,-74.0740740740741,4,2,1,50,0,0
96673,-153.846153846154,4,2,1,50,0,0
96776,-74.0740740740741,4,2,1,50,0,0
96878,-153.846153846154,4,2,1,50,0,0
96981,-100,4,2,1,50,0,0
97289,-50,4,2,1,50,0,0
97340,-166.666666666667,4,2,1,50,0,0
97494,-100,4,2,1,50,0,0
97596,-74.0740740740741,4,2,1,50,0,0
97699,-153.846153846154,4,2,1,50,0,0
97802,-74.0740740740741,4,2,1,50,0,0
97904,-153.846153846154,4,2,1,50,0,0
98007,-74.0740740740741,4,2,1,50,0,0
98109,-153.846153846154,4,2,1,50,0,0
98212,-100,4,2,1,50,0,0
98520,-50,4,2,1,50,0,0
98571,-166.666666666667,4,2,1,50,0,0
98673,-100,4,2,1,50,0,0
98827,-74.0740740740741,4,2,1,50,0,0
98930,-153.846153846154,4,2,1,50,0,0
99032,-74.0740740740741,4,2,1,50,0,0
99135,-153.846153846154,4,2,1,50,0,0
99237,-74.0740740740741,4,2,1,50,0,0
99340,-153.846153846154,4,2,1,50,0,0
99443,-100,4,2,1,50,0,0
100981,-55.5555555555556,4,2,1,50,0,0
101084,-200,4,2,1,50,0,0
101186,-100,4,2,1,50,0,0
102212,-55.5555555555556,4,2,1,50,0,0
102314,-200,4,2,1,50,0,0
102417,-100,4,2,1,50,0,0
103443,-55.5555555555556,4,2,1,50,0,0
103545,-200,4,2,1,50,0,0
103648,-100,4,2,1,50,0,0
105904,-50,4,2,1,50,0,0
106007,-166.666666666667,4,2,1,50,0,0
106109,-100,4,2,1,50,0,0

[HitObjects]
64,192,1289,128,0,2443:0:0:0:0:
192,192,1596,128,0,2443:0:0:0:0:
320,192,1904,128,0,2443:0:0:0:0:
448,192,2212,128,0,2443:0:0:0:0:
448,192,2519,5,2,0:0:0:0:
320,192,2519,1,4,0:0:0:0:
192,192,2519,1,0,0:0:0:0:
64,192,2519,1,0,0:0:0:0:
320,192,2673,1,0,0:0:0:0:
192,192,2827,1,0,0:0:0:0:
448,192,2827,1,0,0:0:0:0:
448,192,2981,1,2,0:0:0:0:
320,192,2981,1,4,0:0:0:0:
64,192,2981,1,0,0:0:0:0:
192,192,3135,1,0,0:0:0:0:
64,192,3135,1,0,0:0:0:0:
320,192,3212,1,0,0:0:0:0:
448,192,3212,1,0,0:0:0:0:
192,192,3289,1,0,0:0:0:0:
448,192,3443,1,2,0:0:0:0:
320,192,3443,1,4,0:0:0:0:
64,192,3443,1,0,0:0:0:0:
192,192,3596,1,0,0:0:0:0:
320,192,3596,1,0,0:0:0:0:
448,192,3750,128,2,3904:0:0:0:0:
64,192,3750,128,0,4135:0:0:0:0:
448,192,3981,128,0,4366:0:0:0:0:
320,192,3981,1,0,0:0:0:0:
64,192,4212,128,0,4366:0:0:0:0:
192,192,4212,1,0,0:0:0:0:
320,192,4366,1,8,0:0:0:0:
192,192,4366,1,2,0:0:0:0:
64,192,4443,1,0,0:0:0:0:
320,192,4520,1,0,0:0:0:0:
448,192,4520,1,0,0:0:0:0:
192,192,4596,1,0,0:0:0:0:
448,192,4673,1,0,0:0:0:0:
64,192,4673,1,0,0:0:0:0:
320,192,4750,1,0,0:0:0:0:
64,192,4827,1,0,0:0:0:0:
192,192,4827,1,0,0:0:0:0:
320,192,4904,1,0,0:0:0:0:
192,192,4981,1,4,0:0:0:0:
64,192,4981,1,2,0:0:0:0:
448,192,4981,1,0,0:0:0:0:
320,192,5135,1,0,0:0:0:0:
192,192,5289,1,0,0:0:0:0:
64,192,5289,1,0,0:0:0:0:
320,192,5443,1,4,0:0:0:0:
448,192,5443,1,0,0:0:0:0:
64,192,5443,1,2,0:0:0:0:
64,192,5596,128,0,5827:0:0:0:0:
192,192,5596,1,0,0:0:0:0:
320,192,5750,1,0,0:0:0:0:
448,192,5750,128,0,5981:0:0:0:0:
192,192,5904,1,4,0:0:0:0:
64,192,5904,128,2,6135:0:0:0:0:
320,192,6058,1,0,0:0:0:0:
448,192,6058,128,0,6212:0:0:0:0:
64,192,6212,128,2,6443:0:0:0:0:
192,192,6212,128,0,6366:0:0:0:0:
448,192,6289,1,0,0:0:0:0:
320,192,6366,1,0,0:0:0:0:
448,192,6443,1,0,0:0:0:0:
64,192,6520,128,0,6596:0:0:0:0:
192,192,6520,128,0,6596:0:0:0:0:
320,192,6596,1,0,0:0:0:0:
64,192,6673,128,0,6750:0:0:0:0:
192,192,6673,128,0,6750:0:0:0:0:
320,192,6750,1,0,0:0:0:0:
192,192,6827,1,8,0:0:0:0:
64,192,6827,1,2,0:0:0:0:
448,192,6827,1,0,0:0:0:0:
320,192,6904,1,0,0:0:0:0:
192,192,6981,1,0,0:0:0:0:
64,192,6981,1,0,0:0:0:0:
448,192,7058,1,0,0:0:0:0:
192,192,7135,1,0,0:0:0:0:
320,192,7135,1,0,0:0:0:0:
64,192,7212,1,0,0:0:0:0:
320,192,7289,1,0,0:0:0:0:
448,192,7289,1,0,0:0:0:0:
192,192,7366,1,0,0:0:0:0:
64,192,7443,1,2,0:0:0:0:
448,192,7443,1,4,0:0:0:0:
320,192,7443,1,0,0:0:0:0:
192,192,7596,1,0,0:0:0:0:
448,192,7750,1,0,0:0:0:0:
320,192,7750,1,0,0:0:0:0:
448,192,7904,1,0,0:0:0:0:
192,192,7904,1,4,0:0:0:0:
64,192,7904,1,2,0:0:0:0:
192,192,8058,1,0,0:0:0:0:
320,192,8058,1,0,0:0:0:0:
448,192,8135,1,0,0:0:0:0:
64,192,8135,1,0,0:0:0:0:
320,192,8212,1,0,0:0:0:0:
192,192,8366,1,2,0:0:0:0:
64,192,8366,1,4,0:0:0:0:
448,192,8366,1,0,0:0:0:0:
320,192,8520,1,2,0:0:0:0:
192,192,8520,1,0,0:0:0:0:
320,192,8673,1,2,0:0:0:0:
64,192,8673,1,0,0:0:0:0:
448,192,8673,1,4,0:0:0:0:
192,192,8827,1,0,0:0:0:0:
448,192,8981,128,0,9135:0:0:0:0:
320,192,8981,1,8,0:0:0:0:
192,192,9135,1,2,0:0:0:0:
448,192,9289,1,0,0:0:0:0:
320,192,9289,1,2,0:0:0:0:
64,192,9289,128,8,9443:0:0:0:0:
192,192,9443,1,0,0:0:0:0:
320,192,9520,1,2,0:0:0:0:
448,192,9520,1,0,0:0:0:0:
64,192,9596,1,0,0:0:0:0:
192,192,9596,128,8,9750:0:0:0:0:
448,192,9750,128,0,9904:0:0:0:0:
320,192,9750,1,2,0:0:0:0:
64,192,9904,1,2,0:0:0:0:
192,192,9904,1,8,0:0:0:0:
320,192,9904,1,0,0:0:0:0:
192,192,10109,1,8,0:0:0:0:
448,192,10109,1,0,0:0:0:0:
64,192,10109,1,2,0:0:0:0:
64,192,10314,1,2,0:0:0:0:
192,192,10314,1,8,0:0:0:0:
320,192,10314,1,0,0:0:0:0:
448,192,10520,1,8,0:0:0:0:
320,192,10520,1,2,0:0:0:0:
192,192,10520,1,0,0:0:0:0:
320,192,10725,1,2,0:0:0:0:
448,192,10725,1,8,0:0:0:0:
64,192,10725,1,0,0:0:0:0:
320,192,10930,1,0,0:0:0:0:
192,192,10930,1,2,0:0:0:0:
448,192,10930,1,8,0:0:0:0:
320,192,11135,1,0,0:0:0:0:
64,192,11135,1,4,0:0:0:0:
448,192,11135,1,8,0:0:0:0:
64,192,11237,1,0,0:0:0:0:
320,192,11237,1,2,0:0:0:0:
192,192,11340,1,0,0:0:0:0:
448,192,11340,1,2,0:0:0:0:
64,192,11443,1,0,0:0:0:0:
448,192,11443,1,4,0:0:0:0:
320,192,11443,1,8,0:0:0:0:
320,192,11545,1,2,0:0:0:0:
64,192,11545,1,0,0:0:0:0:
192,192,11648,1,2,0:0:0:0:
448,192,11648,1,0,0:0:0:0:
64,192,11750,128,8,12289:0:0:0:0:
320,192,11750,128,0,12289:0:0:0:0:
448,192,11750,1,4,0:0:0:0:
192,192,12058,128,0,12289:0:0:0:0:
448,192,12058,128,0,12289:0:0:0:0:
192,192,12366,1,0,0:0:0:0:
64,192,12366,1,2,0:0:0:0:
448,192,12366,1,4,0:0:0:0:
320,192,12366,1,0,0:0:0:0:
64,192,12520,1,0,0:0:0:0:
192,192,12673,1,0,0:0:0:0:
320,192,12827,1,0,0:0:0:0:
448,192,12981,1,0,0:0:0:0:
64,192,12981,1,0,0:0:0:0:
448,192,13135,1,0,0:0:0:0:
192,192,13289,1,0,0:0:0:0:
448,192,13443,1,0,0:0:0:0:
192,192,13596,1,0,0:0:0:0:
64,192,13596,1,0,0:0:0:0:
64,192,13750,1,0,0:0:0:0:
192,192,13904,1,0,0:0:0:0:
320,192,14058,1,0,0:0:0:0:
64,192,14212,1,0,0:0:0:0:
448,192,14212,1,0,0:0:0:0:
64,192,14366,1,0,0:0:0:0:
320,192,14520,1,0,0:0:0:0:
64,192,14673,1,0,0:0:0:0:
320,192,14827,1,0,0:0:0:0:
448,192,14827,1,0,0:0:0:0:
448,192,14981,1,0,0:0:0:0:
320,192,15135,1,0,0:0:0:0:
192,192,15289,1,0,0:0:0:0:
64,192,15443,1,0,0:0:0:0:
448,192,15443,1,0,0:0:0:0:
64,192,15596,1,0,0:0:0:0:
320,192,15750,1,0,0:0:0:0:
64,192,15904,1,0,0:0:0:0:
448,192,16058,1,0,0:0:0:0:
320,192,16058,1,0,0:0:0:0:
448,192,16212,1,0,0:0:0:0:
320,192,16366,1,0,0:0:0:0:
192,192,16520,1,0,0:0:0:0:
64,192,16673,128,0,17058:0:0:0:0:
320,192,16673,128,0,16904:0:0:0:0:
448,192,16827,128,0,16904:0:0:0:0:
448,192,16981,128,0,17212:0:0:0:0:
320,192,16981,128,0,17212:0:0:0:0:
64,192,17135,128,0,17212:0:0:0:0:
64,192,17289,1,0,0:0:0:0:
448,192,17289,1,0,0:0:0:0:
448,192,17443,1,0,0:0:0:0:
64,192,17596,128,0,17904:0:0:0:0:
320,192,17750,1,0,0:0:0:0:
448,192,17904,1,0,0:0:0:0:
192,192,17904,1,0,0:0:0:0:
192,192,18058,1,0,0:0:0:0:
448,192,18212,128,0,18520:0:0:0:0:
192,192,18366,1,0,0:0:0:0:
320,192,18520,1,0,0:0:0:0:
64,192,18520,1,0,0:0:0:0:
320,192,18673,1,0,0:0:0:0:
192,192,18827,128,0,19135:0:0:0:0:
448,192,18981,1,0,0:0:0:0:
64,192,19135,1,0,0:0:0:0:
320,192,19135,1,0,0:0:0:0:
320,192,19289,1,0,0:0:0:0:
448,192,19443,128,0,19750:0:0:0:0:
192,192,19596,1,0,0:0:0:0:
320,192,19750,1,0,0:0:0:0:
64,192,19750,1,0,0:0:0:0:
320,192,19904,1,0,0:0:0:0:
64,192,20058,128,0,20366:0:0:0:0:
320,192,20212,1,0,0:0:0:0:
192,192,20366,1,0,0:0:0:0:
448,192,20366,1,0,0:0:0:0:
192,192,20520,1,0,0:0:0:0:
448,192,20673,1,0,0:0:0:0:
320,192,20673,1,0,0:0:0:0:
64,192,20750,1,0,0:0:0:0:
320,192,20827,1,0,0:0:0:0:
448,192,20827,1,0,0:0:0:0:
192,192,20904,1,0,0:0:0:0:
64,192,20981,1,0,0:0:0:0:
320,192,20981,1,0,0:0:0:0:
448,192,20981,1,2,0:0:0:0:
448,192,21186,1,0,0:0:0:0:
320,192,21186,1,8,0:0:0:0:
192,192,21186,1,0,0:0:0:0:
64,192,21391,1,0,0:0:0:0:
192,192,21391,1,8,0:0:0:0:
448,192,21391,1,2,0:0:0:0:
320,192,21596,1,2,0:0:0:0:
192,192,21596,1,0,0:0:0:0:
64,192,21596,1,0,0:0:0:0:
448,192,21802,1,0,0:0:0:0:
320,192,21802,1,8,0:0:0:0:
64,192,21802,1,0,0:0:0:0:
192,192,22007,1,2,0:0:0:0:
320,192,22007,1,8,0:0:0:0:
448,192,22007,1,0,0:0:0:0:
448,192,22212,1,4,0:0:0:0:
320,192,22212,1,0,0:0:0:0:
64,192,22212,1,2,0:0:0:0:
192,192,22212,1,0,0:0:0:0:
192,192,22417,1,0,0:0:0:0:
64,192,22520,1,0,0:0:0:0:
448,192,22520,1,0,0:0:0:0:
320,192,22725,1,0,0:0:0:0:
192,192,22827,1,0,0:0:0:0:
64,192,22827,1,0,0:0:0:0:
448,192,22930,1,0,0:0:0:0:
320,192,22930,1,0,0:0:0:0:
64,192,23032,1,0,0:0:0:0:
192,192,23032,1,0,0:0:0:0:
320,192,23135,1,0,0:0:0:0:
448,192,23135,1,0,0:0:0:0:
192,192,23340,1,0,0:0:0:0:
64,192,23443,1,0,0:0:0:0:
448,192,23443,1,0,0:0:0:0:
320,192,23648,1,0,0:0:0:0:
192,192,23750,1,0,0:0:0:0:
64,192,23750,1,0,0:0:0:0:
448,192,23955,1,0,0:0:0:0:
320,192,24058,1,0,0:0:0:0:
192,192,24058,1,0,0:0:0:0:
64,192,24161,1,0,0:0:0:0:
448,192,24161,1,0,0:0:0:0:
320,192,24263,1,0,0:0:0:0:
192,192,24263,1,0,0:0:0:0:
64,192,24366,1,0,0:0:0:0:
448,192,24366,1,0,0:0:0:0:
192,192,24571,1,0,0:0:0:0:
320,192,24673,1,0,0:0:0:0:
448,192,24673,1,0,0:0:0:0:
64,192,24878,1,0,0:0:0:0:
192,192,24981,1,0,0:0:0:0:
448,192,24981,1,0,0:0:0:0:
320,192,25186,1,0,0:0:0:0:
192,192,25289,1,0,0:0:0:0:
64,192,25289,1,0,0:0:0:0:
448,192,25391,1,0,0:0:0:0:
320,192,25391,1,0,0:0:0:0:
192,192,25494,1,0,0:0:0:0:
64,192,25494,1,0,0:0:0:0:
320,192,25596,1,0,0:0:0:0:
448,192,25596,1,0,0:0:0:0:
64,192,25802,1,0,0:0:0:0:
192,192,25904,1,0,0:0:0:0:
320,192,25904,1,0,0:0:0:0:
448,192,26109,1,0,0:0:0:0:
192,192,26212,1,0,0:0:0:0:
64,192,26212,1,0,0:0:0:0:
320,192,26417,1,0,0:0:0:0:
448,192,26520,1,0,0:0:0:0:
64,192,26520,1,0,0:0:0:0:
192,192,26622,1,0,0:0:0:0:
320,192,26622,1,0,0:0:0:0:
448,192,26725,1,0,0:0:0:0:
64,192,26725,1,0,0:0:0:0:
192,192,26827,1,0,0:0:0:0:
320,192,26827,1,0,0:0:0:0:
448,192,27032,1,0,0:0:0:0:
64,192,27135,1,2,0:0:0:0:
192,192,27135,1,8,0:0:0:0:
320,192,27237,1,8,0:0:0:0:
448,192,27237,1,0,0:0:0:0:
192,192,27340,1,8,0:0:0:0:
320,192,27443,1,8,0:0:0:0:
64,192,27443,1,2,0:0:0:0:
448,192,27443,1,0,0:0:0:0:
64,192,27545,1,8,0:0:0:0:
192,192,27545,1,0,0:0:0:0:
320,192,27648,1,8,0:0:0:0:
64,192,27750,1,8,0:0:0:0:
448,192,27750,1,2,0:0:0:0:
192,192,27853,1,8,0:0:0:0:
320,192,27853,1,0,0:0:0:0:
64,192,27955,1,8,0:0:0:0:
448,192,28058,1,0,0:0:0:0:
192,192,28058,1,2,0:0:0:0:
320,192,28058,1,8,0:0:0:0:
64,192,28161,1,0,0:0:0:0:
448,192,28161,1,8,0:0:0:0:
320,192,28263,1,8,0:0:0:0:
192,192,28366,1,8,0:0:0:0:
64,192,28366,1,2,0:0:0:0:
320,192,28468,1,0,0:0:0:0:
448,192,28468,1,8,0:0:0:0:
192,192,28571,1,8,0:0:0:0:
320,192,28673,1,8,0:0:0:0:
448,192,28673,1,0,0:0:0:0:
64,192,28673,1,2,0:0:0:0:
64,192,28776,1,0,0:0:0:0:
192,192,28776,1,8,0:0:0:0:
320,192,28878,1,8,0:0:0:0:
448,192,28981,1,2,0:0:0:0:
64,192,28981,1,8,0:0:0:0:
192,192,29084,1,8,0:0:0:0:
320,192,29186,1,0,0:0:0:0:
448,192,29186,1,10,0:0:0:0:
64,192,29289,1,0,0:0:0:0:
192,192,29289,1,8,0:0:0:0:
448,192,29289,1,0,0:0:0:0:
320,192,29391,1,2,0:0:0:0:
64,192,29391,1,8,0:0:0:0:
448,192,29494,1,8,0:0:0:0:
192,192,29596,1,0,0:0:0:0:
64,192,29596,1,8,0:0:0:0:
448,192,29699,1,0,0:0:0:0:
320,192,29699,1,8,0:0:0:0:
64,192,29802,1,0,0:0:0:0:
192,192,29802,1,8,0:0:0:0:
64,192,29904,1,8,0:0:0:0:
448,192,29904,1,0,0:0:0:0:
320,192,30007,1,0,0:0:0:0:
192,192,30007,1,8,0:0:0:0:
448,192,30109,1,0,0:0:0:0:
64,192,30109,1,8,0:0:0:0:
448,192,30212,1,0,0:0:0:0:
192,192,30212,1,8,0:0:0:0:
320,192,30314,1,8,0:0:0:0:
64,192,30314,1,0,0:0:0:0:
64,192,30417,1,0,0:0:0:0:
192,192,30417,1,8,0:0:0:0:
448,192,30520,1,0,0:0:0:0:
320,192,30520,1,8,0:0:0:0:
448,192,30622,1,8,0:0:0:0:
64,192,30622,1,0,0:0:0:0:
320,192,30725,1,8,0:0:0:0:
192,192,30725,1,0,0:0:0:0:
64,192,30827,128,0,30930:0:0:0:0:
448,192,30827,128,0,30930:0:0:0:0:
320,192,30930,128,0,31032:0:0:0:0:
192,192,30930,128,0,31032:0:0:0:0:
64,192,31032,128,0,31135:0:0:0:0:
448,192,31032,128,0,31135:0:0:0:0:
320,192,31135,1,2,0:0:0:0:
192,192,31135,1,0,0:0:0:0:
64,192,31237,1,0,0:0:0:0:
448,192,31237,1,2,0:0:0:0:
320,192,31340,1,2,0:0:0:0:
192,192,31340,1,0,0:0:0:0:
320,192,31443,128,8,31648:0:0:0:0:
64,192,31443,128,0,31648:0:0:0:0:
448,192,31443,128,2,31648:0:0:0:0:
64,192,31750,128,0,31955:0:0:0:0:
448,192,31750,128,8,31955:0:0:0:0:
192,192,31750,128,2,31955:0:0:0:0:
448,192,32058,128,2,32263:0:0:0:0:
320,192,32058,128,0,32263:0:0:0:0:
192,192,32058,128,4,32263:0:0:0:0:
448,192,32366,1,2,0:0:0:0:
192,192,32366,1,0,0:0:0:0:
64,192,32366,1,0,0:0:0:0:
64,192,32571,1,0,0:0:0:0:
192,192,32571,1,0,0:0:0:0:
448,192,32571,1,2,0:0:0:0:
448,192,32776,1,2,0:0:0:0:
192,192,32776,1,0,0:0:0:0:
64,192,32776,1,0,0:0:0:0:
64,192,32981,1,0,0:0:0:0:
192,192,32981,1,0,0:0:0:0:
448,192,32981,1,2,0:0:0:0:
64,192,33289,128,2,33494:0:0:0:0:
320,192,33289,128,0,33494:0:0:0:0:
192,192,33289,128,4,33494:0:0:0:0:
448,192,33596,1,0,0:0:0:0:
320,192,33596,1,0,0:0:0:0:
64,192,33596,1,2,0:0:0:0:
64,192,33802,1,2,0:0:0:0:
320,192,33802,1,0,0:0:0:0:
448,192,33802,1,0,0:0:0:0:
448,192,34007,1,0,0:0:0:0:
320,192,34007,1,0,0:0:0:0:
64,192,34007,1,2,0:0:0:0:
64,192,34212,1,2,0:0:0:0:
320,192,34212,1,0,0:0:0:0:
448,192,34212,1,0,0:0:0:0:
192,192,34443,1,8,0:0:0:0:
320,192,34520,1,0,0:0:0:0:
448,192,34520,1,4,0:0:0:0:
64,192,34520,1,2,0:0:0:0:
64,192,34827,1,0,0:0:0:0:
192,192,34827,1,0,0:0:0:0:
320,192,34827,1,2,0:0:0:0:
320,192,35032,1,2,0:0:0:0:
192,192,35032,1,0,0:0:0:0:
64,192,35032,1,0,0:0:0:0:
64,192,35237,1,0,0:0:0:0:
192,192,35237,1,0,0:0:0:0:
320,192,35237,1,2,0:0:0:0:
320,192,35443,1,2,0:0:0:0:
192,192,35443,1,0,0:0:0:0:
64,192,35443,1,0,0:0:0:0:
64,192,35750,1,0,0:0:0:0:
320,192,35750,1,2,0:0:0:0:
448,192,35750,128,4,35981:0:0:0:0:
64,192,35981,1,0,0:0:0:0:
192,192,36058,128,0,36212:0:0:0:0:
448,192,36212,1,0,0:0:0:0:
320,192,36366,128,8,36520:0:0:0:0:
64,192,36366,1,2,0:0:0:0:
192,192,36366,1,0,0:0:0:0:
448,192,36520,1,0,0:0:0:0:
64,192,36673,128,0,36750:0:0:0:0:
448,192,36750,1,0,0:0:0:0:
192,192,36827,128,0,36904:0:0:0:0:
320,192,36904,1,0,0:0:0:0:
64,192,36981,1,2,0:0:0:0:
448,192,36981,1,4,0:0:0:0:
192,192,36981,1,0,0:0:0:0:
192,192,37289,1,0,0:0:0:0:
64,192,37289,1,0,0:0:0:0:
320,192,37289,1,2,0:0:0:0:
320,192,37494,1,2,0:0:0:0:
192,192,37494,1,0,0:0:0:0:
64,192,37494,1,0,0:0:0:0:
64,192,37699,1,0,0:0:0:0:
192,192,37699,1,0,0:0:0:0:
320,192,37699,1,2,0:0:0:0:
320,192,37904,1,2,0:0:0:0:
192,192,37904,1,0,0:0:0:0:
64,192,37904,1,0,0:0:0:0:
320,192,38212,128,2,38417:0:0:0:0:
192,192,38212,128,0,38417:0:0:0:0:
448,192,38212,128,0,38417:0:0:0:0:
448,192,38520,1,0,0:0:0:0:
320,192,38520,1,0,0:0:0:0:
64,192,38520,1,2,0:0:0:0:
64,192,38725,1,2,0:0:0:0:
320,192,38725,1,0,0:0:0:0:
448,192,38725,1,0,0:0:0:0:
448,192,38930,1,0,0:0:0:0:
320,192,38930,1,0,0:0:0:0:
64,192,38930,1,2,0:0:0:0:
64,192,39135,1,2,0:0:0:0:
320,192,39135,1,0,0:0:0:0:
448,192,39135,1,0,0:0:0:0:
192,192,39366,1,8,0:0:0:0:
320,192,39443,1,0,0:0:0:0:
448,192,39443,1,4,0:0:0:0:
64,192,39443,1,2,0:0:0:0:
192,192,39750,1,0,0:0:0:0:
64,192,39750,1,0,0:0:0:0:
448,192,39750,1,2,0:0:0:0:
448,192,39955,1,2,0:0:0:0:
192,192,39955,1,0,0:0:0:0:
64,192,39955,1,0,0:0:0:0:
64,192,40161,1,0,0:0:0:0:
192,192,40161,1,0,0:0:0:0:
448,192,40161,1,2,0:0:0:0:
192,192,40366,1,0,0:0:0:0:
64,192,40366,1,0,0:0:0:0:
448,192,40366,1,2,0:0:0:0:
320,192,40468,1,2,0:0:0:0:
192,192,40468,1,0,0:0:0:0:
448,192,40571,1,2,0:0:0:0:
64,192,40571,1,0,0:0:0:0:
448,192,40673,128,2,40904:0:0:0:0:
320,192,40673,128,0,40904:0:0:0:0:
192,192,40673,128,0,40904:0:0:0:0:
64,192,40673,128,4,40904:0:0:0:0:
320,192,40981,128,0,41212:0:0:0:0:
448,192,40981,128,0,41212:0:0:0:0:
192,192,40981,128,0,41212:0:0:0:0:
64,192,40981,128,0,41212:0:0:0:0:
192,192,41289,1,0,0:0:0:0:
448,192,41289,1,8,0:0:0:0:
64,192,41289,128,2,41520:0:0:0:0:
320,192,41443,1,0,0:0:0:0:
448,192,41443,128,0,41673:0:0:0:0:
192,192,41596,1,0,0:0:0:0:
64,192,41596,128,0,41827:0:0:0:0:
448,192,41750,128,0,41904:0:0:0:0:
320,192,41750,1,0,0:0:0:0:
192,192,41904,1,4,0:0:0:0:
64,192,41904,1,2,0:0:0:0:
320,192,41904,1,0,0:0:0:0:
448,192,42212,1,0,0:0:0:0:
320,192,42212,1,2,0:0:0:0:
64,192,42212,1,0,0:0:0:0:
64,192,42417,1,0,0:0:0:0:
320,192,42417,1,2,0:0:0:0:
448,192,42417,1,0,0:0:0:0:
448,192,42622,1,0,0:0:0:0:
320,192,42622,1,2,0:0:0:0:
64,192,42622,1,0,0:0:0:0:
64,192,42827,1,0,0:0:0:0:
320,192,42827,1,2,0:0:0:0:
448,192,42827,1,0,0:0:0:0:
192,192,43058,1,8,0:0:0:0:
64,192,43135,1,0,0:0:0:0:
320,192,43135,1,2,0:0:0:0:
448,192,43135,1,4,0:0:0:0:
192,192,43443,1,0,0:0:0:0:
64,192,43443,1,0,0:0:0:0:
320,192,43443,1,2,0:0:0:0:
320,192,43648,1,2,0:0:0:0:
192,192,43648,1,0,0:0:0:0:
64,192,43648,1,0,0:0:0:0:
64,192,43853,1,0,0:0:0:0:
192,192,43853,1,0,0:0:0:0:
320,192,43853,1,2,0:0:0:0:
320,192,44058,1,2,0:0:0:0:
192,192,44058,1,0,0:0:0:0:
64,192,44058,1,0,0:0:0:0:
448,192,44289,1,8,0:0:0:0:
320,192,44366,1,2,0:0:0:0:
192,192,44366,1,0,0:0:0:0:
64,192,44366,1,0,0:0:0:0:
192,192,44673,1,2,0:0:0:0:
320,192,44673,1,0,0:0:0:0:
448,192,44673,1,0,0:0:0:0:
448,192,44878,1,0,0:0:0:0:
320,192,44878,1,0,0:0:0:0:
192,192,44878,1,2,0:0:0:0:
192,192,45084,1,2,0:0:0:0:
320,192,45084,1,0,0:0:0:0:
448,192,45084,1,0,0:0:0:0:
448,192,45289,1,0,0:0:0:0:
320,192,45289,1,0,0:0:0:0:
64,192,45289,1,2,0:0:0:0:
192,192,45391,1,2,0:0:0:0:
320,192,45391,1,0,0:0:0:0:
448,192,45494,1,0,0:0:0:0:
64,192,45494,1,2,0:0:0:0:
192,192,45596,1,4,0:0:0:0:
64,192,45596,1,2,0:0:0:0:
448,192,45596,128,0,45904:0:0:0:0:
320,192,45904,128,0,46058:0:0:0:0:
64,192,45904,1,0,0:0:0:0:
192,192,46058,1,0,0:0:0:0:
448,192,46212,128,2,46366:0:0:0:0:
320,192,46212,1,8,0:0:0:0:
64,192,46212,1,0,0:0:0:0:
192,192,46366,1,0,0:0:0:0:
320,192,46520,128,0,46596:0:0:0:0:
64,192,46596,128,0,46673:0:0:0:0:
192,192,46673,128,0,46750:0:0:0:0:
448,192,46750,128,0,46827:0:0:0:0:
320,192,46827,1,4,0:0:0:0:
192,192,46827,1,2,0:0:0:0:
64,192,46827,1,0,0:0:0:0:
448,192,47135,1,0,0:0:0:0:
320,192,47135,1,2,0:0:0:0:
64,192,47135,1,0,0:0:0:0:
192,192,47340,1,2,0:0:0:0:
64,192,47340,1,0,0:0:0:0:
448,192,47340,1,0,0:0:0:0:
448,192,47545,1,0,0:0:0:0:
320,192,47545,1,2,0:0:0:0:
64,192,47545,1,0,0:0:0:0:
64,192,47750,1,0,0:0:0:0:
192,192,47750,1,0,0:0:0:0:
320,192,47750,1,2,0:0:0:0:
448,192,47955,1,0,0:0:0:0:
320,192,47955,1,2,0:0:0:0:
192,192,47955,1,0,0:0:0:0:
64,192,48161,1,0,0:0:0:0:
192,192,48161,1,2,0:0:0:0:
448,192,48161,1,0,0:0:0:0:
448,192,48366,1,0,0:0:0:0:
320,192,48366,1,2,0:0:0:0:
64,192,48366,1,0,0:0:0:0:
192,192,48571,1,0,0:0:0:0:
64,192,48571,1,0,0:0:0:0:
320,192,48571,1,2,0:0:0:0:
448,192,48776,1,0,0:0:0:0:
320,192,48776,1,0,0:0:0:0:
192,192,48776,1,2,0:0:0:0:
64,192,48981,1,0,0:0:0:0:
192,192,48981,1,2,0:0:0:0:
448,192,48981,1,0,0:0:0:0:
320,192,49084,1,2,0:0:0:0:
448,192,49084,1,0,0:0:0:0:
192,192,49186,1,2,0:0:0:0:
64,192,49186,1,0,0:0:0:0:
64,192,49289,128,0,49443:0:0:0:0:
448,192,49289,128,8,49596:0:0:0:0:
320,192,49289,128,2,49443:0:0:0:0:
192,192,49443,128,0,49750:0:0:0:0:
320,192,49596,128,8,49750:0:0:0:0:
64,192,49596,128,0,49904:0:0:0:0:
448,192,49750,128,0,50058:0:0:0:0:
192,192,49904,128,8,50058:0:0:0:0:
320,192,49904,128,0,50212:0:0:0:0:
64,192,50058,128,0,50366:0:0:0:0:
192,192,50212,128,8,50520:0:0:0:0:
448,192,50212,128,0,50366:0:0:0:0:
320,192,50366,128,0,50520:0:0:0:0:
448,192,50520,1,0,0:0:0:0:
64,192,50520,1,8,0:0:0:0:
448,192,50673,1,0,0:0:0:0:
192,192,50673,1,8,0:0:0:0:
64,192,50827,1,8,0:0:0:0:
320,192,50827,1,0,0:0:0:0:
192,192,50981,1,0,0:0:0:0:
64,192,50981,1,8,0:0:0:0:
448,192,51135,1,0,0:0:0:0:
320,192,51135,1,8,0:0:0:0:
64,192,51212,1,0,0:0:0:0:
192,192,51212,1,8,0:0:0:0:
320,192,51289,1,8,0:0:0:0:
448,192,51289,1,0,0:0:0:0:
192,192,51366,1,8,0:0:0:0:
64,192,51366,1,0,0:0:0:0:
320,192,51443,128,0,51673:0:0:0:0:
448,192,51443,128,0,51673:0:0:0:0:
64,192,51443,128,0,51673:0:0:0:0:
192,192,51443,128,0,51673:0:0:0:0:
192,192,51750,1,2,0:0:0:0:
64,192,51750,1,4,0:0:0:0:
448,192,51750,128,0,51904:0:0:0:0:
320,192,51904,1,0,0:0:0:0:
192,192,52058,1,2,0:0:0:0:
64,192,52058,1,8,0:0:0:0:
448,192,52058,1,0,0:0:0:0:
320,192,52212,1,0,0:0:0:0:
192,192,52366,128,2,52520:0:0:0:0:
64,192,52366,1,0,0:0:0:0:
448,192,52366,1,0,0:0:0:0:
320,192,52520,1,0,0:0:0:0:
192,192,52673,1,2,0:0:0:0:
64,192,52673,1,8,0:0:0:0:
448,192,52673,1,0,0:0:0:0:
320,192,52827,128,0,52981:0:0:0:0:
64,192,52827,1,0,0:0:0:0:
192,192,52981,1,0,0:0:0:0:
448,192,52981,1,2,0:0:0:0:
320,192,53135,1,0,0:0:0:0:
64,192,53135,128,0,53289:0:0:0:0:
192,192,53289,1,8,0:0:0:0:
448,192,53289,1,2,0:0:0:0:
64,192,53443,1,0,0:0:0:0:
320,192,53443,128,0,53596:0:0:0:0:
448,192,53596,128,0,53750:0:0:0:0:
192,192,53596,1,0,0:0:0:0:
64,192,53596,1,2,0:0:0:0:
320,192,53750,1,0,0:0:0:0:
192,192,53904,1,2,0:0:0:0:
448,192,53904,1,8,0:0:0:0:
64,192,53904,128,0,54058:0:0:0:0:
320,192,54058,1,2,0:0:0:0:
448,192,54058,1,0,0:0:0:0:
192,192,54212,128,0,54366:0:0:0:0:
64,192,54212,1,0,0:0:0:0:
448,192,54212,1,2,0:0:0:0:
320,192,54366,1,0,0:0:0:0:
192,192,54520,1,8,0:0:0:0:
64,192,54520,1,2,0:0:0:0:
448,192,54520,128,0,54673:0:0:0:0:
320,192,54673,1,0,0:0:0:0:
192,192,54827,128,2,54981:0:0:0:0:
64,192,54827,1,0,0:0:0:0:
448,192,54827,1,0,0:0:0:0:
320,192,54981,128,0,55135:0:0:0:0:
448,192,54981,1,0,0:0:0:0:
64,192,55135,128,2,55289:0:0:0:0:
192,192,55135,1,8,0:0:0:0:
448,192,55289,128,0,55443:0:0:0:0:
320,192,55289,1,0,0:0:0:0:
192,192,55443,1,2,0:0:0:0:
64,192,55443,1,0,0:0:0:0:
448,192,55596,1,0,0:0:0:0:
320,192,55596,1,2,0:0:0:0:
64,192,55596,1,0,0:0:0:0:
192,192,55673,1,0,0:0:0:0:
64,192,55750,1,0,0:0:0:0:
320,192,55750,1,2,0:0:0:0:
448,192,55750,1,8,0:0:0:0:
448,192,55904,1,0,0:0:0:0:
192,192,55904,1,2,0:0:0:0:
320,192,55904,1,0,0:0:0:0:
320,192,56058,1,2,0:0:0:0:
448,192,56058,1,0,0:0:0:0:
64,192,56058,1,0,0:0:0:0:
64,192,56212,1,0,0:0:0:0:
192,192,56212,1,0,0:0:0:0:
448,192,56289,1,0,0:0:0:0:
320,192,56289,1,2,0:0:0:0:
192,192,56366,1,8,0:0:0:0:
64,192,56366,1,2,0:0:0:0:
448,192,56366,1,0,0:0:0:0:
192,192,56520,1,0,0:0:0:0:
64,192,56520,1,0,0:0:0:0:
320,192,56520,1,2,0:0:0:0:
64,192,56673,128,0,56981:0:0:0:0:
192,192,56673,1,2,0:0:0:0:
448,192,56673,1,0,0:0:0:0:
448,192,56827,1,0,0:0:0:0:
192,192,56904,128,0,56981:0:0:0:0:
448,192,56981,1,8,0:0:0:0:
320,192,56981,1,2,0:0:0:0:
64,192,57135,128,0,57443:0:0:0:0:
192,192,57135,1,0,0:0:0:0:
320,192,57135,1,2,0:0:0:0:
448,192,57289,1,0,0:0:0:0:
192,192,57366,128,0,57443:0:0:0:0:
448,192,57443,1,0,0:0:0:0:
320,192,57443,1,0,0:0:0:0:
320,192,57596,1,8,0:0:0:0:
192,192,57596,1,2,0:0:0:0:
64,192,57596,128,0,57750:0:0:0:0:
448,192,57750,1,0,0:0:0:0:
192,192,57827,1,2,0:0:0:0:
64,192,57827,1,0,0:0:0:0:
320,192,57904,1,2,0:0:0:0:
448,192,57904,128,0,58212:0:0:0:0:
64,192,58058,1,0,0:0:0:0:
320,192,58135,128,0,58212:0:0:0:0:
192,192,58212,1,2,0:0:0:0:
64,192,58212,1,8,0:0:0:0:
448,192,58366,128,0,58673:0:0:0:0:
320,192,58366,1,0,0:0:0:0:
192,192,58366,1,2,0:0:0:0:
64,192,58520,1,0,0:0:0:0:
320,192,58596,128,0,58673:0:0:0:0:
64,192,58673,1,0,0:0:0:0:
192,192,58673,1,0,0:0:0:0:
448,192,58827,128,0,58981:0:0:0:0:
192,192,58827,1,8,0:0:0:0:
320,192,58827,1,2,0:0:0:0:
64,192,58981,1,0,0:0:0:0:
448,192,59058,1,0,0:0:0:0:
320,192,59058,1,2,0:0:0:0:
192,192,59135,1,2,0:0:0:0:
64,192,59135,1,0,0:0:0:0:
320,192,59212,1,2,0:0:0:0:
448,192,59212,1,0,0:0:0:0:
192,192,59289,1,2,0:0:0:0:
64,192,59289,1,0,0:0:0:0:
320,192,59366,1,2,0:0:0:0:
448,192,59366,1,0,0:0:0:0:
192,192,59443,1,2,0:0:0:0:
448,192,59443,1,0,0:0:0:0:
64,192,59443,1,8,0:0:0:0:
192,192,59596,1,0,0:0:0:0:
320,192,59596,1,0,0:0:0:0:
448,192,59750,1,0,0:0:0:0:
320,192,59750,1,2,0:0:0:0:
192,192,59827,1,2,0:0:0:0:
64,192,59827,1,0,0:0:0:0:
320,192,59904,1,2,0:0:0:0:
448,192,59904,1,0,0:0:0:0:
64,192,59981,1,0,0:0:0:0:
192,192,59981,1,2,0:0:0:0:
320,192,60058,1,2,0:0:0:0:
64,192,60058,1,0,0:0:0:0:
448,192,60058,1,8,0:0:0:0:
320,192,60212,1,0,0:0:0:0:
192,192,60212,1,0,0:0:0:0:
64,192,60366,128,0,60520:0:0:0:0:
320,192,60366,1,2,0:0:0:0:
448,192,60366,1,0,0:0:0:0:
192,192,60520,1,2,0:0:0:0:
448,192,60520,1,0,0:0:0:0:
320,192,60596,1,0,0:0:0:0:
448,192,60673,1,2,0:0:0:0:
64,192,60673,1,8,0:0:0:0:
192,192,60673,1,0,0:0:0:0:
320,192,60827,1,2,0:0:0:0:
64,192,60827,1,0,0:0:0:0:
448,192,60827,128,0,60981:0:0:0:0:
64,192,60981,1,0,0:0:0:0:
192,192,60981,1,2,0:0:0:0:
320,192,61058,1,2,0:0:0:0:
448,192,61058,1,0,0:0:0:0:
320,192,61135,1,2,0:0:0:0:
448,192,61135,1,0,0:0:0:0:
192,192,61212,1,2,0:0:0:0:
64,192,61212,1,0,0:0:0:0:
448,192,61289,1,8,0:0:0:0:
320,192,61289,128,2,61443:0:0:0:0:
64,192,61443,1,2,0:0:0:0:
192,192,61443,128,0,61596:0:0:0:0:
64,192,61596,128,0,61750:0:0:0:0:
448,192,61596,128,2,61750:0:0:0:0:
320,192,61596,128,4,61750:0:0:0:0:
192,192,61750,1,0,0:0:0:0:
64,192,61904,1,8,0:0:0:0:
448,192,61904,1,0,0:0:0:0:
320,192,61904,1,2,0:0:0:0:
192,192,62058,1,0,0:0:0:0:
320,192,62212,128,0,62366:0:0:0:0:
448,192,62212,1,2,0:0:0:0:
64,192,62212,1,0,0:0:0:0:
192,192,62366,1,0,0:0:0:0:
320,192,62520,1,2,0:0:0:0:
448,192,62520,1,8,0:0:0:0:
64,192,62520,1,0,0:0:0:0:
192,192,62673,128,0,62827:0:0:0:0:
448,192,62673,1,0,0:0:0:0:
320,192,62827,1,2,0:0:0:0:
64,192,62827,1,0,0:0:0:0:
192,192,62981,1,0,0:0:0:0:
448,192,62981,128,0,63135:0:0:0:0:
320,192,63135,1,2,0:0:0:0:
64,192,63135,1,8,0:0:0:0:
448,192,63289,1,0,0:0:0:0:
192,192,63289,128,0,63443:0:0:0:0:
64,192,63443,128,0,63596:0:0:0:0:
320,192,63443,1,2,0:0:0:0:
448,192,63443,1,0,0:0:0:0:
192,192,63596,1,0,0:0:0:0:
320,192,63750,1,2,0:0:0:0:
64,192,63750,1,0,0:0:0:0:
448,192,63750,128,8,63904:0:0:0:0:
192,192,63904,1,2,0:0:0:0:
64,192,63904,1,0,0:0:0:0:
320,192,64058,128,0,64212:0:0:0:0:
448,192,64058,1,2,0:0:0:0:
64,192,64058,1,0,0:0:0:0:
192,192,64212,1,0,0:0:0:0:
320,192,64366,1,2,0:0:0:0:
448,192,64366,1,8,0:0:0:0:
64,192,64366,128,0,64520:0:0:0:0:
192,192,64520,1,0,0:0:0:0:
448,192,64673,128,0,64827:0:0:0:0:
320,192,64673,1,2,0:0:0:0:
64,192,64673,1,0,0:0:0:0:
192,192,64827,1,0,0:0:0:0:
320,192,64904,1,0,0:0:0:0:
64,192,64981,1,2,0:0:0:0:
192,192,64981,1,0,0:0:0:0:
448,192,64981,1,8,0:0:0:0:
64,192,65135,128,0,65289:0:0:0:0:
320,192,65135,1,0,0:0:0:0:
192,192,65289,1,2,0:0:0:0:
448,192,65289,128,0,65520:0:0:0:0:
64,192,65443,1,0,0:0:0:0:
192,192,65520,1,0,0:0:0:0:
320,192,65520,1,2,0:0:0:0:
64,192,65596,1,8,0:0:0:0:
448,192,65596,1,2,0:0:0:0:
448,192,65750,128,0,65904:0:0:0:0:
192,192,65750,1,2,0:0:0:0:
64,192,65750,1,0,0:0:0:0:
64,192,65904,128,0,66135:0:0:0:0:
320,192,65904,1,0,0:0:0:0:
192,192,65904,1,2,0:0:0:0:
448,192,66058,1,0,0:0:0:0:
320,192,66135,1,0,0:0:0:0:
192,192,66135,1,2,0:0:0:0:
448,192,66212,1,8,0:0:0:0:
64,192,66212,1,2,0:0:0:0:
192,192,66366,1,0,0:0:0:0:
448,192,66366,1,0,0:0:0:0:
320,192,66366,1,2,0:0:0:0:
64,192,66520,1,2,0:0:0:0:
320,192,66520,1,0,0:0:0:0:
448,192,66520,128,0,66673:0:0:0:0:
192,192,66673,1,0,0:0:0:0:
64,192,66673,1,0,0:0:0:0:
320,192,66750,1,2,0:0:0:0:
448,192,66750,1,0,0:0:0:0:
192,192,66827,1,2,0:0:0:0:
64,192,66827,1,8,0:0:0:0:
448,192,66827,1,0,0:0:0:0:
64,192,66981,1,2,0:0:0:0:
448,192,66981,1,0,0:0:0:0:
320,192,66981,128,0,67135:0:0:0:0:
192,192,67135,1,0,0:0:0:0:
320,192,67212,1,2,0:0:0:0:
448,192,67212,1,0,0:0:0:0:
64,192,67289,1,0,0:0:0:0:
448,192,67366,1,2,0:0:0:0:
320,192,67366,1,0,0:0:0:0:
64,192,67443,1,2,0:0:0:0:
192,192,67443,1,8,0:0:0:0:
448,192,67443,128,0,67596:0:0:0:0:
320,192,67596,1,2,0:0:0:0:
64,192,67596,1,0,0:0:0:0:
192,192,67750,1,2,0:0:0:0:
448,192,67750,1,0,0:0:0:0:
64,192,67750,128,0,67904:0:0:0:0:
320,192,67904,1,0,0:0:0:0:
448,192,67904,1,0,0:0:0:0:
192,192,67981,1,2,0:0:0:0:
64,192,67981,1,0,0:0:0:0:
320,192,68058,1,2,0:0:0:0:
448,192,68058,1,8,0:0:0:0:
64,192,68058,1,0,0:0:0:0:
448,192,68212,1,2,0:0:0:0:
64,192,68212,1,0,0:0:0:0:
192,192,68212,128,0,68366:0:0:0:0:
320,192,68366,1,0,0:0:0:0:
192,192,68443,1,2,0:0:0:0:
64,192,68443,1,0,0:0:0:0:
448,192,68520,1,0,0:0:0:0:
192,192,68596,1,2,0:0:0:0:
64,192,68596,1,0,0:0:0:0:
448,192,68673,1,2,0:0:0:0:
320,192,68673,1,8,0:0:0:0:
64,192,68673,128,0,68827:0:0:0:0:
192,192,68827,1,2,0:0:0:0:
448,192,68827,1,0,0:0:0:0:
320,192,68981,1,2,0:0:0:0:
448,192,68981,1,0,0:0:0:0:
320,192,69058,1,2,0:0:0:0:
448,192,69058,1,0,0:0:0:0:
64,192,69135,1,0,0:0:0:0:
192,192,69135,1,2,0:0:0:0:
320,192,69212,1,2,0:0:0:0:
448,192,69212,1,0,0:0:0:0:
192,192,69289,1,8,0:0:0:0:
448,192,69289,1,0,0:0:0:0:
64,192,69289,1,2,0:0:0:0:
448,192,69443,1,0,0:0:0:0:
320,192,69443,1,0,0:0:0:0:
192,192,69596,1,2,0:0:0:0:
64,192,69596,1,0,0:0:0:0:
192,192,69673,1,2,0:0:0:0:
64,192,69673,1,0,0:0:0:0:
448,192,69750,1,0,0:0:0:0:
320,192,69750,1,2,0:0:0:0:
64,192,69827,1,0,0:0:0:0:
192,192,69827,1,2,0:0:0:0:
320,192,69904,1,2,0:0:0:0:
64,192,69904,1,0,0:0:0:0:
448,192,69904,1,8,0:0:0:0:
192,192,70058,1,0,0:0:0:0:
320,192,70058,1,0,0:0:0:0:
64,192,70212,128,0,70366:0:0:0:0:
448,192,70212,1,2,0:0:0:0:
192,192,70212,1,0,0:0:0:0:
320,192,70366,1,0,0:0:0:0:
448,192,70366,1,2,0:0:0:0:
192,192,70520,128,8,70673:0:0:0:0:
448,192,70520,1,2,0:0:0:0:
64,192,70520,1,0,0:0:0:0:
448,192,70673,1,0,0:0:0:0:
320,192,70673,1,2,0:0:0:0:
192,192,70827,1,2,0:0:0:0:
64,192,70827,1,0,0:0:0:0:
320,192,70904,1,2,0:0:0:0:
448,192,70904,1,0,0:0:0:0:
192,192,70981,1,2,0:0:0:0:
64,192,70981,1,0,0:0:0:0:
320,192,71058,1,2,0:0:0:0:
448,192,71058,1,0,0:0:0:0:
320,192,71135,1,2,0:0:0:0:
448,192,71135,1,0,0:0:0:0:
64,192,71135,1,0,0:0:0:0:
64,192,71212,1,0,0:0:0:0:
192,192,71212,1,2,0:0:0:0:
320,192,71289,1,2,0:0:0:0:
448,192,71289,1,0,0:0:0:0:
192,192,71366,1,2,0:0:0:0:
64,192,71366,1,0,0:0:0:0:
64,192,71443,128,0,71596:0:0:0:0:
192,192,71443,1,4,0:0:0:0:
448,192,71443,1,2,0:0:0:0:
320,192,71596,1,0,0:0:0:0:
448,192,71596,1,0,0:0:0:0:
192,192,71673,1,2,0:0:0:0:
64,192,71673,1,0,0:0:0:0:
448,192,71750,1,8,0:0:0:0:
320,192,71750,1,2,0:0:0:0:
64,192,71750,1,0,0:0:0:0:
64,192,71904,128,0,72058:0:0:0:0:
192,192,71904,1,2,0:0:0:0:
448,192,71904,1,0,0:0:0:0:
320,192,72058,1,0,0:0:0:0:
448,192,72058,1,0,0:0:0:0:
192,192,72135,1,2,0:0:0:0:
64,192,72135,1,0,0:0:0:0:
320,192,72212,1,2,0:0:0:0:
448,192,72212,1,8,0:0:0:0:
64,192,72212,1,0,0:0:0:0:
448,192,72366,128,0,72520:0:0:0:0:
192,192,72366,1,2,0:0:0:0:
64,192,72366,1,0,0:0:0:0:
320,192,72520,1,0,0:0:0:0:
64,192,72520,128,0,72673:0:0:0:0:
320,192,72673,1,2,0:0:0:0:
448,192,72673,128,0,72827:0:0:0:0:
192,192,72673,1,0,0:0:0:0:
192,192,72827,1,0,0:0:0:0:
64,192,72827,1,0,0:0:0:0:
320,192,72904,1,2,0:0:0:0:
448,192,72904,1,0,0:0:0:0:
192,192,72981,1,2,0:0:0:0:
64,192,72981,1,8,0:0:0:0:
448,192,72981,1,0,0:0:0:0:
448,192,73135,128,0,73289:0:0:0:0:
320,192,73135,1,0,0:0:0:0:
192,192,73135,1,2,0:0:0:0:
192,192,73289,1,0,0:0:0:0:
64,192,73289,1,0,0:0:0:0:
320,192,73366,1,2,0:0:0:0:
448,192,73366,1,0,0:0:0:0:
192,192,73443,1,2,0:0:0:0:
64,192,73443,1,0,0:0:0:0:
448,192,73443,1,8,0:0:0:0:
64,192,73596,128,0,73750:0:0:0:0:
448,192,73596,1,0,0:0:0:0:
320,192,73596,1,2,0:0:0:0:
192,192,73750,1,2,0:0:0:0:
448,192,73750,128,0,73904:0:0:0:0:
192,192,73904,1,0,0:0:0:0:
320,192,73904,1,2,0:0:0:0:
64,192,73904,128,0,74058:0:0:0:0:
320,192,74058,1,0,0:0:0:0:
448,192,74058,1,0,0:0:0:0:
192,192,74135,1,2,0:0:0:0:
64,192,74135,1,0,0:0:0:0:
320,192,74212,1,2,0:0:0:0:
448,192,74212,1,8,0:0:0:0:
64,192,74212,1,0,0:0:0:0:
64,192,74366,128,0,74520:0:0:0:0:
192,192,74366,1,2,0:0:0:0:
448,192,74366,1,0,0:0:0:0:
448,192,74520,1,0,0:0:0:0:
320,192,74520,1,0,0:0:0:0:
192,192,74596,1,2,0:0:0:0:
64,192,74596,1,0,0:0:0:0:
320,192,74673,1,2,0:0:0:0:
448,192,74673,1,8,0:0:0:0:
64,192,74673,1,0,0:0:0:0:
448,192,74827,128,0,74981:0:0:0:0:
192,192,74827,1,2,0:0:0:0:
64,192,74827,1,0,0:0:0:0:
320,192,74981,1,0,0:0:0:0:
64,192,74981,128,0,75135:0:0:0:0:
192,192,75135,1,2,0:0:0:0:
320,192,75135,1,0,0:0:0:0:
448,192,75135,128,0,75289:0:0:0:0:
192,192,75289,1,0,0:0:0:0:
64,192,75289,1,0,0:0:0:0:
320,192,75366,1,2,0:0:0:0:
448,192,75366,1,0,0:0:0:0:
192,192,75443,1,2,0:0:0:0:
64,192,75443,1,8,0:0:0:0:
448,192,75443,1,0,0:0:0:0:
448,192,75596,128,0,75750:0:0:0:0:
320,192,75596,1,2,0:0:0:0:
64,192,75596,1,0,0:0:0:0:
192,192,75750,1,0,0:0:0:0:
64,192,75750,1,0,0:0:0:0:
320,192,75827,1,2,0:0:0:0:
448,192,75827,1,0,0:0:0:0:
192,192,75904,1,2,0:0:0:0:
64,192,75904,1,8,0:0:0:0:
448,192,75904,1,0,0:0:0:0:
64,192,76058,128,0,76212:0:0:0:0:
448,192,76058,1,0,0:0:0:0:
192,192,76058,1,2,0:0:0:0:
448,192,76212,1,0,0:0:0:0:
320,192,76212,1,8,0:0:0:0:
192,192,76289,1,8,0:0:0:0:
64,192,76289,1,0,0:0:0:0:
64,192,76366,1,2,0:0:0:0:
448,192,76366,1,0,0:0:0:0:
320,192,76366,128,8,76520:0:0:0:0:
192,192,76520,1,0,0:0:0:0:
64,192,76520,1,0,0:0:0:0:
320,192,76596,1,2,0:0:0:0:
448,192,76596,1,0,0:0:0:0:
64,192,76673,1,8,0:0:0:0:
192,192,76673,1,2,0:0:0:0:
448,192,76673,1,0,0:0:0:0:
320,192,76827,1,2,0:0:0:0:
448,192,76827,1,0,0:0:0:0:
192,192,76827,128,0,76981:0:0:0:0:
448,192,76981,1,0,0:0:0:0:
320,192,76981,1,2,0:0:0:0:
64,192,76981,128,0,77135:0:0:0:0:
448,192,77135,1,0,0:0:0:0:
320,192,77135,1,0,0:0:0:0:
192,192,77212,1,2,0:0:0:0:
64,192,77212,1,0,0:0:0:0:
320,192,77289,1,2,0:0:0:0:
448,192,77289,1,8,0:0:0:0:
64,192,77289,1,0,0:0:0:0:
192,192,77443,1,0,0:0:0:0:
64,192,77443,1,0,0:0:0:0:
448,192,77443,128,2,77596:0:0:0:0:
192,192,77596,1,4,0:0:0:0:
320,192,77596,128,2,77750:0:0:0:0:
64,192,77596,1,0,0:0:0:0:
64,192,77750,1,0,0:0:0:0:
192,192,77750,1,0,0:0:0:0:
320,192,77827,1,0,0:0:0:0:
192,192,77904,1,2,0:0:0:0:
64,192,77904,1,8,0:0:0:0:
448,192,77904,1,0,0:0:0:0:
320,192,78058,1,0,0:0:0:0:
448,192,78058,128,0,78212:0:0:0:0:
192,192,78212,1,2,0:0:0:0:
320,192,78212,1,0,0:0:0:0:
64,192,78212,128,0,78366:0:0:0:0:
192,192,78366,1,0,0:0:0:0:
320,192,78366,128,0,78520:0:0:0:0:
448,192,78520,1,2,0:0:0:0:
192,192,78520,1,8,0:0:0:0:
64,192,78520,128,0,78673:0:0:0:0:
448,192,78673,1,0,0:0:0:0:
320,192,78673,128,0,78827:0:0:0:0:
192,192,78827,128,0,78981:0:0:0:0:
64,192,78827,128,2,78981:0:0:0:0:
448,192,78981,1,0,0:0:0:0:
64,192,79135,1,8,0:0:0:0:
320,192,79135,1,0,0:0:0:0:
192,192,79135,1,2,0:0:0:0:
64,192,79289,128,0,79443:0:0:0:0:
448,192,79289,1,0,0:0:0:0:
320,192,79443,1,0,0:0:0:0:
192,192,79443,1,2,0:0:0:0:
448,192,79443,128,0,79596:0:0:0:0:
192,192,79596,128,0,79750:0:0:0:0:
64,192,79596,1,0,0:0:0:0:
320,192,79750,1,2,0:0:0:0:
448,192,79750,1,8,0:0:0:0:
64,192,79750,128,0,79904:0:0:0:0:
192,192,79904,1,0,0:0:0:0:
320,192,79904,128,0,80058:0:0:0:0:
192,192,80058,1,2,0:0:0:0:
64,192,80058,1,0,0:0:0:0:
448,192,80058,128,0,80212:0:0:0:0:
320,192,80212,1,0,0:0:0:0:
192,192,80212,1,2,0:0:0:0:
64,192,80212,1,0,0:0:0:0:
448,192,80366,1,8,0:0:0:0:
320,192,80366,1,2,0:0:0:0:
64,192,80366,128,0,80520:0:0:0:0:
192,192,80520,1,0,0:0:0:0:
320,192,80520,1,0,0:0:0:0:
448,192,80520,1,2,0:0:0:0:
320,192,80673,128,0,80827:0:0:0:0:
64,192,80673,1,0,0:0:0:0:
448,192,80673,1,2,0:0:0:0:
192,192,80827,1,0,0:0:0:0:
64,192,80827,1,0,0:0:0:0:
320,192,80904,1,0,0:0:0:0:
448,192,80904,1,2,0:0:0:0:
64,192,80981,128,8,81135:0:0:0:0:
192,192,80981,1,2,0:0:0:0:
320,192,81135,1,2,0:0:0:0:
448,192,81135,1,0,0:0:0:0:
192,192,81289,128,2,81443:0:0:0:0:
64,192,81289,128,4,81443:0:0:0:0:
448,192,81289,1,0,0:0:0:0:
320,192,81443,1,0,0:0:0:0:
448,192,81443,1,0,0:0:0:0:
192,192,81520,1,2,0:0:0:0:
64,192,81520,1,0,0:0:0:0:
320,192,81596,1,2,0:0:0:0:
448,192,81596,1,8,0:0:0:0:
64,192,81596,1,0,0:0:0:0:
64,192,81750,128,0,81904:0:0:0:0:
192,192,81750,128,2,81904:0:0:0:0:
448,192,81750,1,0,0:0:0:0:
448,192,81904,1,0,0:0:0:0:
320,192,81904,1,0,0:0:0:0:
192,192,81981,1,2,0:0:0:0:
64,192,81981,1,0,0:0:0:0:
320,192,82058,1,2,0:0:0:0:
448,192,82058,1,8,0:0:0:0:
64,192,82058,1,0,0:0:0:0:
448,192,82212,128,0,82366:0:0:0:0:
192,192,82212,1,2,0:0:0:0:
64,192,82212,1,0,0:0:0:0:
64,192,82366,128,8,82520:0:0:0:0:
320,192,82366,1,2,0:0:0:0:
320,192,82520,128,2,82673:0:0:0:0:
448,192,82520,128,0,82673:0:0:0:0:
192,192,82520,1,0,0:0:0:0:
192,192,82673,1,0,0:0:0:0:
64,192,82673,1,0,0:0:0:0:
320,192,82750,1,2,0:0:0:0:
448,192,82750,1,0,0:0:0:0:
192,192,82827,1,2,0:0:0:0:
64,192,82827,1,8,0:0:0:0:
448,192,82827,1,0,0:0:0:0:
320,192,82981,128,2,83135:0:0:0:0:
448,192,82981,128,0,83135:0:0:0:0:
64,192,82981,1,0,0:0:0:0:
192,192,83135,1,0,0:0:0:0:
64,192,83135,1,0,0:0:0:0:
320,192,83212,1,2,0:0:0:0:
448,192,83212,1,0,0:0:0:0:
192,192,83289,1,2,0:0:0:0:
64,192,83289,1,8,0:0:0:0:
448,192,83289,1,0,0:0:0:0:
320,192,83443,1,0,0:0:0:0:
192,192,83443,1,2,0:0:0:0:
64,192,83443,1,0,0:0:0:0:
448,192,83596,1,8,0:0:0:0:
320,192,83596,1,2,0:0:0:0:
192,192,83673,1,2,0:0:0:0:
64,192,83673,1,0,0:0:0:0:
320,192,83750,1,2,0:0:0:0:
448,192,83750,1,0,0:0:0:0:
192,192,83827,1,2,0:0:0:0:
64,192,83827,1,0,0:0:0:0:
64,192,83904,1,0,0:0:0:0:
192,192,83904,1,2,0:0:0:0:
320,192,83981,1,2,0:0:0:0:
448,192,83981,1,0,0:0:0:0:
448,192,84058,1,8,0:0:0:0:
64,192,84058,1,2,0:0:0:0:
192,192,84058,1,0,0:0:0:0:
192,192,84212,128,2,84366:0:0:0:0:
320,192,84212,128,0,84366:0:0:0:0:
64,192,84366,1,0,0:0:0:0:
448,192,84366,1,0,0:0:0:0:
192,192,84443,1,2,0:0:0:0:
320,192,84443,1,0,0:0:0:0:
320,192,84520,1,2,0:0:0:0:
448,192,84520,1,8,0:0:0:0:
64,192,84520,1,0,0:0:0:0:
448,192,84673,128,0,84827:0:0:0:0:
192,192,84673,1,2,0:0:0:0:
64,192,84673,1,0,0:0:0:0:
320,192,84827,1,2,0:0:0:0:
64,192,84827,128,8,84981:0:0:0:0:
320,192,84981,128,2,85135:0:0:0:0:
448,192,84981,128,0,85135:0:0:0:0:
192,192,84981,1,0,0:0:0:0:
64,192,85135,1,0,0:0:0:0:
192,192,85135,1,0,0:0:0:0:
320,192,85212,1,2,0:0:0:0:
448,192,85212,1,0,0:0:0:0:
192,192,85289,1,2,0:0:0:0:
64,192,85289,1,8,0:0:0:0:
448,192,85289,1,0,0:0:0:0:
320,192,85443,128,2,85596:0:0:0:0:
448,192,85443,128,0,85596:0:0:0:0:
64,192,85443,1,0,0:0:0:0:
192,192,85596,1,0,0:0:0:0:
64,192,85596,1,0,0:0:0:0:
320,192,85673,1,2,0:0:0:0:
448,192,85673,1,0,0:0:0:0:
192,192,85750,1,2,0:0:0:0:
64,192,85750,1,8,0:0:0:0:
448,192,85750,1,0,0:0:0:0:
320,192,85904,1,2,0:0:0:0:
448,192,85904,1,0,0:0:0:0:
64,192,85981,1,0,0:0:0:0:
192,192,85981,1,8,0:0:0:0:
192,192,86058,1,8,0:0:0:0:
64,192,86058,1,0,0:0:0:0:
448,192,86135,1,0,0:0:0:0:
320,192,86135,1,8,0:0:0:0:
448,192,86212,1,0,0:0:0:0:
320,192,86212,1,8,0:0:0:0:
64,192,86212,1,2,0:0:0:0:
192,192,86289,1,2,0:0:0:0:
64,192,86289,1,0,0:0:0:0:
320,192,86366,1,2,0:0:0:0:
448,192,86366,1,0,0:0:0:0:
320,192,86443,1,2,0:0:0:0:
448,192,86443,1,0,0:0:0:0:
64,192,86520,1,0,0:0:0:0:
448,192,86520,1,8,0:0:0:0:
192,192,86520,1,2,0:0:0:0:
320,192,86673,1,0,0:0:0:0:
448,192,86673,128,2,86827:0:0:0:0:
192,192,86827,1,2,0:0:0:0:
64,192,86827,1,0,0:0:0:0:
320,192,86904,1,2,0:0:0:0:
448,192,86904,1,0,0:0:0:0:
64,192,86981,1,2,0:0:0:0:
192,192,86981,1,0,0:0:0:0:
320,192,87058,1,2,0:0:0:0:
448,192,87058,1,0,0:0:0:0:
64,192,87135,1,0,0:0:0:0:
320,192,87135,1,2,0:0:0:0:
448,192,87135,1,8,0:0:0:0:
192,192,87289,128,0,87443:0:0:0:0:
64,192,87289,1,2,0:0:0:0:
448,192,87443,1,2,0:0:0:0:
320,192,87443,1,12,0:0:0:0:
448,192,87596,5,0,0:0:0:0:
192,192,87596,1,2,0:0:0:0:
320,192,87673,1,0,0:0:0:0:
64,192,87673,1,0,0:0:0:0:
192,192,87750,1,2,0:0:0:0:
448,192,87750,1,8,0:0:0:0:
320,192,87904,1,2,0:0:0:0:
64,192,87904,1,0,0:0:0:0:
192,192,88058,128,0,88212:0:0:0:0:
64,192,88058,1,2,0:0:0:0:
448,192,88058,1,8,0:0:0:0:
320,192,88212,1,2,0:0:0:0:
448,192,88212,128,0,88366:0:0:0:0:
64,192,88366,1,2,0:0:0:0:
320,192,88366,1,8,0:0:0:0:
192,192,88366,128,0,88520:0:0:0:0:
64,192,88520,128,2,88673:0:0:0:0:
448,192,88520,1,0,0:0:0:0:
320,192,88673,5,2,0:0:0:0:
448,192,88673,1,8,0:0:0:0:
64,192,88750,1,0,0:0:0:0:
192,192,88750,1,2,0:0:0:0:
320,192,88827,1,2,0:0:0:0:
448,192,88827,1,8,0:0:0:0:
64,192,88904,1,0,0:0:0:0:
192,192,88904,1,2,0:0:0:0:
320,192,88981,1,2,0:0:0:0:
448,192,88981,1,8,0:0:0:0:
192,192,89058,1,2,0:0:0:0:
64,192,89058,1,0,0:0:0:0:
448,192,89135,1,8,0:0:0:0:
320,192,89135,1,2,0:0:0:0:
192,192,89212,1,2,0:0:0:0:
64,192,89212,1,0,0:0:0:0:
320,192,89289,1,8,0:0:0:0:
448,192,89289,1,2,0:0:0:0:
64,192,89366,1,0,0:0:0:0:
192,192,89366,1,8,0:0:0:0:
64,192,89443,1,0,0:0:0:0:
192,192,89443,1,8,0:0:0:0:
448,192,89520,1,2,0:0:0:0:
320,192,89520,1,8,0:0:0:0:
64,192,89596,1,0,0:0:0:0:
192,192,89596,1,8,0:0:0:0:
320,192,89673,1,0,0:0:0:0:
448,192,89673,1,8,0:0:0:0:
448,192,89750,1,2,0:0:0:0:
320,192,89750,1,8,0:0:0:0:
64,192,89827,1,0,0:0:0:0:
192,192,89827,1,8,0:0:0:0:
192,192,89904,128,0,90673:0:0:0:0:
64,192,89904,128,0,91058:0:0:0:0:
448,192,89904,1,0,0:0:0:0:
320,192,89904,1,4,0:0:0:0:
320,192,90520,128,2,90673:0:0:0:0:
448,192,90520,128,0,91058:0:0:0:0:
192,192,90827,128,0,91058:0:0:0:0:
320,192,90827,128,0,91058:0:0:0:0:
64,192,91135,128,0,91340:0:0:0:0:
192,192,91135,128,0,91340:0:0:0:0:
448,192,91135,128,0,91340:0:0:0:0:
64,192,91443,5,2,0:0:0:0:
320,192,91443,1,0,0:0:0:0:
448,192,91443,1,0,0:0:0:0:
448,192,91648,1,0,0:0:0:0:
320,192,91648,1,0,0:0:0:0:
64,192,91648,1,2,0:0:0:0:
64,192,91853,1,2,0:0:0:0:
320,192,91853,1,0,0:0:0:0:
448,192,91853,1,0,0:0:0:0:
448,192,92058,1,0,0:0:0:0:
320,192,92058,1,0,0:0:0:0:
64,192,92058,1,2,0:0:0:0:
448,192,92366,128,0,92571:0:0:0:0:
320,192,92366,128,0,92571:0:0:0:0:
192,192,92366,128,0,92571:0:0:0:0:
64,192,92673,1,0,0:0:0:0:
192,192,92673,1,2,0:0:0:0:
448,192,92673,1,0,0:0:0:0:
448,192,92878,1,0,0:0:0:0:
192,192,92878,1,2,0:0:0:0:
64,192,92878,1,0,0:0:0:0:
64,192,93084,1,0,0:0:0:0:
192,192,93084,1,2,0:0:0:0:
448,192,93084,1,0,0:0:0:0:
448,192,93289,1,0,0:0:0:0:
192,192,93289,1,2,0:0:0:0:
64,192,93289,1,0,0:0:0:0:
320,192,93520,1,8,0:0:0:0:
192,192,93596,1,2,0:0:0:0:
64,192,93596,1,4,0:0:0:0:
448,192,93596,1,0,0:0:0:0:
64,192,93904,1,0,0:0:0:0:
192,192,93904,1,0,0:0:0:0:
320,192,93904,1,2,0:0:0:0:
320,192,94109,1,2,0:0:0:0:
192,192,94109,1,0,0:0:0:0:
64,192,94109,1,0,0:0:0:0:
64,192,94314,1,0,0:0:0:0:
192,192,94314,1,0,0:0:0:0:
320,192,94314,1,2,0:0:0:0:
320,192,94520,1,2,0:0:0:0:
448,192,94520,1,0,0:0:0:0:
64,192,94520,1,0,0:0:0:0:
192,192,94622,1,2,0:0:0:0:
64,192,94622,1,0,0:0:0:0:
320,192,94725,1,2,0:0:0:0:
448,192,94725,1,0,0:0:0:0:
64,192,94827,1,4,0:0:0:0:
192,192,94827,1,2,0:0:0:0:
448,192,94827,128,0,95058:0:0:0:0:
64,192,95058,1,0,0:0:0:0:
192,192,95135,128,0,95289:0:0:0:0:
448,192,95289,1,0,0:0:0:0:
320,192,95443,128,0,95596:0:0:0:0:
64,192,95443,1,8,0:0:0:0:
192,192,95443,1,2,0:0:0:0:
448,192,95596,1,0,0:0:0:0:
64,192,95750,128,0,95827:0:0:0:0:
448,192,95827,1,0,0:0:0:0:
192,192,95904,128,0,95981:0:0:0:0:
320,192,95981,1,0,0:0:0:0:
64,192,96058,1,4,0:0:0:0:
448,192,96058,1,2,0:0:0:0:
192,192,96058,1,0,0:0:0:0:
192,192,96366,1,0,0:0:0:0:
64,192,96366,1,0,0:0:0:0:
320,192,96366,1,2,0:0:0:0:
320,192,96571,1,2,0:0:0:0:
192,192,96571,1,0,0:0:0:0:
64,192,96571,1,0,0:0:0:0:
64,192,96776,1,0,0:0:0:0:
192,192,96776,1,0,0:0:0:0:
320,192,96776,1,2,0:0:0:0:
320,192,96981,1,2,0:0:0:0:
192,192,96981,1,0,0:0:0:0:
64,192,96981,1,0,0:0:0:0:
64,192,97289,128,0,97494:0:0:0:0:
192,192,97289,128,0,97494:0:0:0:0:
320,192,97289,128,0,97494:0:0:0:0:
448,192,97596,1,0,0:0:0:0:
320,192,97596,1,2,0:0:0:0:
64,192,97596,1,0,0:0:0:0:
64,192,97802,1,0,0:0:0:0:
320,192,97802,1,2,0:0:0:0:
448,192,97802,1,0,0:0:0:0:
448,192,98007,1,0,0:0:0:0:
320,192,98007,1,2,0:0:0:0:
64,192,98007,1,0,0:0:0:0:
64,192,98212,1,0,0:0:0:0:
320,192,98212,1,2,0:0:0:0:
448,192,98212,1,0,0:0:0:0:
192,192,98443,1,8,0:0:0:0:
320,192,98520,1,2,0:0:0:0:
448,192,98520,1,4,0:0:0:0:
64,192,98520,1,0,0:0:0:0:
192,192,98827,1,2,0:0:0:0:
64,192,98827,1,0,0:0:0:0:
448,192,98827,1,0,0:0:0:0:
448,192,99032,1,0,0:0:0:0:
192,192,99032,1,2,0:0:0:0:
64,192,99032,1,0,0:0:0:0:
64,192,99237,1,0,0:0:0:0:
192,192,99237,1,2,0:0:0:0:
448,192,99237,1,0,0:0:0:0:
192,192,99443,1,2,0:0:0:0:
64,192,99443,1,0,0:0:0:0:
448,192,99443,1,0,0:0:0:0:
320,192,99545,1,0,0:0:0:0:
192,192,99545,1,2,0:0:0:0:
448,192,99648,1,0,0:0:0:0:
64,192,99648,1,2,0:0:0:0:
192,192,99750,1,2,0:0:0:0:
320,192,99750,128,4,99904:0:0:0:0:
64,192,99904,128,0,100058:0:0:0:0:
448,192,99904,1,0,0:0:0:0:
320,192,100058,128,0,100212:0:0:0:0:
448,192,100058,1,0,0:0:0:0:
192,192,100212,128,0,100366:0:0:0:0:
64,192,100212,1,0,0:0:0:0:
448,192,100366,1,8,0:0:0:0:
320,192,100366,1,2,0:0:0:0:
64,192,100520,128,0,100827:0:0:0:0:
192,192,100673,128,0,100827:0:0:0:0:
448,192,100827,128,0,100981:0:0:0:0:
320,192,100827,1,0,0:0:0:0:
192,192,100981,1,4,0:0:0:0:
64,192,100981,1,0,0:0:0:0:
320,192,100981,1,2,0:0:0:0:
64,192,101289,1,0,0:0:0:0:
192,192,101289,1,2,0:0:0:0:
448,192,101289,128,0,101391:0:0:0:0:
320,192,101494,1,0,0:0:0:0:
64,192,101494,1,0,0:0:0:0:
448,192,101494,128,0,101596:0:0:0:0:
192,192,101596,1,2,0:0:0:0:
320,192,101699,1,0,0:0:0:0:
64,192,101699,1,0,0:0:0:0:
448,192,101699,128,0,101802:0:0:0:0:
64,192,101904,1,0,0:0:0:0:
192,192,101904,1,2,0:0:0:0:
448,192,101904,128,0,102058:0:0:0:0:
320,192,102135,1,8,0:0:0:0:
448,192,102212,1,0,0:0:0:0:
192,192,102212,1,2,0:0:0:0:
64,192,102212,1,4,0:0:0:0:
448,192,102520,1,0,0:0:0:0:
320,192,102520,1,2,0:0:0:0:
64,192,102520,128,0,102622:0:0:0:0:
192,192,102725,1,0,0:0:0:0:
448,192,102725,1,0,0:0:0:0:
64,192,102725,128,0,102827:0:0:0:0:
320,192,102827,1,2,0:0:0:0:
448,192,102930,1,0,0:0:0:0:
192,192,102930,1,0,0:0:0:0:
64,192,102930,128,0,103032:0:0:0:0:
448,192,103135,1,0,0:0:0:0:
320,192,103135,1,2,0:0:0:0:
64,192,103135,128,0,103289:0:0:0:0:
192,192,103366,1,8,0:0:0:0:
320,192,103443,1,2,0:0:0:0:
448,192,103443,1,4,0:0:0:0:
64,192,103443,1,0,0:0:0:0:
64,192,103750,1,0,0:0:0:0:
192,192,103750,1,2,0:0:0:0:
448,192,103750,128,0,103853:0:0:0:0:
192,192,103955,1,0,0:0:0:0:
64,192,103955,1,0,0:0:0:0:
448,192,103955,128,0,104058:0:0:0:0:
320,192,104058,1,2,0:0:0:0:
192,192,104161,1,0,0:0:0:0:
64,192,104161,1,0,0:0:0:0:
448,192,104161,128,0,104263:0:0:0:0:
448,192,104366,1,0,0:0:0:0:
320,192,104366,1,2,0:0:0:0:
64,192,104366,1,0,0:0:0:0:
64,192,104468,1,0,0:0:0:0:
192,192,104468,1,0,0:0:0:0:
320,192,104571,1,0,0:0:0:0:
448,192,104571,1,0,0:0:0:0:
448,192,104673,1,4,0:0:0:0:
192,192,104673,1,2,0:0:0:0:
64,192,104673,128,0,104981:0:0:0:0:
320,192,104981,128,0,105135:0:0:0:0:
448,192,104981,1,0,0:0:0:0:
64,192,105135,1,0,0:0:0:0:
64,192,105289,128,0,105443:0:0:0:0:
448,192,105289,1,8,0:0:0:0:
192,192,105289,1,2,0:0:0:0:
320,192,105443,1,0,0:0:0:0:
192,192,105596,128,0,105673:0:0:0:0:
448,192,105673,128,0,105750:0:0:0:0:
320,192,105750,128,0,105827:0:0:0:0:
64,192,105827,128,0,105904:0:0:0:0:
192,192,105904,1,2,0:0:0:0:
448,192,105904,1,4,0:0:0:0:
320,192,105904,1,0,0:0:0:0:
448,192,106212,1,0,0:0:0:0:
320,192,106212,1,2,0:0:0:0:
64,192,106212,1,0,0:0:0:0:
448,192,106417,1,0,0:0:0:0:
192,192,106417,1,0,0:0:0:0:
320,192,106417,1,2,0:0:0:0:
64,192,106622,1,0,0:0:0:0:
192,192,106622,1,2,0:0:0:0:
448,192,106622,1,0,0:0:0:0:
320,192,106827,1,0,0:0:0:0:
192,192,106827,1,2,0:0:0:0:
64,192,106827,1,0,0:0:0:0:
320,192,107032,1,2,0:0:0:0:
64,192,107032,1,0,0:0:0:0:
448,192,107135,1,0,0:0:0:0:
192,192,107135,1,2,0:0:0:0:
64,192,107135,1,4,0:0:0:0:
320,192,107237,1,2,0:0:0:0:
448,192,107237,1,0,0:0:0:0:
64,192,107340,1,0,0:0:0:0:
192,192,107340,1,2,0:0:0:0:
448,192,107443,1,0,0:0:0:0:
320,192,107443,1,2,0:0:0:0:
64,192,107443,1,0,0:0:0:0:
192,192,107545,1,0,0:0:0:0:
320,192,107545,1,2,0:0:0:0:
64,192,107648,1,0,0:0:0:0:
448,192,107648,1,2,0:0:0:0:
320,192,107750,1,2,0:0:0:0:
192,192,107750,1,4,0:0:0:0:
448,192,107750,1,0,0:0:0:0:
192,192,107853,1,2,0:0:0:0:
64,192,107853,1,0,0:0:0:0:
320,192,107955,1,2,0:0:0:0:
448,192,107955,1,0,0:0:0:0:
64,192,108058,1,2,0:0:0:0:
192,192,108058,1,0,0:0:0:0:
448,192,108058,1,0,0:0:0:0:
192,192,108161,1,2,0:0:0:0:
320,192,108161,1,0,0:0:0:0:
448,192,108263,1,2,0:0:0:0:
64,192,108263,1,0,0:0:0:0:
192,192,108366,1,0,0:0:0:0:
64,192,108366,1,0,0:0:0:0:
320,192,108366,1,2,0:0:0:0:
448,192,108366,1,4,0:0:0:0:
192,192,108520,1,0,0:0:0:0:
64,192,108673,128,0,108827:0:0:0:0:
320,192,108827,1,0,0:0:0:0:
448,192,108981,1,0,0:0:0:0:
192,192,109135,1,0,0:0:0:0:
320,192,109289,128,0,109443:0:0:0:0:
64,192,109443,1,0,0:0:0:0:
448,192,109596,1,0,0:0:0:0:
192,192,109750,1,0,0:0:0:0:
448,192,109904,128,0,110058:0:0:0:0:
64,192,110058,1,0,0:0:0:0:
320,192,110212,1,0,0:0:0:0:
192,192,110366,1,0,0:0:0:0:
64,192,110520,128,0,110673:0:0:0:0:
448,192,110673,1,0,0:0:0:0:
192,192,110827,1,0,0:0:0:0:
448,192,110981,1,0,0:0:0:0:
320,192,111135,128,0,111289:0:0:0:0:
64,192,111289,1,0,0:0:0:0:
448,192,111443,1,0,0:0:0:0:
192,192,111596,1,0,0:0:0:0:
64,192,111750,128,0,111904:0:0:0:0:
448,192,111904,1,0,0:0:0:0:
64,192,112058,1,0,0:0:0:0:
320,192,112212,1,0,0:0:0:0:
192,192,112366,1,0,0:0:0:0:
448,192,112366,128,0,112827:0:0:0:0:
64,192,112520,128,0,112981:0:0:0:0:
320,192,112673,128,0,113212:0:0:0:0:
192,192,112827,128,0,113212:0:0:0:0:
448,192,112981,128,0,113212:0:0:0:0:
64,192,113135,128,0,113212:0:0:0:0:
64,192,113289,1,0,0:0:0:0:
448,192,113289,1,0,0:0:0:0:
