osu file format v14

[General]
AudioFilename: audio.mp3
AudioLeadIn: 0
PreviewTime: 77436
Countdown: 0
SampleSet: Soft
StackLeniency: 0.7
Mode: 3
LetterboxInBreaks: 0
SpecialStyle: 0
WidescreenStoryboard: 0

[Editor]
DistanceSpacing: 0.8
BeatDivisor: 4
GridSize: 32
TimelineZoom: 2.5

[Metadata]
Title:Destiny
TitleUnicode:Destiny
Artist:Yooh
ArtistUnicode:Yooh
Creator:Virtue-
Version:HEAVENLY
Source:SOUND VOLTEX IV HEAVENLY HAVEN
Tags:
BeatmapID:1969418
BeatmapSetID:943080

[Difficulty]
HPDrainRate:8
CircleSize:4
OverallDifficulty:8
ApproachRate:5
SliderMultiplier:1.4
SliderTickRate:1

[Events]
//Background and Video events
0,0,"WALLBG.jpg",0,0
//Break Periods
//Storyboard Layer 0 (Background)
//Storyboard Layer 1 (Fail)
//Storyboard Layer 2 (Pass)
//Storyboard Layer 3 (Foreground)
//Storyboard Layer 4 (Overlay)
//Storyboard Sound Samples

[TimingPoints]
1091,270.27027027027,4,2,0,0,1,0
9739,-58.8235294117647,4,2,0,0,0,0
9807,-333.333333333333,4,2,0,0,0,0
9874,-10,4,2,0,0,0,0
9891,-200,4,2,0,0,0,0
10077,-100,4,2,0,0,0,0
10145,-10,4,2,0,0,0,0
10161,-200,4,2,0,0,0,0
10347,-100,4,2,0,0,0,0
10415,-10,4,2,0,0,0,0
10431,-200,4,2,0,0,0,0
10618,-100,4,2,0,0,0,0
10685,-10,4,2,0,0,0,0
10702,-200,4,2,0,0,0,0
10888,-100,4,2,0,0,0,0
10955,-58.8235294117647,4,2,0,0,0,0
11023,-333.333333333333,4,2,0,0,0,0
11090,-10,4,2,0,0,0,0
11107,-200,4,2,0,0,0,0
11293,-100,4,2,0,0,0,0
11901,-58.8235294117647,4,2,0,0,0,0
11969,-333.333333333333,4,2,0,0,0,0
12036,-10,4,2,0,0,0,0
12053,-200,4,2,0,0,0,0
12239,-100,4,2,0,0,0,0
12307,-10,4,2,0,0,0,0
12324,-200,4,2,0,0,0,0
12509,-100,4,2,0,0,0,0
12577,-10,4,2,0,0,0,0
12594,-200,4,2,0,0,0,0
12780,-100,4,2,0,0,0,0
12847,-10,4,2,0,0,0,0
12864,-200,4,2,0,0,0,0
13050,-100,4,2,0,0,0,0
13118,-58.8235294117647,4,2,0,0,0,0
13185,-333.333333333333,4,2,0,0,0,0
13253,-10,4,2,0,0,0,0
13270,-200,4,2,0,0,0,0
13455,-100,4,2,0,0,0,0
13523,-52.6315789473684,4,2,0,0,0,0
13557,-1000,4,2,0,0,0,0
13590,-52.6315789473684,4,2,0,0,0,0
13624,-1000,4,2,0,0,0,0
13658,-52.6315789473684,4,2,0,0,0,0
13692,-1000,4,2,0,0,0,0
13726,-52.6315789473684,4,2,0,0,0,0
13759,-1000,4,2,0,0,0,0
13793,-52.6315789473684,4,2,0,0,0,0
13827,-1000,4,2,0,0,0,0
13861,-52.6315789473684,4,2,0,0,0,0
13895,-1000,4,2,0,0,0,0
13928,-52.6315789473684,4,2,0,0,0,0
13962,-1000,4,2,0,0,0,0
13996,-52.6315789473684,4,2,0,0,0,0
14030,-1000,4,2,0,0,0,0
14063,-10,4,2,0,0,0,0
14080,-200,4,2,0,0,0,0
14266,-100,4,2,0,0,0,0
14334,-58.8235294117647,4,2,0,0,0,0
14401,-333.333333333333,4,2,0,0,0,0
14469,-10,4,2,0,0,0,0
14486,-200,4,2,0,0,0,0
14672,-100,4,2,0,0,0,0
14739,-58.8235294117647,4,2,0,0,0,0
14807,-333.333333333333,4,2,0,0,0,0
14874,-10,4,2,0,0,0,0
14891,-200,4,2,0,0,0,0
15077,-100,4,2,0,0,0,0
15145,-58.8235294117647,4,2,0,0,0,0
15212,-333.333333333333,4,2,0,0,0,0
15280,-10,4,2,0,0,0,0
15297,-333.333333333333,4,2,0,0,0,0
15482,-100,4,2,0,0,0,0
16226,-58.8235294117647,4,2,0,0,0,0
16243,-100,4,2,0,0,0,0
16496,-58.8235294117647,4,2,0,0,0,0
16513,-100,4,2,0,0,0,0
16766,-58.8235294117647,4,2,0,0,0,0
16783,-100,4,2,0,0,0,0
16901,-58.8235294117647,4,2,0,0,0,0
16918,-100,4,2,0,0,0,0
17172,-58.8235294117647,4,2,0,0,0,0
17188,-100,4,2,0,0,0,0
17442,-58.8235294117647,4,2,0,0,0,0
17509,-333.333333333333,4,2,0,0,0,0
17577,-58.8235294117647,4,2,0,0,0,0
17645,-333.333333333333,4,2,0,0,0,0
17712,-58.8235294117647,4,2,0,0,0,0
17780,-333.333333333333,4,2,0,0,0,0
17847,-58.8235294117647,4,2,0,0,0,0
17915,-333.333333333333,4,2,0,0,0,0
17982,-58.8235294117647,4,2,0,0,0,0
18050,-333.333333333333,4,2,0,0,0,0
18118,-52.6315789473684,4,2,0,0,0,0
18151,-1000,4,2,0,0,0,0
18185,-52.6315789473684,4,2,0,0,0,0
18219,-1000,4,2,0,0,0,0
18253,-52.6315789473684,4,2,0,0,0,0
18286,-1000,4,2,0,0,0,0
18320,-52.6315789473684,4,2,0,0,0,0
18354,-1000,4,2,0,0,0,0
18388,-100,4,2,0,0,0,0
25955,-10,4,2,0,0,0,0
25972,-200,4,2,0,0,0,0
26293,-100,4,2,0,0,0,0
26361,-10,4,2,0,0,0,0
26378,-200,4,2,0,0,0,0
26699,-100,4,2,0,0,0,0
27036,-58.8235294117647,4,2,0,0,0,0
27104,-333.333333333333,4,2,0,0,0,0
27172,-58.8235294117647,4,2,0,0,0,0
27239,-333.333333333333,4,2,0,0,0,0
27307,-100,4,2,0,0,0,0
33253,-58.8235294117647,4,2,0,0,0,0
33320,-76.9230769230769,4,2,0,0,0,0
33388,-142.857142857143,4,2,0,0,0,0
33455,-333.333333333333,4,2,0,0,0,0
33523,-100,4,2,0,0,0,0
33658,-58.8235294117647,4,2,0,0,0,0
33726,-76.9230769230769,4,2,0,0,0,0
33793,-142.857142857143,4,2,0,0,0,0
33861,-333.333333333333,4,2,0,0,0,0
33928,-100,4,2,0,0,0,0
34063,-58.8235294117647,4,2,0,0,0,0
34131,-76.9230769230769,4,2,0,0,0,0
34199,-142.857142857143,4,2,0,0,0,0
34266,-333.333333333333,4,2,0,0,0,0
34334,-100,4,2,0,0,0,0
34469,-58.8235294117647,4,2,0,0,0,0
34536,-333.333333333333,4,2,0,0,0,0
34604,-100,4,2,0,0,0,0
35685,-100,4,2,0,0,0,1
44063,-58.8235294117647,4,2,0,0,0,1
44131,-333.333333333333,4,2,0,0,0,1
44199,-58.8235294117647,4,2,0,0,0,1
44266,-76.9230769230769,4,2,0,0,0,1
44334,-111.111111111111,4,2,0,0,0,1
44401,-142.857142857143,4,2,0,0,0,1
44469,-250,4,2,0,0,0,1
44536,-100,4,2,0,0,0,1
44604,-58.8235294117647,4,2,0,0,0,1
44672,-125,4,2,0,0,0,1
44739,-200,4,2,0,0,0,1
44807,-100,4,2,0,0,0,1
48388,-52.6315789473684,4,2,0,0,0,1
48422,-1000,4,2,0,0,0,1
48455,-52.6315789473684,4,2,0,0,0,1
48489,-1000,4,2,0,0,0,1
48523,-52.6315789473684,4,2,0,0,0,1
48557,-1000,4,2,0,0,0,1
48590,-100,4,2,0,0,0,1
50280,-58.8235294117647,4,2,0,0,0,1
50347,-125,4,2,0,0,0,1
50415,-200,4,2,0,0,0,1
50482,-58.8235294117647,4,2,0,0,0,1
50550,-125,4,2,0,0,0,1
50618,-200,4,2,0,0,0,1
50685,-58.8235294117647,4,2,0,0,0,1
50753,-333.333333333333,4,2,0,0,0,1
50820,-100,4,2,0,0,0,1
52982,-10,4,2,0,0,0,0
52999,-200,4,2,0,0,0,0
53185,-100,4,2,0,0,0,0
53253,-10,4,2,0,0,0,0
53270,-200,4,2,0,0,0,0
53455,-100,4,2,0,0,0,0
55145,-66.6666666666667,4,2,0,0,0,0
55178,-111.111111111111,4,2,0,0,0,0
55212,-200,4,2,0,0,0,0
55246,-100,4,2,0,0,0,0
55280,-66.6666666666667,4,2,0,0,0,0
55313,-111.111111111111,4,2,0,0,0,0
55347,-200,4,2,0,0,0,0
55381,-100,4,2,0,0,0,0
55415,-66.6666666666667,4,2,0,0,0,0
55449,-111.111111111111,4,2,0,0,0,0
55482,-200,4,2,0,0,0,0
55516,-100,4,2,0,0,0,0
55550,-66.6666666666667,4,2,0,0,0,0
55584,-111.111111111111,4,2,0,0,0,0
55618,-200,4,2,0,0,0,0
55651,-100,4,2,0,0,0,0
55685,-66.6666666666667,4,2,0,0,0,0
55719,-111.111111111111,4,2,0,0,0,0
55753,-200,4,2,0,0,0,0
55786,-100,4,2,0,0,0,0
55820,-66.6666666666667,4,2,0,0,0,0
55854,-111.111111111111,4,2,0,0,0,0
55888,-200,4,2,0,0,0,0
55922,-100,4,2,0,0,0,0
55955,-66.6666666666667,4,2,0,0,0,0
55989,-111.111111111111,4,2,0,0,0,0
56023,-200,4,2,0,0,0,0
56057,-100,4,2,0,0,0,0
56090,-66.6666666666667,4,2,0,0,0,0
56124,-111.111111111111,4,2,0,0,0,0
56158,-200,4,2,0,0,0,0
56192,-100,4,2,0,0,0,0
56226,-66.6666666666667,4,2,0,0,0,0
56259,-111.111111111111,4,2,0,0,0,0
56293,-200,4,2,0,0,0,0
56327,-100,4,2,0,0,0,0
56361,-66.6666666666667,4,2,0,0,0,0
56395,-111.111111111111,4,2,0,0,0,0
56428,-200,4,2,0,0,0,0
56462,-100,4,2,0,0,0,0
56496,-66.6666666666667,4,2,0,0,0,0
56530,-111.111111111111,4,2,0,0,0,0
56563,-200,4,2,0,0,0,0
56597,-100,4,2,0,0,0,0
56631,-66.6666666666667,4,2,0,0,0,0
56665,-111.111111111111,4,2,0,0,0,0
56699,-200,4,2,0,0,0,0
56732,-100,4,2,0,0,0,0
56766,-66.6666666666667,4,2,0,0,0,0
56800,-111.111111111111,4,2,0,0,0,0
56834,-200,4,2,0,0,0,0
56868,-100,4,2,0,0,0,0
56901,-66.6666666666667,4,2,0,0,0,0
56935,-111.111111111111,4,2,0,0,0,0
56969,-200,4,2,0,0,0,0
57003,-100,4,2,0,0,0,0
57036,-66.6666666666667,4,2,0,0,0,0
57070,-111.111111111111,4,2,0,0,0,0
57104,-200,4,2,0,0,0,0
57138,-100,4,2,0,0,0,0
57172,-66.6666666666667,4,2,0,0,0,0
57205,-111.111111111111,4,2,0,0,0,0
57239,-200,4,2,0,0,0,0
57273,-100,4,2,0,0,0,0
57307,-58.8235294117647,4,2,0,0,0,0
57374,-333.333333333333,4,2,0,0,0,0
57442,-58.8235294117647,4,2,0,0,0,0
57509,-333.333333333333,4,2,0,0,0,0
57577,-58.8235294117647,4,2,0,0,0,0
57645,-76.9230769230769,4,2,0,0,0,0
57712,-142.857142857143,4,2,0,0,0,0
57780,-333.333333333333,4,2,0,0,0,0
57847,-100,4,2,0,0,0,0
61631,-58.8235294117647,4,2,0,0,0,0
61699,-125,4,2,0,0,0,0
61766,-166.666666666667,4,2,0,0,0,0
61834,-58.8235294117647,4,2,0,0,0,0
61901,-125,4,2,0,0,0,0
61969,-166.666666666667,4,2,0,0,0,0
62036,-58.8235294117647,4,2,0,0,0,0
62104,-333.333333333333,4,2,0,0,0,0
62172,-100,4,2,0,0,0,0
63793,-66.6666666666667,4,2,0,0,0,0
63826,-111.111111111111,4,2,0,0,0,0
63860,-200,4,2,0,0,0,0
63894,-100,4,2,0,0,0,0
63928,-66.6666666666667,4,2,0,0,0,0
63961,-111.111111111111,4,2,0,0,0,0
63995,-200,4,2,0,0,0,0
64029,-100,4,2,0,0,0,0
64063,-66.6666666666667,4,2,0,0,0,0
64097,-111.111111111111,4,2,0,0,0,0
64130,-200,4,2,0,0,0,0
64164,-100,4,2,0,0,0,0
64198,-66.6666666666667,4,2,0,0,0,0
64232,-111.111111111111,4,2,0,0,0,0
64266,-200,4,2,0,0,0,0
64299,-100,4,2,0,0,0,0
64333,-66.6666666666667,4,2,0,0,0,0
64367,-111.111111111111,4,2,0,0,0,0
64401,-200,4,2,0,0,0,0
64434,-100,4,2,0,0,0,0
64468,-66.6666666666667,4,2,0,0,0,0
64502,-111.111111111111,4,2,0,0,0,0
64536,-200,4,2,0,0,0,0
64570,-100,4,2,0,0,0,0
64603,-66.6666666666667,4,2,0,0,0,0
64637,-111.111111111111,4,2,0,0,0,0
64671,-200,4,2,0,0,0,0
64705,-100,4,2,0,0,0,0
64738,-66.6666666666667,4,2,0,0,0,0
64772,-111.111111111111,4,2,0,0,0,0
64806,-200,4,2,0,0,0,0
64840,-100,4,2,0,0,0,0
64874,-66.6666666666667,4,2,0,0,0,0
64907,-111.111111111111,4,2,0,0,0,0
64941,-200,4,2,0,0,0,0
64975,-100,4,2,0,0,0,0
65009,-66.6666666666667,4,2,0,0,0,0
65043,-111.111111111111,4,2,0,0,0,0
65076,-200,4,2,0,0,0,0
65110,-100,4,2,0,0,0,0
65144,-66.6666666666667,4,2,0,0,0,0
65178,-111.111111111111,4,2,0,0,0,0
65211,-200,4,2,0,0,0,0
65245,-100,4,2,0,0,0,0
65279,-66.6666666666667,4,2,0,0,0,0
65313,-111.111111111111,4,2,0,0,0,0
65347,-200,4,2,0,0,0,0
65380,-100,4,2,0,0,0,0
65414,-66.6666666666667,4,2,0,0,0,0
65448,-111.111111111111,4,2,0,0,0,0
65482,-200,4,2,0,0,0,0
65516,-100,4,2,0,0,0,0
65549,-66.6666666666667,4,2,0,0,0,0
65583,-111.111111111111,4,2,0,0,0,0
65617,-200,4,2,0,0,0,0
65651,-100,4,2,0,0,0,0
65684,-66.6666666666667,4,2,0,0,0,0
65718,-111.111111111111,4,2,0,0,0,0
65752,-200,4,2,0,0,0,0
65786,-100,4,2,0,0,0,0
65820,-66.6666666666667,4,2,0,0,0,0
65853,-111.111111111111,4,2,0,0,0,0
65887,-200,4,2,0,0,0,0
65921,-100,4,2,0,0,0,0
65955,-58.8235294117647,4,2,0,0,0,0
66022,-333.333333333333,4,2,0,0,0,0
66090,-58.8235294117647,4,2,0,0,0,0
66157,-333.333333333333,4,2,0,0,0,0
66225,-100,4,2,0,0,0,0
68118,-66.6666666666667,4,2,0,0,0,0
68163,-200,4,2,0,0,0,0
68208,-66.6666666666667,4,2,0,0,0,0
68253,-200,4,2,0,0,0,0
68298,-66.6666666666667,4,2,0,0,0,0
68343,-200,4,2,0,0,0,0
68388,-66.6666666666667,4,2,0,0,0,0
68433,-200,4,2,0,0,0,0
68478,-66.6666666666667,4,2,0,0,0,0
68523,-200,4,2,0,0,0,0
68568,-66.6666666666667,4,2,0,0,0,0
68613,-200,4,2,0,0,0,0
68658,-58.8235294117647,4,2,0,0,0,0
68726,-125,4,2,0,0,0,0
68793,-166.666666666667,4,2,0,0,0,0
68861,-58.8235294117647,4,2,0,0,0,0
68928,-125,4,2,0,0,0,0
68996,-166.666666666667,4,2,0,0,0,0
69063,-58.8235294117647,4,2,0,0,0,0
69131,-333.333333333333,4,2,0,0,0,0
69199,-100,4,2,0,0,0,0
69469,-90.9090909090909,4,2,0,0,0,0
69739,-83.3333333333333,4,2,0,0,0,0
70212,-100,4,2,0,0,0,0
70280,333.333333333333,4,2,0,0,1,0
70300,-200,4,2,0,0,0,0
70613,-181.818181818182,4,2,0,0,0,0
70946,-166.666666666667,4,2,0,0,0,0
71280,-153.846153846154,4,2,0,0,0,0
71613,317.460317460317,4,2,0,0,1,0
71632,-142.857142857143,4,2,0,0,0,0
71930,-133.333333333333,4,2,0,0,0,0
72247,-125,4,2,0,0,0,0
72565,-117.647058823529,4,2,0,0,0,0
72882,310.880829015544,4,2,0,0,1,0
72901,-111.111111111111,4,2,0,0,0,0
73192,-105.263157894737,4,2,0,0,0,0
73503,307.692307692308,4,2,0,0,1,0
74118,292.682926829268,4,2,0,0,1,0
74703,291.26213592233,4,2,0,0,1,0
75139,270.27027027027,4,2,0,0,1,0
77166,270.27027027027,4,2,0,0,1,0
77182,-10,4,2,0,0,0,0
77199,-200,4,2,0,0,0,0
77419,-100,4,2,0,0,0,0
77436,270.27027027027,4,2,0,0,1,0
77452,-100,4,2,0,0,0,1
88246,-66.6666666666667,4,2,0,0,0,1
88291,-200,4,2,0,0,0,1
88336,-66.6666666666667,4,2,0,0,0,1
88381,-200,4,2,0,0,0,1
88426,-66.6666666666667,4,2,0,0,0,1
88472,-200,4,2,0,0,0,1
88517,-66.6666666666667,4,2,0,0,0,1
88562,-200,4,2,0,0,0,1
88607,-66.6666666666667,4,2,0,0,0,1
88652,-200,4,2,0,0,0,1
88697,-66.6666666666667,4,2,0,0,0,1
88742,-200,4,2,0,0,0,1
88787,-66.6666666666667,4,2,0,0,0,1
88832,-200,4,2,0,0,0,1
88877,-66.6666666666667,4,2,0,0,0,1
88922,-200,4,2,0,0,0,1
88967,-66.6666666666667,4,2,0,0,0,1
89012,-200,4,2,0,0,0,1
89057,-66.6666666666667,4,2,0,0,0,1
89102,-200,4,2,0,0,0,1
89147,-66.6666666666667,4,2,0,0,0,1
89192,-200,4,2,0,0,0,1
89237,-66.6666666666667,4,2,0,0,0,1
89282,-200,4,2,0,0,0,1
89327,-100,4,2,0,0,0,1
94733,-100,4,2,0,0,0,0
112030,-58.8235294117647,4,2,0,0,0,0
112098,-66.6666666666667,4,2,0,0,0,0
112165,-76.9230769230769,4,2,0,0,0,0
112233,-90.9090909090909,4,2,0,0,0,0
112300,-142.857142857143,4,2,0,0,0,0
112368,-250,4,2,0,0,0,0
112435,-333.333333333333,4,2,0,0,0,0
112503,-100,4,2,0,0,0,0
112571,-58.8235294117647,4,2,0,0,0,0
112638,-66.6666666666667,4,2,0,0,0,0
112706,-76.9230769230769,4,2,0,0,0,0
112773,-90.9090909090909,4,2,0,0,0,0
112841,-142.857142857143,4,2,0,0,0,0
112908,-250,4,2,0,0,0,0
112976,-333.333333333333,4,2,0,0,0,0
113044,-100,4,2,0,0,0,0
113111,-58.8235294117647,4,2,0,0,0,0
113179,-66.6666666666667,4,2,0,0,0,0
113246,-76.9230769230769,4,2,0,0,0,0
113314,-90.9090909090909,4,2,0,0,0,0
113381,-142.857142857143,4,2,0,0,0,0
113449,-250,4,2,0,0,0,0
113516,-333.333333333333,4,2,0,0,0,0
113584,-100,4,2,0,0,0,0
113652,-58.8235294117647,4,2,0,0,0,0
113719,-66.6666666666667,4,2,0,0,0,0
113787,-76.9230769230769,4,2,0,0,0,0
113854,-90.9090909090909,4,2,0,0,0,0
113922,-142.857142857143,4,2,0,0,0,0
113989,-250,4,2,0,0,0,0
114057,-333.333333333333,4,2,0,0,0,0
114125,-100,4,2,0,0,0,0
114192,-58.8235294117647,4,2,0,0,0,0
114260,-125,4,2,0,0,0,0
114327,-166.666666666667,4,2,0,0,0,0
114395,-100,4,2,0,0,0,0
114463,-58.8235294117647,4,2,0,0,0,0
114530,-125,4,2,0,0,0,0
114598,-166.666666666667,4,2,0,0,0,0
114665,-100,4,2,0,0,0,0
114733,-58.8235294117647,4,2,0,0,0,0
114800,-125,4,2,0,0,0,0
114868,-166.666666666667,4,2,0,0,0,0
114935,-100,4,2,0,0,0,0
115003,-58.8235294117647,4,2,0,0,0,0
115071,-76.9230769230769,4,2,0,0,0,0
115138,-142.857142857143,4,2,0,0,0,0
115206,-333.333333333333,4,2,0,0,0,0
115273,-58.8235294117647,4,2,0,0,0,0
115341,-333.333333333333,4,2,0,0,0,0
115408,-58.8235294117647,4,2,0,0,0,0
115476,-333.333333333333,4,2,0,0,0,0
115544,-58.8235294117647,4,2,0,0,0,0
115611,-333.333333333333,4,2,0,0,0,0
115679,-58.8235294117647,4,2,0,0,0,0
115746,-333.333333333333,4,2,0,0,0,0
115814,-52.6315789473684,4,2,0,0,0,0
115848,-1000,4,2,0,0,0,0
115881,-52.6315789473684,4,2,0,0,0,0
115915,-1000,4,2,0,0,0,0
115949,-52.6315789473684,4,2,0,0,0,0
115983,-1000,4,2,0,0,0,0
116017,-52.6315789473684,4,2,0,0,0,0
116050,-1000,4,2,0,0,0,0
116084,-52.6315789473684,4,2,0,0,0,0
116118,-1000,4,2,0,0,0,0
116152,-52.6315789473684,4,2,0,0,0,0
116185,-1000,4,2,0,0,0,0
116219,-52.6315789473684,4,2,0,0,0,0
116253,-1000,4,2,0,0,0,0
116287,-52.6315789473684,4,2,0,0,0,0
116321,-1000,4,2,0,0,0,0
116354,-100,4,2,0,0,0,0

[HitObjects]
192,192,1091,5,0,0:0:0:0:
64,192,1091,1,0,0:0:0:0:
448,192,1091,1,0,0:0:0:0:
320,192,1091,1,0,0:0:0:0:
448,192,1181,1,0,0:0:0:0:
64,192,1271,1,0,0:0:0:0:
192,192,1361,1,0,0:0:0:0:
448,192,1451,1,0,0:0:0:0:
320,192,1541,1,0,0:0:0:0:
192,192,1631,1,0,0:0:0:0:
64,192,1721,1,0,0:0:0:0:
320,192,1811,1,0,0:0:0:0:
192,192,1901,1,0,0:0:0:0:
448,192,1991,1,0,0:0:0:0:
64,192,2081,1,0,0:0:0:0:
64,192,2172,1,0,0:0:0:0:
320,192,2172,1,0,0:0:0:0:
448,192,2172,1,0,0:0:0:0:
192,192,2172,1,0,0:0:0:0:
320,192,2262,1,0,0:0:0:0:
192,192,2352,1,0,0:0:0:0:
448,192,2442,1,0,0:0:0:0:
320,192,2532,1,0,0:0:0:0:
64,192,2622,1,0,0:0:0:0:
192,192,2712,128,0,2892:0:0:0:0:
320,192,2802,1,0,0:0:0:0:
448,192,2892,1,0,0:0:0:0:
64,192,2982,128,0,3163:0:0:0:0:
192,192,3072,1,0,0:0:0:0:
320,192,3163,1,0,0:0:0:0:
64,192,3253,1,0,0:0:0:0:
192,192,3253,1,0,0:0:0:0:
320,192,3253,1,0,0:0:0:0:
448,192,3253,1,0,0:0:0:0:
448,192,3343,1,0,0:0:0:0:
64,192,3433,1,0,0:0:0:0:
192,192,3523,1,0,0:0:0:0:
448,192,3613,1,0,0:0:0:0:
320,192,3703,1,0,0:0:0:0:
192,192,3793,1,0,0:0:0:0:
64,192,3883,1,0,0:0:0:0:
320,192,3973,1,0,0:0:0:0:
192,192,4063,1,0,0:0:0:0:
448,192,4154,1,0,0:0:0:0:
320,192,4244,1,0,0:0:0:0:
64,192,4334,1,0,0:0:0:0:
192,192,4334,1,0,0:0:0:0:
320,192,4334,1,0,0:0:0:0:
448,192,4334,1,0,0:0:0:0:
192,192,4424,1,0,0:0:0:0:
64,192,4514,1,0,0:0:0:0:
320,192,4604,1,0,0:0:0:0:
448,192,4694,1,0,0:0:0:0:
192,192,4784,1,0,0:0:0:0:
320,192,4874,1,0,0:0:0:0:
64,192,4964,1,0,0:0:0:0:
192,192,5054,1,0,0:0:0:0:
320,192,5145,1,0,0:0:0:0:
448,192,5235,1,0,0:0:0:0:
64,192,5325,1,0,0:0:0:0:
64,192,5415,1,0,0:0:0:0:
192,192,5415,1,0,0:0:0:0:
320,192,5415,1,0,0:0:0:0:
448,192,5415,1,0,0:0:0:0:
320,192,5505,1,0,0:0:0:0:
448,192,5595,1,0,0:0:0:0:
192,192,5685,1,0,0:0:0:0:
64,192,5775,1,0,0:0:0:0:
320,192,5865,1,0,0:0:0:0:
192,192,5955,1,0,0:0:0:0:
448,192,6045,1,0,0:0:0:0:
320,192,6136,1,0,0:0:0:0:
64,192,6226,1,0,0:0:0:0:
192,192,6316,1,0,0:0:0:0:
320,192,6406,1,0,0:0:0:0:
64,192,6496,1,0,0:0:0:0:
192,192,6496,1,0,0:0:0:0:
320,192,6496,1,0,0:0:0:0:
448,192,6496,1,0,0:0:0:0:
448,192,6586,1,0,0:0:0:0:
64,192,6676,1,0,0:0:0:0:
192,192,6766,1,0,0:0:0:0:
448,192,6856,1,0,0:0:0:0:
320,192,6946,1,0,0:0:0:0:
192,192,7036,1,0,0:0:0:0:
64,192,7127,1,0,0:0:0:0:
320,192,7217,1,0,0:0:0:0:
448,192,7307,1,0,0:0:0:0:
192,192,7397,1,0,0:0:0:0:
320,192,7487,1,0,0:0:0:0:
192,192,7577,1,0,0:0:0:0:
448,192,7577,1,0,0:0:0:0:
320,192,7577,1,0,0:0:0:0:
64,192,7577,1,0,0:0:0:0:
64,192,7667,1,0,0:0:0:0:
448,192,7757,1,0,0:0:0:0:
320,192,7847,1,0,0:0:0:0:
192,192,7937,1,0,0:0:0:0:
64,192,8027,1,0,0:0:0:0:
320,192,8118,1,0,0:0:0:0:
448,192,8208,1,0,0:0:0:0:
192,192,8298,1,0,0:0:0:0:
64,192,8388,1,0,0:0:0:0:
320,192,8478,1,0,0:0:0:0:
192,192,8568,1,0,0:0:0:0:
64,192,8658,1,0,0:0:0:0:
192,192,8658,1,0,0:0:0:0:
320,192,8658,1,0,0:0:0:0:
448,192,8658,1,0,0:0:0:0:
448,192,8748,1,0,0:0:0:0:
320,192,8838,1,0,0:0:0:0:
64,192,8928,1,0,0:0:0:0:
192,192,9018,1,0,0:0:0:0:
320,192,9109,1,0,0:0:0:0:
448,192,9199,128,0,9672:0:0:0:0:
64,192,9266,128,0,9401:0:0:0:0:
192,192,9334,128,0,9469:0:0:0:0:
320,192,9401,128,0,9536:0:0:0:0:
64,192,9469,128,0,9672:0:0:0:0:
192,192,9536,128,0,9672:0:0:0:0:
320,192,9604,128,0,9672:0:0:0:0:
448,192,9739,1,0,0:0:0:0:
192,192,9739,1,0,0:0:0:0:
64,192,9739,1,0,0:0:0:0:
448,192,9874,1,0,0:0:0:0:
192,192,9874,1,0,0:0:0:0:
64,192,9874,1,0,0:0:0:0:
448,192,10145,1,0,0:0:0:0:
320,192,10145,1,0,0:0:0:0:
64,192,10145,1,0,0:0:0:0:
448,192,10415,1,0,0:0:0:0:
320,192,10415,1,0,0:0:0:0:
64,192,10415,1,0,0:0:0:0:
448,192,10685,1,0,0:0:0:0:
320,192,10685,1,0,0:0:0:0:
64,192,10685,1,0,0:0:0:0:
448,192,10955,1,0,0:0:0:0:
320,192,10955,1,0,0:0:0:0:
64,192,10955,1,0,0:0:0:0:
448,192,11090,1,0,0:0:0:0:
320,192,11090,1,0,0:0:0:0:
64,192,11090,1,0,0:0:0:0:
192,192,11361,1,0,0:0:0:0:
64,192,11361,1,0,0:0:0:0:
448,192,11428,1,0,0:0:0:0:
192,192,11496,1,0,0:0:0:0:
64,192,11496,1,0,0:0:0:0:
320,192,11563,1,0,0:0:0:0:
448,192,11631,1,0,0:0:0:0:
64,192,11631,1,0,0:0:0:0:
192,192,11699,1,0,0:0:0:0:
448,192,11766,1,0,0:0:0:0:
320,192,11766,1,0,0:0:0:0:
64,192,11834,1,0,0:0:0:0:
192,192,11901,1,0,0:0:0:0:
320,192,11901,1,0,0:0:0:0:
448,192,11901,1,0,0:0:0:0:
448,192,12036,1,0,0:0:0:0:
320,192,12036,1,0,0:0:0:0:
192,192,12036,1,0,0:0:0:0:
192,192,12307,1,0,0:0:0:0:
64,192,12307,1,0,0:0:0:0:
320,192,12307,1,0,0:0:0:0:
320,192,12577,1,0,0:0:0:0:
192,192,12577,1,0,0:0:0:0:
64,192,12577,1,0,0:0:0:0:
320,192,12847,1,0,0:0:0:0:
192,192,12847,1,0,0:0:0:0:
64,192,12847,1,0,0:0:0:0:
320,192,13118,1,0,0:0:0:0:
192,192,13118,1,0,0:0:0:0:
64,192,13118,1,0,0:0:0:0:
320,192,13253,1,0,0:0:0:0:
192,192,13253,1,0,0:0:0:0:
64,192,13253,1,0,0:0:0:0:
448,192,13523,128,0,13996:0:0:0:0:
64,192,13590,1,0,0:0:0:0:
192,192,13658,1,0,0:0:0:0:
320,192,13726,1,0,0:0:0:0:
64,192,13793,128,0,13996:0:0:0:0:
192,192,13793,1,0,0:0:0:0:
320,192,13861,1,0,0:0:0:0:
192,192,13928,1,0,0:0:0:0:
320,192,13996,1,0,0:0:0:0:
448,192,14063,1,0,0:0:0:0:
64,192,14063,1,0,0:0:0:0:
192,192,14063,1,0,0:0:0:0:
448,192,14334,1,0,0:0:0:0:
320,192,14334,1,0,0:0:0:0:
64,192,14334,1,0,0:0:0:0:
192,192,14469,1,0,0:0:0:0:
320,192,14469,1,0,0:0:0:0:
448,192,14469,1,0,0:0:0:0:
192,192,14739,1,0,0:0:0:0:
448,192,14739,1,0,0:0:0:0:
64,192,14739,1,0,0:0:0:0:
320,192,14874,1,0,0:0:0:0:
192,192,14874,1,0,0:0:0:0:
64,192,14874,1,0,0:0:0:0:
448,192,15145,1,0,0:0:0:0:
320,192,15145,1,0,0:0:0:0:
192,192,15145,1,0,0:0:0:0:
448,192,15280,1,0,0:0:0:0:
320,192,15280,1,0,0:0:0:0:
64,192,15280,1,0,0:0:0:0:
192,192,15550,1,0,0:0:0:0:
64,192,15550,1,0,0:0:0:0:
320,192,15550,1,0,0:0:0:0:
448,192,15685,128,0,15753:0:0:0:0:
320,192,15685,128,0,15753:0:0:0:0:
64,192,15753,128,0,15820:0:0:0:0:
192,192,15820,128,0,15888:0:0:0:0:
448,192,15820,128,0,15888:0:0:0:0:
320,192,15888,128,0,15955:0:0:0:0:
192,192,15955,128,0,16023:0:0:0:0:
64,192,15955,128,0,16023:0:0:0:0:
448,192,16023,128,0,16090:0:0:0:0:
320,192,16090,128,0,16158:0:0:0:0:
64,192,16090,128,0,16158:0:0:0:0:
192,192,16158,128,0,16226:0:0:0:0:
448,192,16226,1,0,0:0:0:0:
320,192,16226,1,0,0:0:0:0:
64,192,16226,1,0,0:0:0:0:
192,192,16293,1,0,0:0:0:0:
448,192,16361,1,0,0:0:0:0:
320,192,16428,1,0,0:0:0:0:
192,192,16496,1,0,0:0:0:0:
64,192,16496,1,0,0:0:0:0:
448,192,16496,1,0,0:0:0:0:
320,192,16563,1,0,0:0:0:0:
64,192,16631,1,0,0:0:0:0:
192,192,16699,1,0,0:0:0:0:
320,192,16766,1,0,0:0:0:0:
448,192,16766,1,0,0:0:0:0:
64,192,16766,1,0,0:0:0:0:
192,192,16834,1,0,0:0:0:0:
320,192,16901,1,0,0:0:0:0:
448,192,16901,1,0,0:0:0:0:
64,192,16901,1,0,0:0:0:0:
192,192,16969,1,0,0:0:0:0:
448,192,17036,1,0,0:0:0:0:
64,192,17104,1,0,0:0:0:0:
192,192,17172,1,0,0:0:0:0:
320,192,17172,1,0,0:0:0:0:
448,192,17172,1,0,0:0:0:0:
64,192,17239,1,0,0:0:0:0:
320,192,17307,1,0,0:0:0:0:
192,192,17374,1,0,0:0:0:0:
64,192,17442,1,0,0:0:0:0:
320,192,17442,1,0,0:0:0:0:
448,192,17442,1,0,0:0:0:0:
64,192,17577,1,0,0:0:0:0:
320,192,17577,1,0,0:0:0:0:
448,192,17577,1,0,0:0:0:0:
64,192,17712,1,0,0:0:0:0:
320,192,17712,1,0,0:0:0:0:
448,192,17712,1,0,0:0:0:0:
64,192,17847,1,0,0:0:0:0:
320,192,17847,1,0,0:0:0:0:
448,192,17847,1,0,0:0:0:0:
64,192,17982,1,0,0:0:0:0:
320,192,17982,1,0,0:0:0:0:
448,192,17982,1,0,0:0:0:0:
320,192,18118,1,0,0:0:0:0:
448,192,18118,1,0,0:0:0:0:
192,192,18185,1,0,0:0:0:0:
64,192,18185,1,0,0:0:0:0:
320,192,18253,1,0,0:0:0:0:
448,192,18253,1,0,0:0:0:0:
192,192,18320,1,0,0:0:0:0:
64,192,18320,1,0,0:0:0:0:
192,192,18388,128,0,18455:0:0:0:0:
64,192,18388,128,0,18455:0:0:0:0:
448,192,18388,128,0,18590:0:0:0:0:
320,192,18388,1,0,0:0:0:0:
192,192,18523,128,0,18590:0:0:0:0:
64,192,18523,128,0,18590:0:0:0:0:
320,192,18658,128,0,18726:0:0:0:0:
448,192,18658,128,0,18726:0:0:0:0:
64,192,18658,128,0,18861:0:0:0:0:
448,192,18793,128,0,18861:0:0:0:0:
320,192,18793,128,0,18861:0:0:0:0:
192,192,18928,1,0,0:0:0:0:
64,192,18928,1,0,0:0:0:0:
320,192,19063,1,0,0:0:0:0:
192,192,19199,1,0,0:0:0:0:
64,192,19199,1,0,0:0:0:0:
448,192,19199,1,0,0:0:0:0:
320,192,19334,1,0,0:0:0:0:
448,192,19469,1,0,0:0:0:0:
64,192,19469,1,0,0:0:0:0:
192,192,19604,1,0,0:0:0:0:
448,192,19739,1,0,0:0:0:0:
320,192,19739,1,0,0:0:0:0:
64,192,19739,1,0,0:0:0:0:
192,192,19874,1,0,0:0:0:0:
64,192,20009,128,0,20077:0:0:0:0:
448,192,20009,128,0,20077:0:0:0:0:
320,192,20145,128,0,20212:0:0:0:0:
192,192,20145,128,0,20212:0:0:0:0:
320,192,20280,128,0,20347:0:0:0:0:
64,192,20280,128,0,20347:0:0:0:0:
448,192,20280,128,0,20347:0:0:0:0:
192,192,20415,128,0,20482:0:0:0:0:
64,192,20415,128,0,20482:0:0:0:0:
320,192,20550,128,0,20618:0:0:0:0:
448,192,20550,128,0,20618:0:0:0:0:
192,192,20685,1,0,0:0:0:0:
64,192,20820,1,0,0:0:0:0:
320,192,20820,1,0,0:0:0:0:
448,192,20820,1,0,0:0:0:0:
192,192,20955,1,0,0:0:0:0:
448,192,21090,1,0,0:0:0:0:
64,192,21090,1,0,0:0:0:0:
320,192,21226,1,0,0:0:0:0:
192,192,21361,128,0,21428:0:0:0:0:
64,192,21361,128,0,21428:0:0:0:0:
448,192,21361,128,0,21428:0:0:0:0:
320,192,21496,1,0,0:0:0:0:
64,192,21631,128,0,21766:0:0:0:0:
192,192,21631,128,0,21766:0:0:0:0:
448,192,21766,1,0,0:0:0:0:
320,192,21766,1,0,0:0:0:0:
448,192,21901,1,0,0:0:0:0:
192,192,21901,1,0,0:0:0:0:
64,192,21901,1,0,0:0:0:0:
192,192,22036,128,0,22172:0:0:0:0:
64,192,22036,128,0,22172:0:0:0:0:
320,192,22172,1,0,0:0:0:0:
448,192,22172,1,0,0:0:0:0:
64,192,22307,1,0,0:0:0:0:
320,192,22374,1,0,0:0:0:0:
448,192,22374,1,0,0:0:0:0:
192,192,22442,128,0,22577:0:0:0:0:
64,192,22442,128,0,22577:0:0:0:0:
320,192,22577,1,0,0:0:0:0:
448,192,22577,1,0,0:0:0:0:
320,192,22712,128,0,22780:0:0:0:0:
64,192,22712,128,0,22780:0:0:0:0:
64,192,22847,128,0,22915:0:0:0:0:
320,192,22847,128,0,22915:0:0:0:0:
64,192,22982,1,0,0:0:0:0:
448,192,22982,128,0,23050:0:0:0:0:
192,192,22982,128,0,23050:0:0:0:0:
448,192,23118,128,0,23185:0:0:0:0:
192,192,23118,128,0,23185:0:0:0:0:
320,192,23253,1,0,0:0:0:0:
64,192,23253,1,0,0:0:0:0:
192,192,23388,1,0,0:0:0:0:
64,192,23523,1,0,0:0:0:0:
448,192,23523,1,0,0:0:0:0:
320,192,23523,1,0,0:0:0:0:
192,192,23658,1,0,0:0:0:0:
64,192,23658,1,0,0:0:0:0:
448,192,23793,1,0,0:0:0:0:
192,192,23928,1,0,0:0:0:0:
320,192,23928,1,0,0:0:0:0:
448,192,24063,1,0,0:0:0:0:
320,192,24063,1,0,0:0:0:0:
64,192,24063,1,0,0:0:0:0:
192,192,24199,1,0,0:0:0:0:
320,192,24334,128,0,24401:0:0:0:0:
448,192,24334,128,0,24401:0:0:0:0:
448,192,24469,128,0,24536:0:0:0:0:
192,192,24469,128,0,24536:0:0:0:0:
320,192,24604,128,0,24672:0:0:0:0:
192,192,24604,128,0,24672:0:0:0:0:
64,192,24604,128,0,24672:0:0:0:0:
64,192,24739,128,0,24807:0:0:0:0:
448,192,24739,128,0,24807:0:0:0:0:
320,192,24874,128,0,24942:0:0:0:0:
192,192,24874,128,0,24942:0:0:0:0:
448,192,25009,1,0,0:0:0:0:
320,192,25145,1,0,0:0:0:0:
192,192,25145,1,0,0:0:0:0:
64,192,25145,1,0,0:0:0:0:
448,192,25280,1,0,0:0:0:0:
192,192,25415,1,0,0:0:0:0:
64,192,25415,1,0,0:0:0:0:
320,192,25550,1,0,0:0:0:0:
448,192,25685,128,0,25753:0:0:0:0:
192,192,25685,128,0,25753:0:0:0:0:
64,192,25685,128,0,25753:0:0:0:0:
192,192,25820,1,0,0:0:0:0:
320,192,25820,1,0,0:0:0:0:
320,192,25955,1,0,0:0:0:0:
448,192,25955,1,0,0:0:0:0:
64,192,25955,1,0,0:0:0:0:
320,192,26361,1,0,0:0:0:0:
448,192,26361,1,0,0:0:0:0:
64,192,26361,1,0,0:0:0:0:
192,192,26766,1,0,0:0:0:0:
64,192,26766,1,0,0:0:0:0:
320,192,26834,1,0,0:0:0:0:
448,192,26834,1,0,0:0:0:0:
64,192,26901,1,0,0:0:0:0:
192,192,26901,1,0,0:0:0:0:
320,192,26969,1,0,0:0:0:0:
448,192,26969,1,0,0:0:0:0:
64,192,27036,1,0,0:0:0:0:
320,192,27036,1,0,0:0:0:0:
448,192,27036,1,0,0:0:0:0:
64,192,27172,1,0,0:0:0:0:
320,192,27172,1,0,0:0:0:0:
448,192,27172,1,0,0:0:0:0:
192,192,27307,1,0,0:0:0:0:
64,192,27307,1,0,0:0:0:0:
320,192,27307,1,0,0:0:0:0:
448,192,27307,1,0,0:0:0:0:
192,192,27442,128,0,27577:0:0:0:0:
320,192,27577,1,0,0:0:0:0:
448,192,27577,1,0,0:0:0:0:
64,192,27712,128,0,27847:0:0:0:0:
192,192,27847,1,0,0:0:0:0:
320,192,27847,1,0,0:0:0:0:
448,192,27847,1,0,0:0:0:0:
448,192,27982,128,0,28118:0:0:0:0:
192,192,28118,1,0,0:0:0:0:
64,192,28118,1,0,0:0:0:0:
320,192,28253,128,0,28388:0:0:0:0:
192,192,28388,1,0,0:0:0:0:
64,192,28388,1,0,0:0:0:0:
448,192,28388,1,0,0:0:0:0:
64,192,28523,128,0,28658:0:0:0:0:
320,192,28658,128,0,28726:0:0:0:0:
448,192,28658,128,0,28726:0:0:0:0:
64,192,28793,128,0,28861:0:0:0:0:
192,192,28793,128,0,28861:0:0:0:0:
448,192,28793,128,0,28996:0:0:0:0:
192,192,28928,128,0,28996:0:0:0:0:
320,192,28928,128,0,28996:0:0:0:0:
64,192,28928,128,0,28996:0:0:0:0:
320,192,29063,128,0,29131:0:0:0:0:
448,192,29063,128,0,29131:0:0:0:0:
64,192,29199,1,0,0:0:0:0:
192,192,29199,1,0,0:0:0:0:
320,192,29334,128,0,29469:0:0:0:0:
64,192,29469,1,0,0:0:0:0:
192,192,29469,1,0,0:0:0:0:
448,192,29469,1,0,0:0:0:0:
192,192,29604,128,0,29739:0:0:0:0:
64,192,29739,1,0,0:0:0:0:
448,192,29739,1,0,0:0:0:0:
64,192,29874,128,0,30009:0:0:0:0:
192,192,30009,1,0,0:0:0:0:
320,192,30009,1,0,0:0:0:0:
448,192,30009,1,0,0:0:0:0:
448,192,30145,128,0,30280:0:0:0:0:
192,192,30280,128,0,30415:0:0:0:0:
64,192,30280,128,0,30415:0:0:0:0:
320,192,30415,1,0,0:0:0:0:
448,192,30415,1,0,0:0:0:0:
192,192,30550,1,0,0:0:0:0:
448,192,30550,1,0,0:0:0:0:
192,192,30685,128,0,30820:0:0:0:0:
64,192,30685,128,0,30820:0:0:0:0:
64,192,30955,1,0,0:0:0:0:
448,192,30955,1,0,0:0:0:0:
192,192,31090,128,0,31226:0:0:0:0:
64,192,31090,128,0,31226:0:0:0:0:
320,192,31090,128,0,31226:0:0:0:0:
448,192,31090,128,0,31226:0:0:0:0:
448,192,31361,1,0,0:0:0:0:
320,192,31361,1,0,0:0:0:0:
192,192,31496,1,0,0:0:0:0:
64,192,31496,1,0,0:0:0:0:
192,192,31631,1,0,0:0:0:0:
320,192,31631,128,0,31699:0:0:0:0:
448,192,31631,128,0,31699:0:0:0:0:
320,192,31766,128,0,31834:0:0:0:0:
448,192,31766,128,0,31834:0:0:0:0:
320,192,31901,1,0,0:0:0:0:
192,192,31901,128,0,31969:0:0:0:0:
64,192,31901,128,0,31969:0:0:0:0:
64,192,32036,128,0,32104:0:0:0:0:
192,192,32036,128,0,32104:0:0:0:0:
64,192,32172,1,0,0:0:0:0:
320,192,32172,1,0,0:0:0:0:
448,192,32172,1,0,0:0:0:0:
320,192,32307,1,0,0:0:0:0:
192,192,32442,128,0,32509:0:0:0:0:
64,192,32442,128,0,32509:0:0:0:0:
448,192,32442,128,0,32509:0:0:0:0:
320,192,32442,128,0,32509:0:0:0:0:
192,192,32577,128,0,32645:0:0:0:0:
64,192,32577,128,0,32645:0:0:0:0:
448,192,32577,128,0,32645:0:0:0:0:
320,192,32712,1,0,0:0:0:0:
64,192,32712,1,0,0:0:0:0:
192,192,32847,128,0,32915:0:0:0:0:
320,192,32847,128,0,32915:0:0:0:0:
448,192,32847,128,0,32915:0:0:0:0:
192,192,32982,1,0,0:0:0:0:
64,192,32982,1,0,0:0:0:0:
320,192,33050,1,0,0:0:0:0:
448,192,33118,1,0,0:0:0:0:
64,192,33118,1,0,0:0:0:0:
192,192,33185,1,0,0:0:0:0:
320,192,33253,1,0,0:0:0:0:
448,192,33253,1,0,0:0:0:0:
64,192,33253,1,0,0:0:0:0:
64,192,33523,1,0,0:0:0:0:
192,192,33523,1,0,0:0:0:0:
320,192,33590,1,0,0:0:0:0:
448,192,33590,1,0,0:0:0:0:
64,192,33658,1,0,0:0:0:0:
320,192,33658,1,0,0:0:0:0:
448,192,33658,1,0,0:0:0:0:
64,192,33928,1,0,0:0:0:0:
448,192,33928,1,0,0:0:0:0:
192,192,33996,1,0,0:0:0:0:
320,192,33996,1,0,0:0:0:0:
320,192,34063,1,0,0:0:0:0:
192,192,34063,1,0,0:0:0:0:
64,192,34063,1,0,0:0:0:0:
320,192,34334,1,0,0:0:0:0:
448,192,34334,1,0,0:0:0:0:
192,192,34401,1,0,0:0:0:0:
64,192,34401,1,0,0:0:0:0:
64,192,34469,1,0,0:0:0:0:
192,192,34469,1,0,0:0:0:0:
448,192,34469,1,0,0:0:0:0:
448,192,34604,128,0,35145:0:0:0:0:
320,192,34604,128,0,34874:0:0:0:0:
192,192,34739,128,0,35009:0:0:0:0:
64,192,34874,128,0,35009:0:0:0:0:
320,192,35009,128,0,35145:0:0:0:0:
64,192,35145,128,0,35618:0:0:0:0:
192,192,35145,128,0,35347:0:0:0:0:
320,192,35212,128,0,35280:0:0:0:0:
448,192,35280,128,0,35415:0:0:0:0:
320,192,35347,128,0,35482:0:0:0:0:
192,192,35415,128,0,35550:0:0:0:0:
448,192,35482,128,0,35618:0:0:0:0:
320,192,35550,128,0,35618:0:0:0:0:
192,192,35618,128,0,35685:0:0:0:0:
64,192,35685,128,0,35820:0:0:0:0:
320,192,35685,128,0,35888:0:0:0:0:
448,192,35685,128,0,35888:0:0:0:0:
192,192,35820,1,0,0:0:0:0:
64,192,35955,128,0,36090:0:0:0:0:
320,192,35955,128,0,36158:0:0:0:0:
448,192,35955,128,0,36158:0:0:0:0:
192,192,36090,1,0,0:0:0:0:
448,192,36226,128,0,36496:0:0:0:0:
64,192,36226,128,0,36361:0:0:0:0:
192,192,36226,128,0,36361:0:0:0:0:
320,192,36361,128,0,36496:0:0:0:0:
64,192,36496,128,0,36699:0:0:0:0:
192,192,36496,128,0,36699:0:0:0:0:
320,192,36631,128,0,36699:0:0:0:0:
448,192,36631,128,0,36699:0:0:0:0:
64,192,36766,1,0,0:0:0:0:
320,192,36766,1,0,0:0:0:0:
448,192,36766,1,0,0:0:0:0:
192,192,36766,1,0,0:0:0:0:
192,192,36901,128,0,37036:0:0:0:0:
64,192,36901,128,0,37036:0:0:0:0:
320,192,37036,1,0,0:0:0:0:
448,192,37036,1,0,0:0:0:0:
320,192,37172,128,0,37307:0:0:0:0:
448,192,37172,128,0,37307:0:0:0:0:
192,192,37307,1,0,0:0:0:0:
64,192,37307,1,0,0:0:0:0:
448,192,37442,128,0,37645:0:0:0:0:
64,192,37442,128,0,37780:0:0:0:0:
192,192,37577,128,0,37915:0:0:0:0:
320,192,37577,128,0,37645:0:0:0:0:
320,192,37712,128,0,37780:0:0:0:0:
448,192,37712,128,0,37780:0:0:0:0:
64,192,37847,128,0,37982:0:0:0:0:
320,192,37847,128,0,38050:0:0:0:0:
448,192,37847,128,0,38050:0:0:0:0:
192,192,37982,1,0,0:0:0:0:
64,192,38118,128,0,38320:0:0:0:0:
192,192,38118,128,0,38320:0:0:0:0:
448,192,38118,128,0,38253:0:0:0:0:
320,192,38253,1,0,0:0:0:0:
64,192,38388,128,0,38658:0:0:0:0:
448,192,38388,128,0,38523:0:0:0:0:
320,192,38388,128,0,38523:0:0:0:0:
192,192,38523,128,0,38658:0:0:0:0:
320,192,38658,128,0,38861:0:0:0:0:
448,192,38658,128,0,38861:0:0:0:0:
192,192,38793,128,0,38861:0:0:0:0:
64,192,38793,128,0,38861:0:0:0:0:
192,192,38928,1,0,0:0:0:0:
64,192,38928,1,0,0:0:0:0:
448,192,38928,1,0,0:0:0:0:
320,192,38928,1,0,0:0:0:0:
448,192,39063,128,0,39199:0:0:0:0:
64,192,39063,1,0,0:0:0:0:
320,192,39063,128,0,39199:0:0:0:0:
192,192,39063,1,0,0:0:0:0:
64,192,39199,1,0,0:0:0:0:
192,192,39199,1,0,0:0:0:0:
64,192,39334,128,0,39672:0:0:0:0:
320,192,39334,128,0,39469:0:0:0:0:
448,192,39334,128,0,39469:0:0:0:0:
192,192,39469,128,0,39604:0:0:0:0:
448,192,39604,128,0,39739:0:0:0:0:
320,192,39672,1,0,0:0:0:0:
192,192,39739,128,0,39942:0:0:0:0:
64,192,39739,128,0,39942:0:0:0:0:
320,192,39874,128,0,39942:0:0:0:0:
448,192,39874,128,0,39942:0:0:0:0:
320,192,40009,128,0,40145:0:0:0:0:
64,192,40009,1,0,0:0:0:0:
192,192,40009,128,0,40145:0:0:0:0:
448,192,40009,1,0,0:0:0:0:
64,192,40145,1,0,0:0:0:0:
448,192,40145,1,0,0:0:0:0:
320,192,40280,128,0,40415:0:0:0:0:
192,192,40280,128,0,40482:0:0:0:0:
64,192,40280,128,0,40482:0:0:0:0:
448,192,40415,1,0,0:0:0:0:
64,192,40550,128,0,40753:0:0:0:0:
448,192,40550,1,0,0:0:0:0:
192,192,40550,128,0,40753:0:0:0:0:
320,192,40685,128,0,40888:0:0:0:0:
448,192,40685,128,0,40888:0:0:0:0:
192,192,40820,128,0,41158:0:0:0:0:
64,192,40820,128,0,41158:0:0:0:0:
448,192,40955,128,0,41158:0:0:0:0:
320,192,40955,128,0,41158:0:0:0:0:
448,192,41226,128,0,41428:0:0:0:0:
192,192,41226,1,0,0:0:0:0:
320,192,41226,128,0,41428:0:0:0:0:
64,192,41226,1,0,0:0:0:0:
64,192,41361,1,0,0:0:0:0:
192,192,41361,1,0,0:0:0:0:
64,192,41496,128,0,41901:0:0:0:0:
192,192,41496,128,0,41631:0:0:0:0:
448,192,41631,128,0,41766:0:0:0:0:
320,192,41631,128,0,41766:0:0:0:0:
192,192,41766,128,0,41901:0:0:0:0:
448,192,41901,128,0,42172:0:0:0:0:
320,192,41901,128,0,42036:0:0:0:0:
64,192,42036,128,0,42374:0:0:0:0:
192,192,42172,128,0,42374:0:0:0:0:
320,192,42172,1,0,0:0:0:0:
448,192,42442,128,0,42712:0:0:0:0:
192,192,42442,128,0,42577:0:0:0:0:
64,192,42442,128,0,42577:0:0:0:0:
320,192,42577,128,0,42712:0:0:0:0:
64,192,42712,1,0,0:0:0:0:
192,192,42712,1,0,0:0:0:0:
320,192,42847,128,0,43118:0:0:0:0:
448,192,42847,128,0,42982:0:0:0:0:
64,192,42982,128,0,43118:0:0:0:0:
192,192,42982,128,0,43118:0:0:0:0:
448,192,43118,1,0,0:0:0:0:
192,192,43253,128,0,43523:0:0:0:0:
320,192,43253,128,0,43388:0:0:0:0:
64,192,43388,128,0,43523:0:0:0:0:
448,192,43388,128,0,43523:0:0:0:0:
320,192,43523,1,0,0:0:0:0:
64,192,43658,128,0,43996:0:0:0:0:
320,192,43658,128,0,43793:0:0:0:0:
448,192,43658,128,0,43793:0:0:0:0:
192,192,43793,128,0,43996:0:0:0:0:
320,192,43928,128,0,43996:0:0:0:0:
448,192,43928,128,0,43996:0:0:0:0:
320,192,44063,1,0,0:0:0:0:
448,192,44063,1,0,0:0:0:0:
192,192,44063,1,0,0:0:0:0:
64,192,44063,1,0,0:0:0:0:
448,192,44199,128,0,44536:0:0:0:0:
64,192,44199,128,0,44807:0:0:0:0:
192,192,44199,128,0,44536:0:0:0:0:
320,192,44199,128,0,44536:0:0:0:0:
448,192,44604,128,0,44807:0:0:0:0:
320,192,44604,128,0,44807:0:0:0:0:
192,192,44604,128,0,44807:0:0:0:0:
64,192,44874,128,0,45077:0:0:0:0:
320,192,44874,128,0,45009:0:0:0:0:
448,192,44874,128,0,45077:0:0:0:0:
192,192,45009,128,0,45077:0:0:0:0:
448,192,45145,128,0,45347:0:0:0:0:
192,192,45145,128,0,45280:0:0:0:0:
64,192,45145,128,0,45347:0:0:0:0:
320,192,45280,128,0,45347:0:0:0:0:
192,192,45415,1,0,0:0:0:0:
320,192,45415,1,0,0:0:0:0:
448,192,45415,1,0,0:0:0:0:
64,192,45415,1,0,0:0:0:0:
64,192,45550,128,0,45888:0:0:0:0:
448,192,45618,1,0,0:0:0:0:
192,192,45685,1,0,0:0:0:0:
320,192,45753,1,0,0:0:0:0:
448,192,45820,1,0,0:0:0:0:
192,192,45888,1,0,0:0:0:0:
64,192,45955,1,0,0:0:0:0:
192,192,45955,1,0,0:0:0:0:
448,192,45955,128,0,46428:0:0:0:0:
320,192,45955,128,0,46226:0:0:0:0:
64,192,46090,128,0,46428:0:0:0:0:
192,192,46226,128,0,46428:0:0:0:0:
320,192,46361,128,0,46428:0:0:0:0:
64,192,46496,128,0,46699:0:0:0:0:
448,192,46496,128,0,46699:0:0:0:0:
192,192,46496,128,0,46631:0:0:0:0:
320,192,46631,1,0,0:0:0:0:
64,192,46766,128,0,46969:0:0:0:0:
448,192,46766,128,0,46969:0:0:0:0:
320,192,46766,128,0,46901:0:0:0:0:
192,192,46901,1,0,0:0:0:0:
64,192,47036,128,0,47239:0:0:0:0:
448,192,47036,128,0,47374:0:0:0:0:
320,192,47036,128,0,47104:0:0:0:0:
192,192,47172,128,0,47239:0:0:0:0:
320,192,47172,128,0,47374:0:0:0:0:
64,192,47307,128,0,47509:0:0:0:0:
192,192,47307,128,0,47509:0:0:0:0:
320,192,47442,128,0,47577:0:0:0:0:
448,192,47442,128,0,47577:0:0:0:0:
64,192,47577,1,0,0:0:0:0:
448,192,47712,128,0,48050:0:0:0:0:
320,192,47712,128,0,47847:0:0:0:0:
64,192,47847,1,0,0:0:0:0:
192,192,47881,1,0,0:0:0:0:
320,192,47915,1,0,0:0:0:0:
64,192,47949,1,0,0:0:0:0:
192,192,47982,1,0,0:0:0:0:
320,192,48016,1,0,0:0:0:0:
64,192,48050,1,0,0:0:0:0:
192,192,48084,1,0,0:0:0:0:
448,192,48118,128,0,48590:0:0:0:0:
320,192,48118,128,0,48253:0:0:0:0:
64,192,48253,128,0,48590:0:0:0:0:
320,192,48388,1,0,0:0:0:0:
192,192,48455,1,0,0:0:0:0:
320,192,48523,1,0,0:0:0:0:
192,192,48590,1,0,0:0:0:0:
320,192,48658,128,0,48861:0:0:0:0:
448,192,48658,128,0,48861:0:0:0:0:
64,192,48658,128,0,48793:0:0:0:0:
192,192,48793,1,0,0:0:0:0:
320,192,48928,128,0,49131:0:0:0:0:
448,192,48928,128,0,49131:0:0:0:0:
64,192,48928,128,0,49063:0:0:0:0:
192,192,49063,1,0,0:0:0:0:
64,192,49199,128,0,49401:0:0:0:0:
192,192,49199,128,0,49334:0:0:0:0:
448,192,49199,128,0,49334:0:0:0:0:
320,192,49334,128,0,49469:0:0:0:0:
448,192,49469,128,0,49672:0:0:0:0:
192,192,49469,128,0,49604:0:0:0:0:
64,192,49469,128,0,49604:0:0:0:0:
320,192,49604,128,0,49672:0:0:0:0:
64,192,49739,128,0,50077:0:0:0:0:
192,192,49739,128,0,49942:0:0:0:0:
320,192,49739,1,0,0:0:0:0:
448,192,49739,1,0,0:0:0:0:
448,192,49874,128,0,50212:0:0:0:0:
320,192,50009,128,0,50212:0:0:0:0:
192,192,50009,128,0,50212:0:0:0:0:
64,192,50145,128,0,50212:0:0:0:0:
64,192,50280,1,0,0:0:0:0:
192,192,50280,1,0,0:0:0:0:
320,192,50280,1,0,0:0:0:0:
448,192,50280,1,0,0:0:0:0:
192,192,50482,1,0,0:0:0:0:
64,192,50482,1,0,0:0:0:0:
320,192,50482,1,0,0:0:0:0:
448,192,50482,1,0,0:0:0:0:
192,192,50685,1,0,0:0:0:0:
64,192,50685,1,0,0:0:0:0:
320,192,50685,1,0,0:0:0:0:
448,192,50685,1,0,0:0:0:0:
192,192,50820,1,0,0:0:0:0:
64,192,50820,1,0,0:0:0:0:
320,192,50820,1,0,0:0:0:0:
448,192,50820,1,0,0:0:0:0:
64,192,50888,1,0,0:0:0:0:
448,192,50955,1,0,0:0:0:0:
192,192,50955,1,0,0:0:0:0:
320,192,51023,1,0,0:0:0:0:
64,192,51090,1,0,0:0:0:0:
192,192,51090,1,0,0:0:0:0:
448,192,51158,1,0,0:0:0:0:
320,192,51226,1,0,0:0:0:0:
64,192,51226,1,0,0:0:0:0:
192,192,51293,1,0,0:0:0:0:
320,192,51361,1,0,0:0:0:0:
448,192,51361,1,0,0:0:0:0:
192,192,51428,1,0,0:0:0:0:
64,192,51428,1,0,0:0:0:0:
448,192,51496,1,0,0:0:0:0:
320,192,51496,1,0,0:0:0:0:
192,192,51563,1,0,0:0:0:0:
64,192,51563,1,0,0:0:0:0:
448,192,51631,1,0,0:0:0:0:
320,192,51665,1,0,0:0:0:0:
64,192,51699,1,0,0:0:0:0:
192,192,51732,1,0,0:0:0:0:
320,192,51766,1,0,0:0:0:0:
448,192,51800,1,0,0:0:0:0:
64,192,51834,1,0,0:0:0:0:
192,192,51868,1,0,0:0:0:0:
448,192,51901,128,0,52104:0:0:0:0:
320,192,51901,128,0,52036:0:0:0:0:
64,192,52036,128,0,52172:0:0:0:0:
320,192,52172,128,0,52374:0:0:0:0:
192,192,52172,128,0,52307:0:0:0:0:
448,192,52307,128,0,52442:0:0:0:0:
192,192,52442,128,0,52645:0:0:0:0:
64,192,52442,128,0,52577:0:0:0:0:
448,192,52577,128,0,52712:0:0:0:0:
64,192,52712,128,0,52915:0:0:0:0:
192,192,52712,128,0,52847:0:0:0:0:
448,192,52780,1,0,0:0:0:0:
320,192,52847,1,0,0:0:0:0:
192,192,52915,1,0,0:0:0:0:
64,192,52982,1,0,0:0:0:0:
192,192,52982,1,0,0:0:0:0:
320,192,52982,1,0,0:0:0:0:
448,192,52982,1,0,0:0:0:0:
192,192,53253,1,0,0:0:0:0:
64,192,53253,1,0,0:0:0:0:
320,192,53253,1,0,0:0:0:0:
448,192,53253,1,0,0:0:0:0:
64,192,53523,128,0,53726:0:0:0:0:
320,192,53590,1,0,0:0:0:0:
192,192,53658,1,0,0:0:0:0:
448,192,53726,1,0,0:0:0:0:
192,192,53793,128,0,53996:0:0:0:0:
320,192,53861,1,0,0:0:0:0:
64,192,53928,1,0,0:0:0:0:
448,192,53996,1,0,0:0:0:0:
320,192,54063,128,0,54266:0:0:0:0:
192,192,54063,1,0,0:0:0:0:
64,192,54063,1,0,0:0:0:0:
448,192,54131,1,0,0:0:0:0:
64,192,54199,1,0,0:0:0:0:
192,192,54266,1,0,0:0:0:0:
448,192,54334,128,0,54536:0:0:0:0:
320,192,54401,1,0,0:0:0:0:
64,192,54469,1,0,0:0:0:0:
192,192,54536,1,0,0:0:0:0:
64,192,54604,128,0,54807:0:0:0:0:
448,192,54672,1,0,0:0:0:0:
320,192,54739,1,0,0:0:0:0:
192,192,54807,1,0,0:0:0:0:
448,192,54874,128,0,55009:0:0:0:0:
320,192,54942,1,0,0:0:0:0:
64,192,55009,1,0,0:0:0:0:
448,192,55077,1,0,0:0:0:0:
64,192,55145,128,0,55618:0:0:0:0:
192,192,55145,128,0,55212:0:0:0:0:
320,192,55145,128,0,55212:0:0:0:0:
320,192,55280,128,0,55347:0:0:0:0:
448,192,55280,128,0,55347:0:0:0:0:
192,192,55415,128,0,55482:0:0:0:0:
448,192,55415,128,0,55482:0:0:0:0:
192,192,55550,128,0,55618:0:0:0:0:
320,192,55550,128,0,55618:0:0:0:0:
320,192,55685,128,0,56158:0:0:0:0:
64,192,55685,128,0,55753:0:0:0:0:
192,192,55685,128,0,55753:0:0:0:0:
448,192,55685,1,0,0:0:0:0:
448,192,55820,128,0,55888:0:0:0:0:
64,192,55820,128,0,55888:0:0:0:0:
192,192,55955,128,0,56023:0:0:0:0:
448,192,55955,128,0,56023:0:0:0:0:
64,192,56090,128,0,56158:0:0:0:0:
192,192,56090,128,0,56158:0:0:0:0:
448,192,56226,128,0,56699:0:0:0:0:
320,192,56226,1,0,0:0:0:0:
192,192,56226,128,0,56293:0:0:0:0:
64,192,56226,128,0,56293:0:0:0:0:
320,192,56361,128,0,56428:0:0:0:0:
64,192,56361,128,0,56428:0:0:0:0:
192,192,56496,128,0,56563:0:0:0:0:
320,192,56496,128,0,56563:0:0:0:0:
64,192,56631,128,0,56699:0:0:0:0:
192,192,56631,128,0,56699:0:0:0:0:
64,192,56766,128,0,56969:0:0:0:0:
192,192,56766,128,0,56834:0:0:0:0:
320,192,56766,128,0,56834:0:0:0:0:
192,192,56901,128,0,56969:0:0:0:0:
448,192,56901,128,0,56969:0:0:0:0:
448,192,57036,128,0,57217:0:0:0:0:
320,192,57036,128,0,57127:0:0:0:0:
64,192,57127,128,0,57217:0:0:0:0:
192,192,57217,1,0,0:0:0:0:
320,192,57217,1,0,0:0:0:0:
64,192,57307,5,0,0:0:0:0:
448,192,57307,1,0,0:0:0:0:
320,192,57307,1,0,0:0:0:0:
192,192,57307,1,0,0:0:0:0:
320,192,57442,1,0,0:0:0:0:
64,192,57442,1,0,0:0:0:0:
448,192,57442,1,0,0:0:0:0:
192,192,57442,1,0,0:0:0:0:
320,192,57577,1,0,0:0:0:0:
64,192,57577,1,0,0:0:0:0:
448,192,57577,1,0,0:0:0:0:
192,192,57577,1,0,0:0:0:0:
64,192,57847,128,0,58050:0:0:0:0:
320,192,57915,1,0,0:0:0:0:
192,192,57982,1,0,0:0:0:0:
448,192,58050,1,0,0:0:0:0:
320,192,58118,128,0,58320:0:0:0:0:
64,192,58185,1,0,0:0:0:0:
192,192,58253,1,0,0:0:0:0:
448,192,58320,1,0,0:0:0:0:
192,192,58388,128,0,58590:0:0:0:0:
64,192,58388,1,0,0:0:0:0:
320,192,58388,1,0,0:0:0:0:
448,192,58455,1,0,0:0:0:0:
64,192,58523,1,0,0:0:0:0:
320,192,58590,1,0,0:0:0:0:
64,192,58658,128,0,58861:0:0:0:0:
448,192,58726,1,0,0:0:0:0:
320,192,58793,1,0,0:0:0:0:
192,192,58861,1,0,0:0:0:0:
448,192,58928,128,0,59131:0:0:0:0:
320,192,58996,1,0,0:0:0:0:
64,192,59063,1,0,0:0:0:0:
192,192,59131,1,0,0:0:0:0:
320,192,59199,1,0,0:0:0:0:
448,192,59199,1,0,0:0:0:0:
192,192,59266,1,0,0:0:0:0:
64,192,59266,1,0,0:0:0:0:
320,192,59334,1,0,0:0:0:0:
448,192,59334,1,0,0:0:0:0:
192,192,59401,1,0,0:0:0:0:
64,192,59401,1,0,0:0:0:0:
320,192,59469,128,0,59942:0:0:0:0:
448,192,59469,128,0,59807:0:0:0:0:
64,192,59469,128,0,59672:0:0:0:0:
192,192,59604,128,0,59942:0:0:0:0:
64,192,59739,128,0,59942:0:0:0:0:
448,192,59874,128,0,60077:0:0:0:0:
192,192,60009,128,0,60482:0:0:0:0:
64,192,60009,128,0,60347:0:0:0:0:
320,192,60009,128,0,60212:0:0:0:0:
448,192,60145,128,0,60482:0:0:0:0:
320,192,60280,128,0,60618:0:0:0:0:
64,192,60415,128,0,60482:0:0:0:0:
64,192,60550,128,0,61158:0:0:0:0:
192,192,60550,128,0,60888:0:0:0:0:
448,192,60550,128,0,60753:0:0:0:0:
320,192,60685,128,0,61023:0:0:0:0:
448,192,60820,128,0,61023:0:0:0:0:
192,192,60955,128,0,61023:0:0:0:0:
448,192,61090,128,0,61563:0:0:0:0:
320,192,61090,128,0,61428:0:0:0:0:
192,192,61090,128,0,61293:0:0:0:0:
64,192,61226,128,0,61563:0:0:0:0:
192,192,61361,128,0,61563:0:0:0:0:
320,192,61496,128,0,61563:0:0:0:0:
192,192,61631,1,0,0:0:0:0:
64,192,61631,1,0,0:0:0:0:
448,192,61631,1,0,0:0:0:0:
320,192,61631,1,0,0:0:0:0:
64,192,61834,1,0,0:0:0:0:
192,192,61834,1,0,0:0:0:0:
320,192,61834,1,0,0:0:0:0:
448,192,61834,1,0,0:0:0:0:
64,192,62036,1,0,0:0:0:0:
192,192,62036,1,0,0:0:0:0:
320,192,62036,1,0,0:0:0:0:
448,192,62036,1,0,0:0:0:0:
448,192,62172,128,0,62374:0:0:0:0:
64,192,62172,1,0,0:0:0:0:
320,192,62172,1,0,0:0:0:0:
192,192,62239,1,0,0:0:0:0:
320,192,62307,1,0,0:0:0:0:
64,192,62374,1,0,0:0:0:0:
320,192,62442,128,0,62645:0:0:0:0:
192,192,62509,1,0,0:0:0:0:
448,192,62577,1,0,0:0:0:0:
64,192,62645,1,0,0:0:0:0:
192,192,62712,128,0,62915:0:0:0:0:
320,192,62780,1,0,0:0:0:0:
64,192,62847,1,0,0:0:0:0:
448,192,62915,1,0,0:0:0:0:
64,192,62982,128,0,63185:0:0:0:0:
320,192,63050,1,0,0:0:0:0:
448,192,63118,1,0,0:0:0:0:
192,192,63185,1,0,0:0:0:0:
448,192,63253,128,0,63455:0:0:0:0:
320,192,63320,1,0,0:0:0:0:
64,192,63388,1,0,0:0:0:0:
192,192,63455,1,0,0:0:0:0:
64,192,63523,128,0,63658:0:0:0:0:
320,192,63590,1,0,0:0:0:0:
448,192,63658,1,0,0:0:0:0:
64,192,63726,1,0,0:0:0:0:
192,192,63793,128,0,63861:0:0:0:0:
320,192,63793,128,0,63861:0:0:0:0:
448,192,63793,128,0,64266:0:0:0:0:
64,192,63928,128,0,63996:0:0:0:0:
192,192,63928,128,0,63996:0:0:0:0:
320,192,63928,128,0,63996:0:0:0:0:
64,192,64063,128,0,64131:0:0:0:0:
320,192,64063,128,0,64131:0:0:0:0:
192,192,64199,128,0,64266:0:0:0:0:
320,192,64199,128,0,64266:0:0:0:0:
64,192,64199,128,0,64266:0:0:0:0:
320,192,64334,128,0,64401:0:0:0:0:
64,192,64334,1,0,0:0:0:0:
192,192,64334,128,0,64807:0:0:0:0:
448,192,64334,128,0,64401:0:0:0:0:
448,192,64469,128,0,64536:0:0:0:0:
64,192,64469,128,0,64536:0:0:0:0:
64,192,64604,128,0,64672:0:0:0:0:
320,192,64604,128,0,64672:0:0:0:0:
448,192,64604,128,0,64672:0:0:0:0:
320,192,64739,128,0,64807:0:0:0:0:
448,192,64739,128,0,64807:0:0:0:0:
448,192,64874,1,0,0:0:0:0:
64,192,64874,128,0,65077:0:0:0:0:
192,192,64874,128,0,64942:0:0:0:0:
320,192,64874,128,0,64942:0:0:0:0:
192,192,65009,128,0,65077:0:0:0:0:
448,192,65009,128,0,65077:0:0:0:0:
448,192,65145,128,0,65347:0:0:0:0:
320,192,65145,128,0,65212:0:0:0:0:
64,192,65280,128,0,65347:0:0:0:0:
192,192,65280,128,0,65347:0:0:0:0:
320,192,65415,128,0,65618:0:0:0:0:
64,192,65415,128,0,65482:0:0:0:0:
192,192,65415,128,0,65482:0:0:0:0:
192,192,65550,128,0,65618:0:0:0:0:
448,192,65550,128,0,65618:0:0:0:0:
64,192,65550,128,0,65618:0:0:0:0:
64,192,65685,128,0,65888:0:0:0:0:
192,192,65685,128,0,65753:0:0:0:0:
320,192,65685,128,0,65753:0:0:0:0:
448,192,65685,128,0,65753:0:0:0:0:
320,192,65820,128,0,65888:0:0:0:0:
448,192,65820,128,0,65888:0:0:0:0:
448,192,65955,5,0,0:0:0:0:
320,192,65955,1,0,0:0:0:0:
192,192,65955,1,0,0:0:0:0:
64,192,65955,1,0,0:0:0:0:
64,192,66090,1,0,0:0:0:0:
320,192,66090,1,0,0:0:0:0:
192,192,66090,1,0,0:0:0:0:
448,192,66090,1,0,0:0:0:0:
64,192,66226,1,0,0:0:0:0:
320,192,66226,1,0,0:0:0:0:
192,192,66226,1,0,0:0:0:0:
448,192,66226,1,0,0:0:0:0:
64,192,66293,1,0,0:0:0:0:
448,192,66361,1,0,0:0:0:0:
320,192,66428,1,0,0:0:0:0:
192,192,66496,1,0,0:0:0:0:
448,192,66563,1,0,0:0:0:0:
320,192,66631,1,0,0:0:0:0:
64,192,66631,1,0,0:0:0:0:
192,192,66699,1,0,0:0:0:0:
448,192,66766,1,0,0:0:0:0:
320,192,66834,1,0,0:0:0:0:
192,192,66901,1,0,0:0:0:0:
64,192,66969,1,0,0:0:0:0:
320,192,67036,1,0,0:0:0:0:
448,192,67036,1,0,0:0:0:0:
64,192,67036,1,0,0:0:0:0:
192,192,67036,1,0,0:0:0:0:
448,192,67104,1,0,0:0:0:0:
64,192,67172,1,0,0:0:0:0:
192,192,67172,1,0,0:0:0:0:
320,192,67172,1,0,0:0:0:0:
448,192,67239,1,0,0:0:0:0:
320,192,67307,1,0,0:0:0:0:
192,192,67307,1,0,0:0:0:0:
64,192,67307,1,0,0:0:0:0:
448,192,67374,1,0,0:0:0:0:
64,192,67442,1,0,0:0:0:0:
192,192,67509,1,0,0:0:0:0:
320,192,67577,128,0,67712:0:0:0:0:
448,192,67645,128,0,67780:0:0:0:0:
64,192,67712,128,0,67847:0:0:0:0:
192,192,67712,128,0,67915:0:0:0:0:
320,192,67780,128,0,67982:0:0:0:0:
448,192,67847,128,0,68050:0:0:0:0:
64,192,67915,128,0,68050:0:0:0:0:
192,192,67982,128,0,68050:0:0:0:0:
320,192,68050,128,0,68118:0:0:0:0:
448,192,68118,1,0,0:0:0:0:
64,192,68118,1,0,0:0:0:0:
192,192,68118,1,0,0:0:0:0:
192,192,68208,1,0,0:0:0:0:
320,192,68208,1,0,0:0:0:0:
320,192,68298,1,0,0:0:0:0:
448,192,68298,1,0,0:0:0:0:
64,192,68388,1,0,0:0:0:0:
192,192,68388,1,0,0:0:0:0:
320,192,68478,1,0,0:0:0:0:
448,192,68478,1,0,0:0:0:0:
192,192,68568,1,0,0:0:0:0:
320,192,68568,1,0,0:0:0:0:
192,192,68658,1,0,0:0:0:0:
64,192,68658,1,0,0:0:0:0:
448,192,68658,1,0,0:0:0:0:
64,192,68861,1,0,0:0:0:0:
448,192,68861,1,0,0:0:0:0:
192,192,68861,1,0,0:0:0:0:
192,192,69063,1,0,0:0:0:0:
64,192,69063,1,0,0:0:0:0:
448,192,69063,1,0,0:0:0:0:
320,192,69199,128,0,70212:0:0:0:0:
192,192,69469,128,0,70212:0:0:0:0:
64,192,69739,128,0,70212:0:0:0:0:
448,192,70009,128,0,70212:0:0:0:0:
448,192,70280,1,0,0:0:0:0:
64,192,70280,128,0,71530:0:0:0:0:
448,192,71613,128,0,72168:0:0:0:0:
192,192,71771,1,0,0:0:0:0:
320,192,71930,1,0,0:0:0:0:
64,192,72089,1,0,0:0:0:0:
320,192,72247,128,0,72803:0:0:0:0:
192,192,72406,1,0,0:0:0:0:
448,192,72565,1,0,0:0:0:0:
64,192,72724,1,0,0:0:0:0:
192,192,72882,128,0,73426:0:0:0:0:
448,192,73037,1,0,0:0:0:0:
64,192,73192,1,0,0:0:0:0:
320,192,73348,1,0,0:0:0:0:
64,192,73503,128,0,74041:0:0:0:0:
448,192,73656,1,0,0:0:0:0:
320,192,73810,1,0,0:0:0:0:
192,192,73964,1,0,0:0:0:0:
448,192,74118,128,0,74337:0:0:0:0:
192,192,74264,1,0,0:0:0:0:
320,192,74410,128,0,74630:0:0:0:0:
64,192,74557,1,0,0:0:0:0:
192,192,74703,128,0,74921:0:0:0:0:
448,192,74848,1,0,0:0:0:0:
64,192,74994,128,0,77098:0:0:0:0:
320,192,75139,1,0,0:0:0:0:
448,192,75409,128,0,77098:0:0:0:0:
320,192,76084,128,0,77098:0:0:0:0:
192,192,76760,128,0,77098:0:0:0:0:
320,192,77166,1,0,0:0:0:0:
448,192,77166,1,0,0:0:0:0:
64,192,77166,1,0,0:0:0:0:
192,192,77166,1,0,0:0:0:0:
64,192,77436,1,0,0:0:0:0:
192,192,77436,1,0,0:0:0:0:
448,192,77436,128,0,77638:0:0:0:0:
320,192,77436,128,0,77638:0:0:0:0:
192,192,77571,1,0,0:0:0:0:
320,192,77706,1,0,0:0:0:0:
64,192,77706,128,0,77908:0:0:0:0:
448,192,77706,128,0,77908:0:0:0:0:
192,192,77841,128,0,77908:0:0:0:0:
64,192,77976,1,0,0:0:0:0:
192,192,77976,1,0,0:0:0:0:
448,192,77976,1,0,0:0:0:0:
320,192,78111,1,0,0:0:0:0:
448,192,78111,1,0,0:0:0:0:
320,192,78246,1,0,0:0:0:0:
192,192,78246,128,0,78449:0:0:0:0:
64,192,78246,128,0,78449:0:0:0:0:
448,192,78381,1,0,0:0:0:0:
320,192,78517,128,0,78719:0:0:0:0:
448,192,78517,128,0,78719:0:0:0:0:
64,192,78517,1,0,0:0:0:0:
192,192,78652,128,0,78922:0:0:0:0:
320,192,78787,1,0,0:0:0:0:
448,192,78787,1,0,0:0:0:0:
64,192,78787,128,0,79057:0:0:0:0:
448,192,78922,128,0,79057:0:0:0:0:
192,192,79057,1,0,0:0:0:0:
320,192,79057,1,0,0:0:0:0:
64,192,79192,1,0,0:0:0:0:
448,192,79192,1,0,0:0:0:0:
192,192,79327,1,0,0:0:0:0:
64,192,79327,128,0,79530:0:0:0:0:
448,192,79327,128,0,79530:0:0:0:0:
192,192,79463,1,0,0:0:0:0:
320,192,79463,1,0,0:0:0:0:
64,192,79598,128,0,79800:0:0:0:0:
448,192,79598,128,0,79800:0:0:0:0:
320,192,79598,1,0,0:0:0:0:
192,192,79733,1,0,0:0:0:0:
64,192,79868,1,0,0:0:0:0:
448,192,79868,128,0,80138:0:0:0:0:
320,192,80003,128,0,80138:0:0:0:0:
192,192,80003,128,0,80071:0:0:0:0:
64,192,80138,128,0,80408:0:0:0:0:
192,192,80138,128,0,80273:0:0:0:0:
320,192,80273,128,0,80408:0:0:0:0:
448,192,80408,128,0,80611:0:0:0:0:
192,192,80408,128,0,80544:0:0:0:0:
64,192,80544,128,0,80679:0:0:0:0:
320,192,80679,128,0,80881:0:0:0:0:
448,192,80679,128,0,80814:0:0:0:0:
64,192,80814,128,0,80949:0:0:0:0:
192,192,80949,128,0,81152:0:0:0:0:
320,192,80949,128,0,81084:0:0:0:0:
448,192,81084,128,0,81219:0:0:0:0:
64,192,81219,128,0,81422:0:0:0:0:
192,192,81219,128,0,81354:0:0:0:0:
320,192,81354,128,0,81422:0:0:0:0:
448,192,81354,128,0,81422:0:0:0:0:
448,192,81490,128,0,81692:0:0:0:0:
64,192,81490,128,0,81692:0:0:0:0:
192,192,81625,128,0,81692:0:0:0:0:
320,192,81625,128,0,81692:0:0:0:0:
448,192,81760,128,0,81895:0:0:0:0:
320,192,81760,128,0,81895:0:0:0:0:
64,192,81760,1,0,0:0:0:0:
192,192,81760,1,0,0:0:0:0:
64,192,81895,128,0,82098:0:0:0:0:
192,192,81963,128,0,82098:0:0:0:0:
320,192,82030,128,0,82165:0:0:0:0:
448,192,82030,128,0,82165:0:0:0:0:
64,192,82165,128,0,82300:0:0:0:0:
192,192,82165,128,0,82300:0:0:0:0:
448,192,82300,128,0,82503:0:0:0:0:
320,192,82368,128,0,82503:0:0:0:0:
192,192,82436,128,0,82571:0:0:0:0:
64,192,82436,128,0,82571:0:0:0:0:
448,192,82571,128,0,82773:0:0:0:0:
320,192,82571,128,0,82773:0:0:0:0:
192,192,82706,128,0,82773:0:0:0:0:
64,192,82706,128,0,82773:0:0:0:0:
64,192,82841,128,0,83044:0:0:0:0:
448,192,82841,128,0,82976:0:0:0:0:
192,192,82976,128,0,83044:0:0:0:0:
320,192,83044,128,0,83179:0:0:0:0:
448,192,83111,128,0,83179:0:0:0:0:
64,192,83111,1,0,0:0:0:0:
192,192,83111,1,0,0:0:0:0:
64,192,83246,128,0,83381:0:0:0:0:
448,192,83246,128,0,83584:0:0:0:0:
320,192,83381,128,0,83584:0:0:0:0:
192,192,83449,128,0,83584:0:0:0:0:
64,192,83517,128,0,83584:0:0:0:0:
64,192,83652,128,0,83854:0:0:0:0:
448,192,83652,128,0,83990:0:0:0:0:
320,192,83652,128,0,83719:0:0:0:0:
192,192,83787,128,0,83854:0:0:0:0:
320,192,83787,128,0,83990:0:0:0:0:
64,192,83922,128,0,83990:0:0:0:0:
192,192,83922,128,0,83990:0:0:0:0:
448,192,84057,128,0,84463:0:0:0:0:
320,192,84057,128,0,84192:0:0:0:0:
64,192,84192,128,0,84327:0:0:0:0:
192,192,84192,128,0,84327:0:0:0:0:
320,192,84327,128,0,84463:0:0:0:0:
64,192,84463,1,0,0:0:0:0:
192,192,84463,1,0,0:0:0:0:
448,192,84530,1,0,0:0:0:0:
64,192,84598,1,0,0:0:0:0:
320,192,84665,1,0,0:0:0:0:
448,192,84665,1,0,0:0:0:0:
192,192,84733,1,0,0:0:0:0:
448,192,84800,1,0,0:0:0:0:
192,192,84868,1,0,0:0:0:0:
64,192,84868,1,0,0:0:0:0:
320,192,84935,1,0,0:0:0:0:
64,192,85003,128,0,85206:0:0:0:0:
448,192,85003,128,0,85138:0:0:0:0:
192,192,85138,1,0,0:0:0:0:
192,192,85273,128,0,85476:0:0:0:0:
64,192,85273,128,0,85408:0:0:0:0:
320,192,85408,1,0,0:0:0:0:
320,192,85544,128,0,85746:0:0:0:0:
448,192,85544,128,0,85679:0:0:0:0:
64,192,85679,1,0,0:0:0:0:
320,192,85814,5,0,0:0:0:0:
448,192,85814,1,0,0:0:0:0:
192,192,85881,1,0,0:0:0:0:
64,192,85881,1,0,0:0:0:0:
320,192,85949,1,0,0:0:0:0:
448,192,85949,1,0,0:0:0:0:
192,192,86017,1,0,0:0:0:0:
64,192,86017,1,0,0:0:0:0:
64,192,86084,128,0,86287:0:0:0:0:
192,192,86084,128,0,86287:0:0:0:0:
448,192,86084,1,0,0:0:0:0:
320,192,86084,1,0,0:0:0:0:
320,192,86219,1,0,0:0:0:0:
64,192,86354,128,0,86557:0:0:0:0:
448,192,86354,128,0,86557:0:0:0:0:
192,192,86354,1,0,0:0:0:0:
320,192,86490,128,0,86557:0:0:0:0:
64,192,86625,1,0,0:0:0:0:
320,192,86625,1,0,0:0:0:0:
448,192,86625,1,0,0:0:0:0:
64,192,86760,1,0,0:0:0:0:
192,192,86760,1,0,0:0:0:0:
448,192,86895,128,0,87098:0:0:0:0:
192,192,86895,1,0,0:0:0:0:
320,192,86895,128,0,87030:0:0:0:0:
64,192,87030,1,0,0:0:0:0:
320,192,87165,128,0,87368:0:0:0:0:
64,192,87165,1,0,0:0:0:0:
192,192,87165,128,0,87300:0:0:0:0:
192,192,87435,128,0,87638:0:0:0:0:
448,192,87435,1,0,0:0:0:0:
64,192,87435,128,0,87571:0:0:0:0:
320,192,87571,1,0,0:0:0:0:
64,192,87706,128,0,87908:0:0:0:0:
192,192,87706,1,0,0:0:0:0:
448,192,87706,128,0,87841:0:0:0:0:
320,192,87841,1,0,0:0:0:0:
192,192,87976,1,0,0:0:0:0:
64,192,87976,1,0,0:0:0:0:
320,192,88044,1,0,0:0:0:0:
448,192,88044,1,0,0:0:0:0:
64,192,88111,1,0,0:0:0:0:
192,192,88111,1,0,0:0:0:0:
320,192,88179,1,0,0:0:0:0:
448,192,88179,1,0,0:0:0:0:
192,192,88246,1,0,0:0:0:0:
64,192,88246,1,0,0:0:0:0:
320,192,88246,1,0,0:0:0:0:
448,192,88246,1,0,0:0:0:0:
448,192,88336,1,0,0:0:0:0:
64,192,88336,1,0,0:0:0:0:
320,192,88426,1,0,0:0:0:0:
192,192,88426,1,0,0:0:0:0:
320,192,88517,1,0,0:0:0:0:
448,192,88517,1,0,0:0:0:0:
192,192,88517,1,0,0:0:0:0:
64,192,88517,1,0,0:0:0:0:
192,192,88607,1,0,0:0:0:0:
64,192,88607,1,0,0:0:0:0:
320,192,88697,1,0,0:0:0:0:
448,192,88697,1,0,0:0:0:0:
320,192,88787,1,0,0:0:0:0:
448,192,88787,1,0,0:0:0:0:
192,192,88787,1,0,0:0:0:0:
64,192,88787,1,0,0:0:0:0:
320,192,88877,1,0,0:0:0:0:
192,192,88877,1,0,0:0:0:0:
64,192,88967,1,0,0:0:0:0:
448,192,88967,1,0,0:0:0:0:
320,192,89057,1,0,0:0:0:0:
448,192,89057,1,0,0:0:0:0:
192,192,89057,1,0,0:0:0:0:
64,192,89057,1,0,0:0:0:0:
320,192,89147,1,0,0:0:0:0:
448,192,89147,1,0,0:0:0:0:
192,192,89237,1,0,0:0:0:0:
64,192,89237,1,0,0:0:0:0:
320,192,89327,1,0,0:0:0:0:
64,192,89327,128,0,89598:0:0:0:0:
448,192,89327,1,0,0:0:0:0:
192,192,89327,128,0,89463:0:0:0:0:
320,192,89463,128,0,89598:0:0:0:0:
448,192,89598,128,0,89868:0:0:0:0:
192,192,89598,128,0,89733:0:0:0:0:
320,192,89733,128,0,89868:0:0:0:0:
64,192,89868,128,0,89935:0:0:0:0:
192,192,89868,128,0,90003:0:0:0:0:
320,192,89935,128,0,90071:0:0:0:0:
448,192,90003,128,0,90071:0:0:0:0:
64,192,90003,128,0,90138:0:0:0:0:
192,192,90071,128,0,90206:0:0:0:0:
320,192,90138,128,0,90206:0:0:0:0:
448,192,90138,128,0,90273:0:0:0:0:
64,192,90206,128,0,90341:0:0:0:0:
192,192,90273,128,0,90341:0:0:0:0:
320,192,90273,128,0,90408:0:0:0:0:
448,192,90341,128,0,90408:0:0:0:0:
64,192,90408,1,0,0:0:0:0:
192,192,90408,1,0,0:0:0:0:
320,192,90476,1,0,0:0:0:0:
448,192,90476,1,0,0:0:0:0:
64,192,90544,128,0,90679:0:0:0:0:
192,192,90544,128,0,90679:0:0:0:0:
320,192,90679,1,0,0:0:0:0:
448,192,90679,1,0,0:0:0:0:
64,192,90814,1,0,0:0:0:0:
448,192,90814,1,0,0:0:0:0:
192,192,90881,1,0,0:0:0:0:
320,192,90881,1,0,0:0:0:0:
64,192,90949,128,0,91084:0:0:0:0:
448,192,90949,128,0,91084:0:0:0:0:
192,192,91084,1,0,0:0:0:0:
320,192,91084,1,0,0:0:0:0:
64,192,91219,128,0,91422:0:0:0:0:
448,192,91219,128,0,91287:0:0:0:0:
448,192,91354,128,0,91422:0:0:0:0:
320,192,91354,128,0,91422:0:0:0:0:
320,192,91490,1,0,0:0:0:0:
448,192,91490,1,0,0:0:0:0:
192,192,91557,1,0,0:0:0:0:
64,192,91557,1,0,0:0:0:0:
320,192,91625,128,0,91760:0:0:0:0:
448,192,91625,128,0,91760:0:0:0:0:
192,192,91760,1,0,0:0:0:0:
64,192,91760,1,0,0:0:0:0:
64,192,91895,1,0,0:0:0:0:
448,192,91895,1,0,0:0:0:0:
192,192,91963,1,0,0:0:0:0:
320,192,91963,1,0,0:0:0:0:
448,192,92030,128,0,92368:0:0:0:0:
64,192,92030,128,0,92098:0:0:0:0:
192,192,92165,128,0,92233:0:0:0:0:
64,192,92165,128,0,92233:0:0:0:0:
320,192,92300,128,0,92368:0:0:0:0:
192,192,92300,128,0,92503:0:0:0:0:
64,192,92300,128,0,92503:0:0:0:0:
448,192,92435,128,0,92503:0:0:0:0:
320,192,92435,128,0,92503:0:0:0:0:
448,192,92571,1,0,0:0:0:0:
320,192,92571,1,0,0:0:0:0:
192,192,92571,1,0,0:0:0:0:
64,192,92571,1,0,0:0:0:0:
64,192,92706,128,0,92908:0:0:0:0:
448,192,92706,128,0,92773:0:0:0:0:
320,192,92841,128,0,93044:0:0:0:0:
448,192,92841,128,0,93044:0:0:0:0:
192,192,92976,128,0,93111:0:0:0:0:
64,192,92976,128,0,93111:0:0:0:0:
320,192,93111,1,0,0:0:0:0:
448,192,93111,1,0,0:0:0:0:
448,192,93246,128,0,93381:0:0:0:0:
64,192,93246,1,0,0:0:0:0:
192,192,93381,1,0,0:0:0:0:
320,192,93381,1,0,0:0:0:0:
64,192,93517,1,0,0:0:0:0:
448,192,93517,1,0,0:0:0:0:
320,192,93584,1,0,0:0:0:0:
64,192,93652,128,0,93854:0:0:0:0:
448,192,93652,1,0,0:0:0:0:
192,192,93652,128,0,93787:0:0:0:0:
320,192,93787,1,0,0:0:0:0:
192,192,93922,128,0,94125:0:0:0:0:
320,192,93922,128,0,94057:0:0:0:0:
448,192,94057,1,0,0:0:0:0:
320,192,94192,128,0,94395:0:0:0:0:
448,192,94192,128,0,94327:0:0:0:0:
64,192,94327,1,0,0:0:0:0:
448,192,94463,128,0,94665:0:0:0:0:
64,192,94463,128,0,94598:0:0:0:0:
192,192,94598,1,0,0:0:0:0:
192,192,94733,1,0,0:0:0:0:
64,192,94733,1,0,0:0:0:0:
320,192,94733,128,0,95206:0:0:0:0:
448,192,94733,128,0,95071:0:0:0:0:
64,192,94868,128,0,95206:0:0:0:0:
192,192,95003,128,0,95206:0:0:0:0:
448,192,95138,128,0,95206:0:0:0:0:
320,192,95273,1,0,0:0:0:0:
448,192,95273,1,0,0:0:0:0:
192,192,95273,128,0,95746:0:0:0:0:
64,192,95273,128,0,95611:0:0:0:0:
448,192,95408,128,0,95746:0:0:0:0:
320,192,95544,128,0,95746:0:0:0:0:
64,192,95679,128,0,95746:0:0:0:0:
192,192,95814,1,0,0:0:0:0:
320,192,95814,1,0,0:0:0:0:
64,192,95814,128,0,96287:0:0:0:0:
448,192,95814,128,0,96152:0:0:0:0:
192,192,95949,128,0,96287:0:0:0:0:
320,192,96084,128,0,96287:0:0:0:0:
448,192,96219,128,0,96287:0:0:0:0:
192,192,96354,1,0,0:0:0:0:
320,192,96354,1,0,0:0:0:0:
448,192,96354,128,0,96827:0:0:0:0:
64,192,96354,128,0,96692:0:0:0:0:
320,192,96490,128,0,96827:0:0:0:0:
192,192,96625,128,0,96827:0:0:0:0:
64,192,96760,128,0,96827:0:0:0:0:
64,192,96895,1,0,0:0:0:0:
448,192,96895,1,0,0:0:0:0:
320,192,96895,128,0,97368:0:0:0:0:
192,192,96895,128,0,97233:0:0:0:0:
64,192,97030,128,0,97368:0:0:0:0:
448,192,97165,128,0,97368:0:0:0:0:
192,192,97300,128,0,97368:0:0:0:0:
64,192,97435,1,0,0:0:0:0:
448,192,97435,1,0,0:0:0:0:
192,192,97435,128,0,97908:0:0:0:0:
320,192,97435,128,0,97773:0:0:0:0:
448,192,97571,128,0,97908:0:0:0:0:
64,192,97706,128,0,97908:0:0:0:0:
320,192,97841,128,0,97908:0:0:0:0:
320,192,97976,1,0,0:0:0:0:
64,192,97976,128,0,98449:0:0:0:0:
448,192,97976,1,0,0:0:0:0:
192,192,97976,128,0,98314:0:0:0:0:
320,192,98111,128,0,98449:0:0:0:0:
448,192,98246,128,0,98449:0:0:0:0:
192,192,98381,128,0,98449:0:0:0:0:
64,192,98517,1,0,0:0:0:0:
192,192,98517,1,0,0:0:0:0:
448,192,98517,128,0,98719:0:0:0:0:
320,192,98517,128,0,98854:0:0:0:0:
192,192,98652,128,0,98990:0:0:0:0:
64,192,98787,128,0,98990:0:0:0:0:
448,192,98787,128,0,98990:0:0:0:0:
320,192,98922,128,0,98990:0:0:0:0:
448,192,99057,1,0,0:0:0:0:
320,192,99057,1,0,0:0:0:0:
192,192,99057,128,0,99260:0:0:0:0:
64,192,99057,128,0,99395:0:0:0:0:
448,192,99192,128,0,99530:0:0:0:0:
320,192,99327,128,0,99530:0:0:0:0:
192,192,99327,128,0,99530:0:0:0:0:
64,192,99463,128,0,99530:0:0:0:0:
192,192,99598,1,0,0:0:0:0:
320,192,99598,128,0,99800:0:0:0:0:
64,192,99598,1,0,0:0:0:0:
448,192,99598,128,0,99935:0:0:0:0:
64,192,99733,128,0,100071:0:0:0:0:
192,192,99868,128,0,100071:0:0:0:0:
320,192,99868,128,0,100071:0:0:0:0:
448,192,100003,128,0,100071:0:0:0:0:
320,192,100138,1,0,0:0:0:0:
448,192,100138,128,0,100341:0:0:0:0:
192,192,100138,128,0,100476:0:0:0:0:
64,192,100138,1,0,0:0:0:0:
64,192,100273,128,0,100611:0:0:0:0:
448,192,100408,128,0,100611:0:0:0:0:
320,192,100408,128,0,100611:0:0:0:0:
192,192,100544,128,0,100611:0:0:0:0:
192,192,100679,1,0,0:0:0:0:
64,192,100679,1,0,0:0:0:0:
320,192,100679,128,0,100881:0:0:0:0:
448,192,100679,128,0,101017:0:0:0:0:
64,192,100814,128,0,101152:0:0:0:0:
192,192,100949,128,0,101152:0:0:0:0:
320,192,100949,128,0,101152:0:0:0:0:
448,192,101084,128,0,101152:0:0:0:0:
448,192,101219,1,0,0:0:0:0:
192,192,101219,128,0,101422:0:0:0:0:
64,192,101219,1,0,0:0:0:0:
320,192,101219,128,0,101557:0:0:0:0:
64,192,101354,128,0,101692:0:0:0:0:
448,192,101490,128,0,101692:0:0:0:0:
192,192,101490,128,0,101692:0:0:0:0:
320,192,101625,128,0,101692:0:0:0:0:
448,192,101760,1,0,0:0:0:0:
320,192,101760,128,0,102098:0:0:0:0:
192,192,101760,1,0,0:0:0:0:
64,192,101760,128,0,101963:0:0:0:0:
448,192,101895,128,0,102233:0:0:0:0:
64,192,102030,128,0,102233:0:0:0:0:
192,192,102030,128,0,102233:0:0:0:0:
320,192,102165,128,0,102233:0:0:0:0:
448,192,102300,128,0,102638:0:0:0:0:
64,192,102300,1,0,0:0:0:0:
192,192,102300,1,0,0:0:0:0:
320,192,102300,128,0,102503:0:0:0:0:
64,192,102435,128,0,102773:0:0:0:0:
192,192,102571,128,0,102773:0:0:0:0:
320,192,102571,128,0,102908:0:0:0:0:
448,192,102706,128,0,102908:0:0:0:0:
64,192,102841,128,0,103044:0:0:0:0:
192,192,102841,128,0,103044:0:0:0:0:
320,192,102976,128,0,103111:0:0:0:0:
448,192,102976,128,0,103111:0:0:0:0:
64,192,103111,5,0,0:0:0:0:
192,192,103111,1,0,0:0:0:0:
320,192,103179,1,0,0:0:0:0:
448,192,103179,1,0,0:0:0:0:
192,192,103246,1,0,0:0:0:0:
64,192,103246,1,0,0:0:0:0:
320,192,103314,1,0,0:0:0:0:
448,192,103314,1,0,0:0:0:0:
448,192,103381,1,0,0:0:0:0:
64,192,103381,1,0,0:0:0:0:
320,192,103381,1,0,0:0:0:0:
192,192,103381,1,0,0:0:0:0:
192,192,103449,1,0,0:0:0:0:
320,192,103517,1,0,0:0:0:0:
448,192,103517,1,0,0:0:0:0:
64,192,103584,1,0,0:0:0:0:
192,192,103652,1,0,0:0:0:0:
320,192,103652,1,0,0:0:0:0:
448,192,103719,1,0,0:0:0:0:
64,192,103787,1,0,0:0:0:0:
192,192,103787,1,0,0:0:0:0:
320,192,103854,1,0,0:0:0:0:
448,192,103922,1,0,0:0:0:0:
192,192,103922,1,0,0:0:0:0:
64,192,103922,1,0,0:0:0:0:
320,192,103990,1,0,0:0:0:0:
64,192,104057,1,0,0:0:0:0:
448,192,104057,1,0,0:0:0:0:
192,192,104125,1,0,0:0:0:0:
320,192,104192,1,0,0:0:0:0:
448,192,104192,1,0,0:0:0:0:
64,192,104260,1,0,0:0:0:0:
192,192,104327,1,0,0:0:0:0:
320,192,104327,1,0,0:0:0:0:
448,192,104395,1,0,0:0:0:0:
320,192,104463,1,0,0:0:0:0:
192,192,104463,1,0,0:0:0:0:
64,192,104463,1,0,0:0:0:0:
448,192,104530,1,0,0:0:0:0:
192,192,104598,1,0,0:0:0:0:
64,192,104598,1,0,0:0:0:0:
320,192,104665,1,0,0:0:0:0:
448,192,104733,1,0,0:0:0:0:
64,192,104733,1,0,0:0:0:0:
192,192,104800,1,0,0:0:0:0:
320,192,104868,1,0,0:0:0:0:
448,192,104868,1,0,0:0:0:0:
64,192,104935,1,0,0:0:0:0:
192,192,105003,1,0,0:0:0:0:
320,192,105003,1,0,0:0:0:0:
448,192,105003,1,0,0:0:0:0:
64,192,105071,1,0,0:0:0:0:
320,192,105138,1,0,0:0:0:0:
448,192,105138,1,0,0:0:0:0:
192,192,105206,1,0,0:0:0:0:
64,192,105273,1,0,0:0:0:0:
448,192,105273,1,0,0:0:0:0:
320,192,105341,1,0,0:0:0:0:
192,192,105408,1,0,0:0:0:0:
64,192,105408,1,0,0:0:0:0:
448,192,105476,1,0,0:0:0:0:
320,192,105544,1,0,0:0:0:0:
192,192,105544,1,0,0:0:0:0:
64,192,105544,1,0,0:0:0:0:
448,192,105544,1,0,0:0:0:0:
64,192,105611,1,0,0:0:0:0:
192,192,105679,1,0,0:0:0:0:
320,192,105679,1,0,0:0:0:0:
448,192,105746,1,0,0:0:0:0:
64,192,105814,1,0,0:0:0:0:
192,192,105814,1,0,0:0:0:0:
320,192,105881,1,0,0:0:0:0:
448,192,105949,1,0,0:0:0:0:
64,192,105949,1,0,0:0:0:0:
192,192,106017,1,0,0:0:0:0:
320,192,106084,1,0,0:0:0:0:
448,192,106084,1,0,0:0:0:0:
64,192,106084,1,0,0:0:0:0:
192,192,106152,1,0,0:0:0:0:
320,192,106219,1,0,0:0:0:0:
448,192,106219,1,0,0:0:0:0:
64,192,106287,1,0,0:0:0:0:
192,192,106354,1,0,0:0:0:0:
448,192,106354,1,0,0:0:0:0:
320,192,106422,1,0,0:0:0:0:
192,192,106490,1,0,0:0:0:0:
64,192,106490,1,0,0:0:0:0:
448,192,106557,1,0,0:0:0:0:
320,192,106625,1,0,0:0:0:0:
192,192,106625,1,0,0:0:0:0:
64,192,106625,1,0,0:0:0:0:
448,192,106692,1,0,0:0:0:0:
64,192,106760,1,0,0:0:0:0:
192,192,106760,1,0,0:0:0:0:
320,192,106827,1,0,0:0:0:0:
448,192,106895,1,0,0:0:0:0:
64,192,106895,1,0,0:0:0:0:
192,192,106963,1,0,0:0:0:0:
320,192,107030,1,0,0:0:0:0:
448,192,107030,1,0,0:0:0:0:
64,192,107098,1,0,0:0:0:0:
192,192,107165,1,0,0:0:0:0:
320,192,107165,1,0,0:0:0:0:
448,192,107165,1,0,0:0:0:0:
64,192,107233,1,0,0:0:0:0:
192,192,107300,1,0,0:0:0:0:
448,192,107300,1,0,0:0:0:0:
320,192,107368,1,0,0:0:0:0:
192,192,107435,1,0,0:0:0:0:
64,192,107435,1,0,0:0:0:0:
448,192,107503,1,0,0:0:0:0:
320,192,107571,1,0,0:0:0:0:
64,192,107571,1,0,0:0:0:0:
192,192,107638,1,0,0:0:0:0:
320,192,107706,1,0,0:0:0:0:
448,192,107706,1,0,0:0:0:0:
64,192,107706,1,0,0:0:0:0:
192,192,107706,1,0,0:0:0:0:
448,192,107796,1,0,0:0:0:0:
320,192,107886,1,0,0:0:0:0:
64,192,107886,1,0,0:0:0:0:
192,192,107976,1,0,0:0:0:0:
64,192,107976,1,0,0:0:0:0:
448,192,107976,1,0,0:0:0:0:
320,192,108066,1,0,0:0:0:0:
64,192,108156,1,0,0:0:0:0:
192,192,108156,1,0,0:0:0:0:
320,192,108246,1,0,0:0:0:0:
448,192,108246,1,0,0:0:0:0:
64,192,108246,1,0,0:0:0:0:
192,192,108336,1,0,0:0:0:0:
320,192,108426,1,0,0:0:0:0:
448,192,108426,1,0,0:0:0:0:
64,192,108517,1,0,0:0:0:0:
192,192,108517,1,0,0:0:0:0:
448,192,108517,1,0,0:0:0:0:
320,192,108607,1,0,0:0:0:0:
64,192,108697,1,0,0:0:0:0:
448,192,108697,1,0,0:0:0:0:
320,192,108787,1,0,0:0:0:0:
192,192,108787,1,0,0:0:0:0:
64,192,108787,1,0,0:0:0:0:
448,192,108877,1,0,0:0:0:0:
192,192,108967,1,0,0:0:0:0:
64,192,108967,1,0,0:0:0:0:
320,192,109057,1,0,0:0:0:0:
448,192,109057,1,0,0:0:0:0:
192,192,109057,1,0,0:0:0:0:
64,192,109147,1,0,0:0:0:0:
320,192,109237,1,0,0:0:0:0:
448,192,109237,1,0,0:0:0:0:
192,192,109327,1,0,0:0:0:0:
64,192,109327,1,0,0:0:0:0:
448,192,109327,1,0,0:0:0:0:
320,192,109417,1,0,0:0:0:0:
192,192,109508,1,0,0:0:0:0:
64,192,109508,1,0,0:0:0:0:
320,192,109598,1,0,0:0:0:0:
448,192,109598,1,0,0:0:0:0:
64,192,109598,1,0,0:0:0:0:
192,192,109688,1,0,0:0:0:0:
320,192,109778,1,0,0:0:0:0:
448,192,109778,1,0,0:0:0:0:
64,192,109868,1,0,0:0:0:0:
192,192,109868,1,0,0:0:0:0:
320,192,109868,1,0,0:0:0:0:
448,192,109935,1,0,0:0:0:0:
64,192,110003,1,0,0:0:0:0:
192,192,110003,1,0,0:0:0:0:
320,192,110071,1,0,0:0:0:0:
448,192,110138,1,0,0:0:0:0:
64,192,110138,1,0,0:0:0:0:
192,192,110138,1,0,0:0:0:0:
320,192,110206,1,0,0:0:0:0:
64,192,110273,1,0,0:0:0:0:
448,192,110273,1,0,0:0:0:0:
192,192,110341,1,0,0:0:0:0:
320,192,110408,1,0,0:0:0:0:
448,192,110408,1,0,0:0:0:0:
64,192,110408,1,0,0:0:0:0:
192,192,110476,1,0,0:0:0:0:
320,192,110544,1,0,0:0:0:0:
448,192,110544,1,0,0:0:0:0:
64,192,110611,1,0,0:0:0:0:
192,192,110679,1,0,0:0:0:0:
320,192,110679,1,0,0:0:0:0:
448,192,110679,1,0,0:0:0:0:
64,192,110746,1,0,0:0:0:0:
320,192,110814,1,0,0:0:0:0:
448,192,110814,1,0,0:0:0:0:
192,192,110881,1,0,0:0:0:0:
448,192,110949,5,0,0:0:0:0:
64,192,110949,1,0,0:0:0:0:
320,192,110983,1,0,0:0:0:0:
192,192,111017,1,0,0:0:0:0:
64,192,111050,1,0,0:0:0:0:
448,192,111084,1,0,0:0:0:0:
320,192,111118,1,0,0:0:0:0:
64,192,111152,1,0,0:0:0:0:
192,192,111185,1,0,0:0:0:0:
320,192,111219,1,0,0:0:0:0:
448,192,111253,1,0,0:0:0:0:
192,192,111287,1,0,0:0:0:0:
64,192,111321,1,0,0:0:0:0:
448,192,111354,1,0,0:0:0:0:
320,192,111388,1,0,0:0:0:0:
192,192,111422,1,0,0:0:0:0:
64,192,111456,1,0,0:0:0:0:
448,192,111490,1,0,0:0:0:0:
320,192,111523,1,0,0:0:0:0:
64,192,111557,1,0,0:0:0:0:
192,192,111591,1,0,0:0:0:0:
320,192,111625,1,0,0:0:0:0:
448,192,111658,1,0,0:0:0:0:
64,192,111692,1,0,0:0:0:0:
192,192,111726,1,0,0:0:0:0:
448,192,111760,1,0,0:0:0:0:
320,192,111794,1,0,0:0:0:0:
64,192,111827,1,0,0:0:0:0:
192,192,111861,1,0,0:0:0:0:
320,192,111895,1,0,0:0:0:0:
448,192,111929,1,0,0:0:0:0:
64,192,111963,1,0,0:0:0:0:
192,192,111996,1,0,0:0:0:0:
448,192,112030,128,0,112503:0:0:0:0:
320,192,112030,1,0,0:0:0:0:
448,192,112571,128,0,113044:0:0:0:0:
320,192,112571,128,0,113044:0:0:0:0:
192,192,112571,1,0,0:0:0:0:
64,192,112571,1,0,0:0:0:0:
192,192,113111,128,0,113584:0:0:0:0:
320,192,113111,128,0,113584:0:0:0:0:
448,192,113111,128,0,113584:0:0:0:0:
64,192,113111,1,0,0:0:0:0:
448,192,113652,128,0,114125:0:0:0:0:
320,192,113652,128,0,114125:0:0:0:0:
192,192,113652,128,0,114125:0:0:0:0:
64,192,113652,128,0,114125:0:0:0:0:
64,192,114192,128,0,114395:0:0:0:0:
192,192,114192,128,0,114395:0:0:0:0:
320,192,114192,128,0,114395:0:0:0:0:
448,192,114192,1,0,0:0:0:0:
192,192,114463,128,0,114665:0:0:0:0:
64,192,114463,128,0,114665:0:0:0:0:
448,192,114463,1,0,0:0:0:0:
320,192,114463,1,0,0:0:0:0:
64,192,114733,128,0,114935:0:0:0:0:
448,192,114733,1,0,0:0:0:0:
320,192,114733,1,0,0:0:0:0:
192,192,114733,1,0,0:0:0:0:
448,192,115003,1,0,0:0:0:0:
320,192,115003,1,0,0:0:0:0:
192,192,115003,1,0,0:0:0:0:
64,192,115003,1,0,0:0:0:0:
320,192,115273,1,0,0:0:0:0:
448,192,115273,1,0,0:0:0:0:
64,192,115273,1,0,0:0:0:0:
192,192,115273,1,0,0:0:0:0:
448,192,115408,1,0,0:0:0:0:
320,192,115408,1,0,0:0:0:0:
64,192,115408,1,0,0:0:0:0:
192,192,115408,1,0,0:0:0:0:
320,192,115544,1,0,0:0:0:0:
448,192,115544,1,0,0:0:0:0:
64,192,115544,1,0,0:0:0:0:
192,192,115544,1,0,0:0:0:0:
320,192,115679,1,0,0:0:0:0:
448,192,115679,1,0,0:0:0:0:
64,192,115679,1,0,0:0:0:0:
192,192,115679,1,0,0:0:0:0:
320,192,115814,1,0,0:0:0:0:
448,192,115814,1,0,0:0:0:0:
192,192,115881,1,0,0:0:0:0:
64,192,115881,1,0,0:0:0:0:
320,192,115949,1,0,0:0:0:0:
448,192,115949,1,0,0:0:0:0:
192,192,116017,1,0,0:0:0:0:
64,192,116017,1,0,0:0:0:0:
320,192,116084,1,0,0:0:0:0:
448,192,116084,1,0,0:0:0:0:
192,192,116152,1,0,0:0:0:0:
64,192,116152,1,0,0:0:0:0:
320,192,116219,1,0,0:0:0:0:
448,192,116219,1,0,0:0:0:0:
192,192,116287,1,0,0:0:0:0:
64,192,116287,1,0,0:0:0:0:
320,192,116354,1,0,0:0:0:0:
192,192,116354,1,0,0:0:0:0:
64,192,116354,1,0,0:0:0:0:
448,192,116354,1,0,0:0:0:0:
