osu file format v14

[General]
AudioFilename: audio.mp3
AudioLeadIn: 0
PreviewTime: 76625
Countdown: 0
SampleSet: Soft
StackLeniency: 0.7
Mode: 3
LetterboxInBreaks: 0
SpecialStyle: 0
WidescreenStoryboard: 1

[Editor]
Bookmarks: 102795,107120,109282,111444
DistanceSpacing: 1.3
BeatDivisor: 16
GridSize: 4
TimelineZoom: 2.599999

[Metadata]
Title:Destiny
TitleUnicode:Destiny
Artist:Yooh
ArtistUnicode:Yooh
Creator:Ainer
Version:Noch's MAXIMUM
Source:SOUND VOLTEX IV HEAVENLY HAVEN
Tags:Video Game Electronic Instrumental Symphonic Hardcore SDVX Crossfire Decoy Dynasty Dignity Destroy LegenD KAC 8th Omega Ω Dimension RASIS Original Song Contest オリジナル楽曲コンテスト Amaterasu Oomikami 天照大神 III GRAVITY WARS コナステ Noch Einen
BeatmapID:2592901
BeatmapSetID:1247458

[Difficulty]
HPDrainRate:8.8
CircleSize:4
OverallDifficulty:8
ApproachRate:5
SliderMultiplier:1.4
SliderTickRate:1

[Events]
//Background and Video events
0,0,"bg.jpg",0,0
//Break Periods
//Storyboard Layer 0 (Background)
//Storyboard Layer 1 (Fail)
//Storyboard Layer 2 (Pass)
//Storyboard Layer 3 (Foreground)
//Storyboard Layer 4 (Overlay)
//Storyboard Sound Samples
Sample,17565,0,"fast-crash.wav",70
Sample,17700,0,"fast-crash.wav",70

[TimingPoints]
538,270.27027027027,4,2,1,70,1,0
54592,-100,4,2,1,70,0,1
56754,-100,4,2,1,70,0,0
63240,-100,4,2,1,70,0,1
65402,-100,4,2,1,70,0,0
69727,333.333333333333,4,2,1,70,1,0
69727,-81.08108108,4,2,1,70,0,0
71060,317.460317460317,4,2,1,70,1,0
71060,-85.13513514,4,2,1,70,0,0
72329,310.880829015544,4,2,1,70,1,0
72329,-86.93693694,4,2,1,70,0,0
72950,307.692307692308,4,2,1,70,1,0
72950,-87.83783784,4,2,1,70,0,0
73565,292.682926829268,4,2,1,70,1,0
73565,-92.34234234,4,2,1,70,0,0
74150,291.26213592233,4,2,1,70,1,0
74150,-92.79279279,4,2,1,70,0,0
76625,270.27027027027,4,2,1,70,1,0
76625,-100,4,2,1,70,0,0
76895,270.27027027027,4,2,1,70,1,0
76895,-100,4,2,1,70,0,1
85273,-100,4,2,1,70,0,0
85543,-100,4,2,1,70,0,1
94192,-100,4,2,1,70,0,0

[HitObjects]
64,192,538,5,4,0:0:0:0:
320,192,538,1,2,0:0:0:0:
448,192,538,1,0,0:0:0:0:
192,192,628,1,0,0:0:0:0:
448,192,718,1,0,0:0:0:0:
64,192,808,1,0,0:0:0:0:
192,192,808,1,0,0:0:0:0:
448,192,898,1,0,0:0:0:0:
320,192,988,1,0,0:0:0:0:
64,192,1078,1,0,0:0:0:0:
192,192,1078,1,0,0:0:0:0:
448,192,1168,1,0,0:0:0:0:
192,192,1258,1,0,0:0:0:0:
448,192,1348,1,0,0:0:0:0:
320,192,1438,1,0,0:0:0:0:
192,192,1528,1,0,0:0:0:0:
64,192,1619,1,2,0:0:0:0:
320,192,1619,1,8,0:0:0:70:LR_DS - Snare.wav
448,192,1619,1,0,0:0:0:0:
192,192,1709,1,0,0:0:0:0:
64,192,1799,1,0,0:0:0:0:
320,192,1889,1,0,0:0:0:0:
448,192,1889,1,0,0:0:0:0:
64,192,1979,1,0,0:0:0:0:
448,192,2069,1,0,0:0:0:0:
192,192,2159,1,0,0:0:0:0:
320,192,2159,1,0,0:0:0:0:
64,192,2249,1,0,0:0:0:0:
320,192,2339,1,0,0:0:0:0:
64,192,2429,1,0,0:0:0:0:
448,192,2519,1,0,0:0:0:0:
192,192,2610,1,0,0:0:0:0:
320,192,2700,1,2,0:0:0:0:
448,192,2700,1,0,0:0:0:0:
64,192,2790,1,0,0:0:0:0:
320,192,2880,1,0,0:0:0:0:
192,192,2970,1,0,0:0:0:0:
448,192,2970,1,0,0:0:0:0:
64,192,3060,1,0,0:0:0:0:
320,192,3150,1,0,0:0:0:0:
192,192,3240,1,0,0:0:0:0:
448,192,3240,1,0,0:0:0:0:
64,192,3330,1,0,0:0:0:0:
192,192,3420,1,0,0:0:0:0:
320,192,3510,1,0,0:0:0:0:
192,192,3601,1,0,0:0:0:0:
320,192,3691,1,0,0:0:0:0:
64,192,3781,1,2,0:0:0:0:
192,192,3781,1,8,0:0:0:70:LR_DS - Snare.wav
448,192,3781,1,0,0:0:0:0:
320,192,3871,1,0,0:0:0:0:
64,192,3961,1,0,0:0:0:0:
192,192,4051,1,0,0:0:0:0:
448,192,4051,1,0,0:0:0:0:
320,192,4141,1,0,0:0:0:0:
192,192,4231,1,0,0:0:0:0:
64,192,4321,1,0,0:0:0:0:
448,192,4321,1,0,0:0:0:0:
320,192,4411,1,0,0:0:0:0:
192,192,4501,1,0,0:0:0:0:
320,192,4592,1,0,0:0:0:0:
64,192,4682,1,0,0:0:0:0:
320,192,4772,1,0,0:0:0:0:
64,192,4862,1,2,0:0:0:0:
192,192,4862,1,0,0:0:0:0:
448,192,4952,1,0,0:0:0:0:
192,192,5042,1,0,0:0:0:0:
64,192,5132,1,0,0:0:0:0:
320,192,5132,1,0,0:0:0:0:
448,192,5222,1,0,0:0:0:0:
192,192,5312,1,0,0:0:0:0:
64,192,5402,1,0,0:0:0:0:
320,192,5402,1,0,0:0:0:0:
448,192,5492,1,0,0:0:0:0:
64,192,5583,1,0,0:0:0:0:
192,192,5673,1,0,0:0:0:0:
448,192,5763,1,0,0:0:0:0:
192,192,5853,1,0,0:0:0:0:
64,192,5943,1,2,0:0:0:0:
320,192,5943,1,8,0:0:0:70:LR_DS - Snare.wav
448,192,5943,1,0,0:0:0:0:
192,192,6033,1,0,0:0:0:0:
64,192,6123,1,0,0:0:0:0:
320,192,6213,1,0,0:0:0:0:
448,192,6213,1,0,0:0:0:0:
192,192,6303,1,0,0:0:0:0:
64,192,6393,1,0,0:0:0:0:
320,192,6483,1,0,0:0:0:0:
448,192,6483,1,0,0:0:0:0:
64,192,6574,1,0,0:0:0:0:
320,192,6664,1,0,0:0:0:0:
64,192,6754,1,0,0:0:0:0:
320,192,6844,1,0,0:0:0:0:
448,192,6934,1,0,0:0:0:0:
64,192,7024,1,2,0:0:0:0:
192,192,7024,1,0,0:0:0:0:
448,192,7114,1,0,0:0:0:0:
64,192,7204,1,0,0:0:0:0:
192,192,7294,1,0,0:0:0:0:
320,192,7294,1,0,0:0:0:0:
448,192,7384,1,0,0:0:0:0:
64,192,7474,1,0,0:0:0:0:
320,192,7565,1,0,0:0:0:0:
448,192,7565,1,0,0:0:0:0:
192,192,7655,1,0,0:0:0:0:
64,192,7745,1,0,0:0:0:0:
448,192,7835,1,0,0:0:0:0:
320,192,7925,1,0,0:0:0:0:
64,192,8015,1,0,0:0:0:0:
192,192,8105,1,2,0:0:0:0:
320,192,8105,1,8,0:0:0:70:LR_DS - Snare.wav
448,192,8105,1,0,0:0:0:0:
64,192,8195,1,0,0:0:0:0:
192,192,8285,1,0,0:0:0:0:
320,192,8375,1,0,0:0:0:0:
448,192,8375,1,0,0:0:0:0:
192,192,8465,1,0,0:0:0:0:
320,192,8556,1,0,0:0:0:0:
448,192,8646,1,0,0:0:0:0:
192,192,8758,1,0,0:0:0:0:
320,192,8803,1,0,0:0:0:0:
448,192,8848,1,0,0:0:0:0:
64,192,8893,1,0,0:0:0:0:
192,192,8938,1,0,0:0:0:0:
320,192,8983,1,0,0:0:0:0:
448,192,9028,1,0,0:0:0:0:
192,192,9074,1,0,0:0:0:0:
320,192,9119,1,0,0:0:0:0:
64,192,9186,1,2,0:0:0:0:
192,192,9186,1,0,0:0:0:70:fast-crash.wav
448,192,9186,1,0,0:0:0:0:
64,192,9321,1,2,0:0:0:0:
192,192,9321,1,0,0:0:0:70:fast-crash.wav
448,192,9321,1,0,0:0:0:0:
64,192,9592,1,2,0:0:0:0:
192,192,9592,1,0,0:0:0:70:fast-crash.wav
448,192,9592,1,0,0:0:0:0:
64,192,9862,1,2,0:0:0:0:
192,192,9862,1,0,0:0:0:70:fast-crash.wav
448,192,9862,1,0,0:0:0:0:
64,192,10132,1,2,0:0:0:0:
192,192,10132,1,0,0:0:0:70:fast-crash.wav
448,192,10132,1,0,0:0:0:0:
64,192,10402,1,2,0:0:0:0:
192,192,10402,1,0,0:0:0:70:fast-crash.wav
448,192,10402,1,0,0:0:0:0:
64,192,10537,1,2,0:0:0:0:
192,192,10537,1,0,0:0:0:70:fast-crash.wav
448,192,10537,1,0,0:0:0:0:
320,192,10808,1,0,0:0:0:0:
64,192,10875,1,0,0:0:0:0:
320,192,10943,1,0,0:0:0:0:
64,192,11010,1,0,0:0:0:0:
192,192,11078,1,0,0:0:0:0:
448,192,11146,1,0,0:0:0:0:
192,192,11213,1,0,0:0:0:0:
448,192,11281,1,0,0:0:0:0:
64,192,11348,1,2,0:0:0:0:
192,192,11348,1,0,0:0:0:70:fast-crash.wav
320,192,11348,1,0,0:0:0:0:
64,192,11483,1,2,0:0:0:0:
192,192,11483,1,0,0:0:0:70:fast-crash.wav
320,192,11483,1,0,0:0:0:0:
64,192,11754,1,2,0:0:0:0:
192,192,11754,1,0,0:0:0:70:fast-crash.wav
320,192,11754,1,0,0:0:0:0:
64,192,12024,1,2,0:0:0:0:
192,192,12024,1,0,0:0:0:70:fast-crash.wav
320,192,12024,1,0,0:0:0:0:
64,192,12294,1,2,0:0:0:0:
192,192,12294,1,0,0:0:0:70:fast-crash.wav
320,192,12294,1,0,0:0:0:0:
64,192,12565,1,2,0:0:0:0:
192,192,12565,1,0,0:0:0:70:fast-crash.wav
320,192,12565,1,0,0:0:0:0:
64,192,12700,1,2,0:0:0:0:
192,192,12700,1,0,0:0:0:70:fast-crash.wav
320,192,12700,1,0,0:0:0:0:
192,192,12970,1,0,0:0:0:0:
64,192,13037,1,0,0:0:0:0:
448,192,13105,1,0,0:0:0:0:
320,192,13173,1,0,0:0:0:0:
192,192,13240,1,0,0:0:0:0:
64,192,13308,1,0,0:0:0:0:
448,192,13375,1,0,0:0:0:0:
64,192,13510,1,2,0:0:0:0:
192,192,13510,1,0,0:0:0:70:fast-crash.wav
320,192,13510,1,0,0:0:0:0:
192,192,13781,1,2,0:0:0:0:
320,192,13781,1,0,0:0:0:70:fast-crash.wav
448,192,13781,1,0,0:0:0:0:
192,192,13916,1,2,0:0:0:0:
320,192,13916,1,0,0:0:0:70:fast-crash.wav
448,192,13916,1,0,0:0:0:0:
64,192,14186,1,2,0:0:0:0:
192,192,14186,1,0,0:0:0:70:fast-crash.wav
320,192,14186,1,0,0:0:0:0:
64,192,14321,1,2,0:0:0:0:
192,192,14321,1,0,0:0:0:70:fast-crash.wav
320,192,14321,1,0,0:0:0:0:
192,192,14592,1,2,0:0:0:0:
320,192,14592,1,0,0:0:0:70:fast-crash.wav
448,192,14592,1,0,0:0:0:0:
192,192,14727,1,2,0:0:0:0:
320,192,14727,1,0,0:0:0:70:fast-crash.wav
448,192,14727,1,0,0:0:0:0:
192,192,14997,1,2,0:0:0:0:
320,192,14997,1,0,0:0:0:70:fast-crash.wav
448,192,14997,1,0,0:0:0:0:
64,192,15132,1,0,0:0:0:0:
192,192,15177,1,0,0:0:0:0:
320,192,15222,1,0,0:0:0:0:
448,192,15267,1,0,0:0:0:0:
192,192,15312,1,0,0:0:0:0:
320,192,15357,1,0,0:0:0:0:
64,192,15402,1,0,0:0:0:0:
192,192,15447,1,0,0:0:0:0:
448,192,15492,1,0,0:0:0:0:
320,192,15537,1,0,0:0:0:0:
64,192,15583,1,0,0:0:0:0:
192,192,15628,1,0,0:0:0:0:
320,192,15673,1,2,0:0:0:0:
448,192,15673,1,0,0:0:0:70:fast-crash.wav
64,192,15943,1,2,0:0:0:0:
320,192,15943,1,0,0:0:0:70:fast-crash.wav
448,192,15943,1,0,0:0:0:0:
64,192,16213,1,2,0:0:0:0:
320,192,16213,1,0,0:0:0:70:fast-crash.wav
448,192,16213,1,0,0:0:0:0:
64,192,16348,1,2,0:0:0:0:
320,192,16348,1,0,0:0:0:70:fast-crash.wav
448,192,16348,1,0,0:0:0:0:
64,192,16619,1,2,0:0:0:0:
320,192,16619,1,0,0:0:0:70:fast-crash.wav
448,192,16619,1,0,0:0:0:0:
64,192,16889,1,2,0:0:0:0:
320,192,16889,1,0,0:0:0:70:fast-crash.wav
320,192,17024,1,2,0:0:0:0:
448,192,17024,1,0,0:0:0:70:fast-crash.wav
64,192,17159,1,2,0:0:0:0:
192,192,17159,1,0,0:0:0:70:fast-crash.wav
64,192,17294,1,2,0:0:0:0:
320,192,17294,1,0,0:0:0:70:fast-crash.wav
320,192,17429,1,2,0:0:0:0:
448,192,17429,1,0,0:0:0:70:fast-crash.wav
192,192,17565,1,2,0:0:0:0:
192,192,17632,1,2,0:0:0:0:
320,192,17700,1,2,0:0:0:0:
320,192,17767,1,2,0:0:0:0:
64,192,17835,1,4,0:0:0:0:
192,192,17835,1,2,0:0:0:0:
448,192,17835,1,0,0:0:0:0:
64,192,17970,1,0,0:0:0:0:
448,192,17970,1,0,0:0:0:0:
192,192,18105,1,8,0:0:0:0:
320,192,18105,1,2,0:0:0:0:
448,192,18105,1,0,0:0:0:0:
320,192,18240,1,0,0:0:0:0:
448,192,18240,1,0,0:0:0:0:
64,192,18375,1,2,0:0:0:0:
192,192,18375,1,0,0:0:0:0:
64,192,18510,1,0,0:0:0:0:
192,192,18578,1,0,0:0:0:0:
64,192,18646,1,8,0:0:0:0:
320,192,18646,1,2,0:0:0:0:
448,192,18646,1,0,0:0:0:0:
448,192,18781,1,0,0:0:0:0:
320,192,18848,1,0,0:0:0:0:
64,192,18916,1,2,0:0:0:0:
192,192,18916,1,0,0:0:0:0:
64,192,19051,1,0,0:0:0:0:
192,192,19119,1,0,0:0:0:0:
64,192,19186,1,8,0:0:0:0:
320,192,19186,1,2,0:0:0:0:
448,192,19186,1,0,0:0:0:0:
448,192,19321,1,0,0:0:0:0:
320,192,19389,1,0,0:0:0:0:
64,192,19456,1,2,0:0:0:0:
192,192,19456,1,0,0:0:0:0:
64,192,19592,1,0,0:0:0:0:
448,192,19592,1,0,0:0:0:0:
64,192,19727,1,8,0:0:0:0:
320,192,19727,1,2,0:0:0:0:
448,192,19727,1,0,0:0:0:0:
64,192,19862,1,2,0:0:0:0:
192,192,19862,1,0,0:0:0:0:
320,192,19997,1,2,0:0:0:0:
448,192,19997,1,0,0:0:0:0:
448,192,20132,1,0,0:0:0:0:
320,192,20200,1,0,0:0:0:0:
64,192,20267,1,8,0:0:0:0:
192,192,20267,1,2,0:0:0:0:
448,192,20267,1,0,0:0:0:0:
64,192,20402,1,0,0:0:0:0:
192,192,20470,1,0,0:0:0:0:
320,192,20537,1,2,0:0:0:0:
448,192,20537,1,0,0:0:0:0:
448,192,20673,1,0,0:0:0:0:
320,192,20740,1,0,0:0:0:0:
64,192,20808,1,8,0:0:0:0:
192,192,20808,1,2,0:0:0:0:
448,192,20808,1,0,0:0:0:0:
64,192,20943,1,0,0:0:0:0:
192,192,21010,1,0,0:0:0:0:
448,192,21078,1,2,0:0:0:0:
320,192,21078,1,0,0:0:0:0:
448,192,21213,1,2,0:0:0:0:
320,192,21213,1,0,0:0:0:0:
192,192,21281,1,0,0:0:0:0:
64,192,21348,1,8,0:0:0:0:
320,192,21348,1,2,0:0:0:0:
448,192,21348,1,0,0:0:0:0:
192,192,21483,1,0,0:0:0:0:
320,192,21483,1,0,0:0:0:0:
64,192,21619,1,2,0:0:0:0:
448,192,21619,1,0,0:0:0:0:
320,192,21754,1,0,0:0:0:0:
192,192,21821,1,2,0:0:0:0:
64,192,21889,1,8,0:0:0:0:
320,192,21889,1,2,0:0:0:0:
448,192,21889,1,0,0:0:0:0:
192,192,22024,1,2,0:0:0:0:
448,192,22024,1,0,0:0:0:0:
64,192,22159,1,2,0:0:0:0:
320,192,22159,1,0,0:0:0:0:
64,192,22294,1,2,0:0:0:0:
320,192,22294,1,0,0:0:0:0:
64,192,22429,1,8,0:0:0:0:
320,192,22429,1,2,0:0:0:0:
448,192,22429,1,0,0:0:0:0:
64,192,22565,1,0,0:0:0:0:
192,192,22565,1,0,0:0:0:0:
320,192,22632,1,0,0:0:0:0:
192,192,22700,1,2,0:0:0:0:
448,192,22700,1,0,0:0:0:0:
448,192,22835,1,0,0:0:0:0:
320,192,22902,1,0,0:0:0:0:
64,192,22970,1,8,0:0:0:0:
192,192,22970,1,2,0:0:0:0:
448,192,22970,1,0,0:0:0:0:
64,192,23105,1,2,0:0:0:0:
320,192,23105,1,0,0:0:0:0:
64,192,23375,1,2,0:0:0:0:
320,192,23375,1,0,0:0:0:0:
64,192,23510,1,8,0:0:0:0:
192,192,23510,1,2,0:0:0:0:
448,192,23510,1,0,0:0:0:0:
320,192,23646,1,0,0:0:0:0:
192,192,23713,1,0,0:0:0:0:
64,192,23781,1,2,0:0:0:0:
448,192,23781,1,0,0:0:0:0:
192,192,23916,1,0,0:0:0:0:
448,192,23916,1,0,0:0:0:0:
320,192,23983,1,0,0:0:0:0:
64,192,24051,1,8,0:0:0:0:
192,192,24051,1,2,0:0:0:0:
448,192,24051,1,0,0:0:0:0:
320,192,24186,1,0,0:0:0:0:
448,192,24186,1,0,0:0:0:0:
64,192,24321,1,2,0:0:0:0:
192,192,24321,1,0,0:0:0:0:
64,192,24456,1,0,0:0:0:0:
192,192,24524,1,0,0:0:0:0:
64,192,24592,1,8,0:0:0:0:
320,192,24592,1,2,0:0:0:0:
448,192,24592,1,0,0:0:0:0:
448,192,24727,1,0,0:0:0:0:
320,192,24794,1,0,0:0:0:0:
64,192,24862,1,2,0:0:0:0:
192,192,24862,1,0,0:0:0:0:
64,192,24997,1,0,0:0:0:0:
192,192,25065,1,0,0:0:0:0:
64,192,25132,1,8,0:0:0:0:
320,192,25132,1,2,0:0:0:0:
448,192,25132,1,0,0:0:0:0:
192,192,25267,1,2,0:0:0:0:
448,192,25267,1,0,0:0:0:0:
64,192,25402,1,2,0:0:0:0:
192,192,25402,1,0,0:0:0:70:fast-crash.wav
448,192,25402,1,0,0:0:0:0:
64,192,25808,1,2,0:0:0:0:
192,192,25808,1,0,0:0:0:70:fast-crash.wav
448,192,25808,1,0,0:0:0:0:
64,192,26213,1,2,0:0:0:0:
448,192,26213,1,0,0:0:0:70:fast-crash.wav
320,192,26213,1,0,0:0:0:0:
64,192,26281,1,0,0:0:0:0:
448,192,26348,1,0,0:0:0:0:
448,192,26416,1,0,0:0:0:0:
64,192,26483,1,2,0:0:0:0:
320,192,26483,1,0,0:0:0:0:
64,192,26619,1,2,0:0:0:0:
320,192,26619,1,0,0:0:0:0:
64,192,26754,1,4,0:0:0:0:
192,192,26754,1,8,0:0:0:0:
320,192,26754,1,2,0:0:0:0:
448,192,26754,1,0,0:0:0:0:
64,192,26889,128,0,27024:0:0:0:0:
448,192,26889,1,0,0:0:0:0:
192,192,27024,1,2,0:0:0:0:
320,192,27024,1,0,0:0:0:0:
64,192,27159,128,0,27294:0:0:0:0:
192,192,27294,1,8,0:0:0:0:
320,192,27294,1,2,0:0:0:0:
448,192,27294,1,0,0:0:0:0:
64,192,27429,128,0,27565:0:0:0:0:
192,192,27565,1,2,0:0:0:0:
320,192,27565,1,0,0:0:0:0:
64,192,27700,128,0,27835:0:0:0:0:
192,192,27835,1,8,0:0:0:0:
320,192,27835,1,2,0:0:0:0:
448,192,27835,1,0,0:0:0:0:
64,192,27970,128,0,28105:0:0:0:0:
192,192,28105,1,2,0:0:0:0:
320,192,28105,1,0,0:0:0:0:
192,192,28240,1,0,0:0:0:0:
320,192,28240,1,0,0:0:0:0:
64,192,28375,1,8,0:0:0:0:
320,192,28375,1,2,0:0:0:0:
448,192,28375,1,0,0:0:0:0:
192,192,28510,128,2,28646:0:0:0:0:
320,192,28510,1,0,0:0:0:0:
64,192,28646,1,2,0:0:0:0:
448,192,28646,1,0,0:0:0:0:
192,192,28781,128,0,28916:0:0:0:0:
64,192,28916,1,8,0:0:0:0:
320,192,28916,1,2,0:0:0:0:
448,192,28916,1,0,0:0:0:0:
192,192,29051,128,0,29186:0:0:0:0:
64,192,29186,1,2,0:0:0:0:
448,192,29186,1,0,0:0:0:0:
192,192,29321,128,0,29456:0:0:0:0:
64,192,29456,1,8,0:0:0:0:
320,192,29456,1,2,0:0:0:0:
448,192,29456,1,0,0:0:0:0:
192,192,29592,128,0,29727:0:0:0:0:
64,192,29727,1,2,0:0:0:0:
448,192,29727,1,0,0:0:0:0:
64,192,29862,1,2,0:0:0:0:
448,192,29862,1,0,0:0:0:0:
192,192,29997,1,0,0:0:0:0:
320,192,29997,1,0,0:0:0:0:
64,192,30132,1,2,0:0:0:0:
448,192,30132,1,0,0:0:0:0:
192,192,30402,1,2,0:0:0:0:
320,192,30402,1,0,0:0:0:0:
64,192,30537,1,4,0:0:0:0:
192,192,30537,1,8,0:0:0:0:
320,192,30537,1,2,0:0:0:0:
448,192,30537,1,0,0:0:0:0:
64,192,30808,1,2,0:0:0:0:
192,192,30808,1,0,0:0:0:0:
64,192,30943,1,2,0:0:0:0:
192,192,30943,1,0,0:0:0:0:
64,192,31078,1,8,0:0:0:0:
320,192,31078,1,2,0:0:0:0:
448,192,31078,1,0,0:0:0:0:
320,192,31213,1,0,0:0:0:0:
448,192,31213,1,0,0:0:0:0:
64,192,31348,1,2,0:0:0:0:
448,192,31348,1,0,0:0:0:0:
320,192,31483,1,0,0:0:0:0:
448,192,31483,1,0,0:0:0:0:
64,192,31619,1,8,0:0:0:0:
192,192,31619,1,2,0:0:0:0:
320,192,31619,1,0,0:0:0:0:
448,192,31754,1,0,0:0:0:0:
64,192,31889,1,2,0:0:0:0:
192,192,31889,1,0,0:0:0:70:fast-crash.wav
448,192,31889,1,0,0:0:0:0:
64,192,32024,1,2,0:0:0:0:
192,192,32024,1,0,0:0:0:70:fast-crash.wav
320,192,32024,1,0,0:0:0:0:
448,192,32159,1,0,0:0:0:0:
192,192,32294,1,2,0:0:0:0:
320,192,32294,1,0,0:0:0:70:fast-crash.wav
448,192,32294,1,0,0:0:0:0:
64,192,32429,1,0,0:0:0:0:
192,192,32463,1,0,0:0:0:0:
320,192,32497,1,0,0:0:0:0:
448,192,32565,1,0,0:0:0:0:
64,192,32632,1,0,0:0:0:0:
192,192,32700,1,2,0:0:0:0:
320,192,32700,1,0,0:0:0:70:fast-crash.wav
448,192,32700,1,0,0:0:0:0:
320,192,32970,1,0,0:0:0:50:punchy snare.wav
320,192,33037,1,0,0:0:0:50:punchy snare.wav
64,192,33105,1,2,0:0:0:0:
192,192,33105,1,0,0:0:0:70:fast-crash.wav
448,192,33105,1,0,0:0:0:0:
192,192,33375,1,0,0:0:0:50:punchy snare.wav
192,192,33443,1,0,0:0:0:50:punchy snare.wav
64,192,33510,1,2,0:0:0:0:
320,192,33510,1,0,0:0:0:70:fast-crash.wav
448,192,33510,1,0,0:0:0:0:
320,192,33781,1,0,0:0:0:50:punchy snare.wav
320,192,33848,1,0,0:0:0:50:punchy snare.wav
64,192,33916,1,2,0:0:0:0:
192,192,33916,1,0,0:0:0:70:fast-crash.wav
448,192,33916,1,0,0:0:0:0:
320,192,34051,128,0,34321:0:0:0:0:
448,192,34186,128,0,34321:0:0:0:0:
64,192,34321,128,0,34592:0:0:0:0:
192,192,34456,128,0,34592:0:0:0:0:
448,192,34592,1,0,0:0:0:0:
320,192,34659,1,0,0:0:0:0:
64,192,34727,1,0,0:0:0:0:
320,192,34794,1,0,0:0:0:0:
192,192,34862,1,0,0:0:0:0:
64,192,34929,1,0,0:0:0:0:
448,192,34997,1,0,0:0:0:0:
320,192,35065,1,0,0:0:0:0:
64,192,35132,1,4,0:0:0:0:
192,192,35132,1,2,0:0:0:0:
448,192,35132,1,0,0:0:0:0:
320,192,35267,1,0,0:0:0:0:
64,192,35402,1,8,0:0:0:0:
192,192,35402,1,2,0:0:0:0:
448,192,35402,1,0,0:0:0:0:
320,192,35537,1,0,0:0:0:0:
192,192,35673,128,2,35808:0:0:0:0:
448,192,35673,1,0,0:0:0:0:
64,192,35808,128,0,35943:0:0:0:0:
192,192,35943,128,8,36213:0:0:0:0:
320,192,35943,1,2,0:0:0:0:
448,192,35943,1,0,0:0:0:0:
64,192,36078,128,0,36213:0:0:0:0:
320,192,36213,1,2,0:0:0:0:
448,192,36213,1,0,0:0:0:0:
64,192,36348,128,0,36483:0:0:0:0:
192,192,36483,1,8,0:0:0:0:
320,192,36483,1,2,0:0:0:0:
448,192,36483,1,0,0:0:0:0:
64,192,36619,128,0,36754:0:0:0:0:
192,192,36754,1,2,0:0:0:0:
320,192,36754,1,0,0:0:0:0:
64,192,36889,128,0,37024:0:0:0:0:
192,192,37024,1,8,0:0:0:0:
320,192,37024,1,2,0:0:0:0:
448,192,37024,128,0,37159:0:0:0:0:
64,192,37159,1,2,0:0:0:0:
192,192,37159,128,0,37294:0:0:0:0:
320,192,37294,1,2,0:0:0:0:
448,192,37294,128,0,37429:0:0:0:0:
64,192,37429,1,0,0:0:0:0:
192,192,37565,1,8,0:0:0:0:
320,192,37565,1,2,0:0:0:0:
448,192,37565,128,0,37700:0:0:0:0:
64,192,37700,1,0,0:0:0:0:
192,192,37835,1,2,0:0:0:0:
320,192,37835,128,0,37970:0:0:0:0:
448,192,37970,128,0,38105:0:0:0:0:
64,192,38105,1,8,0:0:0:0:
192,192,38105,1,2,0:0:0:0:
320,192,38105,128,0,38375:0:0:0:0:
448,192,38240,128,0,38375:0:0:0:0:
64,192,38375,1,2,0:0:0:0:
192,192,38375,1,0,0:0:0:0:
64,192,38510,1,2,0:0:0:0:
448,192,38510,128,0,38646:0:0:0:0:
64,192,38646,1,8,0:0:0:0:
192,192,38646,1,2,0:0:0:0:
320,192,38646,1,0,0:0:0:0:
320,192,38781,128,0,38916:0:0:0:0:
192,192,38916,128,2,39051:0:0:0:0:
448,192,38916,1,0,0:0:0:0:
64,192,39051,1,0,0:0:0:0:
192,192,39119,1,2,0:0:0:0:
64,192,39186,128,8,39321:0:0:0:0:
320,192,39186,1,2,0:0:0:0:
448,192,39186,1,0,0:0:0:0:
192,192,39321,128,2,39456:0:0:0:0:
448,192,39321,1,0,0:0:0:0:
64,192,39456,1,2,0:0:0:0:
320,192,39456,128,0,39592:0:0:0:0:
64,192,39592,1,2,0:0:0:0:
448,192,39592,1,0,0:0:0:0:
192,192,39727,1,8,0:0:0:0:
320,192,39727,128,2,39862:0:0:0:0:
448,192,39727,1,0,0:0:0:0:
64,192,39862,1,0,0:0:0:0:
320,192,39997,1,2,0:0:0:0:
448,192,39997,128,0,40132:0:0:0:0:
192,192,40132,128,0,40267:0:0:0:0:
64,192,40267,1,8,0:0:0:0:
320,192,40267,1,2,0:0:0:0:
448,192,40267,128,0,40537:0:0:0:0:
64,192,40402,1,2,0:0:0:0:
192,192,40402,128,0,40537:0:0:0:0:
192,192,40673,128,2,40808:0:0:0:0:
448,192,40673,1,0,0:0:0:0:
64,192,40808,1,8,0:0:0:0:
320,192,40808,1,2,0:0:0:0:
448,192,40808,1,0,0:0:0:0:
192,192,40943,128,0,41078:0:0:0:0:
64,192,41078,128,2,41213:0:0:0:0:
448,192,41078,1,0,0:0:0:0:
320,192,41213,128,0,41348:0:0:0:0:
64,192,41348,128,8,41483:0:0:0:0:
192,192,41348,1,2,0:0:0:0:
448,192,41348,1,0,0:0:0:0:
320,192,41483,128,0,41619:0:0:0:0:
64,192,41619,1,2,0:0:0:0:
192,192,41619,128,0,41754:0:0:0:0:
448,192,41754,1,0,0:0:0:0:
64,192,41889,1,8,0:0:0:0:
192,192,41889,128,2,42024:0:0:0:0:
320,192,41889,1,0,0:0:0:0:
448,192,42024,128,0,42159:0:0:0:0:
64,192,42159,1,2,0:0:0:0:
192,192,42159,1,0,0:0:0:0:
448,192,42294,128,0,42429:0:0:0:0:
64,192,42429,128,8,42565:0:0:0:0:
192,192,42429,1,2,0:0:0:0:
320,192,42429,1,0,0:0:0:0:
320,192,42565,1,2,0:0:0:0:
448,192,42565,1,0,0:0:0:0:
448,192,42700,128,0,42835:0:0:0:0:
64,192,42835,128,2,42970:0:0:0:0:
192,192,42835,1,0,0:0:0:0:
320,192,42970,1,8,0:0:0:0:
448,192,42970,1,2,0:0:0:0:
320,192,43105,128,2,43240:0:0:0:0:
448,192,43105,1,0,0:0:0:0:
64,192,43240,128,0,43308:0:0:0:0:
448,192,43308,1,0,0:0:0:0:
192,192,43375,128,0,43443:0:0:0:0:
320,192,43443,1,0,0:0:0:0:
64,192,43510,1,8,0:0:0:0:
192,192,43510,1,0,0:0:0:0:
448,192,43510,1,0,0:0:0:0:
64,192,43646,128,4,43916:0:0:0:0:
192,192,43646,128,2,43916:0:0:0:0:
320,192,43646,128,0,43916:0:0:0:0:
448,192,43646,128,0,43916:0:0:0:0:
64,192,44051,128,8,44186:0:0:0:0:
192,192,44051,128,2,44186:0:0:0:0:
320,192,44051,1,0,0:0:0:0:
448,192,44186,1,0,0:0:0:0:
64,192,44321,1,2,0:0:0:0:
192,192,44321,1,0,0:0:0:0:
64,192,44456,1,0,0:0:0:0:
192,192,44456,1,0,0:0:0:0:
192,192,44592,1,8,0:0:0:0:
320,192,44592,1,2,0:0:0:0:
448,192,44592,1,0,0:0:0:0:
320,192,44727,1,0,0:0:0:0:
448,192,44727,1,0,0:0:0:0:
64,192,44862,1,2,0:0:0:0:
192,192,44862,1,0,0:0:0:0:
448,192,44997,128,0,45132:0:0:0:0:
192,192,45132,128,0,45200:0:0:0:0:
320,192,45200,1,0,0:0:0:0:
64,192,45267,128,0,45335:0:0:0:0:
192,192,45335,1,0,0:0:0:0:
64,192,45402,1,0,0:0:0:50:punchy snare.wav
320,192,45402,128,0,45673:0:0:0:0:
448,192,45402,128,0,45808:0:0:0:0:
64,192,45537,128,0,45673:0:0:0:0:
192,192,45673,128,0,45808:0:0:0:0:
320,192,45808,128,0,45943:0:0:0:0:
64,192,45943,128,2,46078:0:0:0:0:
192,192,45943,128,0,46078:0:0:0:0:
448,192,45943,1,0,0:0:0:0:
320,192,46078,1,0,0:0:0:0:
64,192,46213,128,8,46348:0:0:0:0:
192,192,46213,128,2,46348:0:0:0:0:
448,192,46213,1,0,0:0:0:0:
320,192,46348,1,0,0:0:0:0:
64,192,46483,1,2,0:0:0:0:
448,192,46483,1,0,0:0:0:0:
192,192,46619,1,2,0:0:0:0:
448,192,46619,1,0,0:0:0:0:
64,192,46754,1,8,0:0:0:0:
320,192,46754,1,2,0:0:0:0:
448,192,46754,1,0,0:0:0:0:
192,192,46889,1,2,0:0:0:0:
320,192,46889,1,0,0:0:0:0:
64,192,47024,1,0,0:0:0:0:
192,192,47159,128,0,47294:0:0:0:0:
64,192,47294,1,2,0:0:0:0:
448,192,47294,1,0,0:0:0:0:
320,192,47339,1,0,0:0:0:0:
192,192,47384,1,0,0:0:0:0:
448,192,47429,1,0,0:0:0:0:
320,192,47474,1,0,0:0:0:0:
192,192,47519,1,0,0:0:0:0:
64,192,47565,1,8,0:0:0:0:
320,192,47565,1,2,0:0:0:0:
448,192,47565,128,0,47835:0:0:0:0:
64,192,47700,128,0,47835:0:0:0:0:
192,192,47835,1,0,0:0:0:0:
192,192,47902,1,0,0:0:0:0:
320,192,47970,1,0,0:0:0:0:
320,192,48037,1,0,0:0:0:0:
64,192,48105,128,4,48240:0:0:0:0:
192,192,48105,1,2,0:0:0:0:
448,192,48105,128,0,48240:0:0:0:0:
320,192,48240,1,0,0:0:0:0:
64,192,48375,128,2,48510:0:0:0:0:
448,192,48375,128,0,48510:0:0:0:0:
192,192,48510,1,0,0:0:0:0:
64,192,48646,1,2,0:0:0:0:
448,192,48646,1,0,0:0:0:0:
64,192,48781,1,0,0:0:0:0:
320,192,48781,1,0,0:0:0:0:
64,192,48916,1,2,0:0:0:0:
448,192,48916,1,0,0:0:0:0:
192,192,49051,1,0,0:0:0:0:
448,192,49051,1,0,0:0:0:0:
64,192,49186,1,4,0:0:0:0:
320,192,49186,128,2,49321:0:0:0:0:
448,192,49186,128,0,49321:0:0:0:0:
192,192,49321,1,0,0:0:0:0:
64,192,49456,128,2,49592:0:0:0:0:
448,192,49456,128,0,49592:0:0:0:0:
320,192,49592,1,0,0:0:0:0:
64,192,49727,128,2,49794:0:0:0:0:
192,192,49727,128,0,49794:0:0:0:70:fast-crash.wav
448,192,49727,128,0,49794:0:0:0:0:
192,192,49929,128,2,49997:0:0:0:0:
320,192,49929,128,0,49997:0:0:0:70:fast-crash.wav
448,192,49929,128,0,49997:0:0:0:0:
64,192,50132,128,2,50200:0:0:0:0:
192,192,50132,128,0,50200:0:0:0:70:fast-crash.wav
320,192,50132,128,0,50200:0:0:0:0:
64,192,50267,1,4,0:0:0:0:
320,192,50267,1,2,0:0:0:0:
448,192,50267,1,0,0:0:0:0:
192,192,50335,1,0,0:0:0:0:
320,192,50402,1,2,0:0:0:0:
448,192,50402,1,0,0:0:0:0:
192,192,50470,1,0,0:0:0:0:
64,192,50537,1,2,0:0:0:0:
448,192,50537,1,0,0:0:0:0:
320,192,50605,1,0,0:0:0:0:
64,192,50673,1,2,0:0:0:0:
192,192,50673,1,0,0:0:0:0:
448,192,50740,1,0,0:0:0:0:
64,192,50808,1,2,0:0:0:0:
192,192,50808,1,0,0:0:0:0:
320,192,50875,1,2,0:0:0:0:
448,192,50875,1,0,0:0:0:0:
64,192,50943,1,2,0:0:0:0:
192,192,50943,1,0,0:0:0:0:
320,192,51010,1,2,0:0:0:0:
448,192,51010,1,0,0:0:0:0:
64,192,51078,1,2,0:0:0:0:
192,192,51112,1,2,0:0:0:0:
320,192,51146,1,2,0:0:0:0:
448,192,51179,1,2,0:0:0:0:
64,192,51213,1,2,0:0:0:0:
192,192,51247,1,2,0:0:0:0:
320,192,51281,1,2,0:0:0:0:
448,192,51315,1,2,0:0:0:0:
64,192,51348,128,0,51619:0:0:0:0:
320,192,51483,128,0,51754:0:0:0:0:
192,192,51619,128,0,51889:0:0:0:0:
448,192,51754,128,0,52159:0:0:0:0:
320,192,51889,128,0,52159:0:0:0:0:
192,192,52024,128,0,52159:0:0:0:0:
64,192,52159,1,0,0:0:0:0:
64,192,52227,1,0,0:0:0:0:
448,192,52294,1,0,0:0:0:0:
448,192,52362,1,0,0:0:0:0:
64,192,52429,1,2,0:0:0:0:
192,192,52429,1,0,0:0:0:0:
320,192,52429,1,0,0:0:0:0:
64,192,52700,1,2,0:0:0:0:
192,192,52700,1,0,0:0:0:0:
320,192,52700,1,0,0:0:0:0:
192,192,52835,1,0,0:0:0:0:
320,192,52835,1,0,0:0:0:0:
320,192,52970,1,0,0:0:0:0:
192,192,53037,1,0,0:0:0:0:
64,192,53105,1,0,0:0:0:0:
320,192,53173,1,0,0:0:0:0:
448,192,53240,1,0,0:0:0:0:
192,192,53308,1,0,0:0:0:0:
64,192,53375,1,0,0:0:0:0:
448,192,53443,1,0,0:0:0:0:
64,192,53510,1,0,0:0:0:50:punchy snare.wav
192,192,53510,1,0,0:0:0:0:
320,192,53578,1,0,0:0:0:0:
448,192,53646,1,0,0:0:0:0:
192,192,53713,1,0,0:0:0:0:
64,192,53781,1,0,0:0:0:0:
320,192,53848,1,0,0:0:0:0:
448,192,53916,1,0,0:0:0:0:
64,192,53983,1,0,0:0:0:0:
192,192,54051,1,0,0:0:0:0:
320,192,54119,1,0,0:0:0:0:
448,192,54186,1,0,0:0:0:0:
64,192,54254,1,0,0:0:0:0:
192,192,54321,1,0,0:0:0:0:
320,192,54389,1,0,0:0:0:0:
192,192,54456,1,0,0:0:0:0:
320,192,54524,1,0,0:0:0:0:
192,192,54592,1,0,0:0:0:0:
448,192,54592,1,0,0:0:0:0:
192,192,54727,1,0,0:0:0:0:
448,192,54727,1,0,0:0:0:0:
64,192,54862,1,0,0:0:0:0:
320,192,54862,1,0,0:0:0:0:
64,192,54997,1,0,0:0:0:0:
320,192,54997,1,0,0:0:0:0:
64,192,55132,1,2,0:0:0:0:
192,192,55132,1,0,0:0:0:0:
448,192,55132,1,0,0:0:0:0:
64,192,55267,1,0,0:0:0:0:
192,192,55267,1,0,0:0:0:0:
320,192,55402,1,0,0:0:0:0:
448,192,55402,1,0,0:0:0:0:
320,192,55537,1,0,0:0:0:0:
448,192,55537,1,0,0:0:0:0:
64,192,55673,1,0,0:0:0:50:punchy snare.wav
192,192,55673,1,0,0:0:0:0:
320,192,55673,1,0,0:0:0:0:
448,192,55673,1,0,0:0:0:0:
64,192,55808,1,0,0:0:0:0:
448,192,55808,1,0,0:0:0:0:
192,192,55943,1,0,0:0:0:0:
320,192,55943,1,0,0:0:0:0:
192,192,56078,1,0,0:0:0:0:
320,192,56078,1,0,0:0:0:0:
64,192,56213,1,0,0:0:0:0:
448,192,56213,1,0,0:0:0:0:
192,192,56348,1,0,0:0:0:0:
448,192,56348,1,0,0:0:0:0:
64,192,56483,1,0,0:0:0:0:
320,192,56483,1,0,0:0:0:0:
64,192,56619,1,0,0:0:0:0:
448,192,56619,1,0,0:0:0:0:
64,192,56754,1,2,0:0:0:0:
320,192,56754,1,0,0:0:0:0:
448,192,56754,1,0,0:0:0:0:
64,192,56889,1,2,0:0:0:0:
320,192,56889,1,0,0:0:0:0:
448,192,56889,1,0,0:0:0:0:
64,192,57024,1,2,0:0:0:0:
320,192,57024,1,0,0:0:0:0:
448,192,57024,1,0,0:0:0:0:
320,192,57294,1,0,0:0:0:0:
192,192,57362,1,0,0:0:0:0:
64,192,57429,1,0,0:0:0:0:
448,192,57474,1,0,0:0:0:0:
320,192,57519,1,0,0:0:0:0:
192,192,57565,1,0,0:0:0:0:
64,192,57610,1,0,0:0:0:0:
448,192,57655,1,0,0:0:0:0:
320,192,57700,1,0,0:0:0:0:
192,192,57745,1,0,0:0:0:0:
64,192,57790,1,0,0:0:0:0:
320,192,57835,1,0,0:0:0:50:punchy snare.wav
448,192,57835,1,0,0:0:0:0:
192,192,57880,1,0,0:0:0:0:
64,192,57925,1,0,0:0:0:0:
320,192,57970,1,0,0:0:0:0:
192,192,58015,1,0,0:0:0:0:
448,192,58060,1,0,0:0:0:0:
320,192,58105,1,0,0:0:0:0:
64,192,58150,1,0,0:0:0:0:
448,192,58195,1,0,0:0:0:0:
192,192,58240,1,0,0:0:0:0:
320,192,58285,1,0,0:0:0:0:
448,192,58330,1,0,0:0:0:0:
64,192,58375,1,0,0:0:0:0:
320,192,58420,1,0,0:0:0:0:
192,192,58465,1,0,0:0:0:0:
448,192,58510,1,0,0:0:0:0:
64,192,58556,1,0,0:0:0:0:
192,192,58601,1,0,0:0:0:0:
320,192,58646,1,0,0:0:0:0:
320,192,58713,1,0,0:0:0:0:
192,192,58781,1,0,0:0:0:0:
192,192,58848,1,0,0:0:0:0:
64,192,58916,1,2,0:0:0:0:
320,192,58916,1,0,0:0:0:0:
448,192,58916,1,0,0:0:0:0:
64,192,59051,1,0,0:0:0:0:
448,192,59051,1,0,0:0:0:0:
192,192,59186,1,0,0:0:0:0:
448,192,59186,1,0,0:0:0:0:
320,192,59321,1,0,0:0:0:0:
448,192,59321,1,0,0:0:0:0:
64,192,59456,1,2,0:0:0:0:
192,192,59456,1,0,0:0:0:0:
320,192,59456,1,0,0:0:0:0:
64,192,59592,1,0,0:0:0:0:
448,192,59592,1,0,0:0:0:0:
64,192,59727,1,0,0:0:0:0:
320,192,59727,1,0,0:0:0:0:
64,192,59862,1,0,0:0:0:0:
192,192,59862,1,0,0:0:0:0:
192,192,59997,1,2,0:0:0:0:
320,192,59997,1,0,0:0:0:0:
448,192,59997,1,0,0:0:0:0:
64,192,60132,1,0,0:0:0:0:
448,192,60132,1,0,0:0:0:0:
192,192,60267,1,0,0:0:0:0:
448,192,60267,1,0,0:0:0:0:
320,192,60402,1,0,0:0:0:0:
448,192,60402,1,0,0:0:0:0:
64,192,60537,1,2,0:0:0:0:
320,192,60537,1,0,0:0:0:0:
448,192,60537,1,0,0:0:0:0:
64,192,60673,1,0,0:0:0:0:
192,192,60673,1,0,0:0:0:0:
64,192,60808,1,0,0:0:0:0:
320,192,60808,1,0,0:0:0:0:
64,192,60943,1,0,0:0:0:0:
448,192,60943,1,0,0:0:0:0:
320,192,61078,1,2,0:0:0:0:
448,192,61078,1,0,0:0:0:0:
192,192,61258,1,2,0:0:0:0:
320,192,61258,1,0,0:0:0:0:
64,192,61438,1,2,0:0:0:0:
192,192,61438,1,0,0:0:0:0:
64,192,61619,1,4,0:0:0:0:
192,192,61619,1,2,0:0:0:0:
448,192,61619,1,0,0:0:0:0:
320,192,61686,1,0,0:0:0:0:
448,192,61754,1,0,0:0:0:0:
64,192,61821,1,0,0:0:0:0:
192,192,61889,1,0,0:0:0:0:
320,192,61956,1,0,0:0:0:0:
448,192,62024,1,0,0:0:0:0:
320,192,62092,1,0,0:0:0:0:
64,192,62159,1,0,0:0:0:50:punchy snare.wav
192,192,62159,1,0,0:0:0:0:
448,192,62159,1,0,0:0:0:0:
320,192,62227,1,0,0:0:0:0:
192,192,62294,1,0,0:0:0:0:
64,192,62362,1,0,0:0:0:0:
320,192,62429,1,0,0:0:0:0:
192,192,62497,1,0,0:0:0:0:
64,192,62565,1,0,0:0:0:0:
448,192,62632,1,0,0:0:0:0:
320,192,62700,1,0,0:0:0:0:
64,192,62767,1,0,0:0:0:0:
192,192,62835,1,0,0:0:0:0:
448,192,62902,1,0,0:0:0:0:
192,192,62970,1,0,0:0:0:0:
320,192,63037,1,0,0:0:0:0:
192,192,63105,1,0,0:0:0:0:
320,192,63173,1,0,0:0:0:0:
64,192,63240,1,0,0:0:0:0:
448,192,63240,1,0,0:0:0:0:
64,192,63375,1,2,0:0:0:0:
192,192,63375,1,0,0:0:0:0:
448,192,63375,1,0,0:0:0:0:
192,192,63510,1,0,0:0:0:0:
320,192,63510,1,0,0:0:0:0:
64,192,63646,1,2,0:0:0:0:
320,192,63646,1,0,0:0:0:0:
448,192,63646,1,0,0:0:0:0:
64,192,63781,1,2,0:0:0:0:
320,192,63781,1,0,0:0:0:0:
448,192,63781,1,0,0:0:0:0:
192,192,63916,1,0,0:0:0:0:
448,192,63916,1,0,0:0:0:0:
64,192,64051,1,2,0:0:0:0:
320,192,64051,1,0,0:0:0:0:
448,192,64051,1,0,0:0:0:0:
64,192,64186,1,0,0:0:0:0:
320,192,64186,1,0,0:0:0:0:
64,192,64321,1,0,0:0:0:50:punchy snare.wav
192,192,64321,1,0,0:0:0:0:
320,192,64321,1,0,0:0:0:0:
448,192,64321,1,0,0:0:0:0:
64,192,64456,1,0,0:0:0:0:
192,192,64456,1,0,0:0:0:0:
320,192,64592,1,0,0:0:0:0:
448,192,64592,1,0,0:0:0:0:
320,192,64727,1,0,0:0:0:0:
448,192,64727,1,0,0:0:0:0:
64,192,64862,1,2,0:0:0:0:
192,192,64862,1,0,0:0:0:0:
320,192,64862,1,0,0:0:0:0:
192,192,64997,1,2,0:0:0:0:
320,192,64997,1,0,0:0:0:0:
448,192,64997,1,0,0:0:0:0:
64,192,65132,1,2,0:0:0:0:
192,192,65132,1,0,0:0:0:70:fast-crash.wav
448,192,65132,1,0,0:0:0:0:
448,192,65267,1,0,0:0:0:0:
320,192,65335,1,0,0:0:0:0:
64,192,65402,1,2,0:0:0:0:
192,192,65402,1,4,0:0:0:0:
448,192,65402,1,0,0:0:0:0:
64,192,65537,1,2,0:0:0:0:
192,192,65537,1,0,0:0:0:0:
64,192,65673,1,2,0:0:0:0:
192,192,65673,1,0,0:0:0:0:
320,192,65740,1,0,0:0:0:0:
192,192,65808,1,0,0:0:0:0:
320,192,65875,1,0,0:0:0:0:
448,192,65943,128,0,66010:0:0:0:0:
192,192,66010,128,0,66078:0:0:0:0:
320,192,66078,128,2,66146:0:0:0:0:
448,192,66078,1,0,0:0:0:0:
64,192,66146,128,0,66213:0:0:0:0:
320,192,66213,128,0,66281:0:0:0:0:
192,192,66281,128,0,66348:0:0:0:0:
448,192,66348,128,0,66416:0:0:0:0:
320,192,66416,128,0,66483:0:0:0:0:
64,192,66483,1,0,0:0:0:50:punchy snare.wav
192,192,66483,1,0,0:0:0:0:
448,192,66483,1,0,0:0:0:0:
320,192,66619,1,2,0:0:0:0:
448,192,66619,1,0,0:0:0:0:
320,192,66754,1,2,0:0:0:0:
448,192,66754,1,0,0:0:0:0:
192,192,66821,1,0,0:0:0:0:
64,192,66889,1,0,0:0:0:0:
448,192,66956,1,0,0:0:0:0:
320,192,67024,1,0,0:0:0:0:
192,192,67069,1,0,0:0:0:0:
64,192,67114,1,0,0:0:0:0:
320,192,67159,1,2,0:0:0:0:
448,192,67159,1,0,0:0:0:0:
192,192,67204,1,0,0:0:0:0:
64,192,67249,1,0,0:0:0:0:
320,192,67294,1,0,0:0:0:0:
448,192,67339,1,0,0:0:0:0:
64,192,67384,1,0,0:0:0:0:
192,192,67429,1,0,0:0:0:0:
448,192,67474,1,0,0:0:0:0:
320,192,67519,1,0,0:0:0:0:
64,192,67565,1,2,0:0:0:0:
192,192,67565,1,0,0:0:0:0:
64,192,67655,1,2,0:0:0:0:
192,192,67655,1,0,0:0:0:0:
320,192,67745,1,2,0:0:0:0:
448,192,67745,1,0,0:0:0:0:
320,192,67835,1,2,0:0:0:0:
448,192,67835,1,0,0:0:0:0:
64,192,67925,1,2,0:0:0:0:
192,192,67925,1,0,0:0:0:0:
192,192,68015,1,2,0:0:0:0:
320,192,68015,1,0,0:0:0:0:
64,192,68105,1,2,0:0:0:0:
320,192,68105,1,0,0:0:0:70:fast-crash.wav
448,192,68105,1,0,0:0:0:0:
64,192,68308,1,2,0:0:0:0:
320,192,68308,1,0,0:0:0:70:fast-crash.wav
448,192,68308,1,0,0:0:0:0:
64,192,68510,1,2,0:0:0:0:
320,192,68510,1,0,0:0:0:70:fast-crash.wav
448,192,68510,1,0,0:0:0:0:
192,192,68646,128,0,69727:0:0:0:0:
320,192,68916,128,0,69727:0:0:0:0:
448,192,69727,1,0,0:0:0:0:
64,192,69727,1,0,0:0:0:0:
64,192,71060,1,0,0:0:0:0:
192,192,71079,1,0,0:0:0:0:
320,192,71694,1,0,0:0:0:0:
64,192,71714,1,0,0:0:0:0:
192,192,72329,1,0,0:0:0:0:
448,192,72348,1,0,0:0:0:0:
320,192,72950,1,0,0:0:0:0:
192,192,73565,1,0,0:0:0:0:
448,192,73583,1,0,0:0:0:0:
320,192,73857,1,0,0:0:0:0:
192,192,74150,1,0,0:0:0:0:
64,192,74441,1,0,0:0:0:0:
64,192,75533,128,0,76625:0:0:0:0:
448,192,76625,1,0,0:0:0:0:
64,192,76895,1,4,0:0:0:0:
192,192,76895,1,2,0:0:0:0:
320,192,76895,1,0,0:0:0:0:
448,192,76895,1,0,0:0:0:0:
64,192,77030,1,0,0:0:0:0:
192,192,77165,1,8,0:0:0:0:
320,192,77165,1,2,0:0:0:0:
448,192,77165,1,0,0:0:0:0:
320,192,77300,128,0,77435:0:0:0:0:
64,192,77435,1,2,0:0:0:0:
192,192,77435,1,0,0:0:0:0:
448,192,77570,1,0,0:0:0:0:
64,192,77705,1,8,0:0:0:0:
320,192,77705,128,2,77840:0:0:0:0:
448,192,77705,128,0,77840:0:0:0:0:
192,192,77840,1,0,0:0:0:0:
64,192,77976,1,2,0:0:0:0:
448,192,77976,1,0,0:0:0:0:
320,192,78111,1,0,0:0:0:0:
64,192,78246,1,8,0:0:0:0:
192,192,78246,1,2,0:0:0:0:
448,192,78246,1,0,0:0:0:0:
192,192,78381,128,0,78516:0:0:0:0:
320,192,78516,1,2,0:0:0:0:
448,192,78516,1,0,0:0:0:0:
64,192,78651,1,0,0:0:0:0:
64,192,78786,128,8,78922:0:0:0:0:
192,192,78786,128,2,78922:0:0:0:0:
448,192,78786,1,0,0:0:0:0:
320,192,78922,1,2,0:0:0:0:
448,192,78922,1,0,0:0:0:0:
64,192,79057,1,2,0:0:0:0:
192,192,79057,1,0,0:0:0:0:
320,192,79192,1,0,0:0:0:0:
64,192,79327,1,8,0:0:0:0:
192,192,79327,1,2,0:0:0:0:
448,192,79327,1,0,0:0:0:0:
320,192,79462,1,0,0:0:0:0:
64,192,79597,1,2,0:0:0:0:
448,192,79597,1,0,0:0:0:0:
64,192,79732,128,0,79867:0:0:0:0:
192,192,79867,1,8,0:0:0:0:
320,192,79867,1,2,0:0:0:0:
448,192,79867,1,0,0:0:0:0:
192,192,80003,128,0,80138:0:0:0:0:
64,192,80138,1,2,0:0:0:0:
448,192,80138,1,0,0:0:0:0:
64,192,80273,1,0,0:0:0:0:
448,192,80273,1,0,0:0:0:0:
192,192,80408,1,8,0:0:0:0:
320,192,80408,1,2,0:0:0:0:
448,192,80408,1,0,0:0:0:0:
320,192,80543,1,0,0:0:0:0:
448,192,80543,1,0,0:0:0:0:
192,192,80678,1,2,0:0:0:0:
320,192,80678,1,0,0:0:0:0:
192,192,80813,1,2,0:0:0:0:
320,192,80813,1,0,0:0:0:0:
64,192,80949,1,8,0:0:0:0:
192,192,80949,1,2,0:0:0:0:
448,192,80949,1,0,0:0:0:0:
64,192,81084,1,2,0:0:0:0:
192,192,81084,1,0,0:0:0:0:
64,192,81219,1,2,0:0:0:0:
448,192,81219,128,0,81354:0:0:0:0:
320,192,81354,1,0,0:0:0:0:
192,192,81422,1,0,0:0:0:0:
64,192,81489,1,8,0:0:0:0:
320,192,81489,1,2,0:0:0:0:
448,192,81489,1,0,0:0:0:0:
64,192,81624,128,0,81759:0:0:0:0:
192,192,81759,1,2,0:0:0:0:
448,192,81759,1,0,0:0:0:0:
320,192,81827,1,0,0:0:0:0:
192,192,81895,1,0,0:0:0:0:
64,192,82030,1,8,0:0:0:0:
320,192,82030,1,2,0:0:0:0:
448,192,82030,1,0,0:0:0:0:
192,192,82165,1,0,0:0:0:0:
448,192,82165,1,0,0:0:0:0:
64,192,82300,128,2,82435:0:0:0:0:
448,192,82300,1,0,0:0:0:0:
192,192,82435,1,0,0:0:0:0:
320,192,82503,1,0,0:0:0:0:
64,192,82570,1,8,0:0:0:0:
192,192,82570,1,2,0:0:0:0:
448,192,82570,1,0,0:0:0:0:
448,192,82705,128,0,82840:0:0:0:0:
64,192,82840,1,2,0:0:0:0:
320,192,82840,1,0,0:0:0:0:
192,192,82908,1,0,0:0:0:0:
320,192,82976,1,0,0:0:0:0:
64,192,83111,1,8,0:0:0:0:
192,192,83111,1,2,0:0:0:0:
448,192,83111,1,0,0:0:0:0:
192,192,83246,1,2,0:0:0:0:
320,192,83246,1,0,0:0:0:0:
320,192,83381,1,2,0:0:0:0:
448,192,83381,128,0,83516:0:0:0:0:
64,192,83516,1,0,0:0:0:0:
64,192,83651,1,8,0:0:0:0:
320,192,83651,1,2,0:0:0:0:
448,192,83651,1,0,0:0:0:0:
192,192,83786,1,0,0:0:0:0:
448,192,83786,1,0,0:0:0:0:
64,192,83922,1,2,0:0:0:0:
320,192,83922,1,0,0:0:0:0:
448,192,83989,1,0,0:0:0:0:
192,192,84057,1,0,0:0:0:0:
64,192,84124,1,2,0:0:0:0:
448,192,84124,1,0,0:0:0:0:
320,192,84192,1,0,0:0:0:0:
192,192,84259,1,0,0:0:0:0:
320,192,84327,1,2,0:0:0:0:
448,192,84327,1,0,0:0:0:0:
64,192,84462,1,2,0:0:0:0:
448,192,84462,1,0,0:0:0:0:
64,192,84597,1,0,0:0:0:0:
448,192,84597,1,0,0:0:0:0:
64,192,84732,1,8,0:0:0:0:
192,192,84732,1,2,0:0:0:0:
320,192,84732,1,0,0:0:0:0:
64,192,84867,1,0,0:0:0:0:
192,192,84867,1,0,0:0:0:0:
320,192,85003,1,2,0:0:0:0:
448,192,85003,1,0,0:0:0:0:
320,192,85138,1,0,0:0:0:0:
448,192,85138,1,0,0:0:0:0:
192,192,85273,1,2,0:0:0:0:
192,192,85340,1,0,0:0:0:0:
320,192,85408,1,0,0:0:0:0:
320,192,85476,1,0,0:0:0:0:
64,192,85543,1,4,0:0:0:0:
192,192,85543,1,2,0:0:0:0:
448,192,85543,1,0,0:0:0:0:
320,192,85678,1,0,0:0:0:0:
64,192,85813,1,8,0:0:0:0:
192,192,85813,1,2,0:0:0:0:
448,192,85813,1,0,0:0:0:0:
448,192,85949,128,0,86084:0:0:0:0:
64,192,86084,1,2,0:0:0:0:
192,192,86084,1,0,0:0:0:0:
320,192,86219,1,0,0:0:0:0:
64,192,86354,1,8,0:0:0:0:
320,192,86354,128,2,86489:0:0:0:0:
448,192,86354,1,0,0:0:0:0:
192,192,86489,1,0,0:0:0:0:
320,192,86624,128,2,86759:0:0:0:0:
448,192,86624,128,0,86759:0:0:0:0:
64,192,86759,1,0,0:0:0:0:
192,192,86894,128,8,87030:0:0:0:0:
320,192,86894,128,2,87030:0:0:0:0:
448,192,86894,1,0,0:0:0:0:
64,192,87030,1,0,0:0:0:0:
64,192,87165,128,2,87300:0:0:0:0:
192,192,87165,128,0,87300:0:0:0:0:
320,192,87300,1,0,0:0:0:0:
64,192,87435,1,8,0:0:0:0:
192,192,87435,1,2,0:0:0:0:
64,192,87503,1,2,0:0:0:0:
192,192,87503,1,0,0:0:0:0:
320,192,87570,1,2,0:0:0:0:
448,192,87570,1,0,0:0:0:0:
320,192,87638,1,2,0:0:0:0:
448,192,87638,1,0,0:0:0:0:
64,192,87705,1,2,0:0:0:0:
192,192,87705,1,0,0:0:0:70:fast-crash.wav
320,192,87795,1,2,0:0:0:0:
64,192,87885,1,2,0:0:0:0:
64,192,87976,1,2,0:0:0:0:
192,192,87976,1,0,0:0:0:70:fast-crash.wav
448,192,87976,1,0,0:0:0:0:
320,192,88066,1,2,0:0:0:0:
192,192,88156,1,2,0:0:0:0:
192,192,88246,1,2,0:0:0:0:
320,192,88246,1,0,0:0:0:70:fast-crash.wav
448,192,88246,1,0,0:0:0:0:
64,192,88336,1,2,0:0:0:0:
320,192,88426,1,2,0:0:0:0:
64,192,88516,1,2,0:0:0:0:
320,192,88516,1,0,0:0:0:70:fast-crash.wav
448,192,88516,1,0,0:0:0:0:
192,192,88606,1,2,0:0:0:0:
448,192,88696,1,2,0:0:0:0:
64,192,88786,1,4,0:0:0:0:
320,192,88786,1,2,0:0:0:0:
448,192,88786,1,0,0:0:0:0:
192,192,88922,1,0,0:0:0:0:
64,192,89057,1,8,0:0:0:0:
320,192,89057,1,2,0:0:0:0:
448,192,89057,1,0,0:0:0:0:
192,192,89192,1,0,0:0:0:0:
64,192,89327,1,2,0:0:0:0:
192,192,89327,1,0,0:0:0:0:
320,192,89394,1,0,0:0:0:0:
64,192,89462,1,2,0:0:0:0:
448,192,89462,1,0,0:0:0:0:
192,192,89530,1,0,0:0:0:0:
64,192,89597,1,8,0:0:0:0:
320,192,89597,1,2,0:0:0:0:
448,192,89597,1,0,0:0:0:0:
192,192,89665,1,0,0:0:0:0:
64,192,89732,1,2,0:0:0:0:
448,192,89732,1,0,0:0:0:0:
320,192,89800,1,0,0:0:0:0:
64,192,89867,1,2,0:0:0:0:
192,192,89867,1,4,0:0:0:0:
448,192,89867,1,0,0:0:0:0:
320,192,89935,1,2,0:0:0:0:
192,192,90003,1,2,0:0:0:0:
448,192,90003,1,0,0:0:0:0:
64,192,90138,1,8,0:0:0:0:
192,192,90138,1,2,0:0:0:0:
320,192,90138,1,0,0:0:0:0:
64,192,90273,1,2,0:0:0:0:
320,192,90273,1,0,0:0:0:0:
192,192,90340,1,2,0:0:0:0:
320,192,90408,1,2,0:0:0:0:
448,192,90408,1,0,0:0:0:0:
192,192,90543,1,2,0:0:0:0:
448,192,90543,1,0,0:0:0:0:
64,192,90678,1,8,0:0:0:0:
320,192,90678,1,2,0:0:0:0:
448,192,90678,1,0,0:0:0:0:
64,192,90813,1,2,0:0:0:0:
320,192,90813,1,0,0:0:0:0:
64,192,90949,1,4,0:0:0:0:
192,192,90949,1,2,0:0:0:0:
448,192,90949,1,0,0:0:0:0:
320,192,91016,1,2,0:0:0:0:
192,192,91084,1,2,0:0:0:0:
448,192,91084,1,0,0:0:0:0:
64,192,91219,1,8,0:0:0:0:
320,192,91219,1,2,0:0:0:0:
448,192,91219,1,0,0:0:0:0:
64,192,91354,1,2,0:0:0:0:
320,192,91354,1,0,0:0:0:0:
192,192,91422,1,2,0:0:0:0:
320,192,91489,1,2,0:0:0:0:
448,192,91489,1,0,0:0:0:0:
192,192,91624,1,2,0:0:0:0:
448,192,91624,1,0,0:0:0:0:
64,192,91759,1,8,0:0:0:0:
320,192,91759,1,2,0:0:0:0:
448,192,91759,1,0,0:0:0:0:
192,192,91894,1,2,0:0:0:0:
320,192,91894,1,0,0:0:0:0:
64,192,92030,1,4,0:0:0:0:
192,192,92030,1,2,0:0:0:0:
448,192,92030,1,0,0:0:0:0:
64,192,92165,1,2,0:0:0:0:
320,192,92165,1,0,0:0:0:0:
64,192,92300,1,8,0:0:0:0:
192,192,92300,1,2,0:0:0:0:
448,192,92300,1,0,0:0:0:0:
192,192,92435,1,2,0:0:0:0:
448,192,92435,1,0,0:0:0:0:
64,192,92570,1,4,0:0:0:0:
320,192,92570,1,2,0:0:0:0:
448,192,92570,1,0,0:0:0:0:
64,192,92705,1,2,0:0:0:0:
320,192,92705,1,0,0:0:0:0:
64,192,92840,1,8,0:0:0:0:
192,192,92840,1,2,0:0:0:0:
448,192,92840,1,0,0:0:0:0:
320,192,92976,1,2,0:0:0:0:
448,192,92976,1,0,0:0:0:0:
64,192,93021,1,0,0:0:0:0:
192,192,93066,1,0,0:0:0:0:
320,192,93111,128,4,93246:0:0:0:0:
448,192,93111,128,2,93246:0:0:0:0:
64,192,93246,1,0,0:0:0:0:
64,192,93381,128,8,93516:0:0:0:0:
192,192,93381,128,2,93516:0:0:0:0:
448,192,93381,1,0,0:0:0:0:
320,192,93516,1,0,0:0:0:0:
192,192,93651,128,4,93786:0:0:0:0:
320,192,93651,128,2,93786:0:0:0:0:
64,192,93786,1,0,0:0:0:0:
64,192,93922,128,0,93989:0:0:0:0:
320,192,93922,128,0,93989:0:0:0:0:
448,192,93922,128,0,93989:0:0:0:0:
64,192,94192,128,4,94597:0:0:0:0:
192,192,94192,128,2,94597:0:0:0:0:
320,192,94192,128,0,94462:0:0:0:0:
448,192,94192,128,0,94327:0:0:0:0:
448,192,94462,128,0,94732:0:0:0:0:
320,192,94597,1,0,0:0:0:0:
64,192,94732,128,2,95138:0:0:0:0:
192,192,94732,128,8,95003:0:0:0:70:LR_DS - Snare.wav
320,192,94732,128,0,94867:0:0:0:0:
448,192,94867,128,0,95138:0:0:0:0:
320,192,95003,128,0,95408:0:0:0:0:
192,192,95138,128,0,95273:0:0:0:0:
64,192,95273,128,2,95678:0:0:0:0:
448,192,95273,128,0,95543:0:0:0:0:
192,192,95408,128,0,95678:0:0:0:0:
320,192,95543,128,0,95813:0:0:0:0:
448,192,95678,1,0,0:0:0:0:
64,192,95813,128,2,96219:0:0:0:0:
192,192,95813,128,8,96084:0:0:0:70:LR_DS - Snare.wav
448,192,95813,128,0,95949:0:0:0:0:
320,192,95949,128,0,96219:0:0:0:0:
448,192,96084,128,0,96624:0:0:0:0:
192,192,96219,128,0,96354:0:0:0:0:
64,192,96354,128,2,96759:0:0:0:0:
320,192,96354,128,0,96489:0:0:0:0:
192,192,96489,128,0,96759:0:0:0:0:
320,192,96624,128,0,96759:0:0:0:0:
448,192,96759,128,0,96894:0:0:0:0:
64,192,96894,128,2,97030:0:0:0:0:
192,192,96894,128,8,97300:0:0:0:70:LR_DS - Snare.wav
320,192,96894,128,0,97165:0:0:0:0:
448,192,97030,128,0,97165:0:0:0:0:
64,192,97165,128,0,97435:0:0:0:0:
448,192,97300,128,0,97435:0:0:0:0:
192,192,97435,128,2,97705:0:0:0:0:
320,192,97435,128,0,97570:0:0:0:0:
448,192,97570,128,0,97840:0:0:0:0:
64,192,97705,128,0,97840:0:0:0:0:
320,192,97840,1,0,0:0:0:0:
64,192,97976,128,2,98111:0:0:0:0:
320,192,97976,128,8,98246:0:0:0:70:LR_DS - Snare.wav
448,192,97976,1,0,0:0:0:0:
192,192,98111,128,0,98246:0:0:0:0:
64,192,98246,128,2,98516:0:0:0:0:
448,192,98246,1,0,0:0:0:0:
448,192,98381,128,0,98516:0:0:0:0:
192,192,98516,128,2,98651:0:0:0:0:
320,192,98516,128,0,98786:0:0:0:0:
64,192,98786,1,2,0:0:0:0:
192,192,98786,128,0,99192:0:0:0:0:
448,192,98922,1,0,0:0:0:0:
64,192,99057,128,2,99192:0:0:0:0:
320,192,99057,128,8,99327:0:0:0:70:LR_DS - Snare.wav
448,192,99057,128,0,99462:0:0:0:0:
64,192,99327,128,2,99597:0:0:0:0:
192,192,99327,1,0,0:0:0:0:
320,192,99462,128,0,99597:0:0:0:0:
192,192,99597,128,2,99732:0:0:0:0:
448,192,99597,128,0,99867:0:0:0:0:
64,192,99732,128,0,99867:0:0:0:0:
192,192,99867,128,2,100273:0:0:0:0:
320,192,99867,128,0,100003:0:0:0:0:
448,192,100003,1,0,0:0:0:0:
64,192,100138,128,2,100543:0:0:0:0:
320,192,100138,128,8,100273:0:0:0:70:LR_DS - Snare.wav
448,192,100138,128,0,100408:0:0:0:0:
192,192,100408,1,2,0:0:0:0:
320,192,100408,128,0,100678:0:0:0:0:
192,192,100543,128,0,100678:0:0:0:0:
64,192,100678,128,2,101084:0:0:0:0:
448,192,100678,128,0,100813:0:0:0:0:
320,192,100813,1,0,0:0:0:0:
192,192,100949,128,2,101084:0:0:0:0:
448,192,100949,1,0,0:0:0:0:
320,192,101084,128,0,101354:0:0:0:0:
64,192,101219,128,2,101624:0:0:0:0:
192,192,101219,128,8,101489:0:0:0:70:LR_DS - Snare.wav
448,192,101219,128,0,101354:0:0:0:0:
320,192,101489,128,2,101759:0:0:0:0:
448,192,101489,1,0,0:0:0:0:
192,192,101624,128,0,101759:0:0:0:0:
64,192,101759,128,2,101894:0:0:0:0:
448,192,101759,128,0,102165:0:0:0:0:
192,192,101894,128,0,102030:0:0:0:0:
64,192,102030,1,2,0:0:0:0:
320,192,102030,128,0,102165:0:0:0:0:
192,192,102165,1,0,0:0:0:0:
64,192,102300,1,2,0:0:0:0:
320,192,102300,1,8,0:0:0:70:LR_DS - Snare.wav
448,192,102300,1,0,0:0:0:0:
192,192,102367,1,0,0:0:0:0:
320,192,102435,1,2,0:0:0:0:
448,192,102435,1,0,0:0:0:0:
192,192,102570,1,0,0:0:0:0:
320,192,102638,1,0,0:0:0:0:
192,192,102705,1,0,0:0:0:0:
320,192,102773,1,0,0:0:0:0:
64,192,102840,1,4,0:0:0:0:
192,192,102840,1,8,0:0:0:0:
448,192,102840,1,2,0:0:0:0:
320,192,102931,1,0,0:0:0:0:
64,192,102976,1,2,0:0:0:0:
192,192,103021,1,0,0:0:0:0:
64,192,103111,1,2,0:0:0:0:
448,192,103111,1,0,0:0:0:0:
320,192,103201,1,0,0:0:0:0:
64,192,103246,1,2,0:0:0:0:
192,192,103291,1,0,0:0:0:0:
320,192,103381,1,8,0:0:0:0:
448,192,103381,1,2,0:0:0:0:
64,192,103471,1,0,0:0:0:0:
448,192,103516,1,2,0:0:0:0:
192,192,103561,1,0,0:0:0:0:
320,192,103651,1,2,0:0:0:0:
448,192,103651,1,0,0:0:0:0:
192,192,103741,1,0,0:0:0:0:
320,192,103786,1,2,0:0:0:0:
64,192,103831,1,0,0:0:0:0:
192,192,103922,1,8,0:0:0:0:
320,192,103922,1,2,0:0:0:0:
448,192,103922,1,0,0:0:0:0:
64,192,104057,1,2,0:0:0:0:
192,192,104057,1,0,0:0:0:0:
64,192,104192,1,2,0:0:0:0:
192,192,104192,1,0,0:0:0:0:
320,192,104327,1,2,0:0:0:0:
448,192,104327,1,0,0:0:0:0:
64,192,104462,1,8,0:0:0:0:
320,192,104462,1,2,0:0:0:0:
448,192,104462,1,0,0:0:0:0:
320,192,104597,1,2,0:0:0:0:
448,192,104597,1,0,0:0:0:0:
64,192,104732,1,2,0:0:0:0:
192,192,104732,1,0,0:0:0:0:
64,192,104867,1,2,0:0:0:0:
192,192,104867,1,0,0:0:0:0:
64,192,105003,1,4,0:0:0:0:
192,192,105003,1,8,0:0:0:0:
448,192,105003,1,2,0:0:0:0:
320,192,105093,1,0,0:0:0:0:
448,192,105138,1,2,0:0:0:0:
192,192,105183,1,0,0:0:0:0:
320,192,105273,1,2,0:0:0:0:
448,192,105273,1,0,0:0:0:0:
64,192,105363,1,0,0:0:0:0:
448,192,105408,1,2,0:0:0:0:
192,192,105453,1,0,0:0:0:0:
64,192,105543,1,8,0:0:0:0:
448,192,105543,1,2,0:0:0:0:
320,192,105633,1,0,0:0:0:0:
64,192,105678,1,2,0:0:0:0:
192,192,105723,1,0,0:0:0:0:
64,192,105813,1,2,0:0:0:0:
448,192,105813,1,0,0:0:0:0:
320,192,105904,1,0,0:0:0:0:
448,192,105949,1,2,0:0:0:0:
192,192,105994,1,0,0:0:0:0:
64,192,106084,1,8,0:0:0:0:
320,192,106084,1,2,0:0:0:0:
448,192,106084,1,0,0:0:0:0:
64,192,106219,1,2,0:0:0:0:
320,192,106219,1,0,0:0:0:0:
192,192,106354,1,2,0:0:0:0:
448,192,106354,1,0,0:0:0:0:
192,192,106489,1,2,0:0:0:0:
448,192,106489,1,0,0:0:0:0:
64,192,106624,1,8,0:0:0:0:
192,192,106624,1,2,0:0:0:0:
448,192,106624,1,0,0:0:0:0:
64,192,106759,1,2,0:0:0:0:
192,192,106759,1,0,0:0:0:0:
320,192,106894,1,2,0:0:0:0:
448,192,106894,1,0,0:0:0:0:
320,192,107030,1,2,0:0:0:0:
448,192,107030,1,0,0:0:0:0:
64,192,107165,1,4,0:0:0:0:
192,192,107165,1,8,0:0:0:0:
448,192,107165,1,2,0:0:0:0:
320,192,107255,1,2,0:0:0:0:
64,192,107345,1,2,0:0:0:0:
192,192,107345,1,0,0:0:0:0:
64,192,107435,1,4,0:0:0:0:
320,192,107435,1,8,0:0:0:0:
448,192,107435,1,2,0:0:0:0:
192,192,107525,1,2,0:0:0:0:
320,192,107615,1,2,0:0:0:0:
448,192,107615,1,0,0:0:0:0:
192,192,107705,1,4,0:0:0:0:
64,192,107705,1,8,0:0:0:0:
320,192,107705,1,2,0:0:0:0:
448,192,107795,1,2,0:0:0:0:
192,192,107885,1,2,0:0:0:0:
64,192,107885,1,0,0:0:0:0:
192,192,107976,1,4,0:0:0:0:
320,192,107976,1,8,0:0:0:0:
448,192,107976,1,2,0:0:0:0:
64,192,108066,1,2,0:0:0:0:
320,192,108156,1,2,0:0:0:0:
448,192,108156,1,0,0:0:0:0:
192,192,108246,1,4,0:0:0:0:
64,192,108246,1,8,0:0:0:0:
448,192,108246,1,2,0:0:0:0:
320,192,108336,1,2,0:0:0:0:
64,192,108426,1,2,0:0:0:0:
192,192,108426,1,0,0:0:0:0:
64,192,108516,1,4,0:0:0:0:
320,192,108516,1,8,0:0:0:0:
448,192,108516,1,2,0:0:0:0:
192,192,108606,1,2,0:0:0:0:
320,192,108696,1,2,0:0:0:0:
448,192,108696,1,0,0:0:0:0:
64,192,108786,1,4,0:0:0:0:
192,192,108786,1,8,0:0:0:0:
320,192,108786,1,2,0:0:0:0:
448,192,108876,1,2,0:0:0:0:
64,192,108967,1,2,0:0:0:0:
192,192,108967,1,0,0:0:0:0:
192,192,109057,1,4,0:0:0:0:
320,192,109057,1,8,0:0:0:0:
448,192,109057,1,2,0:0:0:0:
64,192,109147,1,2,0:0:0:0:
320,192,109237,1,2,0:0:0:0:
448,192,109237,1,0,0:0:0:0:
64,192,109327,1,4,0:0:0:0:
192,192,109327,1,8,0:0:0:0:
448,192,109327,1,2,0:0:0:0:
320,192,109394,1,2,0:0:0:0:
64,192,109462,1,2,0:0:0:0:
192,192,109462,1,0,0:0:0:0:
320,192,109530,1,2,0:0:0:0:
64,192,109597,1,4,0:0:0:0:
448,192,109597,1,2,0:0:0:0:
192,192,109597,1,8,0:0:0:0:
320,192,109665,1,2,0:0:0:0:
64,192,109732,1,2,0:0:0:0:
448,192,109732,1,0,0:0:0:0:
192,192,109800,1,2,0:0:0:0:
64,192,109867,1,4,0:0:0:0:
320,192,109867,1,2,0:0:0:0:
448,192,109867,1,8,0:0:0:0:
192,192,109935,1,2,0:0:0:0:
320,192,110003,1,2,0:0:0:0:
448,192,110003,1,0,0:0:0:0:
192,192,110070,1,2,0:0:0:0:
448,192,110138,1,4,0:0:0:0:
320,192,110138,1,2,0:0:0:0:
64,192,110138,1,8,0:0:0:0:
192,192,110205,1,2,0:0:0:0:
64,192,110273,1,2,0:0:0:0:
448,192,110273,1,0,0:0:0:0:
320,192,110340,1,2,0:0:0:0:
192,192,110408,1,6,0:0:0:0:
64,192,110408,1,8,0:0:0:0:
448,192,110442,1,2,0:0:0:0:
320,192,110476,1,2,0:0:0:0:
192,192,110509,1,2,0:0:0:0:
64,192,110543,1,2,0:0:0:0:
448,192,110577,1,2,0:0:0:0:
320,192,110611,1,2,0:0:0:0:
64,192,110644,1,2,0:0:0:0:
192,192,110678,1,2,0:0:0:0:
320,192,110712,1,2,0:0:0:0:
448,192,110746,1,2,0:0:0:0:
64,192,110780,1,2,0:0:0:0:
192,192,110813,1,2,0:0:0:0:
448,192,110847,1,2,0:0:0:0:
320,192,110881,1,2,0:0:0:0:
192,192,110915,1,2,0:0:0:0:
64,192,110949,1,2,0:0:0:0:
448,192,110982,1,2,0:0:0:0:
320,192,111016,1,2,0:0:0:0:
64,192,111050,1,2,0:0:0:0:
192,192,111084,1,2,0:0:0:0:
320,192,111117,1,2,0:0:0:0:
448,192,111151,1,2,0:0:0:0:
64,192,111185,1,2,0:0:0:0:
192,192,111219,1,2,0:0:0:0:
448,192,111253,1,2,0:0:0:0:
320,192,111286,1,2,0:0:0:0:
192,192,111320,1,2,0:0:0:0:
64,192,111354,1,2,0:0:0:0:
448,192,111388,1,2,0:0:0:0:
320,192,111422,1,2,0:0:0:0:
192,192,111455,1,2,0:0:0:0:
448,192,111489,128,4,115273:0:0:0:0:
64,192,111489,1,0,0:0:0:50:snare 2.wav
192,192,112030,1,0,0:0:0:50:snare 2.wav
64,192,112030,1,0,0:0:0:0:
192,192,112570,1,0,0:0:0:50:snare 2.wav
64,192,112570,1,0,0:0:0:0:
192,192,113111,1,0,0:0:0:50:snare 2.wav
64,192,113111,1,0,0:0:0:0:
192,192,113651,1,0,0:0:0:50:snare 2.wav
64,192,113651,1,0,0:0:0:0:
192,192,113922,1,0,0:0:0:50:snare 2.wav
64,192,113922,1,0,0:0:0:0:
192,192,114192,1,0,0:0:0:50:snare 2.wav
64,192,114192,1,0,0:0:0:0:
192,192,114462,1,0,0:0:0:50:snare 2.wav
64,192,114462,1,0,0:0:0:0:
192,192,114732,1,0,0:0:0:50:snare 2.wav
64,192,114732,1,0,0:0:0:0:
192,192,114867,1,0,0:0:0:50:snare 2.wav
64,192,114867,1,0,0:0:0:0:
192,192,115003,1,0,0:0:0:50:snare 2.wav
64,192,115003,1,0,0:0:0:0:
192,192,115138,1,0,0:0:0:50:snare 2.wav
64,192,115138,1,0,0:0:0:0:
320,192,115273,1,0,0:0:0:50:snare 2.wav
320,192,115340,1,0,0:0:0:50:snare 2.wav
192,192,115408,1,0,0:0:0:50:snare 2.wav
192,192,115476,1,0,0:0:0:50:snare 2.wav
320,192,115543,1,0,0:0:0:50:snare 2.wav
320,192,115611,1,0,0:0:0:50:snare 2.wav
192,192,115678,1,0,0:0:0:50:snare 2.wav
192,192,115746,1,0,0:0:0:50:snare 2.wav
448,192,115813,128,0,117165:0:0:0:0:
320,192,115813,128,0,117165:0:0:0:0:
64,192,115813,128,4,117165:0:0:0:0:
