osu file format v14

[General]
AudioFilename: audio.mp3
AudioLeadIn: 0
PreviewTime: 39233
Countdown: 0
SampleSet: Normal
StackLeniency: 0.7
Mode: 3
LetterboxInBreaks: 0
SpecialStyle: 0
WidescreenStoryboard: 1

[Editor]
DistanceSpacing: 1
BeatDivisor: 4
GridSize: 32
TimelineZoom: 2.2

[Metadata]
Title:Dark Matter
TitleUnicode:Dark Matter
Artist:Yooh
ArtistUnicode:Yooh
Creator:Curiossity
Version:BASIC
Source:SOUND VOLTEX IV HEAVENLY HAVEN
Tags:the 7th konami arcade championship KAC オリジナル楽曲コンテスト dark psytrance sdvx
BeatmapID:1959146
BeatmapSetID:937930

[Difficulty]
HPDrainRate:7
CircleSize:4
OverallDifficulty:7
ApproachRate:5
SliderMultiplier:1.4
SliderTickRate:1

[Events]
//Background and Video events
0,0,"darkmatter2.png",0,0
//Break Periods
//Storyboard Layer 0 (Background)
//Storyboard Layer 1 (Fail)
//Storyboard Layer 2 (Pass)
//Storyboard Layer 3 (Foreground)
//Storyboard Layer 4 (Overlay)
//Storyboard Sound Samples

[TimingPoints]
1769.84569837646,292.682926829268,4,1,0,50,1,0
39233,-100,4,1,0,50,0,1
55623,-100,4,1,0,50,0,0
95428,-100,4,1,0,50,0,1
111672,-100,4,1,0,50,0,0

[HitObjects]
64,192,1769,5,0,0:0:0:0:
192,192,2062,1,0,0:0:0:0:
448,192,2355,1,0,0:0:0:0:
192,192,2501,1,0,0:0:0:0:
448,192,2647,1,0,0:0:0:0:
320,192,2940,1,0,0:0:0:0:
64,192,3233,1,0,0:0:0:0:
320,192,3379,1,0,0:0:0:0:
64,192,3525,128,0,3818:0:0:0:0:
448,192,3818,128,0,4111:0:0:0:0:
192,192,4111,1,0,0:0:0:0:
64,192,4403,1,0,0:0:0:0:
192,192,4696,1,0,0:0:0:0:
448,192,4843,1,0,0:0:0:0:
192,192,4989,1,0,0:0:0:0:
64,192,5282,1,0,0:0:0:0:
320,192,5574,1,0,0:0:0:0:
192,192,5721,1,0,0:0:0:0:
448,192,5867,128,0,6160:0:0:0:0:
320,192,6160,128,0,6452:0:0:0:0:
64,192,6452,1,0,0:0:0:0:
320,192,6745,1,0,0:0:0:0:
192,192,7038,1,0,0:0:0:0:
448,192,7184,1,0,0:0:0:0:
192,192,7330,1,0,0:0:0:0:
64,192,7623,1,0,0:0:0:0:
320,192,7916,1,0,0:0:0:0:
64,192,8062,1,0,0:0:0:0:
320,192,8208,128,0,8501:0:0:0:0:
64,192,8501,128,0,8794:0:0:0:0:
192,192,8794,1,0,0:0:0:0:
448,192,9086,1,0,0:0:0:0:
320,192,9379,1,0,0:0:0:0:
64,192,9525,1,0,0:0:0:0:
320,192,9672,1,0,0:0:0:0:
448,192,9964,1,0,0:0:0:0:
192,192,10257,1,0,0:0:0:0:
448,192,10403,1,0,0:0:0:0:
64,192,10550,128,0,10843:0:0:0:0:
192,192,10843,128,0,11135:0:0:0:0:
320,192,11135,1,0,0:0:0:0:
448,192,11135,1,0,0:0:0:0:
64,192,11428,1,0,0:0:0:0:
320,192,11721,1,0,0:0:0:0:
448,192,11721,1,0,0:0:0:0:
448,192,12013,1,0,0:0:0:0:
192,192,12306,1,0,0:0:0:0:
64,192,12306,1,0,0:0:0:0:
448,192,12599,1,0,0:0:0:0:
64,192,12891,1,0,0:0:0:0:
192,192,12891,1,0,0:0:0:0:
64,192,13184,1,0,0:0:0:0:
192,192,13477,1,0,0:0:0:0:
448,192,13477,1,0,0:0:0:0:
320,192,13769,1,0,0:0:0:0:
192,192,14062,1,0,0:0:0:0:
448,192,14062,1,0,0:0:0:0:
448,192,14355,1,0,0:0:0:0:
320,192,14647,1,0,0:0:0:0:
64,192,14647,1,0,0:0:0:0:
192,192,14940,1,0,0:0:0:0:
64,192,15233,1,0,0:0:0:0:
320,192,15233,1,0,0:0:0:0:
64,192,15525,1,0,0:0:0:0:
448,192,15818,1,0,0:0:0:0:
192,192,15964,1,0,0:0:0:0:
448,192,16111,1,0,0:0:0:0:
192,192,16257,1,0,0:0:0:0:
64,192,16403,1,0,0:0:0:0:
320,192,16550,1,0,0:0:0:0:
64,192,16696,1,0,0:0:0:0:
320,192,16843,1,0,0:0:0:0:
448,192,16989,128,0,17574:0:0:0:0:
64,192,17574,128,0,18160:0:0:0:0:
448,192,18160,1,0,0:0:0:0:
192,192,18452,1,0,0:0:0:0:
320,192,18745,1,0,0:0:0:0:
192,192,18891,1,0,0:0:0:0:
320,192,19038,128,0,19916:0:0:0:0:
64,192,19916,1,0,0:0:0:0:
320,192,20208,1,0,0:0:0:0:
448,192,20208,1,0,0:0:0:0:
64,192,20501,1,0,0:0:0:0:
192,192,20501,1,0,0:0:0:0:
64,192,20794,1,0,0:0:0:0:
192,192,20794,1,0,0:0:0:0:
64,192,21086,1,0,0:0:0:0:
192,192,21086,1,0,0:0:0:0:
64,192,21379,1,0,0:0:0:0:
192,192,21379,1,0,0:0:0:0:
192,192,21672,1,0,0:0:0:0:
320,192,21672,1,0,0:0:0:0:
192,192,21964,1,0,0:0:0:0:
320,192,21964,1,0,0:0:0:0:
192,192,22257,1,0,0:0:0:0:
320,192,22257,1,0,0:0:0:0:
192,192,22550,1,0,0:0:0:0:
320,192,22550,1,0,0:0:0:0:
448,192,22843,1,0,0:0:0:0:
320,192,22843,1,0,0:0:0:0:
320,192,23135,1,0,0:0:0:0:
448,192,23135,1,0,0:0:0:0:
320,192,23428,1,0,0:0:0:0:
448,192,23428,1,0,0:0:0:0:
320,192,23721,1,0,0:0:0:0:
448,192,23721,1,0,0:0:0:0:
448,192,24013,128,0,24599:0:0:0:0:
192,192,24599,128,0,24891:0:0:0:0:
320,192,24891,128,0,25184:0:0:0:0:
64,192,25184,1,0,0:0:0:0:
448,192,25184,1,0,0:0:0:0:
448,192,25477,1,0,0:0:0:0:
64,192,25477,1,0,0:0:0:0:
64,192,25769,1,0,0:0:0:0:
448,192,25769,1,0,0:0:0:0:
448,192,26062,1,0,0:0:0:0:
64,192,26062,1,0,0:0:0:0:
192,192,26355,1,0,0:0:0:0:
64,192,26355,1,0,0:0:0:0:
64,192,26647,1,0,0:0:0:0:
192,192,26647,1,0,0:0:0:0:
64,192,26940,1,0,0:0:0:0:
192,192,26940,1,0,0:0:0:0:
64,192,27233,1,0,0:0:0:0:
192,192,27233,1,0,0:0:0:0:
320,192,27525,1,0,0:0:0:0:
448,192,27525,1,0,0:0:0:0:
320,192,27818,1,0,0:0:0:0:
448,192,27818,1,0,0:0:0:0:
320,192,28111,1,0,0:0:0:0:
448,192,28111,1,0,0:0:0:0:
320,192,28403,1,0,0:0:0:0:
448,192,28403,1,0,0:0:0:0:
448,192,28696,128,0,28989:0:0:0:0:
64,192,28989,1,0,0:0:0:0:
192,192,29135,1,0,0:0:0:0:
320,192,29282,128,0,29574:0:0:0:0:
448,192,29574,128,0,29867:0:0:0:0:
192,192,29867,1,0,0:0:0:0:
64,192,29867,128,0,30160:0:0:0:0:
448,192,30160,1,0,0:0:0:0:
192,192,30452,1,0,0:0:0:0:
64,192,30452,128,0,30745:0:0:0:0:
448,192,30745,1,0,0:0:0:0:
192,192,31038,1,0,0:0:0:0:
64,192,31038,128,0,31330:0:0:0:0:
448,192,31330,1,0,0:0:0:0:
192,192,31623,1,0,0:0:0:0:
64,192,31623,128,0,31916:0:0:0:0:
448,192,31916,1,0,0:0:0:0:
320,192,32062,128,0,32501:0:0:0:0:
448,192,32062,128,0,32501:0:0:0:0:
64,192,32501,1,0,0:0:0:0:
320,192,32794,1,0,0:0:0:0:
448,192,32794,128,0,33086:0:0:0:0:
64,192,33086,1,0,0:0:0:0:
320,192,33379,1,0,0:0:0:0:
448,192,33379,128,0,33672:0:0:0:0:
64,192,33672,1,0,0:0:0:0:
320,192,33964,1,0,0:0:0:0:
448,192,33964,128,0,34257:0:0:0:0:
64,192,34257,1,0,0:0:0:0:
192,192,34550,1,0,0:0:0:0:
64,192,34550,128,0,34843:0:0:0:0:
448,192,34843,1,0,0:0:0:0:
192,192,35135,1,0,0:0:0:0:
64,192,35135,128,0,35428:0:0:0:0:
448,192,35428,1,0,0:0:0:0:
192,192,35721,1,0,0:0:0:0:
64,192,35721,128,0,36013:0:0:0:0:
448,192,36013,1,0,0:0:0:0:
192,192,36306,1,0,0:0:0:0:
64,192,36306,128,0,36599:0:0:0:0:
448,192,36599,1,0,0:0:0:0:
448,192,36745,1,0,0:0:0:0:
64,192,36891,128,0,37184:0:0:0:0:
192,192,37184,1,0,0:0:0:0:
320,192,37477,1,0,0:0:0:0:
64,192,37623,1,0,0:0:0:0:
320,192,37769,1,0,0:0:0:0:
448,192,38062,128,0,38355:0:0:0:0:
192,192,38355,1,0,0:0:0:0:
448,192,38501,1,0,0:0:0:0:
192,192,38647,128,0,38940:0:0:0:0:
64,192,39233,128,0,39525:0:0:0:0:
448,192,39233,128,0,39525:0:0:0:0:
320,192,39818,128,0,40111:0:0:0:0:
64,192,39818,128,0,40111:0:0:0:0:
192,192,40403,128,0,40696:0:0:0:0:
448,192,40403,128,0,40696:0:0:0:0:
320,192,40989,128,0,41282:0:0:0:0:
192,192,40989,128,0,41282:0:0:0:0:
192,192,41428,128,0,41867:0:0:0:0:
320,192,41428,128,0,41867:0:0:0:0:
64,192,42160,128,0,42452:0:0:0:0:
448,192,42160,128,0,42452:0:0:0:0:
320,192,42891,1,0,0:0:0:0:
192,192,43038,1,0,0:0:0:0:
448,192,43184,1,0,0:0:0:0:
64,192,43477,1,0,0:0:0:0:
320,192,43623,128,0,43916:0:0:0:0:
192,192,43916,128,0,44208:0:0:0:0:
64,192,43916,128,0,44208:0:0:0:0:
192,192,44501,128,0,44794:0:0:0:0:
448,192,44501,128,0,44794:0:0:0:0:
320,192,45086,128,0,45379:0:0:0:0:
64,192,45086,128,0,45379:0:0:0:0:
320,192,45672,128,0,45964:0:0:0:0:
448,192,45672,128,0,45964:0:0:0:0:
448,192,46111,128,0,46550:0:0:0:0:
320,192,46111,128,0,46550:0:0:0:0:
64,192,46843,128,0,47135:0:0:0:0:
448,192,46843,128,0,47135:0:0:0:0:
192,192,47428,1,0,0:0:0:0:
448,192,47721,1,0,0:0:0:0:
320,192,47867,1,0,0:0:0:0:
192,192,48013,128,0,48306:0:0:0:0:
64,192,48306,128,0,48599:0:0:0:0:
320,192,48599,128,0,48891:0:0:0:0:
448,192,48599,128,0,48891:0:0:0:0:
64,192,49184,128,0,49477:0:0:0:0:
320,192,49184,128,0,49477:0:0:0:0:
192,192,49769,128,0,50062:0:0:0:0:
448,192,49769,128,0,50062:0:0:0:0:
192,192,50355,128,0,50647:0:0:0:0:
64,192,50355,128,0,50647:0:0:0:0:
64,192,50794,128,0,51233:0:0:0:0:
192,192,50794,128,0,51233:0:0:0:0:
64,192,51525,128,0,51818:0:0:0:0:
448,192,51525,128,0,51818:0:0:0:0:
192,192,52257,1,0,0:0:0:0:
320,192,52403,1,0,0:0:0:0:
64,192,52550,1,0,0:0:0:0:
448,192,52843,1,0,0:0:0:0:
192,192,52989,1,0,0:0:0:0:
320,192,53135,1,0,0:0:0:0:
64,192,53282,128,0,53574:0:0:0:0:
448,192,53282,128,0,53574:0:0:0:0:
448,192,53867,128,0,54160:0:0:0:0:
64,192,53867,128,0,54160:0:0:0:0:
64,192,54452,1,0,0:0:0:0:
192,192,54452,1,0,0:0:0:0:
192,192,54745,1,0,0:0:0:0:
320,192,55038,1,0,0:0:0:0:
448,192,55038,1,0,0:0:0:0:
320,192,55330,1,0,0:0:0:0:
320,192,55477,1,0,0:0:0:0:
64,192,55623,1,0,0:0:0:0:
448,192,55916,1,0,0:0:0:0:
192,192,56208,1,0,0:0:0:0:
320,192,56355,1,0,0:0:0:0:
192,192,56501,128,0,57672:0:0:0:0:
448,192,57964,128,0,58550:0:0:0:0:
64,192,58550,1,0,0:0:0:0:
192,192,58843,1,0,0:0:0:0:
320,192,59135,128,0,60013:0:0:0:0:
192,192,60013,1,0,0:0:0:0:
448,192,60160,1,0,0:0:0:0:
192,192,60306,1,0,0:0:0:0:
320,192,60599,1,0,0:0:0:0:
64,192,60745,1,0,0:0:0:0:
320,192,60891,1,0,0:0:0:0:
192,192,61184,1,0,0:0:0:0:
320,192,61330,1,0,0:0:0:0:
192,192,61477,1,0,0:0:0:0:
320,192,61769,1,0,0:0:0:0:
192,192,61916,1,0,0:0:0:0:
320,192,62062,1,0,0:0:0:0:
64,192,62355,128,0,62647:0:0:0:0:
192,192,62647,128,0,62940:0:0:0:0:
448,192,62940,128,0,63233:0:0:0:0:
320,192,63233,128,0,63525:0:0:0:0:
192,192,63525,128,0,63818:0:0:0:0:
64,192,63818,128,0,64696:0:0:0:0:
448,192,64696,1,0,0:0:0:0:
192,192,64843,1,0,0:0:0:0:
448,192,64989,1,0,0:0:0:0:
64,192,65282,1,0,0:0:0:0:
320,192,65428,1,0,0:0:0:0:
64,192,65574,1,0,0:0:0:0:
320,192,65867,1,0,0:0:0:0:
64,192,66013,1,0,0:0:0:0:
448,192,66160,1,0,0:0:0:0:
64,192,66452,1,0,0:0:0:0:
448,192,66599,1,0,0:0:0:0:
192,192,66745,1,0,0:0:0:0:
320,192,67038,128,0,67330:0:0:0:0:
64,192,67330,1,0,0:0:0:0:
192,192,67330,1,0,0:0:0:0:
448,192,67623,1,0,0:0:0:0:
64,192,67916,1,0,0:0:0:0:
192,192,67916,1,0,0:0:0:0:
64,192,68208,1,0,0:0:0:0:
320,192,68501,1,0,0:0:0:0:
448,192,68501,1,0,0:0:0:0:
64,192,68794,1,0,0:0:0:0:
320,192,69086,1,0,0:0:0:0:
448,192,69086,1,0,0:0:0:0:
448,192,69379,1,0,0:0:0:0:
64,192,69672,1,0,0:0:0:0:
320,192,69672,1,0,0:0:0:0:
192,192,69964,1,0,0:0:0:0:
64,192,70257,1,0,0:0:0:0:
320,192,70257,1,0,0:0:0:0:
64,192,70550,1,0,0:0:0:0:
192,192,70843,1,0,0:0:0:0:
448,192,70843,1,0,0:0:0:0:
320,192,71135,1,0,0:0:0:0:
192,192,71428,1,0,0:0:0:0:
448,192,71428,1,0,0:0:0:0:
448,192,71721,1,0,0:0:0:0:
64,192,72013,1,0,0:0:0:0:
320,192,72160,1,0,0:0:0:0:
64,192,72306,1,0,0:0:0:0:
320,192,72452,1,0,0:0:0:0:
448,192,72599,1,0,0:0:0:0:
192,192,72745,1,0,0:0:0:0:
448,192,72891,1,0,0:0:0:0:
192,192,73038,1,0,0:0:0:0:
64,192,73184,1,0,0:0:0:0:
448,192,73330,1,0,0:0:0:0:
64,192,73477,1,0,0:0:0:0:
448,192,73623,1,0,0:0:0:0:
320,192,73769,1,0,0:0:0:0:
192,192,73916,1,0,0:0:0:0:
320,192,74062,1,0,0:0:0:0:
192,192,74208,1,0,0:0:0:0:
448,192,74355,128,0,74940:0:0:0:0:
320,192,74647,128,0,74940:0:0:0:0:
64,192,74940,128,0,75525:0:0:0:0:
192,192,75233,128,0,75525:0:0:0:0:
448,192,75525,1,0,0:0:0:0:
320,192,75818,1,0,0:0:0:0:
192,192,76111,1,0,0:0:0:0:
64,192,76403,1,0,0:0:0:0:
448,192,76403,1,0,0:0:0:0:
320,192,76696,1,0,0:0:0:0:
448,192,76696,128,0,76989:0:0:0:0:
64,192,76989,1,0,0:0:0:0:
192,192,77282,1,0,0:0:0:0:
64,192,77282,128,0,77574:0:0:0:0:
448,192,77574,1,0,0:0:0:0:
192,192,77769,1,0,0:0:0:0:
448,192,77867,1,0,0:0:0:0:
192,192,78062,1,0,0:0:0:0:
448,192,78160,1,0,0:0:0:0:
192,192,78355,1,0,0:0:0:0:
448,192,78452,128,0,78745:0:0:0:0:
64,192,78745,1,0,0:0:0:0:
320,192,79038,1,0,0:0:0:0:
448,192,79038,128,0,79330:0:0:0:0:
64,192,79330,1,0,0:0:0:0:
192,192,79623,1,0,0:0:0:0:
64,192,79623,128,0,79916:0:0:0:0:
448,192,79916,1,0,0:0:0:0:
320,192,80111,1,0,0:0:0:0:
64,192,80208,1,0,0:0:0:0:
320,192,80403,1,0,0:0:0:0:
64,192,80501,1,0,0:0:0:0:
320,192,80696,1,0,0:0:0:0:
64,192,80794,128,0,81086:0:0:0:0:
448,192,81086,128,0,81379:0:0:0:0:
192,192,81379,1,0,0:0:0:0:
64,192,81379,128,0,81672:0:0:0:0:
448,192,81672,1,0,0:0:0:0:
320,192,81964,1,0,0:0:0:0:
448,192,81964,128,0,82257:0:0:0:0:
64,192,82257,1,0,0:0:0:0:
192,192,82452,1,0,0:0:0:0:
448,192,82550,1,0,0:0:0:0:
192,192,82745,1,0,0:0:0:0:
448,192,82843,1,0,0:0:0:0:
192,192,83038,1,0,0:0:0:0:
448,192,83135,128,0,83428:0:0:0:0:
64,192,83428,1,0,0:0:0:0:
192,192,83721,1,0,0:0:0:0:
64,192,83721,128,0,84013:0:0:0:0:
448,192,84013,1,0,0:0:0:0:
320,192,84306,1,0,0:0:0:0:
448,192,84306,128,0,84599:0:0:0:0:
64,192,84599,1,0,0:0:0:0:
320,192,84794,1,0,0:0:0:0:
64,192,84891,1,0,0:0:0:0:
320,192,85184,1,0,0:0:0:0:
192,192,85330,1,0,0:0:0:0:
64,192,85477,128,0,85769:0:0:0:0:
448,192,85769,128,0,86062:0:0:0:0:
192,192,86062,128,0,86355:0:0:0:0:
64,192,86062,1,0,0:0:0:0:
448,192,86355,1,0,0:0:0:0:
64,192,86647,1,0,0:0:0:0:
192,192,86647,128,0,86940:0:0:0:0:
448,192,86940,1,0,0:0:0:0:
64,192,87135,1,0,0:0:0:0:
320,192,87233,1,0,0:0:0:0:
64,192,87428,1,0,0:0:0:0:
320,192,87525,1,0,0:0:0:0:
64,192,87721,1,0,0:0:0:0:
320,192,87818,128,0,88111:0:0:0:0:
192,192,88111,1,0,0:0:0:0:
320,192,88403,128,0,88696:0:0:0:0:
448,192,88403,1,0,0:0:0:0:
64,192,88696,1,0,0:0:0:0:
320,192,88989,128,0,89282:0:0:0:0:
448,192,88989,1,0,0:0:0:0:
64,192,89282,1,0,0:0:0:0:
448,192,89477,1,0,0:0:0:0:
192,192,89574,1,0,0:0:0:0:
448,192,89769,1,0,0:0:0:0:
192,192,89867,1,0,0:0:0:0:
448,192,90062,1,0,0:0:0:0:
192,192,90160,128,0,90452:0:0:0:0:
320,192,90452,128,0,90745:0:0:0:0:
64,192,90745,1,0,0:0:0:0:
192,192,90745,128,0,91038:0:0:0:0:
448,192,91038,1,0,0:0:0:0:
64,192,91330,1,0,0:0:0:0:
192,192,91330,128,0,91623:0:0:0:0:
448,192,91623,1,0,0:0:0:0:
64,192,91818,1,0,0:0:0:0:
320,192,91916,1,0,0:0:0:0:
64,192,92111,1,0,0:0:0:0:
320,192,92208,1,0,0:0:0:0:
64,192,92403,1,0,0:0:0:0:
320,192,92501,128,0,92794:0:0:0:0:
192,192,92794,128,0,93086:0:0:0:0:
448,192,93086,1,0,0:0:0:0:
192,192,93379,1,0,0:0:0:0:
320,192,93672,1,0,0:0:0:0:
64,192,93818,1,0,0:0:0:0:
320,192,93964,1,0,0:0:0:0:
448,192,94257,1,0,0:0:0:0:
192,192,94550,1,0,0:0:0:0:
448,192,94696,1,0,0:0:0:0:
192,192,94843,128,0,95135:0:0:0:0:
448,192,95428,128,0,95721:0:0:0:0:
64,192,95428,128,0,95721:0:0:0:0:
64,192,96013,128,0,96306:0:0:0:0:
320,192,96013,128,0,96306:0:0:0:0:
448,192,96599,128,0,96891:0:0:0:0:
192,192,96599,128,0,96891:0:0:0:0:
192,192,97184,128,0,97477:0:0:0:0:
320,192,97184,128,0,97477:0:0:0:0:
192,192,97623,128,0,98062:0:0:0:0:
320,192,97623,128,0,98062:0:0:0:0:
64,192,98355,128,0,98647:0:0:0:0:
448,192,98355,128,0,98647:0:0:0:0:
320,192,99086,1,0,0:0:0:0:
64,192,99233,1,0,0:0:0:0:
192,192,99379,1,0,0:0:0:0:
448,192,99672,1,0,0:0:0:0:
64,192,99818,128,0,100111:0:0:0:0:
192,192,100111,128,0,100403:0:0:0:0:
320,192,100111,128,0,100403:0:0:0:0:
192,192,100696,128,0,100989:0:0:0:0:
448,192,100696,128,0,100989:0:0:0:0:
64,192,101282,128,0,101574:0:0:0:0:
320,192,101282,128,0,101574:0:0:0:0:
64,192,101867,128,0,102160:0:0:0:0:
448,192,101867,128,0,102160:0:0:0:0:
64,192,102306,128,0,102745:0:0:0:0:
448,192,102306,128,0,102745:0:0:0:0:
192,192,103038,128,0,103330:0:0:0:0:
320,192,103038,128,0,103330:0:0:0:0:
64,192,103623,1,0,0:0:0:0:
320,192,103916,1,0,0:0:0:0:
192,192,104062,1,0,0:0:0:0:
448,192,104208,128,0,104501:0:0:0:0:
64,192,104501,128,0,104794:0:0:0:0:
320,192,104794,1,0,0:0:0:0:
448,192,104794,1,0,0:0:0:0:
320,192,105086,1,0,0:0:0:0:
448,192,105086,1,0,0:0:0:0:
192,192,105379,1,0,0:0:0:0:
64,192,105379,1,0,0:0:0:0:
64,192,105672,1,0,0:0:0:0:
192,192,105672,1,0,0:0:0:0:
64,192,105964,1,0,0:0:0:0:
448,192,105964,1,0,0:0:0:0:
64,192,106257,1,0,0:0:0:0:
448,192,106257,1,0,0:0:0:0:
192,192,106550,1,0,0:0:0:0:
320,192,106550,1,0,0:0:0:0:
192,192,106843,1,0,0:0:0:0:
320,192,106843,1,0,0:0:0:0:
64,192,106989,128,0,107428:0:0:0:0:
448,192,106989,128,0,107428:0:0:0:0:
192,192,107721,128,0,108013:0:0:0:0:
320,192,107721,128,0,108013:0:0:0:0:
64,192,108452,1,0,0:0:0:0:
448,192,108599,1,0,0:0:0:0:
192,192,108745,1,0,0:0:0:0:
320,192,109038,1,0,0:0:0:0:
64,192,109184,1,0,0:0:0:0:
448,192,109330,1,0,0:0:0:0:
192,192,109477,1,0,0:0:0:0:
192,192,109623,1,0,0:0:0:0:
320,192,109769,1,0,0:0:0:0:
320,192,109916,1,0,0:0:0:0:
64,192,110062,1,0,0:0:0:0:
64,192,110208,1,0,0:0:0:0:
448,192,110355,1,0,0:0:0:0:
448,192,110501,1,0,0:0:0:0:
192,192,110647,128,0,110940:0:0:0:0:
320,192,110940,128,0,111233:0:0:0:0:
64,192,111233,128,0,111525:0:0:0:0:
448,192,111525,1,0,0:0:0:0:
320,192,111672,1,0,0:0:0:0:
192,192,111672,128,0,112111:0:0:0:0:
448,192,112989,128,0,114160:0:0:0:0:
64,192,114160,128,0,114452:0:0:0:0:
