osu file format v14

[General]
AudioFilename: audio.mp3
AudioLeadIn: 0
PreviewTime: 32351
Countdown: 0
SampleSet: Soft
StackLeniency: 0.7
Mode: 3
LetterboxInBreaks: 0
SpecialStyle: 0
WidescreenStoryboard: 1

[Editor]
Bookmarks: 2351,17351,24851,28601,32351,47819,62351,77351,96101,107351
DistanceSpacing: 1.1
BeatDivisor: 12
GridSize: 4
TimelineZoom: 1.399999

[Metadata]
Title:Crazy Shuffle
TitleUnicode:Crazy Shuffle
Artist:Yooh
ArtistUnicode:Yooh
Creator:_Hikari
Version:Beginner Stage
Source:DANCERUSH STARDOM
Tags:drs konami amusement bemani yoohsic roomz jubeat festo alone dancer future house DanceDanceRevolution A20 video game instrumental YACT-010
BeatmapID:3601862
BeatmapSetID:1756832

[Difficulty]
HPDrainRate:7
CircleSize:7
OverallDifficulty:6.5
ApproachRate:5
SliderMultiplier:1.4
SliderTickRate:1

[Events]
//Background and Video events
0,0,"Crazy Shuffle.jpg",0,0
//Break Periods
//Storyboard Layer 0 (Background)
//Storyboard Layer 1 (Fail)
//Storyboard Layer 2 (Pass)
//Storyboard Layer 3 (Foreground)
//Storyboard Layer 4 (Overlay)
//Storyboard Sound Samples

[TimingPoints]
2351,468.75,4,2,1,30,1,0
32351,-100.0,4,2,1,30,0,1
47351,-100.0,4,2,1,30,0,0
47819,-100.0,4,2,1,30,0,1
62351,-100.0,4,2,1,30,0,0
96101,-100.0,4,2,1,30,0,1
122351,-100.0,4,2,1,30,0,0

[HitObjects]
256,192,2351,1,0,0:0:0:0:
256,192,2702,1,0,0:0:0:0:
256,192,3054,1,0,0:0:0:0:
36,192,3405,1,0,0:0:0:0:
36,192,3757,1,0,0:0:0:0:
36,192,3991,1,0,0:0:0:0:
182,192,4226,1,0,0:0:0:0:
182,192,4577,1,0,0:0:0:0:
182,192,4929,1,0,0:0:0:0:
182,192,5280,1,0,0:0:0:0:
182,192,5632,1,0,0:0:0:0:
256,192,5866,1,0,0:0:0:0:
329,192,6101,1,0,0:0:0:0:
329,192,6452,1,0,0:0:0:0:
329,192,6804,1,0,0:0:0:0:
475,192,7155,1,0,0:0:0:0:
475,192,7507,1,0,0:0:0:0:
475,192,7741,1,0,0:0:0:0:
182,192,7976,1,0,0:0:0:0:
109,192,8444,1,0,0:0:0:0:
36,192,8913,1,0,0:0:0:0:
182,192,9382,1,0,0:0:0:0:
475,192,9616,1,0,0:0:0:0:
329,192,9851,1,0,0:0:0:0:
109,192,10319,1,0,0:0:0:50:hitclap.wav
329,192,10788,1,0,0:0:0:0:
109,192,11257,1,0,0:0:0:50:hitclap.wav
256,192,11491,1,0,0:0:0:0:
402,192,11726,1,0,0:0:0:0:
182,192,12194,1,0,0:0:0:50:hitclap.wav
402,192,12663,1,0,0:0:0:0:
182,192,13132,1,0,0:0:0:50:hitclap.wav
329,192,13366,1,0,0:0:0:0:
36,192,13601,1,0,0:0:0:0:
256,192,14069,1,0,0:0:0:50:hitclap.wav
36,192,14538,1,0,0:0:0:0:
256,192,15007,1,0,0:0:0:50:hitclap.wav
109,192,15241,1,0,0:0:0:0:
475,192,15476,1,0,0:0:0:0:
402,192,15944,1,0,0:0:0:50:hitclap.wav
329,192,16413,1,0,0:0:0:0:
109,192,16882,1,0,0:0:0:50:hitclap.wav
256,192,17116,1,0,0:0:0:0:
36,192,17351,1,0,0:0:0:60:drum.wav
475,192,17351,1,0,0:0:0:50:finish.wav
256,192,17819,1,0,0:0:0:60:drum.wav
36,192,18522,1,0,0:0:0:60:drum.wav
402,192,18757,1,0,0:0:0:60:drum.wav
256,192,18991,1,0,0:0:0:60:drum.wav
109,192,19226,1,0,0:0:0:60:drum.wav
109,192,19694,1,0,0:0:0:60:drum.wav
109,192,20397,1,0,0:0:0:60:drum.wav
329,192,20632,1,0,0:0:0:60:drum.wav
402,192,20866,1,0,0:0:0:60:drum.wav
182,192,21101,1,0,0:0:0:60:drum.wav
475,192,21101,1,0,0:0:0:50:kick.wav
182,192,21569,1,0,0:0:0:60:drum.wav
475,192,22272,1,0,0:0:0:60:drum.wav
329,192,22507,1,0,0:0:0:60:drum.wav
182,192,22741,1,0,0:0:0:60:drum.wav
36,192,22976,1,0,0:0:0:60:drum.wav
36,192,23444,1,0,0:0:0:60:drum.wav
36,192,24147,1,0,0:0:0:60:drum.wav
182,192,24382,1,0,0:0:0:60:drum.wav
329,192,24616,1,0,0:0:0:60:drum.wav
109,192,24851,1,0,0:0:0:60:drum.wav
475,192,24851,1,0,0:0:0:50:kick.wav
256,192,25085,1,0,0:0:0:60:drum.wav
402,192,25319,1,0,0:0:0:60:drum.wav
36,192,25554,1,0,0:0:0:60:drum.wav
475,192,25788,1,0,0:0:0:60:drum.wav
329,192,26022,1,0,0:0:0:60:drum.wav
182,192,26257,1,0,0:0:0:60:drum.wav
36,192,26491,1,0,0:0:0:60:drum.wav
256,192,26726,1,0,0:0:0:60:drum.wav
475,192,26726,1,0,0:0:0:50:kick.wav
109,192,26960,1,0,0:0:0:60:drum.wav
329,192,27194,1,0,0:0:0:60:drum.wav
182,192,27429,1,0,0:0:0:60:drum.wav
36,192,27663,1,0,0:0:0:60:drum.wav
256,192,27897,1,0,0:0:0:60:drum.wav
475,192,28132,1,0,0:0:0:60:drum.wav
329,192,28366,1,0,0:0:0:60:drum.wav
36,192,28601,1,0,0:0:0:50:hihat.wav
182,192,28601,1,0,0:0:0:50:kick.wav
402,192,28835,1,0,0:0:0:50:hihat.wav
256,192,29069,1,0,0:0:0:50:hihat.wav
109,192,29304,1,0,0:0:0:50:hihat.wav
329,192,29538,1,0,0:0:0:50:kick.wav
475,192,29538,1,0,0:0:0:50:hihat.wav
109,192,29772,1,0,0:0:0:50:hihat.wav
256,192,30007,1,0,0:0:0:50:hihat.wav
402,192,30241,1,0,0:0:0:50:hihat.wav
36,192,30476,1,0,0:0:0:50:hihat2.wav
182,192,30632,1,0,0:0:0:50:hihat2.wav
475,192,30866,1,0,0:0:0:50:hihat2.wav
329,192,31101,1,0,0:0:0:50:hihat2.wav
109,192,31413,1,0,0:0:0:50:hihat2.wav
256,192,31647,1,0,0:0:0:50:kick.wav
36,192,31882,1,0,0:0:0:50:snare.wav
475,192,31882,1,0,0:0:0:0:
329,192,32116,1,0,0:0:0:50:snare.wav
109,192,32351,1,0,0:0:0:50:kick.wav
182,192,32351,1,0,0:0:0:50:finish.wav
329,192,32819,1,0,0:0:0:50:hitclap.wav
475,192,32819,1,0,0:0:0:0:
256,192,33288,1,0,0:0:0:50:kick.wav
36,192,33757,1,0,0:0:0:50:hitclap.wav
182,192,33757,1,0,0:0:0:0:
256,192,34226,1,0,0:0:0:50:kick.wav
109,192,34694,1,0,0:0:0:50:hitclap.wav
329,192,34694,1,0,0:0:0:0:
402,192,35163,1,0,0:0:0:50:kick.wav
36,192,35632,1,0,0:0:0:50:hitclap.wav
256,192,35632,1,0,0:0:0:0:
475,192,35866,1,0,0:0:0:0:
329,192,36101,1,0,0:0:0:50:kick.wav
182,192,36569,1,0,0:0:0:50:hitclap.wav
402,192,36569,1,0,0:0:0:0:
109,192,37038,1,0,0:0:0:50:kick.wav
36,192,37507,1,0,0:0:0:50:hitclap.wav
256,192,37507,1,0,0:0:0:0:
329,192,37976,1,0,0:0:0:50:kick.wav
182,192,38444,1,0,0:0:0:50:hitclap.wav
402,192,38444,1,0,0:0:0:0:
36,192,38913,1,0,0:0:0:50:kick.wav
256,192,39382,1,0,0:0:0:50:hitclap.wav
475,192,39382,1,0,0:0:0:0:
109,192,39616,1,0,0:0:0:0:
402,192,39851,1,0,0:0:0:50:kick.wav
182,192,40319,1,0,0:0:0:50:hitclap.wav
329,192,40319,1,0,0:0:0:50:hihat.wav
36,192,40788,1,0,0:0:0:50:kick.wav
256,192,41257,1,0,0:0:0:50:hitclap.wav
402,192,41257,1,0,0:0:0:50:hihat.wav
109,192,41726,1,0,0:0:0:50:kick.wav
182,192,42194,1,0,0:0:0:50:hitclap.wav
329,192,42194,1,0,0:0:0:50:hihat.wav
402,192,42663,1,0,0:0:0:50:kick.wav
109,192,43132,1,0,0:0:0:50:hitclap.wav
256,192,43132,1,0,0:0:0:50:hihat.wav
402,192,43366,1,0,0:0:0:0:
182,192,43601,1,0,0:0:0:50:kick.wav
329,192,44069,1,0,0:0:0:50:hitclap.wav
475,192,44069,1,0,0:0:0:50:hihat.wav
256,192,44538,1,0,0:0:0:50:kick.wav
36,192,45007,1,0,0:0:0:50:hitclap.wav
182,192,45007,1,0,0:0:0:50:hihat.wav
402,192,45241,1,0,0:0:0:0:
256,192,45476,128,0,45944:0:0:0:50:kick.wav
475,192,45944,128,0,46413:0:0:0:50:hitclap.wav
36,192,46413,128,0,46882:0:0:0:50:kick.wav
329,192,46882,128,0,47351:0:0:0:50:drum2.wav
182,192,47351,1,0,0:0:0:50:kick.wav
182,192,47585,1,0,0:0:0:50:kick.wav
36,192,47819,1,0,0:0:0:50:hitclap.wav
475,192,47819,1,0,0:0:0:50:finish.wav
329,192,48288,1,0,0:0:0:50:kick.wav
36,192,48757,1,0,0:0:0:50:hitclap.wav
256,192,48757,1,0,0:0:0:0:
182,192,49226,1,0,0:0:0:50:kick.wav
329,192,49694,1,0,0:0:0:50:hitclap.wav
475,192,49694,1,0,0:0:0:0:
109,192,50163,1,0,0:0:0:50:kick.wav
182,192,50632,1,0,0:0:0:50:hitclap.wav
329,192,50632,1,0,0:0:0:0:
36,192,50866,1,0,0:0:0:0:
402,192,51101,1,0,0:0:0:50:kick.wav
256,192,51569,1,0,0:0:0:50:hitclap.wav
475,192,51569,1,0,0:0:0:0:
182,192,52038,1,0,0:0:0:50:kick.wav
109,192,52507,1,0,0:0:0:50:hitclap.wav
329,192,52507,1,0,0:0:0:0:
256,192,52976,1,0,0:0:0:50:kick.wav
182,192,53444,1,0,0:0:0:50:hitclap.wav
402,192,53444,1,0,0:0:0:0:
475,192,53913,1,0,0:0:0:50:kick.wav
36,192,54382,1,0,0:0:0:50:hitclap.wav
329,192,54382,1,0,0:0:0:0:
182,192,54616,1,0,0:0:0:0:
402,192,54851,1,0,0:0:0:50:kick.wav
36,192,55319,1,0,0:0:0:50:hitclap.wav
256,192,55319,1,0,0:0:0:0:
182,192,55788,1,0,0:0:0:50:kick.wav
256,192,56257,1,0,0:0:0:50:hitclap.wav
475,192,56257,1,0,0:0:0:0:
329,192,56726,1,0,0:0:0:50:kick.wav
182,192,57194,1,0,0:0:0:50:kick.wav
36,192,57663,1,0,0:0:0:50:kick.wav
402,192,57897,1,0,0:0:0:0:
256,192,58132,1,0,0:0:0:0:
109,192,58366,1,0,0:0:0:0:
329,192,58601,1,0,0:0:0:50:kick.wav
329,192,58835,1,0,0:0:0:50:kick.wav
36,192,59069,1,0,0:0:0:50:hitclap.wav
475,192,59069,1,0,0:0:0:50:finish.wav
256,192,59538,1,0,0:0:0:50:kick.wav
109,192,60007,1,0,0:0:0:50:hitclap.wav
402,192,60007,1,0,0:0:0:0:
182,192,60241,1,0,0:0:0:0:
256,192,60476,128,0,60944:0:0:0:50:kick.wav
475,192,60944,128,0,61413:0:0:0:50:hihat.wav
36,192,61413,128,0,61882:0:0:0:50:hihat.wav
329,192,61882,1,0,0:0:0:50:hitclap.wav
402,192,61882,1,0,0:0:0:0:
256,192,62351,128,0,63679:0:0:0:50:kick.wav
109,192,63679,1,0,0:0:0:50:snare.wav
402,192,63679,1,0,0:0:0:0:
256,192,63991,1,0,0:0:0:50:drum2.wav
36,192,64226,1,0,0:0:0:50:kick.wav
475,192,64226,1,0,0:0:0:50:finish.wav
329,192,64694,1,0,0:0:0:50:snare.wav
109,192,65085,1,0,0:0:0:50:kick.wav
256,192,65397,1,0,0:0:0:50:kick.wav
402,192,65632,1,0,0:0:0:50:snare.wav
36,192,66101,1,0,0:0:0:50:kick.wav
256,192,66569,1,0,0:0:0:50:snare.wav
109,192,66960,1,0,0:0:0:50:kick.wav
475,192,67272,1,0,0:0:0:50:kick.wav
329,192,67507,1,0,0:0:0:50:snare.wav
256,192,67976,1,0,0:0:0:50:kick.wav
475,192,68444,1,0,0:0:0:50:snare.wav
182,192,68835,1,0,0:0:0:50:kick.wav
402,192,69147,1,0,0:0:0:50:kick.wav
36,192,69382,128,0,69851:0:0:0:50:drum2.wav
329,192,69851,1,0,0:0:0:50:kick.wav
475,192,70319,1,0,0:0:0:50:snare.wav
256,192,70710,1,0,0:0:0:50:kick.wav
36,192,71022,1,0,0:0:0:50:kick.wav
182,192,71257,1,0,0:0:0:50:snare.wav
475,192,71726,1,0,0:0:0:50:kick.wav
329,192,72194,1,0,0:0:0:50:snare.wav
256,192,72585,1,0,0:0:0:50:kick.wav
109,192,72897,1,0,0:0:0:50:kick.wav
402,192,73132,1,0,0:0:0:50:snare.wav
182,192,73366,1,0,0:0:0:50:kick.wav
475,192,73601,1,0,0:0:0:50:kick.wav
256,192,74069,1,0,0:0:0:50:snare.wav
402,192,74460,1,0,0:0:0:50:kick.wav
182,192,74772,1,0,0:0:0:50:kick.wav
36,192,75007,1,0,0:0:0:50:snare.wav
329,192,75241,1,0,0:0:0:50:kick.wav
475,192,75476,1,0,0:0:0:50:kick.wav
109,192,75710,1,0,0:0:0:50:drum2.wav
402,192,75944,1,0,0:0:0:50:kick.wav
36,192,76179,1,0,0:0:0:50:drum2.wav
329,192,76413,128,0,76804:0:0:0:50:kick.wav
182,192,76882,128,0,77351:0:0:0:50:hihat2.wav
329,192,77351,1,0,0:0:0:50:finish.wav
475,192,77351,1,0,0:0:0:60:drum.wav
36,192,77819,1,0,0:0:0:60:drum.wav
256,192,78288,1,0,0:0:0:60:drum.wav
402,192,78757,1,0,0:0:0:60:drum.wav
109,192,78991,1,0,0:0:0:60:drum.wav
329,192,79226,1,0,0:0:0:60:drum.wav
475,192,79694,1,0,0:0:0:60:drum.wav
36,192,80163,1,0,0:0:0:60:drum.wav
329,192,80632,1,0,0:0:0:60:drum.wav
256,192,80866,1,0,0:0:0:60:drum.wav
36,192,81101,1,0,0:0:0:50:kick.wav
182,192,81101,1,0,0:0:0:60:drum.wav
402,192,81569,1,0,0:0:0:60:drum.wav
109,192,82038,1,0,0:0:0:60:drum.wav
475,192,82507,1,0,0:0:0:60:drum.wav
256,192,82741,1,0,0:0:0:60:drum.wav
36,192,82976,1,0,0:0:0:60:drum.wav
402,192,83444,1,0,0:0:0:60:drum.wav
182,192,83913,1,0,0:0:0:60:drum.wav
329,192,84382,1,0,0:0:0:60:drum.wav
109,192,84616,1,0,0:0:0:60:drum.wav
256,192,84851,1,0,0:0:0:50:kick.wav
475,192,84851,1,0,0:0:0:60:drum.wav
182,192,85085,1,0,0:0:0:60:drum.wav
109,192,85319,1,0,0:0:0:60:drum.wav
36,192,85554,1,0,0:0:0:60:drum.wav
256,192,85788,1,0,0:0:0:50:kick.wav
475,192,85788,1,0,0:0:0:60:drum.wav
402,192,86022,1,0,0:0:0:60:drum.wav
329,192,86257,1,0,0:0:0:60:drum.wav
256,192,86491,1,0,0:0:0:60:drum.wav
36,192,86726,1,0,0:0:0:50:kick.wav
475,192,86726,1,0,0:0:0:60:drum.wav
182,192,86960,1,0,0:0:0:60:drum.wav
329,192,87194,1,0,0:0:0:60:drum.wav
475,192,87429,1,0,0:0:0:60:drum.wav
36,192,87663,1,0,0:0:0:50:kick.wav
182,192,87663,1,0,0:0:0:60:drum.wav
402,192,87897,1,0,0:0:0:60:drum.wav
256,192,88132,1,0,0:0:0:60:drum.wav
109,192,88366,1,0,0:0:0:60:drum.wav
329,192,88601,1,0,0:0:0:50:kick.wav
475,192,88601,1,0,0:0:0:50:hihat.wav
182,192,88835,1,0,0:0:0:50:kick.wav
402,192,89069,1,0,0:0:0:50:kick.wav
109,192,89304,1,0,0:0:0:50:kick.wav
475,192,89538,1,0,0:0:0:50:kick.wav
36,192,89772,1,0,0:0:0:50:kick.wav
402,192,90007,1,0,0:0:0:50:kick.wav
109,192,90241,1,0,0:0:0:50:kick.wav
256,192,90476,1,0,0:0:0:50:rim.wav
256,192,90944,1,0,0:0:0:50:rim.wav
256,192,91413,1,0,0:0:0:50:rim.wav
36,192,91882,128,0,92351:0:0:0:50:snare.wav
475,192,91882,128,0,92351:0:0:0:0:
182,192,92351,1,0,0:0:0:50:kick.wav
329,192,92351,1,0,0:0:0:50:finish2.wav
402,192,92819,1,0,0:0:0:0:
109,192,93288,1,0,0:0:0:50:kick.wav
256,192,93288,1,0,0:0:0:50:finish2.wav
329,192,93757,1,0,0:0:0:0:
36,192,94226,1,0,0:0:0:50:kick.wav
182,192,94226,1,0,0:0:0:50:finish2.wav
329,192,94694,1,0,0:0:0:50:kick.wav
475,192,94694,1,0,0:0:0:50:finish2.wav
36,192,95163,1,0,0:0:0:50:kick.wav
182,192,95163,1,0,0:0:0:50:finish2.wav
402,192,95632,1,0,0:0:0:0:
256,192,95866,1,0,0:0:0:0:
109,192,96101,1,0,0:0:0:50:kick.wav
475,192,96101,1,0,0:0:0:50:finish.wav
36,192,96569,1,0,0:0:0:50:hitclap.wav
402,192,96569,1,0,0:0:0:0:
256,192,97038,1,0,0:0:0:50:kick.wav
109,192,97507,1,0,0:0:0:50:hitclap.wav
402,192,97507,1,0,0:0:0:0:
182,192,97976,1,0,0:0:0:50:kick.wav
256,192,98444,1,0,0:0:0:50:hitclap.wav
475,192,98444,1,0,0:0:0:0:
36,192,98913,1,0,0:0:0:50:kick.wav
182,192,99382,1,0,0:0:0:50:hitclap.wav
402,192,99382,1,0,0:0:0:0:
329,192,99616,1,0,0:0:0:0:
256,192,99851,1,0,0:0:0:50:kick.wav
329,192,100319,1,0,0:0:0:50:hitclap.wav
475,192,100319,1,0,0:0:0:0:
256,192,100788,1,0,0:0:0:50:kick.wav
36,192,101257,1,0,0:0:0:50:hitclap.wav
182,192,101257,1,0,0:0:0:0:
402,192,101726,1,0,0:0:0:50:kick.wav
109,192,102194,1,0,0:0:0:50:hitclap.wav
256,192,102194,1,0,0:0:0:0:
475,192,102663,1,0,0:0:0:50:kick.wav
182,192,103132,1,0,0:0:0:50:hitclap.wav
329,192,103132,1,0,0:0:0:0:
36,192,103366,1,0,0:0:0:0:
256,192,103601,1,0,0:0:0:50:kick.wav
329,192,104069,1,0,0:0:0:50:hitclap.wav
475,192,104069,1,0,0:0:0:0:
109,192,104538,1,0,0:0:0:50:kick.wav
256,192,105007,1,0,0:0:0:50:hitclap.wav
402,192,105007,1,0,0:0:0:0:
182,192,105476,128,0,105944:0:0:0:50:kick.wav
475,192,105944,128,0,106413:0:0:0:50:hitclap.wav
36,192,106413,128,0,106882:0:0:0:50:kick.wav
256,192,106882,128,0,107351:0:0:0:50:drum2.wav
475,192,107351,1,0,0:0:0:50:kick.wav
182,192,107819,1,0,0:0:0:50:hitclap.wav
329,192,107819,1,0,0:0:0:0:
36,192,108288,1,0,0:0:0:50:kick.wav
256,192,108757,1,0,0:0:0:50:hitclap.wav
402,192,108757,1,0,0:0:0:0:
109,192,109226,1,0,0:0:0:50:kick.wav
329,192,109694,1,0,0:0:0:50:hitclap.wav
475,192,109694,1,0,0:0:0:0:
256,192,110163,1,0,0:0:0:50:kick.wav
36,192,110632,1,0,0:0:0:50:hitclap.wav
182,192,110632,1,0,0:0:0:0:
402,192,110866,1,0,0:0:0:0:
109,192,111101,1,0,0:0:0:50:kick.wav
256,192,111569,1,0,0:0:0:50:hitclap.wav
475,192,111569,1,0,0:0:0:0:
402,192,112038,1,0,0:0:0:50:kick.wav
109,192,112507,1,0,0:0:0:50:hitclap.wav
329,192,112507,1,0,0:0:0:0:
182,192,112976,1,0,0:0:0:50:kick.wav
36,192,113444,1,0,0:0:0:50:hitclap.wav
256,192,113444,1,0,0:0:0:0:
402,192,113913,1,0,0:0:0:50:kick.wav
109,192,114382,1,0,0:0:0:50:hitclap.wav
329,192,114382,1,0,0:0:0:0:
475,192,114616,1,0,0:0:0:0:
256,192,114851,1,0,0:0:0:50:kick.wav
36,192,115319,1,0,0:0:0:50:hitclap.wav
402,192,115319,1,0,0:0:0:0:
182,192,115788,1,0,0:0:0:50:kick.wav
109,192,116257,1,0,0:0:0:50:hitclap.wav
475,192,116257,1,0,0:0:0:0:
402,192,116726,1,0,0:0:0:50:kick.wav
329,192,117194,1,0,0:0:0:50:kick.wav
182,192,117663,1,0,0:0:0:50:kick.wav
402,192,117897,1,0,0:0:0:50:hihat2.wav
36,192,118132,128,0,118601:0:0:0:0:
256,192,118601,1,0,0:0:0:50:kick.wav
256,192,118835,1,0,0:0:0:50:kick.wav
36,192,119069,1,0,0:0:0:50:hitclap.wav
475,192,119069,1,0,0:0:0:50:finish.wav
329,192,119538,1,0,0:0:0:50:kick.wav
36,192,120007,1,0,0:0:0:50:hitclap.wav
182,192,120007,1,0,0:0:0:0:
329,192,120241,1,0,0:0:0:0:
475,192,120476,128,0,120944:0:0:0:50:kick.wav
36,192,120944,128,0,121413:0:0:0:50:hihat.wav
256,192,121413,128,0,121882:0:0:0:50:hihat.wav
182,192,121882,1,0,0:0:0:50:hitclap.wav
329,192,121882,1,0,0:0:0:0:
109,192,122351,128,0,122819:0:0:0:50:finish.wav
402,192,122351,128,0,122819:0:0:0:50:kick.wav
