osu file format v14

[General]
AudioFilename: audio.mp3
AudioLeadIn: 0
PreviewTime: 32351
Countdown: 0
SampleSet: Soft
StackLeniency: 0.7
Mode: 3
LetterboxInBreaks: 0
SpecialStyle: 0
WidescreenStoryboard: 1

[Editor]
Bookmarks: 2351,17351,24851,28601,32351,47819,62351,77351,96101,107351
DistanceSpacing: 1.1
BeatDivisor: 6
GridSize: 4
TimelineZoom: 2.099999

[Metadata]
Title:Crazy Shuffle
TitleUnicode:Crazy Shuffle
Artist:Yooh
ArtistUnicode:Yooh
Creator:_Hikari
Version:Another Stage
Source:DANCERUSH STARDOM
Tags:drs konami amusement bemani yoohsic roomz jubeat festo alone dancer future house DanceDanceRevolution A20 video game instrumental YACT-010
BeatmapID:3596788
BeatmapSetID:1756832

[Difficulty]
HPDrainRate:8.5
CircleSize:7
OverallDifficulty:8
ApproachRate:5
SliderMultiplier:1.4
SliderTickRate:1

[Events]
//Background and Video events
0,0,"Crazy Shuffle.jpg",0,0
//Break Periods
//Storyboard Layer 0 (Background)
//Storyboard Layer 1 (Fail)
//Storyboard Layer 2 (Pass)
//Storyboard Layer 3 (Foreground)
//Storyboard Layer 4 (Overlay)
//Storyboard Sound Samples

[TimingPoints]
2351,468.75,4,2,1,30,1,0
32351,-100.0,4,2,1,30,0,1
47351,-100.0,4,2,1,30,0,0
47819,-100.0,4,2,1,30,0,1
62351,-100.0,4,2,1,30,0,0
96101,-100.0,4,2,1,30,0,1
122351,-100.0,4,2,1,30,0,0

[HitObjects]
36,192,2351,1,0,0:0:0:0:
256,192,2351,1,0,0:0:0:0:
475,192,2351,1,0,0:0:0:0:
256,192,2702,1,0,0:0:0:0:
402,192,2819,1,0,0:0:0:0:
256,192,3054,1,0,0:0:0:0:
402,192,3288,1,0,0:0:0:0:
36,192,3405,1,0,0:0:0:0:
36,192,3757,1,0,0:0:0:0:
402,192,3757,1,0,0:0:0:0:
36,192,3991,1,0,0:0:0:0:
182,192,4226,1,0,0:0:0:0:
329,192,4226,1,0,0:0:0:0:
182,192,4577,1,0,0:0:0:0:
329,192,4694,1,0,0:0:0:0:
182,192,4929,1,0,0:0:0:0:
329,192,5163,1,0,0:0:0:0:
182,192,5280,1,0,0:0:0:0:
36,192,5632,1,0,0:0:0:0:
329,192,5632,1,0,0:0:0:0:
256,192,5866,1,0,0:0:0:0:
182,192,6101,1,0,0:0:0:0:
475,192,6101,1,0,0:0:0:0:
182,192,6452,1,0,0:0:0:0:
475,192,6569,1,0,0:0:0:0:
182,192,6804,1,0,0:0:0:0:
475,192,7038,1,0,0:0:0:0:
256,192,7155,1,0,0:0:0:0:
256,192,7507,1,0,0:0:0:0:
475,192,7507,1,0,0:0:0:0:
256,192,7741,1,0,0:0:0:0:
36,192,7976,1,0,0:0:0:0:
402,192,7976,128,0,8366:0:0:0:0:
182,192,8327,1,0,0:0:0:0:
36,192,8444,1,0,0:0:0:0:
329,192,8444,128,0,8835:0:0:0:0:
182,192,8679,1,0,0:0:0:0:
36,192,8913,1,0,0:0:0:0:
256,192,8913,128,0,9304:0:0:0:0:
182,192,9030,1,0,0:0:0:0:
36,192,9382,1,0,0:0:0:0:
329,192,9382,1,0,0:0:0:0:
402,192,9538,1,0,0:0:0:0:
109,192,9616,1,0,0:0:0:0:
182,192,9851,1,0,0:0:0:0:
475,192,9851,1,0,0:0:0:0:
36,192,10202,1,0,0:0:0:0:
182,192,10319,1,0,0:0:0:50:hitclap.wav
329,192,10319,1,0,0:0:0:0:
475,192,10319,1,0,0:0:0:0:
36,192,10554,1,0,0:0:0:0:
182,192,10788,1,0,0:0:0:0:
36,192,10905,1,0,0:0:0:0:
182,192,11257,1,0,0:0:0:50:hitclap.wav
329,192,11257,1,0,0:0:0:0:
475,192,11257,1,0,0:0:0:0:
109,192,11491,1,0,0:0:0:0:
36,192,11726,1,0,0:0:0:0:
256,192,11726,1,0,0:0:0:0:
475,192,12077,1,0,0:0:0:0:
36,192,12194,1,0,0:0:0:50:hitclap.wav
182,192,12194,1,0,0:0:0:0:
329,192,12194,1,0,0:0:0:0:
475,192,12429,1,0,0:0:0:0:
329,192,12663,1,0,0:0:0:0:
475,192,12780,1,0,0:0:0:0:
36,192,13132,1,0,0:0:0:50:hitclap.wav
182,192,13132,1,0,0:0:0:0:
329,192,13132,1,0,0:0:0:0:
402,192,13366,1,0,0:0:0:0:
256,192,13601,1,0,0:0:0:0:
475,192,13601,1,0,0:0:0:0:
182,192,13952,1,0,0:0:0:0:
36,192,14069,1,0,0:0:0:50:hitclap.wav
329,192,14069,1,0,0:0:0:0:
475,192,14069,1,0,0:0:0:0:
182,192,14304,1,0,0:0:0:0:
329,192,14538,1,0,0:0:0:0:
475,192,14655,1,0,0:0:0:0:
36,192,15007,1,0,0:0:0:50:hitclap.wav
329,192,15007,1,0,0:0:0:0:
475,192,15007,1,0,0:0:0:0:
109,192,15241,1,0,0:0:0:0:
182,192,15476,1,0,0:0:0:0:
402,192,15476,128,0,15866:0:0:0:0:
36,192,15827,1,0,0:0:0:0:
182,192,15944,1,0,0:0:0:50:hitclap.wav
329,192,15944,128,0,16335:0:0:0:0:
475,192,15944,1,0,0:0:0:0:
109,192,16179,1,0,0:0:0:0:
182,192,16413,1,0,0:0:0:0:
256,192,16413,128,0,16804:0:0:0:0:
36,192,16530,1,0,0:0:0:0:
109,192,16882,1,0,0:0:0:50:hitclap.wav
182,192,16882,1,0,0:0:0:0:
475,192,16882,1,0,0:0:0:0:
402,192,17116,1,0,0:0:0:0:
36,192,17351,1,0,0:0:0:60:drum.wav
109,192,17351,1,0,0:0:0:50:finish.wav
256,192,17351,1,0,0:0:0:0:
329,192,17351,128,0,19226:0:0:0:0:
182,192,17702,1,0,0:0:0:0:
36,192,17741,1,0,0:0:0:60:drum.wav
402,192,17819,1,0,0:0:0:60:drum.wav
475,192,17819,1,0,0:0:0:0:
109,192,18054,1,0,0:0:0:60:drum.wav
256,192,18054,1,0,0:0:0:0:
182,192,18171,1,0,0:0:0:0:
475,192,18288,1,0,0:0:0:0:
36,192,18405,1,0,0:0:0:0:
109,192,18444,1,0,0:0:0:60:drum.wav
256,192,18522,1,0,0:0:0:60:drum.wav
402,192,18522,1,0,0:0:0:0:
36,192,18757,1,0,0:0:0:60:drum.wav
182,192,18757,1,0,0:0:0:0:
256,192,18991,1,0,0:0:0:60:drum.wav
475,192,18991,1,0,0:0:0:0:
402,192,19147,1,0,0:0:0:60:drum.wav
36,192,19226,128,0,21101:0:0:0:60:drum.wav
109,192,19226,1,0,0:0:0:0:
182,192,19226,1,0,0:0:0:0:
182,192,19577,1,0,0:0:0:0:
109,192,19616,1,0,0:0:0:60:drum.wav
329,192,19694,1,0,0:0:0:60:drum.wav
475,192,19694,1,0,0:0:0:0:
256,192,19929,1,0,0:0:0:60:drum.wav
402,192,19929,1,0,0:0:0:0:
109,192,20046,1,0,0:0:0:0:
329,192,20163,1,0,0:0:0:0:
182,192,20280,1,0,0:0:0:0:
256,192,20319,1,0,0:0:0:60:drum.wav
402,192,20397,1,0,0:0:0:60:drum.wav
475,192,20397,1,0,0:0:0:0:
109,192,20632,1,0,0:0:0:60:drum.wav
329,192,20632,1,0,0:0:0:0:
256,192,20866,1,0,0:0:0:60:drum.wav
475,192,20866,1,0,0:0:0:0:
402,192,21022,1,0,0:0:0:60:drum.wav
109,192,21101,1,0,0:0:0:60:drum.wav
182,192,21101,128,0,22976:0:0:0:50:kick.wav
329,192,21101,1,0,0:0:0:0:
256,192,21413,1,0,0:0:0:0:
36,192,21491,1,0,0:0:0:60:drum.wav
329,192,21569,1,0,0:0:0:60:drum.wav
475,192,21569,1,0,0:0:0:0:
109,192,21804,1,0,0:0:0:60:drum.wav
256,192,21804,1,0,0:0:0:0:
402,192,21921,1,0,0:0:0:0:
36,192,22038,1,0,0:0:0:0:
329,192,22155,1,0,0:0:0:0:
475,192,22194,1,0,0:0:0:60:drum.wav
36,192,22272,1,0,0:0:0:60:drum.wav
109,192,22272,1,0,0:0:0:0:
256,192,22507,1,0,0:0:0:60:drum.wav
475,192,22507,1,0,0:0:0:0:
109,192,22741,1,0,0:0:0:60:drum.wav
402,192,22741,1,0,0:0:0:0:
329,192,22897,1,0,0:0:0:60:drum.wav
36,192,22976,1,0,0:0:0:60:drum.wav
256,192,22976,1,0,0:0:0:0:
475,192,22976,128,0,24851:0:0:0:0:
402,192,23327,1,0,0:0:0:0:
329,192,23366,1,0,0:0:0:60:drum.wav
36,192,23444,1,0,0:0:0:60:drum.wav
182,192,23444,1,0,0:0:0:0:
109,192,23679,1,0,0:0:0:60:drum.wav
256,192,23679,1,0,0:0:0:0:
402,192,23796,1,0,0:0:0:0:
182,192,23913,1,0,0:0:0:0:
256,192,24030,1,0,0:0:0:0:
329,192,24069,1,0,0:0:0:60:drum.wav
36,192,24147,1,0,0:0:0:60:drum.wav
109,192,24147,1,0,0:0:0:0:
182,192,24382,1,0,0:0:0:60:drum.wav
402,192,24382,1,0,0:0:0:0:
109,192,24616,1,0,0:0:0:60:drum.wav
329,192,24616,1,0,0:0:0:0:
402,192,24772,1,0,0:0:0:60:drum.wav
36,192,24851,1,0,0:0:0:60:drum.wav
182,192,24851,1,0,0:0:0:50:kick.wav
256,192,24851,128,0,28601:0:0:0:0:
109,192,25007,1,0,0:0:0:60:drum.wav
329,192,25085,1,0,0:0:0:60:drum.wav
475,192,25085,1,0,0:0:0:0:
402,192,25241,1,0,0:0:0:60:drum.wav
36,192,25319,1,0,0:0:0:60:drum.wav
182,192,25319,1,0,0:0:0:0:
475,192,25476,1,0,0:0:0:60:drum.wav
109,192,25554,1,0,0:0:0:60:drum.wav
182,192,25554,1,0,0:0:0:0:
36,192,25710,1,0,0:0:0:60:drum.wav
402,192,25788,1,0,0:0:0:60:drum.wav
475,192,25788,1,0,0:0:0:0:
329,192,25944,1,0,0:0:0:60:drum.wav
36,192,26022,1,0,0:0:0:60:drum.wav
109,192,26022,1,0,0:0:0:0:
182,192,26179,1,0,0:0:0:60:drum.wav
329,192,26257,1,0,0:0:0:60:drum.wav
475,192,26257,1,0,0:0:0:0:
402,192,26413,1,0,0:0:0:60:drum.wav
36,192,26491,1,0,0:0:0:60:drum.wav
182,192,26491,1,0,0:0:0:0:
109,192,26647,1,0,0:0:0:60:drum.wav
329,192,26726,1,0,0:0:0:60:drum.wav
402,192,26726,1,0,0:0:0:50:kick.wav
475,192,26726,1,0,0:0:0:0:
36,192,26882,1,0,0:0:0:60:drum.wav
182,192,26960,1,0,0:0:0:60:drum.wav
329,192,26960,1,0,0:0:0:0:
475,192,27116,1,0,0:0:0:60:drum.wav
182,192,27194,1,0,0:0:0:60:drum.wav
329,192,27194,1,0,0:0:0:0:
402,192,27351,1,0,0:0:0:60:drum.wav
36,192,27429,1,0,0:0:0:60:drum.wav
182,192,27429,1,0,0:0:0:0:
109,192,27585,1,0,0:0:0:60:drum.wav
329,192,27663,1,0,0:0:0:60:drum.wav
475,192,27663,1,0,0:0:0:0:
402,192,27819,1,0,0:0:0:60:drum.wav
109,192,27897,1,0,0:0:0:60:drum.wav
182,192,27897,1,0,0:0:0:0:
109,192,28054,1,0,0:0:0:60:drum.wav
329,192,28132,1,0,0:0:0:60:drum.wav
402,192,28132,1,0,0:0:0:0:
329,192,28288,1,0,0:0:0:60:drum.wav
36,192,28366,1,0,0:0:0:60:drum.wav
109,192,28366,1,0,0:0:0:0:
182,192,28522,1,0,0:0:0:60:drum.wav
329,192,28601,1,0,0:0:0:50:hihat.wav
402,192,28601,1,0,0:0:0:50:kick.wav
475,192,28601,128,0,28718:0:0:0:0:
36,192,28640,1,0,0:0:0:50:hihat.wav
109,192,28679,1,0,0:0:0:50:hihat.wav
182,192,28718,1,0,0:0:0:50:hihat.wav
256,192,28757,1,0,0:0:0:50:hihat.wav
36,192,28835,128,0,28952:0:0:0:50:hihat.wav
475,192,28874,1,0,0:0:0:50:hihat.wav
402,192,28913,1,0,0:0:0:50:hihat.wav
329,192,28952,1,0,0:0:0:50:hihat.wav
256,192,28991,1,0,0:0:0:50:hihat.wav
475,192,29069,128,0,29186:0:0:0:50:hihat.wav
36,192,29108,1,0,0:0:0:50:hihat.wav
109,192,29147,1,0,0:0:0:50:hihat.wav
182,192,29186,1,0,0:0:0:50:hihat.wav
256,192,29226,1,0,0:0:0:50:hihat.wav
36,192,29304,128,0,29421:0:0:0:50:hihat.wav
475,192,29343,1,0,0:0:0:50:hihat.wav
402,192,29382,1,0,0:0:0:50:hihat.wav
329,192,29421,1,0,0:0:0:50:hihat.wav
256,192,29460,1,0,0:0:0:50:hihat.wav
36,192,29538,128,0,29655:0:0:0:50:kick.wav
109,192,29538,1,0,0:0:0:50:hihat.wav
182,192,29538,1,0,0:0:0:0:
475,192,29577,1,0,0:0:0:50:hihat.wav
402,192,29616,1,0,0:0:0:50:hihat.wav
329,192,29655,1,0,0:0:0:50:hihat.wav
256,192,29694,1,0,0:0:0:50:hihat.wav
475,192,29772,128,0,29890:0:0:0:50:hihat.wav
36,192,29811,1,0,0:0:0:50:hihat.wav
109,192,29851,1,0,0:0:0:50:hihat.wav
182,192,29890,1,0,0:0:0:50:hihat.wav
256,192,29929,1,0,0:0:0:50:hihat.wav
36,192,30007,128,0,30124:0:0:0:50:hihat.wav
475,192,30046,1,0,0:0:0:50:hihat.wav
402,192,30085,1,0,0:0:0:50:hihat.wav
329,192,30124,1,0,0:0:0:50:hihat.wav
256,192,30163,1,0,0:0:0:50:hihat.wav
475,192,30241,128,0,30358:0:0:0:50:hihat.wav
36,192,30280,1,0,0:0:0:50:hihat.wav
109,192,30319,1,0,0:0:0:50:hihat.wav
182,192,30358,1,0,0:0:0:50:hihat.wav
256,192,30397,1,0,0:0:0:50:hihat.wav
329,192,30476,1,0,0:0:0:50:hihat2.wav
475,192,30476,1,0,0:0:0:0:
36,192,30632,1,0,0:0:0:50:hihat2.wav
402,192,30866,1,0,0:0:0:50:hihat2.wav
182,192,31101,1,0,0:0:0:50:hihat2.wav
329,192,31179,1,0,0:0:0:50:hihat2.wav
36,192,31413,1,0,0:0:0:50:hihat2.wav
182,192,31647,1,0,0:0:0:50:kick.wav
329,192,31647,1,0,0:0:0:0:
36,192,31882,1,0,0:0:0:50:snare.wav
109,192,31882,1,0,0:0:0:0:
402,192,31882,1,0,0:0:0:0:
475,192,31882,1,0,0:0:0:0:
36,192,32116,1,0,0:0:0:50:snare.wav
182,192,32116,1,0,0:0:0:0:
256,192,32116,1,0,0:0:0:0:
329,192,32116,1,0,0:0:0:0:
475,192,32116,1,0,0:0:0:0:
109,192,32351,1,0,0:0:0:50:kick.wav
182,192,32351,1,0,0:0:0:50:finish.wav
329,192,32351,1,0,0:0:0:0:
402,192,32351,1,0,0:0:0:0:
36,192,32507,1,0,0:0:0:0:
256,192,32507,1,0,0:0:0:0:
329,192,32585,1,0,0:0:0:0:
475,192,32585,1,0,0:0:0:0:
109,192,32819,1,0,0:0:0:50:hitclap.wav
182,192,32819,1,0,0:0:0:0:
402,192,32819,1,0,0:0:0:0:
475,192,32819,1,0,0:0:0:0:
109,192,33054,1,0,0:0:0:0:
329,192,33054,1,0,0:0:0:0:
36,192,33288,1,0,0:0:0:50:kick.wav
256,192,33288,1,0,0:0:0:0:
475,192,33288,1,0,0:0:0:0:
402,192,33444,1,0,0:0:0:0:
109,192,33522,1,0,0:0:0:0:
329,192,33522,1,0,0:0:0:0:
256,192,33679,1,0,0:0:0:0:
475,192,33679,1,0,0:0:0:0:
36,192,33757,1,0,0:0:0:50:hitclap.wav
109,192,33757,1,0,0:0:0:0:
182,192,33757,1,0,0:0:0:0:
329,192,33757,1,0,0:0:0:0:
256,192,33913,1,0,0:0:0:0:
402,192,33913,1,0,0:0:0:0:
36,192,33991,1,0,0:0:0:0:
182,192,33991,1,0,0:0:0:0:
329,192,34147,1,0,0:0:0:0:
475,192,34147,1,0,0:0:0:0:
36,192,34226,1,0,0:0:0:50:kick.wav
109,192,34226,1,0,0:0:0:0:
256,192,34226,1,0,0:0:0:0:
109,192,34382,1,0,0:0:0:0:
256,192,34382,1,0,0:0:0:0:
329,192,34460,1,0,0:0:0:0:
475,192,34460,1,0,0:0:0:0:
36,192,34694,1,0,0:0:0:50:hitclap.wav
109,192,34694,1,0,0:0:0:0:
256,192,34694,1,0,0:0:0:0:
402,192,34694,1,0,0:0:0:0:
182,192,34929,1,0,0:0:0:0:
329,192,34929,1,0,0:0:0:0:
109,192,35163,1,0,0:0:0:50:kick.wav
256,192,35163,1,0,0:0:0:0:
475,192,35163,1,0,0:0:0:0:
36,192,35319,1,0,0:0:0:0:
182,192,35397,1,0,0:0:0:0:
329,192,35397,1,0,0:0:0:0:
256,192,35554,1,0,0:0:0:0:
402,192,35554,1,0,0:0:0:0:
36,192,35632,1,0,0:0:0:50:hitclap.wav
109,192,35632,1,0,0:0:0:0:
329,192,35632,1,0,0:0:0:0:
475,192,35632,1,0,0:0:0:0:
182,192,35788,1,0,0:0:0:0:
256,192,35788,1,0,0:0:0:0:
475,192,35866,128,0,36101:0:0:0:0:
402,192,35905,128,0,36101:0:0:0:0:
329,192,35944,128,0,36101:0:0:0:0:
36,192,36101,1,0,0:0:0:50:kick.wav
109,192,36101,1,0,0:0:0:0:
256,192,36101,1,0,0:0:0:0:
182,192,36257,1,0,0:0:0:0:
329,192,36257,1,0,0:0:0:0:
402,192,36335,1,0,0:0:0:0:
475,192,36335,1,0,0:0:0:0:
36,192,36569,1,0,0:0:0:50:hitclap.wav
109,192,36569,1,0,0:0:0:0:
256,192,36569,1,0,0:0:0:0:
475,192,36569,1,0,0:0:0:0:
182,192,36804,1,0,0:0:0:0:
402,192,36804,1,0,0:0:0:0:
109,192,37038,1,0,0:0:0:50:kick.wav
256,192,37038,1,0,0:0:0:0:
475,192,37038,1,0,0:0:0:0:
36,192,37194,1,0,0:0:0:0:
182,192,37272,1,0,0:0:0:0:
329,192,37272,1,0,0:0:0:0:
256,192,37429,1,0,0:0:0:0:
402,192,37429,1,0,0:0:0:0:
36,192,37507,1,0,0:0:0:50:hitclap.wav
109,192,37507,1,0,0:0:0:0:
329,192,37507,1,0,0:0:0:0:
475,192,37507,1,0,0:0:0:0:
182,192,37663,1,0,0:0:0:0:
402,192,37663,1,0,0:0:0:0:
109,192,37741,1,0,0:0:0:0:
329,192,37741,1,0,0:0:0:0:
402,192,37897,1,0,0:0:0:0:
475,192,37897,1,0,0:0:0:0:
36,192,37976,1,0,0:0:0:50:kick.wav
182,192,37976,1,0,0:0:0:0:
329,192,37976,1,0,0:0:0:0:
36,192,38132,1,0,0:0:0:0:
182,192,38132,1,0,0:0:0:0:
256,192,38210,1,0,0:0:0:0:
402,192,38210,1,0,0:0:0:0:
109,192,38444,1,0,0:0:0:50:hitclap.wav
182,192,38444,1,0,0:0:0:0:
329,192,38444,1,0,0:0:0:0:
475,192,38444,1,0,0:0:0:0:
109,192,38679,1,0,0:0:0:0:
329,192,38679,1,0,0:0:0:0:
36,192,38913,1,0,0:0:0:50:kick.wav
256,192,38913,1,0,0:0:0:0:
402,192,38913,1,0,0:0:0:0:
182,192,39069,1,0,0:0:0:0:
329,192,39147,1,0,0:0:0:0:
36,192,39304,1,0,0:0:0:0:
109,192,39304,1,0,0:0:0:0:
256,192,39382,128,0,39616:0:0:0:50:hitclap.wav
475,192,39382,1,0,0:0:0:0:
182,192,39421,128,0,39616:0:0:0:0:
109,192,39460,128,0,39616:0:0:0:0:
36,192,39499,128,0,39616:0:0:0:0:
402,192,39616,128,0,39851:0:0:0:0:
475,192,39616,128,0,39851:0:0:0:0:
36,192,39851,1,0,0:0:0:50:kick.wav
182,192,39851,1,0,0:0:0:50:hihat.wav
329,192,39851,1,0,0:0:0:0:
109,192,40007,1,0,0:0:0:0:
256,192,40007,1,0,0:0:0:0:
402,192,40085,1,0,0:0:0:0:
475,192,40085,1,0,0:0:0:0:
36,192,40319,1,0,0:0:0:50:hitclap.wav
182,192,40319,1,0,0:0:0:50:hihat.wav
329,192,40319,1,0,0:0:0:0:
402,192,40319,1,0,0:0:0:0:
256,192,40554,1,0,0:0:0:0:
329,192,40554,1,0,0:0:0:0:
109,192,40788,1,0,0:0:0:50:kick.wav
182,192,40788,1,0,0:0:0:50:hihat.wav
475,192,40788,1,0,0:0:0:0:
256,192,40944,1,0,0:0:0:0:
36,192,41022,1,0,0:0:0:0:
182,192,41022,1,0,0:0:0:0:
329,192,41179,1,0,0:0:0:0:
402,192,41179,1,0,0:0:0:0:
36,192,41257,1,0,0:0:0:50:hitclap.wav
109,192,41257,1,0,0:0:0:50:hihat.wav
256,192,41257,1,0,0:0:0:0:
475,192,41257,1,0,0:0:0:0:
182,192,41413,1,0,0:0:0:0:
329,192,41413,1,0,0:0:0:0:
36,192,41491,1,0,0:0:0:0:
109,192,41491,1,0,0:0:0:0:
256,192,41647,1,0,0:0:0:0:
402,192,41647,1,0,0:0:0:0:
36,192,41726,1,0,0:0:0:50:kick.wav
182,192,41726,1,0,0:0:0:50:hihat.wav
475,192,41726,1,0,0:0:0:0:
36,192,41882,1,0,0:0:0:0:
182,192,41882,1,0,0:0:0:0:
256,192,41960,1,0,0:0:0:0:
402,192,41960,1,0,0:0:0:0:
109,192,42194,1,0,0:0:0:50:hitclap.wav
182,192,42194,1,0,0:0:0:50:hihat.wav
329,192,42194,1,0,0:0:0:0:
475,192,42194,1,0,0:0:0:0:
36,192,42429,1,0,0:0:0:0:
256,192,42429,1,0,0:0:0:0:
182,192,42663,1,0,0:0:0:50:kick.wav
329,192,42663,1,0,0:0:0:50:hihat.wav
475,192,42663,1,0,0:0:0:0:
36,192,42819,1,0,0:0:0:0:
109,192,42897,1,0,0:0:0:0:
256,192,42897,1,0,0:0:0:0:
329,192,43054,1,0,0:0:0:0:
475,192,43054,1,0,0:0:0:0:
36,192,43132,1,0,0:0:0:50:hitclap.wav
109,192,43132,1,0,0:0:0:50:hihat.wav
182,192,43132,1,0,0:0:0:0:
256,192,43132,1,0,0:0:0:0:
329,192,43288,1,0,0:0:0:0:
402,192,43288,1,0,0:0:0:0:
36,192,43366,128,0,43601:0:0:0:0:
109,192,43366,128,0,43601:0:0:0:0:
182,192,43601,1,0,0:0:0:50:kick.wav
329,192,43601,1,0,0:0:0:50:hihat.wav
475,192,43601,128,0,44069:0:0:0:0:
36,192,43757,1,0,0:0:0:0:
256,192,43757,1,0,0:0:0:0:
182,192,43835,1,0,0:0:0:0:
402,192,43835,1,0,0:0:0:0:
36,192,44069,128,0,44304:0:0:0:50:hitclap.wav
109,192,44069,1,0,0:0:0:50:hihat.wav
256,192,44069,1,0,0:0:0:0:
329,192,44069,1,0,0:0:0:0:
182,192,44304,1,0,0:0:0:0:
256,192,44304,1,0,0:0:0:0:
475,192,44304,128,0,44538:0:0:0:0:
109,192,44538,1,0,0:0:0:50:kick.wav
182,192,44538,1,0,0:0:0:50:hihat.wav
402,192,44538,1,0,0:0:0:0:
256,192,44694,1,0,0:0:0:0:
36,192,44772,1,0,0:0:0:0:
109,192,44772,1,0,0:0:0:0:
329,192,44929,1,0,0:0:0:0:
402,192,44929,1,0,0:0:0:0:
36,192,45007,128,0,45241:0:0:0:50:hitclap.wav
182,192,45007,1,0,0:0:0:50:hihat.wav
256,192,45007,1,0,0:0:0:0:
475,192,45007,1,0,0:0:0:0:
109,192,45163,1,0,0:0:0:0:
402,192,45163,1,0,0:0:0:0:
256,192,45241,128,0,45476:0:0:0:0:
329,192,45241,1,0,0:0:0:0:
36,192,45397,1,0,0:0:0:0:
182,192,45397,1,0,0:0:0:0:
329,192,45476,1,0,0:0:0:50:kick.wav
402,192,45476,1,0,0:0:0:0:
475,192,45476,128,0,45866:0:0:0:0:
109,192,45632,1,0,0:0:0:0:
256,192,45710,1,0,0:0:0:0:
36,192,45827,1,0,0:0:0:0:
182,192,45944,1,0,0:0:0:50:hitclap.wav
329,192,45944,1,0,0:0:0:0:
402,192,45944,1,0,0:0:0:0:
475,192,45944,128,0,46335:0:0:0:0:
256,192,46101,1,0,0:0:0:0:
109,192,46179,1,0,0:0:0:0:
329,192,46335,1,0,0:0:0:0:
36,192,46413,1,0,0:0:0:50:kick.wav
182,192,46413,1,0,0:0:0:0:
475,192,46413,128,0,46804:0:0:0:0:
256,192,46530,1,0,0:0:0:60:drum.wav
402,192,46530,1,0,0:0:0:0:
256,192,46804,1,0,0:0:0:60:drum.wav
402,192,46804,1,0,0:0:0:0:
36,192,46882,128,0,47038:0:0:0:50:drum2.wav
109,192,46882,128,0,47038:0:0:0:0:
182,192,46882,1,0,0:0:0:0:
256,192,47038,1,0,0:0:0:0:
402,192,47116,128,0,47272:0:0:0:50:drum2.wav
475,192,47116,128,0,47272:0:0:0:0:
109,192,47351,1,0,0:0:0:50:kick.wav
256,192,47351,1,0,0:0:0:0:
329,192,47351,1,0,0:0:0:0:
182,192,47585,1,0,0:0:0:50:kick.wav
329,192,47585,1,0,0:0:0:0:
402,192,47585,1,0,0:0:0:0:
36,192,47819,1,0,0:0:0:50:hitclap.wav
256,192,47819,1,0,0:0:0:50:finish.wav
402,192,47819,1,0,0:0:0:0:
475,192,47819,1,0,0:0:0:0:
182,192,48054,1,0,0:0:0:0:
329,192,48054,1,0,0:0:0:0:
475,192,48210,1,0,0:0:0:50:hihat.wav
36,192,48288,1,0,0:0:0:50:kick.wav
109,192,48288,1,0,0:0:0:0:
256,192,48288,1,0,0:0:0:0:
402,192,48444,1,0,0:0:0:0:
182,192,48522,1,0,0:0:0:0:
329,192,48522,1,0,0:0:0:0:
256,192,48679,1,0,0:0:0:0:
402,192,48679,1,0,0:0:0:0:
36,192,48757,1,0,0:0:0:50:hitclap.wav
109,192,48757,1,0,0:0:0:0:
329,192,48757,1,0,0:0:0:0:
475,192,48757,1,0,0:0:0:0:
182,192,48913,1,0,0:0:0:0:
256,192,48913,1,0,0:0:0:0:
36,192,48991,1,0,0:0:0:0:
402,192,48991,1,0,0:0:0:0:
109,192,49147,1,0,0:0:0:0:
256,192,49147,1,0,0:0:0:0:
182,192,49226,1,0,0:0:0:50:kick.wav
329,192,49226,1,0,0:0:0:0:
475,192,49226,1,0,0:0:0:0:
182,192,49382,1,0,0:0:0:0:
329,192,49382,1,0,0:0:0:0:
109,192,49460,1,0,0:0:0:0:
256,192,49460,1,0,0:0:0:0:
36,192,49694,1,0,0:0:0:50:hitclap.wav
182,192,49694,1,0,0:0:0:0:
402,192,49694,1,0,0:0:0:0:
475,192,49694,1,0,0:0:0:0:
256,192,49929,1,0,0:0:0:0:
329,192,49929,1,0,0:0:0:0:
182,192,50085,1,0,0:0:0:50:hihat.wav
36,192,50163,1,0,0:0:0:50:kick.wav
109,192,50163,1,0,0:0:0:0:
475,192,50163,1,0,0:0:0:0:
329,192,50397,1,0,0:0:0:0:
402,192,50397,1,0,0:0:0:0:
36,192,50554,1,0,0:0:0:0:
109,192,50554,1,0,0:0:0:0:
182,192,50632,128,0,50866:0:0:0:50:hitclap.wav
256,192,50632,1,0,0:0:0:0:
402,192,50632,1,0,0:0:0:0:
475,192,50632,1,0,0:0:0:0:
109,192,50788,1,0,0:0:0:0:
329,192,50788,1,0,0:0:0:0:
475,192,50866,128,0,51101:0:0:0:0:
256,192,50905,128,0,51101:0:0:0:0:
36,192,50944,128,0,51101:0:0:0:0:
109,192,51101,1,0,0:0:0:50:kick.wav
182,192,51101,1,0,0:0:0:0:
402,192,51101,1,0,0:0:0:0:
182,192,51257,1,0,0:0:0:0:
329,192,51257,1,0,0:0:0:0:
36,192,51335,1,0,0:0:0:0:
475,192,51335,1,0,0:0:0:0:
109,192,51569,1,0,0:0:0:50:hitclap.wav
182,192,51569,1,0,0:0:0:0:
329,192,51569,1,0,0:0:0:0:
402,192,51569,1,0,0:0:0:0:
256,192,51804,1,0,0:0:0:0:
475,192,51804,1,0,0:0:0:0:
329,192,51960,1,0,0:0:0:50:hihat.wav
36,192,52038,1,0,0:0:0:50:kick.wav
182,192,52038,1,0,0:0:0:0:
402,192,52038,1,0,0:0:0:0:
256,192,52194,1,0,0:0:0:0:
109,192,52272,1,0,0:0:0:0:
329,192,52272,1,0,0:0:0:0:
182,192,52429,1,0,0:0:0:0:
402,192,52429,1,0,0:0:0:0:
36,192,52507,1,0,0:0:0:50:hitclap.wav
109,192,52507,1,0,0:0:0:0:
256,192,52507,1,0,0:0:0:0:
475,192,52507,1,0,0:0:0:0:
182,192,52663,1,0,0:0:0:0:
402,192,52663,1,0,0:0:0:0:
109,192,52741,1,0,0:0:0:0:
329,192,52741,1,0,0:0:0:0:
36,192,52897,1,0,0:0:0:0:
256,192,52897,1,0,0:0:0:0:
182,192,52976,1,0,0:0:0:50:kick.wav
402,192,52976,1,0,0:0:0:0:
475,192,52976,1,0,0:0:0:0:
182,192,53132,1,0,0:0:0:0:
402,192,53132,1,0,0:0:0:0:
109,192,53210,1,0,0:0:0:0:
329,192,53210,1,0,0:0:0:0:
36,192,53444,1,0,0:0:0:50:hitclap.wav
256,192,53444,1,0,0:0:0:0:
402,192,53444,1,0,0:0:0:0:
475,192,53444,1,0,0:0:0:0:
256,192,53679,1,0,0:0:0:0:
475,192,53679,1,0,0:0:0:0:
36,192,53835,1,0,0:0:0:50:hihat.wav
182,192,53913,1,0,0:0:0:50:kick.wav
402,192,53913,1,0,0:0:0:0:
109,192,54069,1,0,0:0:0:50:rim.wav
329,192,54147,1,0,0:0:0:50:rim.wav
402,192,54147,1,0,0:0:0:0:
109,192,54226,1,0,0:0:0:50:rim.wav
329,192,54304,1,0,0:0:0:50:rim.wav
402,192,54304,1,0,0:0:0:0:
36,192,54382,1,0,0:0:0:50:hitclap.wav
256,192,54382,128,0,54616:0:0:0:0:
475,192,54421,128,0,54616:0:0:0:0:
402,192,54460,128,0,54616:0:0:0:0:
329,192,54499,128,0,54616:0:0:0:0:
36,192,54616,128,0,54851:0:0:0:0:
109,192,54616,128,0,54851:0:0:0:0:
182,192,54851,1,0,0:0:0:50:kick.wav
256,192,54851,1,0,0:0:0:0:
402,192,54851,1,0,0:0:0:0:
36,192,55007,1,0,0:0:0:0:
475,192,55007,1,0,0:0:0:0:
182,192,55085,1,0,0:0:0:0:
329,192,55085,1,0,0:0:0:0:
109,192,55319,1,0,0:0:0:50:hitclap.wav
256,192,55319,1,0,0:0:0:0:
402,192,55319,1,0,0:0:0:0:
475,192,55319,1,0,0:0:0:0:
36,192,55554,1,0,0:0:0:0:
182,192,55554,1,0,0:0:0:0:
475,192,55710,1,0,0:0:0:50:hihat.wav
109,192,55788,1,0,0:0:0:50:kick.wav
256,192,55788,1,0,0:0:0:0:
329,192,55788,1,0,0:0:0:0:
182,192,56022,1,0,0:0:0:0:
402,192,56022,1,0,0:0:0:0:
256,192,56179,1,0,0:0:0:0:
475,192,56179,1,0,0:0:0:0:
36,192,56257,1,0,0:0:0:50:hitclap.wav
109,192,56257,1,0,0:0:0:0:
329,192,56257,1,0,0:0:0:0:
402,192,56257,1,0,0:0:0:0:
182,192,56413,1,0,0:0:0:0:
256,192,56413,1,0,0:0:0:0:
109,192,56647,1,0,0:0:0:0:
329,192,56647,1,0,0:0:0:0:
36,192,56726,1,0,0:0:0:50:kick.wav
182,192,56726,1,0,0:0:0:0:
475,192,56726,1,0,0:0:0:0:
36,192,56882,1,0,0:0:0:0:
182,192,56882,1,0,0:0:0:0:
256,192,56960,1,0,0:0:0:0:
402,192,56960,1,0,0:0:0:0:
475,192,57116,1,0,0:0:0:0:
109,192,57194,1,0,0:0:0:50:kick.wav
182,192,57194,1,0,0:0:0:0:
329,192,57194,1,0,0:0:0:0:
36,192,57351,1,0,0:0:0:0:
182,192,57429,1,0,0:0:0:0:
329,192,57429,1,0,0:0:0:0:
402,192,57585,1,0,0:0:0:0:
36,192,57663,1,0,0:0:0:50:kick.wav
109,192,57663,1,0,0:0:0:0:
256,192,57663,1,0,0:0:0:0:
329,192,57819,128,0,58054:0:0:0:0:
402,192,57858,128,0,58054:0:0:0:0:
475,192,57897,128,0,58054:0:0:0:0:
182,192,58054,1,0,0:0:0:0:
36,192,58132,128,0,58288:0:0:0:0:
256,192,58132,1,0,0:0:0:0:
36,192,58366,128,0,58522:0:0:0:0:
256,192,58366,1,0,0:0:0:0:
109,192,58601,1,0,0:0:0:50:kick.wav
256,192,58601,128,0,59069:0:0:0:0:
402,192,58601,1,0,0:0:0:0:
329,192,58757,1,0,0:0:0:0:
475,192,58757,1,0,0:0:0:0:
36,192,58835,1,0,0:0:0:50:kick.wav
182,192,58835,1,0,0:0:0:0:
402,192,58835,1,0,0:0:0:0:
109,192,59069,1,0,0:0:0:50:hitclap.wav
182,192,59069,1,0,0:0:0:50:finish.wav
329,192,59069,1,0,0:0:0:0:
475,192,59069,128,0,59304:0:0:0:0:
36,192,59304,128,0,59538:0:0:0:0:
182,192,59304,1,0,0:0:0:0:
329,192,59460,1,0,0:0:0:0:
109,192,59538,1,0,0:0:0:50:kick.wav
256,192,59538,1,0,0:0:0:0:
475,192,59538,1,0,0:0:0:0:
182,192,59772,1,0,0:0:0:0:
329,192,59772,1,0,0:0:0:0:
256,192,59929,1,0,0:0:0:0:
402,192,59929,1,0,0:0:0:0:
36,192,60007,128,0,60241:0:0:0:50:hitclap.wav
182,192,60007,1,0,0:0:0:0:
329,192,60007,1,0,0:0:0:0:
475,192,60007,1,0,0:0:0:0:
109,192,60163,1,0,0:0:0:0:
256,192,60163,1,0,0:0:0:0:
402,192,60241,1,0,0:0:0:0:
475,192,60241,128,0,60476:0:0:0:0:
182,192,60397,1,0,0:0:0:0:
329,192,60397,1,0,0:0:0:0:
36,192,60476,128,0,60866:0:0:0:50:kick.wav
109,192,60476,1,0,0:0:0:0:
256,192,60476,1,0,0:0:0:0:
402,192,60476,1,0,0:0:0:0:
329,192,60632,1,0,0:0:0:0:
475,192,60710,1,0,0:0:0:0:
256,192,60866,1,0,0:0:0:0:
36,192,60944,128,0,61335:0:0:0:50:hihat.wav
109,192,60944,1,0,0:0:0:0:
402,192,60944,1,0,0:0:0:0:
182,192,61101,1,0,0:0:0:0:
329,192,61179,1,0,0:0:0:0:
256,192,61335,1,0,0:0:0:0:
36,192,61413,128,0,61882:0:0:0:50:hihat.wav
109,192,61413,1,0,0:0:0:0:
475,192,61413,1,0,0:0:0:0:
329,192,61491,1,0,0:0:0:0:
182,192,61569,1,0,0:0:0:0:
402,192,61647,1,0,0:0:0:0:
256,192,61726,1,0,0:0:0:0:
109,192,61804,1,0,0:0:0:0:
182,192,61882,1,0,0:0:0:50:hitclap.wav
329,192,61882,1,0,0:0:0:0:
402,192,61882,1,0,0:0:0:0:
475,192,61882,1,0,0:0:0:0:
36,192,62351,1,0,0:0:0:50:kick.wav
256,192,62351,128,0,63679:0:0:0:0:
475,192,62351,1,0,0:0:0:0:
36,192,63679,1,0,0:0:0:50:snare.wav
109,192,63679,1,0,0:0:0:0:
402,192,63679,1,0,0:0:0:0:
475,192,63679,1,0,0:0:0:0:
182,192,63757,128,0,63913:0:0:0:50:drum2.wav
329,192,63757,128,0,63913:0:0:0:0:
402,192,63913,1,0,0:0:0:50:drum2.wav
475,192,63913,1,0,0:0:0:0:
109,192,63991,128,0,64147:0:0:0:50:drum2.wav
256,192,63991,128,0,64147:0:0:0:0:
329,192,64147,1,0,0:0:0:50:drum2.wav
402,192,64147,1,0,0:0:0:0:
36,192,64226,128,0,66101:0:0:0:50:kick.wav
109,192,64226,1,0,0:0:0:50:finish.wav
182,192,64226,1,0,0:0:0:0:
475,192,64226,1,0,0:0:0:0:
329,192,64382,1,0,0:0:0:0:
182,192,64460,1,0,0:0:0:0:
256,192,64577,1,0,0:0:0:0:
109,192,64694,1,0,0:0:0:50:snare.wav
402,192,64694,1,0,0:0:0:0:
475,192,64694,1,0,0:0:0:0:
182,192,64929,1,0,0:0:0:0:
256,192,65085,1,0,0:0:0:50:kick.wav
402,192,65085,1,0,0:0:0:0:
109,192,65163,1,0,0:0:0:0:
475,192,65280,1,0,0:0:0:0:
329,192,65319,1,0,0:0:0:0:
182,192,65397,1,0,0:0:0:50:kick.wav
256,192,65397,1,0,0:0:0:0:
109,192,65554,1,0,0:0:0:0:
329,192,65632,1,0,0:0:0:50:snare.wav
402,192,65632,1,0,0:0:0:0:
475,192,65632,1,0,0:0:0:0:
182,192,65866,1,0,0:0:0:0:
402,192,65866,1,0,0:0:0:0:
256,192,66101,128,0,67976:0:0:0:50:kick.wav
329,192,66101,1,0,0:0:0:0:
475,192,66101,1,0,0:0:0:0:
182,192,66257,1,0,0:0:0:0:
402,192,66335,1,0,0:0:0:0:
36,192,66452,1,0,0:0:0:0:
109,192,66569,1,0,0:0:0:50:snare.wav
329,192,66569,1,0,0:0:0:0:
475,192,66569,1,0,0:0:0:0:
182,192,66804,1,0,0:0:0:0:
402,192,66804,1,0,0:0:0:0:
36,192,66960,1,0,0:0:0:50:kick.wav
109,192,66960,1,0,0:0:0:0:
475,192,67038,1,0,0:0:0:0:
329,192,67155,1,0,0:0:0:0:
109,192,67194,1,0,0:0:0:0:
402,192,67272,1,0,0:0:0:50:kick.wav
475,192,67272,1,0,0:0:0:0:
36,192,67429,1,0,0:0:0:0:
109,192,67507,1,0,0:0:0:50:snare.wav
329,192,67507,1,0,0:0:0:0:
475,192,67507,1,0,0:0:0:0:
182,192,67741,1,0,0:0:0:0:
402,192,67741,1,0,0:0:0:0:
36,192,67976,1,0,0:0:0:50:kick.wav
329,192,67976,1,0,0:0:0:0:
475,192,67976,128,0,69382:0:0:0:0:
109,192,68132,1,0,0:0:0:0:
256,192,68210,1,0,0:0:0:0:
402,192,68327,1,0,0:0:0:0:
36,192,68444,1,0,0:0:0:50:snare.wav
109,192,68444,1,0,0:0:0:0:
329,192,68444,1,0,0:0:0:0:
182,192,68679,1,0,0:0:0:0:
256,192,68835,1,0,0:0:0:50:kick.wav
402,192,68835,1,0,0:0:0:0:
36,192,68913,1,0,0:0:0:0:
182,192,69030,1,0,0:0:0:0:
329,192,69069,1,0,0:0:0:0:
109,192,69147,1,0,0:0:0:50:kick.wav
402,192,69147,1,0,0:0:0:0:
256,192,69304,1,0,0:0:0:0:
109,192,69382,128,0,69538:0:0:0:50:drum2.wav
182,192,69382,128,0,69538:0:0:0:0:
402,192,69538,128,0,69616:0:0:0:0:
475,192,69538,128,0,69616:0:0:0:0:
36,192,69616,128,0,69772:0:0:0:0:
109,192,69616,128,0,69772:0:0:0:0:
329,192,69772,128,0,69851:0:0:0:0:
402,192,69772,128,0,69851:0:0:0:0:
36,192,69851,1,0,0:0:0:50:kick.wav
182,192,69851,128,0,71726:0:0:0:0:
256,192,69851,1,0,0:0:0:0:
475,192,70007,1,0,0:0:0:0:
329,192,70085,1,0,0:0:0:0:
256,192,70202,1,0,0:0:0:0:
36,192,70319,1,0,0:0:0:50:snare.wav
402,192,70319,1,0,0:0:0:0:
475,192,70319,1,0,0:0:0:0:
329,192,70554,1,0,0:0:0:0:
475,192,70554,1,0,0:0:0:0:
36,192,70710,1,0,0:0:0:50:kick.wav
109,192,70710,1,0,0:0:0:0:
256,192,70788,1,0,0:0:0:0:
402,192,70905,1,0,0:0:0:0:
36,192,70944,1,0,0:0:0:0:
329,192,71022,1,0,0:0:0:50:kick.wav
475,192,71022,1,0,0:0:0:0:
109,192,71179,1,0,0:0:0:0:
36,192,71257,1,0,0:0:0:50:snare.wav
256,192,71257,1,0,0:0:0:0:
402,192,71257,1,0,0:0:0:0:
109,192,71491,1,0,0:0:0:0:
256,192,71491,1,0,0:0:0:0:
329,192,71726,128,0,73601:0:0:0:50:kick.wav
402,192,71726,1,0,0:0:0:0:
475,192,71726,1,0,0:0:0:0:
36,192,71882,1,0,0:0:0:0:
256,192,71960,1,0,0:0:0:0:
109,192,72077,1,0,0:0:0:0:
182,192,72194,1,0,0:0:0:50:snare.wav
402,192,72194,1,0,0:0:0:0:
475,192,72194,1,0,0:0:0:0:
36,192,72429,1,0,0:0:0:0:
256,192,72585,1,0,0:0:0:50:kick.wav
475,192,72585,1,0,0:0:0:0:
109,192,72663,1,0,0:0:0:0:
182,192,72780,1,0,0:0:0:0:
475,192,72819,1,0,0:0:0:0:
36,192,72897,1,0,0:0:0:50:kick.wav
109,192,72897,1,0,0:0:0:0:
256,192,73054,1,0,0:0:0:0:
182,192,73132,1,0,0:0:0:50:snare.wav
402,192,73132,1,0,0:0:0:0:
475,192,73132,1,0,0:0:0:0:
109,192,73366,1,0,0:0:0:50:kick.wav
402,192,73366,1,0,0:0:0:0:
36,192,73601,1,0,0:0:0:50:kick.wav
256,192,73601,128,0,75476:0:0:0:0:
475,192,73601,1,0,0:0:0:0:
109,192,73757,1,0,0:0:0:0:
402,192,73835,1,0,0:0:0:0:
182,192,73952,1,0,0:0:0:0:
36,192,74069,1,0,0:0:0:50:snare.wav
329,192,74069,1,0,0:0:0:0:
475,192,74069,1,0,0:0:0:0:
109,192,74304,1,0,0:0:0:0:
182,192,74460,1,0,0:0:0:50:kick.wav
402,192,74460,1,0,0:0:0:0:
36,192,74538,1,0,0:0:0:0:
329,192,74655,1,0,0:0:0:0:
109,192,74694,1,0,0:0:0:0:
402,192,74772,1,0,0:0:0:50:kick.wav
475,192,74772,1,0,0:0:0:0:
329,192,74929,1,0,0:0:0:0:
36,192,75007,1,0,0:0:0:50:snare.wav
182,192,75007,1,0,0:0:0:0:
475,192,75007,1,0,0:0:0:0:
402,192,75163,1,0,0:0:0:0:
36,192,75241,1,0,0:0:0:50:kick.wav
109,192,75241,1,0,0:0:0:0:
182,192,75397,1,0,0:0:0:0:
36,192,75476,128,0,75866:0:0:0:50:kick.wav
329,192,75476,128,0,75710:0:0:0:50:finish2.wav
475,192,75476,128,0,75866:0:0:0:0:
182,192,75710,1,0,0:0:0:50:drum2.wav
109,192,75944,128,0,76335:0:0:0:50:kick.wav
256,192,75944,128,0,76179:0:0:0:50:finish2.wav
402,192,75944,128,0,76335:0:0:0:0:
329,192,76179,1,0,0:0:0:50:drum2.wav
256,192,76335,1,0,0:0:0:0:
36,192,76413,128,0,76804:0:0:0:50:kick.wav
182,192,76413,128,0,76804:0:0:0:50:finish2.wav
329,192,76413,128,0,76804:0:0:0:0:
475,192,76804,1,0,0:0:0:50:hihat2.wav
36,192,76882,1,0,0:0:0:50:hihat2.wav
109,192,76882,1,0,0:0:0:0:
182,192,76882,1,0,0:0:0:0:
329,192,76960,1,0,0:0:0:50:hihat2.wav
182,192,77038,1,0,0:0:0:50:hihat2.wav
329,192,77116,1,0,0:0:0:50:hihat2.wav
475,192,77116,1,0,0:0:0:0:
36,192,77194,1,0,0:0:0:50:hihat2.wav
182,192,77194,1,0,0:0:0:0:
329,192,77272,1,0,0:0:0:50:hihat2.wav
475,192,77272,1,0,0:0:0:0:
36,192,77351,128,0,81101:0:0:0:50:finish.wav
109,192,77351,128,0,77819:0:0:0:60:drum.wav
182,192,77351,128,0,77741:0:0:0:0:
475,192,77741,1,0,0:0:0:60:drum.wav
256,192,77819,1,0,0:0:0:60:drum.wav
402,192,77819,1,0,0:0:0:0:
182,192,78054,1,0,0:0:0:60:drum.wav
329,192,78054,1,0,0:0:0:0:
256,192,78288,1,0,0:0:0:60:drum.wav
475,192,78288,1,0,0:0:0:0:
109,192,78444,1,0,0:0:0:60:drum.wav
182,192,78444,1,0,0:0:0:0:
329,192,78522,1,0,0:0:0:60:drum.wav
402,192,78522,1,0,0:0:0:0:
109,192,78757,1,0,0:0:0:60:drum.wav
256,192,78757,1,0,0:0:0:0:
329,192,78991,1,0,0:0:0:60:drum.wav
475,192,78991,1,0,0:0:0:0:
109,192,79147,1,0,0:0:0:60:drum.wav
182,192,79147,1,0,0:0:0:0:
256,192,79226,1,0,0:0:0:60:drum.wav
329,192,79226,1,0,0:0:0:0:
402,192,79226,1,0,0:0:0:0:
109,192,79616,1,0,0:0:0:60:drum.wav
256,192,79616,1,0,0:0:0:0:
329,192,79694,1,0,0:0:0:60:drum.wav
475,192,79694,1,0,0:0:0:0:
256,192,79929,1,0,0:0:0:60:drum.wav
402,192,79929,1,0,0:0:0:0:
109,192,80163,1,0,0:0:0:60:drum.wav
329,192,80163,1,0,0:0:0:0:
182,192,80319,1,0,0:0:0:60:drum.wav
256,192,80319,1,0,0:0:0:0:
402,192,80397,1,0,0:0:0:60:drum.wav
475,192,80397,1,0,0:0:0:0:
109,192,80632,128,0,81101:0:0:0:60:drum.wav
329,192,80632,1,0,0:0:0:0:
475,192,80632,1,0,0:0:0:0:
256,192,80866,1,0,0:0:0:60:drum.wav
402,192,80866,1,0,0:0:0:0:
182,192,81022,1,0,0:0:0:0:
256,192,81101,1,0,0:0:0:50:kick.wav
329,192,81101,128,0,81491:0:0:0:60:drum.wav
402,192,81101,128,0,81569:0:0:0:0:
475,192,81101,128,0,84851:0:0:0:0:
36,192,81491,1,0,0:0:0:60:drum.wav
109,192,81569,1,0,0:0:0:60:drum.wav
256,192,81569,1,0,0:0:0:0:
36,192,81804,1,0,0:0:0:60:drum.wav
182,192,81804,1,0,0:0:0:0:
109,192,82038,1,0,0:0:0:60:drum.wav
329,192,82038,1,0,0:0:0:0:
256,192,82194,1,0,0:0:0:60:drum.wav
402,192,82194,1,0,0:0:0:0:
36,192,82272,1,0,0:0:0:60:drum.wav
182,192,82272,1,0,0:0:0:0:
109,192,82507,1,0,0:0:0:60:drum.wav
329,192,82507,1,0,0:0:0:0:
36,192,82741,1,0,0:0:0:60:drum.wav
256,192,82741,1,0,0:0:0:0:
109,192,82897,1,0,0:0:0:60:drum.wav
182,192,82897,1,0,0:0:0:0:
36,192,82976,1,0,0:0:0:60:drum.wav
329,192,82976,1,0,0:0:0:0:
402,192,82976,1,0,0:0:0:0:
256,192,83366,1,0,0:0:0:60:drum.wav
329,192,83366,1,0,0:0:0:0:
36,192,83444,1,0,0:0:0:60:drum.wav
182,192,83444,1,0,0:0:0:0:
256,192,83679,1,0,0:0:0:60:drum.wav
402,192,83679,1,0,0:0:0:0:
182,192,83913,1,0,0:0:0:60:drum.wav
329,192,83913,1,0,0:0:0:0:
36,192,84069,1,0,0:0:0:60:drum.wav
109,192,84069,1,0,0:0:0:0:
256,192,84147,1,0,0:0:0:60:drum.wav
402,192,84147,1,0,0:0:0:0:
182,192,84304,1,0,0:0:0:0:
36,192,84382,128,0,84460:0:0:0:60:drum.wav
329,192,84382,1,0,0:0:0:0:
256,192,84538,1,0,0:0:0:60:drum.wav
36,192,84616,128,0,84851:0:0:0:60:drum.wav
109,192,84616,1,0,0:0:0:0:
256,192,84851,128,0,88601:0:0:0:50:kick.wav
329,192,84851,1,0,0:0:0:60:drum.wav
402,192,84851,1,0,0:0:0:0:
109,192,85007,1,0,0:0:0:60:drum.wav
329,192,85085,1,0,0:0:0:60:drum.wav
475,192,85085,1,0,0:0:0:0:
402,192,85241,1,0,0:0:0:60:drum.wav
36,192,85319,1,0,0:0:0:60:drum.wav
182,192,85319,1,0,0:0:0:0:
36,192,85476,1,0,0:0:0:60:drum.wav
402,192,85554,1,0,0:0:0:60:drum.wav
475,192,85554,1,0,0:0:0:0:
475,192,85710,1,0,0:0:0:60:drum.wav
36,192,85788,1,0,0:0:0:50:kick.wav
109,192,85788,1,0,0:0:0:60:drum.wav
182,192,85788,1,0,0:0:0:0:
329,192,85944,1,0,0:0:0:60:drum.wav
109,192,86022,1,0,0:0:0:60:drum.wav
182,192,86022,1,0,0:0:0:0:
36,192,86179,1,0,0:0:0:60:drum.wav
402,192,86257,1,0,0:0:0:60:drum.wav
475,192,86257,1,0,0:0:0:0:
329,192,86413,1,0,0:0:0:60:drum.wav
36,192,86491,1,0,0:0:0:60:drum.wav
182,192,86491,1,0,0:0:0:0:
109,192,86647,1,0,0:0:0:60:drum.wav
329,192,86726,1,0,0:0:0:50:kick.wav
402,192,86726,1,0,0:0:0:60:drum.wav
475,192,86726,1,0,0:0:0:0:
36,192,86882,1,0,0:0:0:60:drum.wav
182,192,86960,1,0,0:0:0:60:drum.wav
329,192,86960,1,0,0:0:0:0:
402,192,87116,1,0,0:0:0:60:drum.wav
36,192,87194,1,0,0:0:0:60:drum.wav
109,192,87194,1,0,0:0:0:0:
475,192,87351,1,0,0:0:0:60:drum.wav
182,192,87429,1,0,0:0:0:60:drum.wav
329,192,87429,1,0,0:0:0:0:
109,192,87507,1,0,0:0:0:0:
36,192,87663,1,0,0:0:0:50:kick.wav
402,192,87663,1,0,0:0:0:60:drum.wav
475,192,87663,1,0,0:0:0:0:
329,192,87819,1,0,0:0:0:60:drum.wav
109,192,87897,1,0,0:0:0:60:drum.wav
182,192,87897,1,0,0:0:0:0:
182,192,88054,1,0,0:0:0:60:drum.wav
329,192,88132,1,0,0:0:0:60:drum.wav
402,192,88132,1,0,0:0:0:0:
475,192,88288,1,0,0:0:0:60:drum.wav
36,192,88366,1,0,0:0:0:60:drum.wav
109,192,88366,1,0,0:0:0:0:
182,192,88522,1,0,0:0:0:60:drum.wav
36,192,88601,1,0,0:0:0:50:kick.wav
402,192,88601,1,0,0:0:0:50:hihat.wav
475,192,88601,1,0,0:0:0:0:
109,192,88640,1,0,0:0:0:50:hihat.wav
182,192,88679,1,0,0:0:0:50:hihat.wav
256,192,88718,1,0,0:0:0:50:hihat.wav
329,192,88757,1,0,0:0:0:50:hihat.wav
36,192,88835,1,0,0:0:0:50:kick.wav
475,192,88835,1,0,0:0:0:50:hihat.wav
402,192,88874,1,0,0:0:0:50:hihat.wav
329,192,88913,1,0,0:0:0:50:hihat.wav
256,192,88952,1,0,0:0:0:50:hihat.wav
182,192,88991,1,0,0:0:0:50:hihat.wav
36,192,89069,1,0,0:0:0:50:kick.wav
402,192,89069,1,0,0:0:0:50:hihat.wav
109,192,89108,1,0,0:0:0:50:hihat.wav
182,192,89147,1,0,0:0:0:50:hihat.wav
256,192,89186,1,0,0:0:0:50:hihat.wav
329,192,89226,1,0,0:0:0:50:hihat.wav
109,192,89304,1,0,0:0:0:50:kick.wav
475,192,89304,1,0,0:0:0:50:hihat.wav
402,192,89343,1,0,0:0:0:50:hihat.wav
329,192,89382,1,0,0:0:0:50:hihat.wav
256,192,89421,1,0,0:0:0:50:hihat.wav
182,192,89460,1,0,0:0:0:50:hihat.wav
36,192,89538,1,0,0:0:0:50:kick.wav
402,192,89538,1,0,0:0:0:50:hihat.wav
475,192,89538,1,0,0:0:0:0:
182,192,89694,1,0,0:0:0:50:kick.wav
256,192,89694,1,0,0:0:0:50:hihat.wav
36,192,89772,1,0,0:0:0:50:kick.wav
109,192,89772,1,0,0:0:0:50:hihat.wav
402,192,89772,1,0,0:0:0:0:
256,192,89929,1,0,0:0:0:50:kick.wav
329,192,89929,1,0,0:0:0:50:hihat.wav
109,192,90007,1,0,0:0:0:50:kick.wav
402,192,90007,1,0,0:0:0:50:hihat.wav
475,192,90007,1,0,0:0:0:0:
182,192,90163,1,0,0:0:0:50:kick.wav
256,192,90163,1,0,0:0:0:50:hihat.wav
36,192,90241,1,0,0:0:0:50:kick.wav
109,192,90241,1,0,0:0:0:50:hihat.wav
402,192,90241,1,0,0:0:0:0:
256,192,90397,1,0,0:0:0:50:kick.wav
329,192,90397,1,0,0:0:0:50:hihat.wav
36,192,90476,1,0,0:0:0:50:rim.wav
36,192,90944,1,0,0:0:0:50:rim.wav
36,192,91413,1,0,0:0:0:50:rim.wav
36,192,91804,1,0,0:0:0:50:rim.wav
182,192,91882,1,0,0:0:0:50:snare.wav
329,192,91882,1,0,0:0:0:0:
402,192,91882,1,0,0:0:0:0:
475,192,91882,1,0,0:0:0:0:
36,192,92038,1,0,0:0:0:50:rim.wav
256,192,92116,128,0,92351:0:0:0:0:
109,192,92351,1,0,0:0:0:50:kick.wav
182,192,92351,1,0,0:0:0:50:finish2.wav
329,192,92351,1,0,0:0:0:0:
402,192,92351,1,0,0:0:0:0:
36,192,92507,1,0,0:0:0:0:
329,192,92507,1,0,0:0:0:0:
182,192,92585,1,0,0:0:0:0:
475,192,92585,1,0,0:0:0:0:
182,192,92741,1,0,0:0:0:50:drum2.wav
329,192,92741,1,0,0:0:0:0:
36,192,92819,128,0,93054:0:0:0:0:
256,192,92819,128,0,93054:0:0:0:0:
475,192,92819,128,0,93054:0:0:0:0:
36,192,93288,1,0,0:0:0:50:kick.wav
182,192,93288,1,0,0:0:0:50:finish2.wav
329,192,93288,1,0,0:0:0:0:
475,192,93288,1,0,0:0:0:0:
182,192,93444,1,0,0:0:0:0:
475,192,93444,1,0,0:0:0:0:
36,192,93522,1,0,0:0:0:0:
329,192,93522,1,0,0:0:0:0:
109,192,93679,1,0,0:0:0:50:drum2.wav
402,192,93679,1,0,0:0:0:0:
182,192,93757,128,0,93991:0:0:0:0:
329,192,93757,128,0,93991:0:0:0:0:
36,192,94226,1,0,0:0:0:50:kick.wav
182,192,94226,1,0,0:0:0:50:finish2.wav
256,192,94226,128,0,94460:0:0:0:0:
329,192,94226,1,0,0:0:0:0:
109,192,94382,1,0,0:0:0:0:
182,192,94460,1,0,0:0:0:0:
402,192,94616,1,0,0:0:0:50:drum2.wav
475,192,94616,1,0,0:0:0:0:
36,192,94694,1,0,0:0:0:50:kick.wav
182,192,94694,1,0,0:0:0:50:finish2.wav
256,192,94694,128,0,94929:0:0:0:0:
329,192,94694,1,0,0:0:0:0:
109,192,94851,1,0,0:0:0:0:
182,192,94929,1,0,0:0:0:0:
402,192,95085,1,0,0:0:0:50:drum2.wav
475,192,95085,1,0,0:0:0:0:
36,192,95163,1,0,0:0:0:50:kick.wav
182,192,95163,1,0,0:0:0:50:finish2.wav
256,192,95163,128,0,95397:0:0:0:0:
329,192,95163,1,0,0:0:0:0:
109,192,95319,1,0,0:0:0:0:
182,192,95397,1,0,0:0:0:0:
475,192,95397,128,0,95632:0:0:0:0:
256,192,95632,128,0,95710:0:0:0:0:
256,192,95866,128,0,96101:0:0:0:0:
36,192,96101,1,0,0:0:0:50:kick.wav
109,192,96101,1,0,0:0:0:50:finish.wav
402,192,96101,1,0,0:0:0:0:
475,192,96101,1,0,0:0:0:0:
36,192,96257,1,0,0:0:0:0:
182,192,96257,1,0,0:0:0:0:
329,192,96335,1,0,0:0:0:0:
475,192,96335,1,0,0:0:0:0:
36,192,96569,1,0,0:0:0:50:hitclap.wav
109,192,96569,1,0,0:0:0:0:
256,192,96569,1,0,0:0:0:0:
402,192,96569,1,0,0:0:0:0:
182,192,96804,1,0,0:0:0:0:
329,192,96804,1,0,0:0:0:0:
36,192,96960,1,0,0:0:0:50:hihat.wav
109,192,97038,1,0,0:0:0:50:kick.wav
256,192,97038,1,0,0:0:0:0:
475,192,97038,1,0,0:0:0:0:
329,192,97194,1,0,0:0:0:0:
36,192,97272,1,0,0:0:0:0:
182,192,97272,1,0,0:0:0:0:
109,192,97429,1,0,0:0:0:0:
256,192,97429,1,0,0:0:0:0:
182,192,97507,1,0,0:0:0:50:hitclap.wav
329,192,97507,1,0,0:0:0:0:
402,192,97507,1,0,0:0:0:0:
475,192,97507,1,0,0:0:0:0:
109,192,97663,1,0,0:0:0:0:
256,192,97663,1,0,0:0:0:0:
402,192,97741,1,0,0:0:0:0:
475,192,97741,1,0,0:0:0:0:
36,192,97897,1,0,0:0:0:0:
182,192,97897,1,0,0:0:0:0:
256,192,97976,1,0,0:0:0:50:kick.wav
329,192,97976,1,0,0:0:0:0:
475,192,97976,1,0,0:0:0:0:
329,192,98132,1,0,0:0:0:0:
475,192,98132,1,0,0:0:0:0:
36,192,98210,1,0,0:0:0:0:
182,192,98210,1,0,0:0:0:0:
109,192,98444,1,0,0:0:0:50:hitclap.wav
256,192,98444,1,0,0:0:0:0:
402,192,98444,1,0,0:0:0:0:
475,192,98444,1,0,0:0:0:0:
109,192,98679,1,0,0:0:0:0:
256,192,98679,1,0,0:0:0:0:
402,192,98835,1,0,0:0:0:50:hihat.wav
36,192,98913,1,0,0:0:0:50:kick.wav
182,192,98913,1,0,0:0:0:0:
329,192,98913,1,0,0:0:0:0:
256,192,99069,1,0,0:0:0:0:
402,192,99147,1,0,0:0:0:0:
475,192,99147,1,0,0:0:0:0:
36,192,99304,1,0,0:0:0:0:
109,192,99304,1,0,0:0:0:0:
182,192,99382,1,0,0:0:0:50:hitclap.wav
256,192,99382,128,0,99616:0:0:0:0:
329,192,99421,128,0,99616:0:0:0:0:
402,192,99460,128,0,99616:0:0:0:0:
475,192,99499,128,0,99616:0:0:0:0:
36,192,99616,128,0,99851:0:0:0:0:
109,192,99616,128,0,99851:0:0:0:0:
182,192,99851,1,0,0:0:0:50:kick.wav
329,192,99851,1,0,0:0:0:0:
475,192,99851,1,0,0:0:0:0:
109,192,100007,1,0,0:0:0:0:
402,192,100007,1,0,0:0:0:0:
182,192,100085,1,0,0:0:0:0:
329,192,100085,1,0,0:0:0:0:
36,192,100319,1,0,0:0:0:50:hitclap.wav
109,192,100319,1,0,0:0:0:0:
256,192,100319,1,0,0:0:0:0:
475,192,100319,1,0,0:0:0:0:
182,192,100554,1,0,0:0:0:0:
402,192,100554,1,0,0:0:0:0:
475,192,100710,1,0,0:0:0:50:hihat.wav
36,192,100788,1,0,0:0:0:50:kick.wav
109,192,100788,1,0,0:0:0:0:
329,192,100788,1,0,0:0:0:0:
182,192,100944,1,0,0:0:0:0:
256,192,101022,1,0,0:0:0:0:
475,192,101022,1,0,0:0:0:0:
182,192,101179,1,0,0:0:0:0:
402,192,101179,1,0,0:0:0:0:
109,192,101257,1,0,0:0:0:50:hitclap.wav
256,192,101257,1,0,0:0:0:0:
329,192,101257,1,0,0:0:0:0:
475,192,101257,1,0,0:0:0:0:
36,192,101413,1,0,0:0:0:0:
182,192,101413,1,0,0:0:0:0:
402,192,101491,1,0,0:0:0:0:
475,192,101491,1,0,0:0:0:0:
109,192,101647,1,0,0:0:0:0:
329,192,101647,1,0,0:0:0:0:
36,192,101726,1,0,0:0:0:50:kick.wav
256,192,101726,1,0,0:0:0:0:
475,192,101726,1,0,0:0:0:0:
36,192,101882,1,0,0:0:0:0:
256,192,101882,1,0,0:0:0:0:
109,192,101960,1,0,0:0:0:0:
329,192,101960,1,0,0:0:0:0:
36,192,102194,1,0,0:0:0:50:hitclap.wav
182,192,102194,1,0,0:0:0:0:
329,192,102194,1,0,0:0:0:0:
475,192,102194,1,0,0:0:0:0:
256,192,102429,1,0,0:0:0:0:
402,192,102429,1,0,0:0:0:0:
182,192,102585,1,0,0:0:0:50:hihat.wav
36,192,102663,1,0,0:0:0:50:kick.wav
329,192,102663,1,0,0:0:0:0:
475,192,102663,1,0,0:0:0:0:
256,192,102819,1,0,0:0:0:0:
109,192,102897,1,0,0:0:0:0:
402,192,102897,1,0,0:0:0:0:
36,192,103054,1,0,0:0:0:0:
329,192,103054,1,0,0:0:0:0:
109,192,103132,1,0,0:0:0:50:hitclap.wav
256,192,103132,1,0,0:0:0:0:
402,192,103132,1,0,0:0:0:0:
475,192,103132,1,0,0:0:0:0:
36,192,103288,1,0,0:0:0:0:
182,192,103288,1,0,0:0:0:0:
329,192,103366,128,0,103601:0:0:0:0:
475,192,103366,128,0,103601:0:0:0:0:
36,192,103601,128,0,104069:0:0:0:50:kick.wav
109,192,103601,1,0,0:0:0:0:
256,192,103601,1,0,0:0:0:0:
402,192,103757,1,0,0:0:0:0:
475,192,103757,1,0,0:0:0:0:
182,192,103835,1,0,0:0:0:0:
329,192,103835,1,0,0:0:0:0:
109,192,104069,1,0,0:0:0:50:hitclap.wav
256,192,104069,1,0,0:0:0:0:
402,192,104069,1,0,0:0:0:0:
475,192,104069,128,0,104304:0:0:0:0:
36,192,104304,128,0,104538:0:0:0:0:
182,192,104304,1,0,0:0:0:0:
329,192,104304,1,0,0:0:0:0:
256,192,104460,1,0,0:0:0:50:hihat.wav
109,192,104538,1,0,0:0:0:50:kick.wav
329,192,104538,1,0,0:0:0:0:
402,192,104538,1,0,0:0:0:0:
475,192,104694,1,0,0:0:0:0:
182,192,104772,1,0,0:0:0:0:
329,192,104772,1,0,0:0:0:0:
36,192,104929,1,0,0:0:0:0:
256,192,104929,1,0,0:0:0:0:
109,192,105007,1,0,0:0:0:50:hitclap.wav
329,192,105007,1,0,0:0:0:0:
402,192,105007,1,0,0:0:0:0:
475,192,105007,128,0,105241:0:0:0:0:
36,192,105163,1,0,0:0:0:0:
182,192,105163,1,0,0:0:0:0:
256,192,105241,128,0,105476:0:0:0:0:
402,192,105241,1,0,0:0:0:0:
475,192,105397,1,0,0:0:0:0:
36,192,105476,128,0,105866:0:0:0:50:kick.wav
182,192,105476,1,0,0:0:0:0:
402,192,105476,1,0,0:0:0:0:
329,192,105632,1,0,0:0:0:0:
475,192,105710,1,0,0:0:0:0:
182,192,105827,1,0,0:0:0:0:
36,192,105944,128,0,106335:0:0:0:50:hitclap.wav
256,192,105944,1,0,0:0:0:0:
402,192,105944,1,0,0:0:0:0:
475,192,105944,1,0,0:0:0:0:
109,192,106101,1,0,0:0:0:0:
329,192,106179,1,0,0:0:0:0:
475,192,106335,1,0,0:0:0:0:
36,192,106413,128,0,106804:0:0:0:50:kick.wav
182,192,106413,1,0,0:0:0:0:
256,192,106413,1,0,0:0:0:0:
329,192,106530,1,0,0:0:0:60:drum.wav
402,192,106530,1,0,0:0:0:0:
256,192,106804,1,0,0:0:0:60:drum.wav
329,192,106804,1,0,0:0:0:0:
402,192,106882,128,0,107038:0:0:0:50:drum2.wav
475,192,106882,128,0,107038:0:0:0:0:
182,192,107038,1,0,0:0:0:0:
36,192,107116,128,0,107272:0:0:0:50:drum2.wav
109,192,107116,128,0,107272:0:0:0:0:
182,192,107351,1,0,0:0:0:50:kick.wav
256,192,107351,1,0,0:0:0:50:finish2.wav
402,192,107351,1,0,0:0:0:0:
475,192,107351,1,0,0:0:0:0:
36,192,107507,1,0,0:0:0:0:
329,192,107507,1,0,0:0:0:0:
182,192,107585,1,0,0:0:0:0:
475,192,107585,1,0,0:0:0:0:
109,192,107819,1,0,0:0:0:50:hitclap.wav
256,192,107819,1,0,0:0:0:0:
402,192,107819,1,0,0:0:0:0:
475,192,107819,1,0,0:0:0:0:
182,192,108054,1,0,0:0:0:0:
329,192,108054,1,0,0:0:0:0:
36,192,108210,1,0,0:0:0:50:hihat.wav
109,192,108288,1,0,0:0:0:50:kick.wav
256,192,108288,1,0,0:0:0:0:
475,192,108288,1,0,0:0:0:0:
329,192,108444,1,0,0:0:0:0:
182,192,108522,1,0,0:0:0:0:
402,192,108522,1,0,0:0:0:0:
256,192,108679,1,0,0:0:0:0:
475,192,108679,1,0,0:0:0:0:
36,192,108757,1,0,0:0:0:50:hitclap.wav
109,192,108757,1,0,0:0:0:0:
329,192,108757,1,0,0:0:0:0:
402,192,108757,1,0,0:0:0:0:
182,192,108913,1,0,0:0:0:0:
475,192,108913,1,0,0:0:0:0:
36,192,108991,1,0,0:0:0:0:
329,192,108991,1,0,0:0:0:0:
182,192,109147,1,0,0:0:0:0:
402,192,109147,1,0,0:0:0:0:
109,192,109226,1,0,0:0:0:50:kick.wav
256,192,109226,1,0,0:0:0:0:
475,192,109226,1,0,0:0:0:0:
256,192,109382,1,0,0:0:0:0:
475,192,109382,1,0,0:0:0:0:
182,192,109460,1,0,0:0:0:0:
402,192,109460,1,0,0:0:0:0:
109,192,109694,1,0,0:0:0:50:hitclap.wav
182,192,109694,1,0,0:0:0:0:
329,192,109694,1,0,0:0:0:0:
475,192,109694,1,0,0:0:0:0:
109,192,109929,1,0,0:0:0:0:
402,192,109929,1,0,0:0:0:0:
475,192,110085,1,0,0:0:0:50:hihat.wav
36,192,110163,1,0,0:0:0:50:kick.wav
256,192,110163,1,0,0:0:0:0:
329,192,110163,1,0,0:0:0:0:
402,192,110319,1,0,0:0:0:0:
182,192,110397,1,0,0:0:0:0:
256,192,110397,1,0,0:0:0:0:
329,192,110554,1,0,0:0:0:0:
475,192,110554,1,0,0:0:0:0:
36,192,110632,1,0,0:0:0:50:hitclap.wav
109,192,110632,1,0,0:0:0:0:
182,192,110632,1,0,0:0:0:0:
256,192,110632,1,0,0:0:0:0:
329,192,110788,1,0,0:0:0:0:
402,192,110788,1,0,0:0:0:0:
36,192,110866,128,0,111101:0:0:0:0:
109,192,110905,128,0,111101:0:0:0:0:
182,192,110944,128,0,111101:0:0:0:0:
256,192,111101,1,0,0:0:0:50:kick.wav
329,192,111101,1,0,0:0:0:50:finish2.wav
402,192,111101,1,0,0:0:0:0:
475,192,111101,1,0,0:0:0:0:
36,192,111257,1,0,0:0:0:0:
182,192,111257,1,0,0:0:0:0:
329,192,111335,1,0,0:0:0:0:
475,192,111335,1,0,0:0:0:0:
36,192,111569,1,0,0:0:0:50:hitclap.wav
182,192,111569,1,0,0:0:0:0:
256,192,111569,1,0,0:0:0:0:
402,192,111569,1,0,0:0:0:0:
109,192,111804,1,0,0:0:0:0:
329,192,111804,1,0,0:0:0:0:
182,192,111960,1,0,0:0:0:50:hihat.wav
36,192,112038,1,0,0:0:0:50:kick.wav
256,192,112038,1,0,0:0:0:0:
402,192,112038,1,0,0:0:0:0:
182,192,112194,1,0,0:0:0:0:
329,192,112272,1,0,0:0:0:0:
475,192,112272,1,0,0:0:0:0:
36,192,112429,1,0,0:0:0:0:
256,192,112429,1,0,0:0:0:0:
182,192,112507,1,0,0:0:0:50:hitclap.wav
329,192,112507,1,0,0:0:0:0:
402,192,112507,1,0,0:0:0:0:
475,192,112507,1,0,0:0:0:0:
109,192,112663,1,0,0:0:0:0:
256,192,112663,1,0,0:0:0:0:
402,192,112741,1,0,0:0:0:0:
475,192,112741,1,0,0:0:0:0:
36,192,112897,1,0,0:0:0:0:
182,192,112897,1,0,0:0:0:0:
256,192,112976,1,0,0:0:0:50:kick.wav
329,192,112976,1,0,0:0:0:0:
475,192,112976,1,0,0:0:0:0:
329,192,113132,1,0,0:0:0:0:
475,192,113132,1,0,0:0:0:0:
109,192,113210,1,0,0:0:0:0:
182,192,113210,1,0,0:0:0:0:
36,192,113444,1,0,0:0:0:50:hitclap.wav
109,192,113444,1,0,0:0:0:0:
256,192,113444,1,0,0:0:0:0:
402,192,113444,1,0,0:0:0:0:
256,192,113679,1,0,0:0:0:0:
402,192,113679,1,0,0:0:0:0:
475,192,113835,1,0,0:0:0:50:hihat.wav
36,192,113913,1,0,0:0:0:50:kick.wav
182,192,113913,1,0,0:0:0:0:
329,192,113913,1,0,0:0:0:0:
402,192,114069,1,0,0:0:0:50:rim.wav
109,192,114147,1,0,0:0:0:50:rim.wav
182,192,114147,1,0,0:0:0:0:
402,192,114226,1,0,0:0:0:50:rim.wav
109,192,114304,1,0,0:0:0:50:rim.wav
182,192,114304,1,0,0:0:0:0:
256,192,114382,128,0,114616:0:0:0:50:hitclap.wav
475,192,114382,1,0,0:0:0:0:
36,192,114421,128,0,114616:0:0:0:0:
109,192,114460,128,0,114616:0:0:0:0:
182,192,114499,128,0,114616:0:0:0:0:
402,192,114616,128,0,114851:0:0:0:0:
475,192,114616,128,0,114851:0:0:0:0:
36,192,114851,1,0,0:0:0:50:kick.wav
109,192,114851,1,0,0:0:0:50:finish2.wav
182,192,114851,1,0,0:0:0:0:
256,192,114851,1,0,0:0:0:0:
182,192,115007,1,0,0:0:0:0:
329,192,115007,1,0,0:0:0:0:
109,192,115085,1,0,0:0:0:0:
402,192,115085,1,0,0:0:0:0:
36,192,115319,1,0,0:0:0:50:hitclap.wav
256,192,115319,1,0,0:0:0:0:
329,192,115319,1,0,0:0:0:0:
475,192,115319,1,0,0:0:0:0:
109,192,115554,1,0,0:0:0:0:
402,192,115554,1,0,0:0:0:0:
475,192,115710,1,0,0:0:0:50:hihat.wav
182,192,115788,1,0,0:0:0:50:kick.wav
256,192,115788,1,0,0:0:0:0:
329,192,115788,1,0,0:0:0:0:
109,192,115944,1,0,0:0:0:0:
256,192,116022,1,0,0:0:0:0:
402,192,116022,1,0,0:0:0:0:
36,192,116179,1,0,0:0:0:0:
182,192,116179,1,0,0:0:0:0:
109,192,116257,1,0,0:0:0:50:hitclap.wav
329,192,116257,1,0,0:0:0:0:
402,192,116257,1,0,0:0:0:0:
475,192,116257,1,0,0:0:0:0:
256,192,116413,1,0,0:0:0:0:
402,192,116413,1,0,0:0:0:0:
36,192,116491,1,0,0:0:0:0:
182,192,116491,1,0,0:0:0:0:
329,192,116647,1,0,0:0:0:0:
475,192,116647,1,0,0:0:0:0:
36,192,116726,1,0,0:0:0:50:kick.wav
109,192,116726,1,0,0:0:0:50:finish2.wav
256,192,116726,1,0,0:0:0:0:
402,192,116726,1,0,0:0:0:0:
109,192,116882,1,0,0:0:0:0:
402,192,116882,1,0,0:0:0:0:
182,192,116960,1,0,0:0:0:0:
329,192,116960,1,0,0:0:0:0:
109,192,117116,1,0,0:0:0:0:
36,192,117194,1,0,0:0:0:50:kick.wav
256,192,117194,1,0,0:0:0:50:finish2.wav
402,192,117194,1,0,0:0:0:0:
475,192,117194,1,0,0:0:0:0:
182,192,117351,1,0,0:0:0:0:
256,192,117429,1,0,0:0:0:0:
475,192,117429,1,0,0:0:0:0:
402,192,117585,1,0,0:0:0:0:
36,192,117663,1,0,0:0:0:50:kick.wav
109,192,117663,1,0,0:0:0:50:finish2.wav
182,192,117663,1,0,0:0:0:0:
329,192,117663,1,0,0:0:0:0:
475,192,117741,1,0,0:0:0:50:hihat2.wav
36,192,117819,128,0,117897:0:0:0:50:hihat2.wav
182,192,117897,128,0,117976:0:0:0:50:hihat2.wav
402,192,117897,128,0,117976:0:0:0:0:
256,192,117976,1,0,0:0:0:50:hihat2.wav
109,192,118054,1,0,0:0:0:50:hihat2.wav
329,192,118132,128,0,118210:0:0:0:0:
475,192,118132,128,0,118210:0:0:0:0:
256,192,118288,128,0,118366:0:0:0:0:
402,192,118288,128,0,118366:0:0:0:0:
182,192,118444,128,0,118522:0:0:0:0:
329,192,118444,128,0,118522:0:0:0:0:
36,192,118601,128,0,119069:0:0:0:50:kick.wav
256,192,118601,1,0,0:0:0:0:
475,192,118601,1,0,0:0:0:0:
109,192,118757,1,0,0:0:0:0:
182,192,118835,1,0,0:0:0:50:kick.wav
402,192,118835,1,0,0:0:0:0:
109,192,119069,1,0,0:0:0:50:hitclap.wav
256,192,119069,1,0,0:0:0:50:finish.wav
329,192,119069,1,0,0:0:0:0:
475,192,119069,128,0,119304:0:0:0:0:
36,192,119304,128,0,119538:0:0:0:0:
182,192,119304,1,0,0:0:0:0:
475,192,119460,1,0,0:0:0:0:
109,192,119538,1,0,0:0:0:50:kick.wav
256,192,119538,1,0,0:0:0:0:
402,192,119538,1,0,0:0:0:0:
36,192,119694,1,0,0:0:0:0:
182,192,119772,1,0,0:0:0:0:
329,192,119772,1,0,0:0:0:0:
256,192,119929,1,0,0:0:0:0:
402,192,119929,1,0,0:0:0:0:
109,192,120007,1,0,0:0:0:50:hitclap.wav
182,192,120007,1,0,0:0:0:0:
329,192,120007,1,0,0:0:0:0:
475,192,120007,128,0,120241:0:0:0:0:
256,192,120163,1,0,0:0:0:0:
402,192,120163,1,0,0:0:0:0:
36,192,120241,128,0,120476:0:0:0:0:
109,192,120241,1,0,0:0:0:0:
182,192,120397,1,0,0:0:0:0:
329,192,120397,1,0,0:0:0:0:
109,192,120476,1,0,0:0:0:50:kick.wav
256,192,120476,1,0,0:0:0:0:
402,192,120476,1,0,0:0:0:0:
475,192,120476,128,0,120866:0:0:0:0:
182,192,120632,1,0,0:0:0:0:
36,192,120710,1,0,0:0:0:0:
256,192,120866,1,0,0:0:0:0:
109,192,120944,1,0,0:0:0:50:hihat.wav
402,192,120944,1,0,0:0:0:0:
475,192,120944,128,0,121335:0:0:0:0:
329,192,121101,1,0,0:0:0:0:
182,192,121179,1,0,0:0:0:0:
256,192,121335,1,0,0:0:0:0:
36,192,121413,1,0,0:0:0:50:hihat.wav
402,192,121413,1,0,0:0:0:0:
475,192,121413,128,0,121804:0:0:0:0:
182,192,121491,1,0,0:0:0:0:
329,192,121569,1,0,0:0:0:0:
109,192,121647,1,0,0:0:0:0:
256,192,121726,1,0,0:0:0:0:
402,192,121804,1,0,0:0:0:0:
36,192,121882,1,0,0:0:0:50:hitclap.wav
109,192,121882,1,0,0:0:0:0:
182,192,121882,1,0,0:0:0:0:
329,192,121882,1,0,0:0:0:0:
36,192,122351,128,0,122819:0:0:0:50:finish.wav
182,192,122351,128,0,122741:0:0:0:50:kick.wav
329,192,122351,128,0,122741:0:0:0:0:
475,192,122351,128,0,122819:0:0:0:0:
