osu file format v14

[General]
AudioFilename: audio.mp3
AudioLeadIn: 0
PreviewTime: 88593
Countdown: 0
SampleSet: Soft
StackLeniency: 0.7
Mode: 3
LetterboxInBreaks: 0
SpecialStyle: 1
WidescreenStoryboard: 0

[Editor]
DistanceSpacing: 0.8
BeatDivisor: 4
GridSize: 16
TimelineZoom: 3.8

[Metadata]
Title:Chinese Tea Orchid Remix
TitleUnicode:上海紅茶館 ~ Chinese Tea Orchid Remix
Artist:Yooh
ArtistUnicode:Yooh
Creator:dosyeru
Version:8K Extra
Source:SOUND VOLTEX II -infinite infection-
Tags:sdvx 東方 東方紅魔郷remix 東方紅魔郷リミックス楽曲コンテスト touhou koumakyou gakkyoku contest konami 紅美鈴 hong meiling
BeatmapID:1009812
BeatmapSetID:472618

[Difficulty]
HPDrainRate:7
CircleSize:8
OverallDifficulty:7
ApproachRate:5
SliderMultiplier:1.4
SliderTickRate:1

[Events]
//Background and Video events
0,0,"chinese_tea_orchid_remix_bg.png",0,0
//Break Periods
//Storyboard Layer 0 (Background)
//Storyboard Layer 1 (Fail)
//Storyboard Layer 2 (Pass)
//Storyboard Layer 3 (Foreground)
//Storyboard Sound Samples

[TimingPoints]
508,319.148936170213,4,2,0,0,1,0

[HitObjects]
96,192,2422,5,0,0:0:0:0:
160,192,2462,1,0,0:0:0:0:
224,192,2502,1,0,0:0:0:0:
288,192,2542,1,0,0:0:0:0:
352,192,2582,1,0,0:0:0:0:
416,192,2622,1,0,0:0:0:0:
480,192,2662,1,0,0:0:0:0:
352,192,2702,1,0,0:0:0:0:
288,192,2742,1,0,0:0:0:0:
224,192,2781,1,0,0:0:0:0:
160,192,2821,1,0,0:0:0:0:
96,192,2861,1,0,0:0:0:0:
416,192,2901,1,0,0:0:0:0:
352,192,2941,1,0,0:0:0:0:
288,192,2981,1,0,0:0:0:0:
224,192,3021,1,0,0:0:0:0:
32,192,3061,1,0,0:0:0:0:
160,192,3061,1,0,0:0:0:0:
480,192,3061,1,0,0:0:0:0:
96,192,3061,1,0,0:0:0:0:
416,192,3061,1,0,0:0:0:0:
224,192,3220,1,0,0:0:0:0:
352,192,3220,1,0,0:0:0:0:
288,192,3539,1,0,0:0:0:0:
416,192,3539,1,0,0:0:0:0:
160,192,3539,1,0,0:0:0:0:
352,192,3619,1,0,0:0:0:0:
224,192,3619,1,0,0:0:0:0:
288,192,3699,1,0,0:0:0:0:
416,192,3699,1,0,0:0:0:0:
32,192,3699,1,0,0:0:0:0:
160,192,3699,1,0,0:0:0:0:
224,192,3938,1,0,0:0:0:0:
352,192,3938,1,0,0:0:0:0:
480,192,3938,1,0,0:0:0:0:
160,192,4178,1,0,0:0:0:0:
288,192,4178,1,0,0:0:0:0:
416,192,4178,1,0,0:0:0:0:
32,192,4337,1,0,0:0:0:0:
96,192,4337,1,0,0:0:0:0:
352,192,4337,1,0,0:0:0:0:
480,192,4337,1,0,0:0:0:0:
224,192,4337,1,0,0:0:0:0:
160,192,4497,1,0,0:0:0:0:
288,192,4497,1,0,0:0:0:0:
416,192,4497,1,0,0:0:0:0:
32,192,4656,1,0,0:0:0:0:
96,192,4656,1,0,0:0:0:0:
224,192,4656,1,0,0:0:0:0:
352,192,4656,1,0,0:0:0:0:
480,192,4656,1,0,0:0:0:0:
160,192,4736,1,0,0:0:0:0:
416,192,4736,1,0,0:0:0:0:
288,192,4736,1,0,0:0:0:0:
32,192,4896,1,0,0:0:0:0:
96,192,4896,1,0,0:0:0:0:
160,192,4896,1,0,0:0:0:0:
288,192,4896,1,0,0:0:0:0:
480,192,4896,1,0,0:0:0:0:
416,192,4896,1,0,0:0:0:0:
224,192,4976,1,0,0:0:0:0:
352,192,4976,1,0,0:0:0:0:
160,192,5055,1,0,0:0:0:0:
416,192,5055,1,0,0:0:0:0:
96,192,5135,1,0,0:0:0:0:
480,192,5135,1,0,0:0:0:0:
416,192,5175,1,0,0:0:0:0:
160,192,5175,1,0,0:0:0:0:
224,192,5215,1,0,0:0:0:0:
352,192,5215,1,0,0:0:0:0:
288,192,5255,1,0,0:0:0:0:
32,192,5295,1,0,0:0:0:0:
96,192,5295,1,0,0:0:0:0:
480,192,5295,1,0,0:0:0:0:
32,192,5614,1,0,0:0:0:0:
96,192,5614,1,0,0:0:0:0:
224,192,5614,1,0,0:0:0:0:
352,192,5614,1,0,0:0:0:0:
288,192,5614,1,0,0:0:0:0:
480,192,5614,1,0,0:0:0:0:
160,192,5773,1,0,0:0:0:0:
96,192,5933,1,0,0:0:0:0:
416,192,5933,1,0,0:0:0:0:
480,192,5933,1,0,0:0:0:0:
288,192,5933,1,0,0:0:0:0:
224,192,5933,1,0,0:0:0:0:
160,192,6093,1,0,0:0:0:0:
96,192,6252,1,0,0:0:0:0:
416,192,6252,1,0,0:0:0:0:
224,192,6252,1,0,0:0:0:0:
352,192,6252,1,0,0:0:0:0:
288,192,6252,1,0,0:0:0:0:
160,192,6412,1,0,0:0:0:0:
352,192,6492,1,0,0:0:0:0:
288,192,6492,1,0,0:0:0:0:
480,192,6492,1,0,0:0:0:0:
96,192,6571,1,0,0:0:0:0:
224,192,6571,1,0,0:0:0:0:
288,192,6731,1,0,0:0:0:0:
480,192,6731,1,0,0:0:0:0:
160,192,6731,1,0,0:0:0:0:
416,192,6731,1,0,0:0:0:0:
96,192,6890,1,0,0:0:0:0:
480,192,6890,1,0,0:0:0:0:
288,192,6890,1,0,0:0:0:0:
416,192,6890,1,0,0:0:0:0:
224,192,7050,1,0,0:0:0:0:
96,192,7210,1,0,0:0:0:0:
160,192,7210,1,0,0:0:0:0:
288,192,7210,1,0,0:0:0:0:
352,192,7210,1,0,0:0:0:0:
416,192,7210,1,0,0:0:0:0:
224,192,7369,1,0,0:0:0:0:
96,192,7529,1,0,0:0:0:0:
288,192,7529,1,0,0:0:0:0:
416,192,7529,1,0,0:0:0:0:
160,192,7529,1,0,0:0:0:0:
480,192,7529,1,0,0:0:0:0:
224,192,7688,1,0,0:0:0:0:
96,192,7848,1,0,0:0:0:0:
352,192,7848,1,0,0:0:0:0:
480,192,7848,1,0,0:0:0:0:
288,192,7848,1,0,0:0:0:0:
160,192,7848,1,0,0:0:0:0:
224,192,8008,1,0,0:0:0:0:
160,192,8087,1,0,0:0:0:0:
96,192,8167,1,0,0:0:0:0:
480,192,8167,1,0,0:0:0:0:
416,192,8167,1,0,0:0:0:0:
288,192,8167,1,0,0:0:0:0:
160,192,8327,1,0,0:0:0:0:
96,192,8486,1,0,0:0:0:0:
480,192,8486,1,0,0:0:0:0:
352,192,8486,1,0,0:0:0:0:
288,192,8486,1,0,0:0:0:0:
224,192,8486,1,0,0:0:0:0:
160,192,8646,1,0,0:0:0:0:
96,192,8805,1,0,0:0:0:0:
416,192,8805,1,0,0:0:0:0:
288,192,8805,1,0,0:0:0:0:
224,192,8805,1,0,0:0:0:0:
480,192,8805,1,0,0:0:0:0:
160,192,8965,1,0,0:0:0:0:
480,192,9045,1,0,0:0:0:0:
352,192,9045,1,0,0:0:0:0:
288,192,9045,1,0,0:0:0:0:
96,192,9125,1,0,0:0:0:0:
224,192,9125,1,0,0:0:0:0:
352,192,9284,1,0,0:0:0:0:
416,192,9284,1,0,0:0:0:0:
224,192,9284,1,0,0:0:0:0:
160,192,9284,1,0,0:0:0:0:
96,192,9444,1,0,0:0:0:0:
480,192,9444,1,0,0:0:0:0:
416,192,9444,1,0,0:0:0:0:
288,192,9444,1,0,0:0:0:0:
160,192,9444,1,0,0:0:0:0:
416,192,9603,1,0,0:0:0:0:
352,192,9603,1,0,0:0:0:0:
224,192,9603,1,0,0:0:0:0:
96,192,9763,1,0,0:0:0:0:
352,192,9763,1,0,0:0:0:0:
288,192,9763,1,0,0:0:0:0:
160,192,9763,1,0,0:0:0:0:
480,192,9763,1,0,0:0:0:0:
288,192,9922,1,0,0:0:0:0:
224,192,9922,1,0,0:0:0:0:
480,192,9922,1,0,0:0:0:0:
96,192,10082,1,0,0:0:0:0:
416,192,10082,1,0,0:0:0:0:
352,192,10082,1,0,0:0:0:0:
160,192,10082,1,0,0:0:0:0:
224,192,10082,1,0,0:0:0:0:
352,192,10242,1,0,0:0:0:0:
288,192,10242,1,0,0:0:0:0:
160,192,10242,1,0,0:0:0:0:
96,192,10401,1,0,0:0:0:0:
288,192,10401,1,0,0:0:0:0:
224,192,10401,1,0,0:0:0:0:
416,192,10401,1,0,0:0:0:0:
480,192,10401,1,0,0:0:0:0:
96,192,10561,1,0,0:0:0:0:
224,192,10561,1,0,0:0:0:0:
160,192,10561,1,0,0:0:0:0:
352,192,10561,1,0,0:0:0:0:
416,192,10640,1,0,0:0:0:0:
96,192,10720,1,0,0:0:0:0:
480,192,10720,1,0,0:0:0:0:
288,192,10720,1,0,0:0:0:0:
224,192,10720,1,0,0:0:0:0:
352,192,10880,1,0,0:0:0:0:
480,192,11039,1,0,0:0:0:0:
288,192,11039,1,0,0:0:0:0:
224,192,11039,1,0,0:0:0:0:
416,192,11039,1,0,0:0:0:0:
160,192,11039,1,0,0:0:0:0:
352,192,11199,1,0,0:0:0:0:
480,192,11359,1,0,0:0:0:0:
96,192,11359,1,0,0:0:0:0:
288,192,11359,1,0,0:0:0:0:
160,192,11359,1,0,0:0:0:0:
416,192,11518,1,0,0:0:0:0:
160,192,11598,1,0,0:0:0:0:
224,192,11598,1,0,0:0:0:0:
352,192,11598,1,0,0:0:0:0:
480,192,11678,1,0,0:0:0:0:
96,192,11678,1,0,0:0:0:0:
160,192,11837,1,0,0:0:0:0:
288,192,11837,1,0,0:0:0:0:
352,192,11837,1,0,0:0:0:0:
416,192,11837,1,0,0:0:0:0:
480,192,11997,1,0,0:0:0:0:
160,192,11997,1,0,0:0:0:0:
288,192,11997,1,0,0:0:0:0:
352,192,11997,1,0,0:0:0:0:
416,192,12156,1,0,0:0:0:0:
480,192,12316,1,0,0:0:0:0:
96,192,12316,1,0,0:0:0:0:
224,192,12316,1,0,0:0:0:0:
352,192,12316,1,0,0:0:0:0:
288,192,12316,1,0,0:0:0:0:
416,192,12476,1,0,0:0:0:0:
480,192,12635,1,0,0:0:0:0:
160,192,12635,1,0,0:0:0:0:
288,192,12635,1,0,0:0:0:0:
352,192,12635,1,0,0:0:0:0:
416,192,12795,1,0,0:0:0:0:
480,192,12954,1,0,0:0:0:0:
224,192,12954,1,0,0:0:0:0:
352,192,12954,1,0,0:0:0:0:
288,192,12954,1,0,0:0:0:0:
96,192,12954,1,0,0:0:0:0:
416,192,13114,1,0,0:0:0:0:
352,192,13194,1,0,0:0:0:0:
480,192,13273,1,0,0:0:0:0:
288,192,13273,1,0,0:0:0:0:
160,192,13273,1,0,0:0:0:0:
96,192,13273,1,0,0:0:0:0:
352,192,13433,1,0,0:0:0:0:
416,192,13513,1,0,0:0:0:0:
288,192,13513,1,0,0:0:0:0:
224,192,13513,1,0,0:0:0:0:
480,192,13593,1,0,0:0:0:0:
160,192,13593,1,0,0:0:0:0:
352,192,13752,1,0,0:0:0:0:
224,192,13752,1,0,0:0:0:0:
96,192,13752,1,0,0:0:0:0:
480,192,13912,1,0,0:0:0:0:
288,192,13912,1,0,0:0:0:0:
224,192,13912,1,0,0:0:0:0:
160,192,13912,1,0,0:0:0:0:
416,192,14071,1,0,0:0:0:0:
480,192,14231,1,0,0:0:0:0:
352,192,14231,1,0,0:0:0:0:
288,192,14231,1,0,0:0:0:0:
96,192,14231,1,0,0:0:0:0:
160,192,14231,1,0,0:0:0:0:
416,192,14390,1,0,0:0:0:0:
480,192,14550,1,0,0:0:0:0:
96,192,14550,1,0,0:0:0:0:
352,192,14550,1,0,0:0:0:0:
288,192,14550,1,0,0:0:0:0:
224,192,14550,1,0,0:0:0:0:
416,192,14710,1,0,0:0:0:0:
160,192,14710,1,0,0:0:0:0:
352,192,14710,1,0,0:0:0:0:
288,192,14710,1,0,0:0:0:0:
480,192,14869,1,0,0:0:0:0:
224,192,14869,1,0,0:0:0:0:
96,192,14869,1,0,0:0:0:0:
352,192,14869,1,0,0:0:0:0:
160,192,14869,1,0,0:0:0:0:
416,192,15029,1,0,0:0:0:0:
288,192,15029,1,0,0:0:0:0:
224,192,15029,1,0,0:0:0:0:
160,192,15029,1,0,0:0:0:0:
32,192,15188,1,0,0:0:0:0:
480,192,15188,1,0,0:0:0:0:
96,192,15188,1,0,0:0:0:0:
224,192,15188,1,0,0:0:0:0:
288,192,15188,1,0,0:0:0:0:
352,192,15188,1,0,0:0:0:0:
416,192,15348,1,0,0:0:0:0:
352,192,15348,1,0,0:0:0:0:
160,192,15348,1,0,0:0:0:0:
288,192,15348,1,0,0:0:0:0:
96,192,15348,1,0,0:0:0:0:
480,192,15508,1,0,0:0:0:0:
224,192,15508,1,0,0:0:0:0:
96,192,15508,1,0,0:0:0:0:
352,192,15508,1,0,0:0:0:0:
416,192,15508,1,0,0:0:0:0:
480,192,15667,1,0,0:0:0:0:
352,192,15667,1,0,0:0:0:0:
160,192,15667,1,0,0:0:0:0:
96,192,15667,1,0,0:0:0:0:
288,192,15667,1,0,0:0:0:0:
416,192,15747,1,0,0:0:0:0:
224,192,15747,1,0,0:0:0:0:
96,192,15827,1,0,0:0:0:0:
32,192,15827,1,0,0:0:0:0:
352,192,15827,1,0,0:0:0:0:
224,192,15906,1,0,0:0:0:0:
160,192,15986,1,0,0:0:0:0:
288,192,15986,1,0,0:0:0:0:
416,192,15986,1,0,0:0:0:0:
480,192,16066,1,0,0:0:0:0:
352,192,16066,1,0,0:0:0:0:
96,192,16146,1,0,0:0:0:0:
288,192,16146,1,0,0:0:0:0:
224,192,16226,1,0,0:0:0:0:
160,192,16305,1,0,0:0:0:0:
288,192,16305,1,0,0:0:0:0:
416,192,16305,1,0,0:0:0:0:
352,192,16385,1,0,0:0:0:0:
480,192,16385,1,0,0:0:0:0:
96,192,16465,1,0,0:0:0:0:
288,192,16465,1,0,0:0:0:0:
224,192,16545,1,0,0:0:0:0:
480,192,16625,1,0,0:0:0:0:
352,192,16625,1,0,0:0:0:0:
160,192,16625,1,0,0:0:0:0:
416,192,16704,1,0,0:0:0:0:
288,192,16704,1,0,0:0:0:0:
96,192,16784,1,0,0:0:0:0:
224,192,16784,1,0,0:0:0:0:
160,192,16864,1,0,0:0:0:0:
224,192,16944,1,0,0:0:0:0:
480,192,16944,1,0,0:0:0:0:
352,192,16944,1,0,0:0:0:0:
288,192,17023,1,0,0:0:0:0:
416,192,17023,1,0,0:0:0:0:
96,192,17103,1,0,0:0:0:0:
352,192,17103,1,0,0:0:0:0:
288,192,17183,1,0,0:0:0:0:
352,192,17263,1,0,0:0:0:0:
480,192,17263,1,0,0:0:0:0:
160,192,17263,1,0,0:0:0:0:
416,192,17343,1,0,0:0:0:0:
224,192,17343,1,0,0:0:0:0:
96,192,17422,1,0,0:0:0:0:
288,192,17422,1,0,0:0:0:0:
224,192,17502,1,0,0:0:0:0:
288,192,17582,1,0,0:0:0:0:
416,192,17582,1,0,0:0:0:0:
160,192,17582,1,0,0:0:0:0:
480,192,17662,1,0,0:0:0:0:
224,192,17662,1,0,0:0:0:0:
96,192,17742,1,0,0:0:0:0:
352,192,17742,1,0,0:0:0:0:
288,192,17821,1,0,0:0:0:0:
480,192,17901,1,0,0:0:0:0:
352,192,17901,1,0,0:0:0:0:
160,192,17901,1,0,0:0:0:0:
224,192,17981,1,0,0:0:0:0:
416,192,17981,1,0,0:0:0:0:
96,192,18061,1,0,0:0:0:0:
288,192,18061,1,0,0:0:0:0:
224,192,18140,1,0,0:0:0:0:
160,192,18220,1,0,0:0:0:0:
416,192,18220,1,0,0:0:0:0:
288,192,18220,1,0,0:0:0:0:
352,192,18300,1,0,0:0:0:0:
224,192,18300,1,0,0:0:0:0:
96,192,18380,1,0,0:0:0:0:
480,192,18380,1,0,0:0:0:0:
224,192,18460,1,0,0:0:0:0:
288,192,18539,1,0,0:0:0:0:
416,192,18539,1,0,0:0:0:0:
160,192,18539,1,0,0:0:0:0:
480,192,18619,1,0,0:0:0:0:
352,192,18619,1,0,0:0:0:0:
96,192,18699,1,0,0:0:0:0:
288,192,18699,1,0,0:0:0:0:
224,192,18779,1,0,0:0:0:0:
416,192,18859,1,0,0:0:0:0:
160,192,18859,1,0,0:0:0:0:
288,192,18859,1,0,0:0:0:0:
352,192,18938,1,0,0:0:0:0:
480,192,18938,1,0,0:0:0:0:
96,192,19018,1,0,0:0:0:0:
288,192,19018,1,0,0:0:0:0:
160,192,19098,1,0,0:0:0:0:
224,192,19178,1,0,0:0:0:0:
480,192,19178,1,0,0:0:0:0:
352,192,19178,1,0,0:0:0:0:
416,192,19258,1,0,0:0:0:0:
288,192,19258,1,0,0:0:0:0:
96,192,19337,1,0,0:0:0:0:
352,192,19337,1,0,0:0:0:0:
160,192,19417,1,0,0:0:0:0:
352,192,19497,1,0,0:0:0:0:
224,192,19497,1,0,0:0:0:0:
480,192,19497,1,0,0:0:0:0:
288,192,19577,1,0,0:0:0:0:
416,192,19577,1,0,0:0:0:0:
96,192,19656,1,0,0:0:0:0:
352,192,19656,1,0,0:0:0:0:
288,192,19736,1,0,0:0:0:0:
352,192,19816,1,0,0:0:0:0:
480,192,19816,1,0,0:0:0:0:
224,192,19816,1,0,0:0:0:0:
160,192,19896,1,0,0:0:0:0:
288,192,19896,1,0,0:0:0:0:
96,192,19976,1,0,0:0:0:0:
352,192,19976,1,0,0:0:0:0:
288,192,20055,1,0,0:0:0:0:
480,192,20135,1,0,0:0:0:0:
352,192,20135,1,0,0:0:0:0:
224,192,20135,1,0,0:0:0:0:
288,192,20215,1,0,0:0:0:0:
160,192,20215,1,0,0:0:0:0:
96,192,20295,1,0,0:0:0:0:
416,192,20295,1,0,0:0:0:0:
224,192,20375,1,0,0:0:0:0:
416,192,20454,1,0,0:0:0:0:
160,192,20454,1,0,0:0:0:0:
288,192,20454,1,0,0:0:0:0:
352,192,20534,1,0,0:0:0:0:
224,192,20534,1,0,0:0:0:0:
96,192,20614,1,0,0:0:0:0:
416,192,20614,1,0,0:0:0:0:
288,192,20694,1,0,0:0:0:0:
480,192,20773,1,0,0:0:0:0:
352,192,20773,1,0,0:0:0:0:
224,192,20773,1,0,0:0:0:0:
288,192,20853,1,0,0:0:0:0:
160,192,20853,1,0,0:0:0:0:
96,192,20933,1,0,0:0:0:0:
32,192,20933,1,0,0:0:0:0:
480,192,20933,1,0,0:0:0:0:
224,192,20933,1,0,0:0:0:0:
352,192,21013,1,0,0:0:0:0:
288,192,21093,1,0,0:0:0:0:
160,192,21093,1,0,0:0:0:0:
416,192,21172,1,0,0:0:0:0:
480,192,21252,1,0,0:0:0:0:
224,192,21252,1,0,0:0:0:0:
352,192,21332,1,0,0:0:0:0:
288,192,21412,1,0,0:0:0:0:
160,192,21412,1,0,0:0:0:0:
416,192,21492,1,0,0:0:0:0:
480,192,21571,1,0,0:0:0:0:
224,192,21571,1,0,0:0:0:0:
352,192,21651,1,0,0:0:0:0:
160,192,21731,1,0,0:0:0:0:
288,192,21731,1,0,0:0:0:0:
416,192,21811,1,0,0:0:0:0:
96,192,21890,1,0,0:0:0:0:
224,192,21890,1,0,0:0:0:0:
480,192,21890,1,0,0:0:0:0:
352,192,21970,1,0,0:0:0:0:
288,192,22050,1,0,0:0:0:0:
160,192,22050,1,0,0:0:0:0:
416,192,22130,1,0,0:0:0:0:
32,192,22210,1,0,0:0:0:0:
96,192,22210,1,0,0:0:0:0:
224,192,22210,1,0,0:0:0:0:
480,192,22210,1,0,0:0:0:0:
352,192,22289,1,0,0:0:0:0:
416,192,22369,1,0,0:0:0:0:
160,192,22369,1,0,0:0:0:0:
288,192,22369,1,0,0:0:0:0:
224,192,22449,1,0,0:0:0:0:
352,192,22529,1,0,0:0:0:0:
480,192,22529,1,0,0:0:0:0:
224,192,22609,1,0,0:0:0:0:
416,192,22688,1,0,0:0:0:0:
160,192,22688,1,0,0:0:0:0:
288,192,22688,1,0,0:0:0:0:
352,192,22768,1,0,0:0:0:0:
32,192,22848,1,0,0:0:0:0:
96,192,22848,1,0,0:0:0:0:
224,192,22848,1,0,0:0:0:0:
480,192,22848,1,0,0:0:0:0:
352,192,22928,1,0,0:0:0:0:
288,192,23008,1,0,0:0:0:0:
416,192,23008,1,0,0:0:0:0:
160,192,23087,1,0,0:0:0:0:
32,192,23167,1,0,0:0:0:0:
96,192,23167,1,0,0:0:0:0:
480,192,23167,1,0,0:0:0:0:
352,192,23167,1,0,0:0:0:0:
224,192,23247,1,0,0:0:0:0:
288,192,23327,1,0,0:0:0:0:
416,192,23327,1,0,0:0:0:0:
160,192,23406,1,0,0:0:0:0:
32,192,23486,1,0,0:0:0:0:
96,192,23486,1,0,0:0:0:0:
480,192,23486,1,0,0:0:0:0:
352,192,23486,1,0,0:0:0:0:
224,192,23566,1,0,0:0:0:0:
96,192,23646,1,0,0:0:0:0:
352,192,23646,1,0,0:0:0:0:
160,192,23726,1,0,0:0:0:0:
288,192,23726,1,0,0:0:0:0:
416,192,23726,1,0,0:0:0:0:
96,192,23805,1,0,0:0:0:0:
32,192,23805,1,0,0:0:0:0:
480,192,23805,1,0,0:0:0:0:
224,192,23885,1,0,0:0:0:0:
96,192,23965,1,0,0:0:0:0:
288,192,23965,1,0,0:0:0:0:
480,192,23965,1,0,0:0:0:0:
416,192,23965,1,0,0:0:0:0:
352,192,24045,1,0,0:0:0:0:
32,192,24125,1,0,0:0:0:0:
96,192,24125,1,0,0:0:0:0:
224,192,24125,1,0,0:0:0:0:
480,192,24125,1,0,0:0:0:0:
352,192,24204,1,0,0:0:0:0:
96,192,24284,1,0,0:0:0:0:
224,192,24284,1,0,0:0:0:0:
288,192,24364,1,0,0:0:0:0:
416,192,24364,1,0,0:0:0:0:
160,192,24364,1,0,0:0:0:0:
32,192,24444,1,0,0:0:0:0:
96,192,24444,1,0,0:0:0:0:
480,192,24444,1,0,0:0:0:0:
352,192,24523,1,0,0:0:0:0:
96,192,24603,1,0,0:0:0:0:
288,192,24603,1,0,0:0:0:0:
480,192,24603,1,0,0:0:0:0:
160,192,24603,1,0,0:0:0:0:
416,192,24683,1,0,0:0:0:0:
288,192,24763,5,0,0:0:0:0:
32,192,24763,1,0,0:0:0:0:
480,192,24763,1,0,0:0:0:0:
96,192,24763,1,0,0:0:0:0:
160,192,24763,1,0,0:0:0:0:
224,192,24843,1,0,0:0:0:0:
352,192,24843,1,0,0:0:0:0:
288,192,24922,1,0,0:0:0:0:
480,192,24922,1,0,0:0:0:0:
96,192,24922,1,0,0:0:0:0:
416,192,24922,1,0,0:0:0:0:
352,192,25002,1,0,0:0:0:0:
224,192,25002,1,0,0:0:0:0:
288,192,25082,1,0,0:0:0:0:
480,192,25082,1,0,0:0:0:0:
96,192,25082,1,0,0:0:0:0:
160,192,25082,1,0,0:0:0:0:
352,192,25162,1,0,0:0:0:0:
224,192,25162,1,0,0:0:0:0:
288,192,25242,1,0,0:0:0:0:
480,192,25242,1,0,0:0:0:0:
96,192,25242,1,0,0:0:0:0:
416,192,25242,1,0,0:0:0:0:
224,192,25321,1,0,0:0:0:0:
352,192,25321,1,0,0:0:0:0:
160,192,25401,5,0,0:0:0:0:
96,192,25401,1,0,0:0:0:0:
480,192,25401,1,0,0:0:0:0:
288,192,25401,1,0,0:0:0:0:
96,192,25561,1,0,0:0:0:0:
480,192,25561,1,0,0:0:0:0:
288,192,25720,1,0,0:0:0:0:
96,192,25720,1,0,0:0:0:0:
480,192,25720,1,0,0:0:0:0:
160,192,25760,1,0,0:0:0:0:
416,192,25760,1,0,0:0:0:0:
224,192,25800,1,0,0:0:0:0:
352,192,25800,1,0,0:0:0:0:
288,192,25840,1,0,0:0:0:0:
480,192,25840,1,0,0:0:0:0:
96,192,25880,1,0,0:0:0:0:
416,192,25880,1,0,0:0:0:0:
160,192,25920,1,0,0:0:0:0:
352,192,25920,1,0,0:0:0:0:
224,192,25960,1,0,0:0:0:0:
480,192,25960,1,0,0:0:0:0:
288,192,26000,1,0,0:0:0:0:
416,192,26000,1,0,0:0:0:0:
32,192,26039,5,0,0:0:0:0:
352,192,26039,1,0,0:0:0:0:
96,192,26039,1,0,0:0:0:0:
480,192,26997,1,0,0:0:0:0:
288,192,27316,1,0,0:0:0:0:
480,192,27954,1,0,0:0:0:0:
224,192,28593,1,0,0:0:0:0:
96,192,28593,1,0,0:0:0:0:
288,192,28912,1,0,0:0:0:0:
352,192,29231,1,0,0:0:0:0:
416,192,29550,1,0,0:0:0:0:
480,192,29869,1,0,0:0:0:0:
160,192,30508,1,0,0:0:0:0:
288,192,30827,1,0,0:0:0:0:
416,192,31146,1,0,0:0:0:0:
224,192,31625,1,0,0:0:0:0:
352,192,31944,1,0,0:0:0:0:
416,192,32103,1,0,0:0:0:0:
352,192,32263,1,0,0:0:0:0:
288,192,32901,1,0,0:0:0:0:
480,192,33380,1,0,0:0:0:0:
416,192,33699,1,0,0:0:0:0:
96,192,33699,1,0,0:0:0:0:
160,192,34018,1,0,0:0:0:0:
288,192,34337,1,0,0:0:0:0:
352,192,34656,1,0,0:0:0:0:
480,192,34976,1,0,0:0:0:0:
416,192,35295,1,0,0:0:0:0:
224,192,35614,1,0,0:0:0:0:
352,192,35614,1,0,0:0:0:0:
416,192,35933,1,0,0:0:0:0:
160,192,35933,1,0,0:0:0:0:
224,192,36252,1,0,0:0:0:0:
32,192,36252,1,0,0:0:0:0:
352,192,36252,1,0,0:0:0:0:
224,192,36412,1,0,0:0:0:0:
352,192,36412,1,0,0:0:0:0:
480,192,36571,1,0,0:0:0:0:
224,192,36731,1,0,0:0:0:0:
352,192,36731,1,0,0:0:0:0:
480,192,36811,1,0,0:0:0:0:
352,192,36890,1,0,0:0:0:0:
480,192,36970,1,0,0:0:0:0:
224,192,37050,1,0,0:0:0:0:
352,192,37050,1,0,0:0:0:0:
288,192,37130,1,0,0:0:0:0:
480,192,37210,1,0,0:0:0:0:
224,192,37369,1,0,0:0:0:0:
352,192,37369,1,0,0:0:0:0:
288,192,37449,1,0,0:0:0:0:
160,192,37529,1,0,0:0:0:0:
160,192,37688,1,0,0:0:0:0:
288,192,37688,1,0,0:0:0:0:
416,192,37848,1,0,0:0:0:0:
160,192,38008,1,0,0:0:0:0:
416,192,38167,1,0,0:0:0:0:
288,192,38247,1,0,0:0:0:0:
160,192,38327,1,0,0:0:0:0:
416,192,38327,1,0,0:0:0:0:
288,192,38566,1,0,0:0:0:0:
160,192,38646,1,0,0:0:0:0:
416,192,38646,1,0,0:0:0:0:
288,192,38726,1,0,0:0:0:0:
96,192,38805,1,0,0:0:0:0:
96,192,38965,1,0,0:0:0:0:
224,192,38965,1,0,0:0:0:0:
352,192,39125,1,0,0:0:0:0:
96,192,39284,1,0,0:0:0:0:
224,192,39284,1,0,0:0:0:0:
352,192,39364,1,0,0:0:0:0:
224,192,39444,1,0,0:0:0:0:
96,192,39444,1,0,0:0:0:0:
352,192,39523,1,0,0:0:0:0:
96,192,39603,1,0,0:0:0:0:
224,192,39603,1,0,0:0:0:0:
160,192,39683,1,0,0:0:0:0:
480,192,39763,1,0,0:0:0:0:
352,192,39763,1,0,0:0:0:0:
96,192,39922,1,0,0:0:0:0:
224,192,39922,1,0,0:0:0:0:
160,192,40002,1,0,0:0:0:0:
480,192,40082,1,0,0:0:0:0:
352,192,40082,1,0,0:0:0:0:
96,192,40242,5,0,0:0:0:0:
224,192,40242,1,0,0:0:0:0:
160,192,40321,1,0,0:0:0:0:
480,192,40401,1,0,0:0:0:0:
352,192,40401,1,0,0:0:0:0:
96,192,40561,1,0,0:0:0:0:
224,192,40561,1,0,0:0:0:0:
160,192,40640,1,0,0:0:0:0:
288,192,40720,1,0,0:0:0:0:
96,192,40880,1,0,0:0:0:0:
480,192,40880,1,0,0:0:0:0:
352,192,40880,1,0,0:0:0:0:
224,192,40880,1,0,0:0:0:0:
288,192,41039,1,0,0:0:0:0:
480,192,41119,1,0,0:0:0:0:
352,192,41119,1,0,0:0:0:0:
96,192,41199,1,0,0:0:0:0:
416,192,41199,1,0,0:0:0:0:
224,192,41199,1,0,0:0:0:0:
288,192,41279,1,0,0:0:0:0:
160,192,41279,1,0,0:0:0:0:
352,192,41359,5,0,0:0:0:0:
96,192,41359,1,0,0:0:0:0:
32,192,41359,1,0,0:0:0:0:
480,192,41359,1,0,0:0:0:0:
224,192,41438,1,0,0:0:0:0:
480,192,41518,1,0,0:0:0:0:
96,192,41518,1,0,0:0:0:0:
352,192,41518,1,0,0:0:0:0:
224,192,41598,1,0,0:0:0:0:
352,192,41678,1,0,0:0:0:0:
96,192,41678,1,0,0:0:0:0:
480,192,41678,1,0,0:0:0:0:
416,192,41678,1,0,0:0:0:0:
224,192,41758,1,0,0:0:0:0:
480,192,41837,1,0,0:0:0:0:
96,192,41837,1,0,0:0:0:0:
352,192,41837,1,0,0:0:0:0:
224,192,41917,1,0,0:0:0:0:
352,192,41997,1,0,0:0:0:0:
96,192,41997,1,0,0:0:0:0:
480,192,41997,1,0,0:0:0:0:
224,192,42077,1,0,0:0:0:0:
480,192,42156,1,0,0:0:0:0:
96,192,42156,1,0,0:0:0:0:
352,192,42156,1,0,0:0:0:0:
224,192,42236,1,0,0:0:0:0:
352,192,42316,1,0,0:0:0:0:
96,192,42316,1,0,0:0:0:0:
416,192,42316,1,0,0:0:0:0:
480,192,42316,1,0,0:0:0:0:
224,192,42396,1,0,0:0:0:0:
480,192,42476,1,0,0:0:0:0:
96,192,42476,1,0,0:0:0:0:
352,192,42476,1,0,0:0:0:0:
224,192,42555,1,0,0:0:0:0:
160,192,42635,1,0,0:0:0:0:
96,192,42635,1,0,0:0:0:0:
32,192,42635,1,0,0:0:0:0:
416,192,42635,1,0,0:0:0:0:
288,192,42715,1,0,0:0:0:0:
416,192,42795,1,0,0:0:0:0:
96,192,42795,1,0,0:0:0:0:
160,192,42795,1,0,0:0:0:0:
288,192,42875,1,0,0:0:0:0:
224,192,42954,1,0,0:0:0:0:
160,192,42954,1,0,0:0:0:0:
96,192,42954,1,0,0:0:0:0:
416,192,42954,1,0,0:0:0:0:
288,192,43034,1,0,0:0:0:0:
416,192,43114,1,0,0:0:0:0:
96,192,43114,1,0,0:0:0:0:
160,192,43114,1,0,0:0:0:0:
288,192,43194,1,0,0:0:0:0:
416,192,43273,1,0,0:0:0:0:
96,192,43273,1,0,0:0:0:0:
32,192,43273,1,0,0:0:0:0:
160,192,43273,1,0,0:0:0:0:
288,192,43353,1,0,0:0:0:0:
160,192,43433,1,0,0:0:0:0:
96,192,43433,1,0,0:0:0:0:
416,192,43433,1,0,0:0:0:0:
288,192,43513,1,0,0:0:0:0:
160,192,43593,1,0,0:0:0:0:
96,192,43593,1,0,0:0:0:0:
224,192,43593,1,0,0:0:0:0:
352,192,43593,1,0,0:0:0:0:
480,192,43672,1,0,0:0:0:0:
416,192,43672,1,0,0:0:0:0:
96,192,43752,1,0,0:0:0:0:
224,192,43752,1,0,0:0:0:0:
288,192,43752,1,0,0:0:0:0:
160,192,43752,1,0,0:0:0:0:
480,192,43832,1,0,0:0:0:0:
352,192,43832,1,0,0:0:0:0:
32,192,43912,1,0,0:0:0:0:
96,192,43912,1,0,0:0:0:0:
416,192,43912,1,0,0:0:0:0:
288,192,43912,1,0,0:0:0:0:
160,192,43992,1,0,0:0:0:0:
224,192,44071,1,0,0:0:0:0:
416,192,44071,1,0,0:0:0:0:
288,192,44151,1,0,0:0:0:0:
96,192,44231,1,0,0:0:0:0:
160,192,44311,1,0,0:0:0:0:
224,192,44390,1,0,0:0:0:0:
416,192,44390,1,0,0:0:0:0:
288,192,44470,1,0,0:0:0:0:
480,192,44470,1,0,0:0:0:0:
32,192,44550,1,0,0:0:0:0:
96,192,44550,1,0,0:0:0:0:
160,192,44630,1,0,0:0:0:0:
224,192,44710,1,0,0:0:0:0:
416,192,44710,1,0,0:0:0:0:
288,192,44789,1,0,0:0:0:0:
96,192,44869,1,0,0:0:0:0:
160,192,44949,1,0,0:0:0:0:
224,192,45029,1,0,0:0:0:0:
352,192,45029,1,0,0:0:0:0:
480,192,45029,1,0,0:0:0:0:
288,192,45109,1,0,0:0:0:0:
416,192,45109,1,0,0:0:0:0:
32,192,45188,1,0,0:0:0:0:
96,192,45188,1,0,0:0:0:0:
352,192,45188,1,0,0:0:0:0:
480,192,45188,1,0,0:0:0:0:
224,192,45188,1,0,0:0:0:0:
32,192,45508,1,0,0:0:0:0:
96,192,45508,1,0,0:0:0:0:
352,192,45508,1,0,0:0:0:0:
480,192,45508,1,0,0:0:0:0:
224,192,45508,1,0,0:0:0:0:
416,192,45667,1,0,0:0:0:0:
160,192,45667,1,0,0:0:0:0:
288,192,45667,1,0,0:0:0:0:
32,192,45827,1,0,0:0:0:0:
96,192,45827,1,0,0:0:0:0:
352,192,45827,1,0,0:0:0:0:
480,192,45827,1,0,0:0:0:0:
224,192,45827,1,0,0:0:0:0:
32,192,45986,1,0,0:0:0:0:
32,192,46066,1,0,0:0:0:0:
32,192,46146,1,0,0:0:0:0:
32,192,46465,1,0,0:0:0:0:
480,192,46465,1,0,0:0:0:0:
96,192,46465,1,0,0:0:0:0:
224,192,46465,1,0,0:0:0:0:
416,192,46465,1,0,0:0:0:0:
288,192,46545,1,0,0:0:0:0:
352,192,46625,1,0,0:0:0:0:
160,192,46625,1,0,0:0:0:0:
416,192,46704,1,0,0:0:0:0:
480,192,46784,1,0,0:0:0:0:
96,192,46784,1,0,0:0:0:0:
224,192,46784,1,0,0:0:0:0:
288,192,46864,1,0,0:0:0:0:
480,192,46944,1,0,0:0:0:0:
352,192,46944,1,0,0:0:0:0:
160,192,46944,1,0,0:0:0:0:
288,192,47023,1,0,0:0:0:0:
480,192,47103,1,0,0:0:0:0:
96,192,47103,1,0,0:0:0:0:
224,192,47103,1,0,0:0:0:0:
352,192,47103,1,0,0:0:0:0:
160,192,47183,1,0,0:0:0:0:
224,192,47263,1,0,0:0:0:0:
288,192,47343,1,0,0:0:0:0:
416,192,47343,1,0,0:0:0:0:
480,192,47343,1,0,0:0:0:0:
352,192,47422,1,0,0:0:0:0:
96,192,47422,1,0,0:0:0:0:
224,192,47502,1,0,0:0:0:0:
288,192,47582,1,0,0:0:0:0:
160,192,47582,1,0,0:0:0:0:
416,192,47582,1,0,0:0:0:0:
352,192,47662,1,0,0:0:0:0:
416,192,47742,1,0,0:0:0:0:
96,192,47742,1,0,0:0:0:0:
224,192,47742,1,0,0:0:0:0:
480,192,47742,1,0,0:0:0:0:
352,192,47821,1,0,0:0:0:0:
288,192,47901,1,0,0:0:0:0:
160,192,47901,1,0,0:0:0:0:
224,192,47901,1,0,0:0:0:0:
352,192,47981,1,0,0:0:0:0:
416,192,48061,1,0,0:0:0:0:
96,192,48061,1,0,0:0:0:0:
224,192,48061,1,0,0:0:0:0:
480,192,48061,1,0,0:0:0:0:
288,192,48140,1,0,0:0:0:0:
352,192,48220,1,0,0:0:0:0:
160,192,48220,1,0,0:0:0:0:
416,192,48300,1,0,0:0:0:0:
480,192,48300,1,0,0:0:0:0:
288,192,48300,1,0,0:0:0:0:
224,192,48380,1,0,0:0:0:0:
96,192,48380,1,0,0:0:0:0:
416,192,48460,1,0,0:0:0:0:
288,192,48539,1,0,0:0:0:0:
160,192,48539,1,0,0:0:0:0:
480,192,48619,1,0,0:0:0:0:
352,192,48619,1,0,0:0:0:0:
224,192,48699,1,0,0:0:0:0:
96,192,48699,1,0,0:0:0:0:
416,192,48779,1,0,0:0:0:0:
288,192,48859,1,0,0:0:0:0:
160,192,48859,1,0,0:0:0:0:
352,192,48938,1,0,0:0:0:0:
160,192,48938,1,0,0:0:0:0:
480,192,49018,1,0,0:0:0:0:
96,192,49018,1,0,0:0:0:0:
224,192,49018,1,0,0:0:0:0:
416,192,49018,1,0,0:0:0:0:
288,192,49098,1,0,0:0:0:0:
352,192,49178,1,0,0:0:0:0:
160,192,49178,1,0,0:0:0:0:
416,192,49258,1,0,0:0:0:0:
480,192,49337,1,0,0:0:0:0:
96,192,49337,1,0,0:0:0:0:
224,192,49337,1,0,0:0:0:0:
288,192,49337,1,0,0:0:0:0:
352,192,49417,1,0,0:0:0:0:
416,192,49497,1,0,0:0:0:0:
288,192,49497,1,0,0:0:0:0:
160,192,49497,1,0,0:0:0:0:
352,192,49577,1,0,0:0:0:0:
416,192,49656,1,0,0:0:0:0:
96,192,49656,1,0,0:0:0:0:
288,192,49656,1,0,0:0:0:0:
224,192,49656,1,0,0:0:0:0:
160,192,49736,1,0,0:0:0:0:
224,192,49816,1,0,0:0:0:0:
288,192,49896,1,0,0:0:0:0:
352,192,49896,1,0,0:0:0:0:
416,192,49896,1,0,0:0:0:0:
224,192,49976,1,0,0:0:0:0:
96,192,49976,1,0,0:0:0:0:
160,192,50055,1,0,0:0:0:0:
352,192,50135,1,0,0:0:0:0:
416,192,50135,1,0,0:0:0:0:
480,192,50135,1,0,0:0:0:0:
288,192,50215,1,0,0:0:0:0:
352,192,50295,1,0,0:0:0:0:
480,192,50295,1,0,0:0:0:0:
96,192,50295,1,0,0:0:0:0:
160,192,50295,1,0,0:0:0:0:
224,192,50295,1,0,0:0:0:0:
352,192,50454,1,0,0:0:0:0:
480,192,50454,1,0,0:0:0:0:
160,192,50454,1,0,0:0:0:0:
288,192,50614,1,0,0:0:0:0:
416,192,50614,1,0,0:0:0:0:
96,192,50614,1,0,0:0:0:0:
352,192,50614,1,0,0:0:0:0:
224,192,50614,1,0,0:0:0:0:
288,192,50773,1,0,0:0:0:0:
416,192,50773,1,0,0:0:0:0:
160,192,50773,1,0,0:0:0:0:
224,192,50933,1,0,0:0:0:0:
352,192,50933,1,0,0:0:0:0:
96,192,50933,1,0,0:0:0:0:
288,192,50933,1,0,0:0:0:0:
480,192,50933,1,0,0:0:0:0:
224,192,51093,1,0,0:0:0:0:
352,192,51093,1,0,0:0:0:0:
416,192,51093,1,0,0:0:0:0:
160,192,51252,1,0,0:0:0:0:
288,192,51252,1,0,0:0:0:0:
96,192,51252,1,0,0:0:0:0:
224,192,51252,1,0,0:0:0:0:
480,192,51252,1,0,0:0:0:0:
416,192,51332,1,0,0:0:0:0:
160,192,51412,1,0,0:0:0:0:
96,192,51412,1,0,0:0:0:0:
352,192,51412,1,0,0:0:0:0:
224,192,51412,1,0,0:0:0:0:
288,192,51492,1,0,0:0:0:0:
96,192,51571,1,0,0:0:0:0:
480,192,51571,1,0,0:0:0:0:
224,192,51571,1,0,0:0:0:0:
416,192,51571,1,0,0:0:0:0:
288,192,51651,1,0,0:0:0:0:
160,192,51731,1,0,0:0:0:0:
352,192,51731,1,0,0:0:0:0:
416,192,51811,1,0,0:0:0:0:
96,192,51890,1,0,0:0:0:0:
480,192,51890,1,0,0:0:0:0:
224,192,51890,1,0,0:0:0:0:
352,192,51970,1,0,0:0:0:0:
288,192,52050,1,0,0:0:0:0:
160,192,52050,1,0,0:0:0:0:
416,192,52050,1,0,0:0:0:0:
224,192,52130,1,0,0:0:0:0:
96,192,52210,1,0,0:0:0:0:
160,192,52210,1,0,0:0:0:0:
416,192,52210,1,0,0:0:0:0:
288,192,52210,1,0,0:0:0:0:
352,192,52289,1,0,0:0:0:0:
160,192,52369,1,0,0:0:0:0:
480,192,52449,1,0,0:0:0:0:
352,192,52449,1,0,0:0:0:0:
224,192,52449,1,0,0:0:0:0:
96,192,52529,1,0,0:0:0:0:
288,192,52529,1,0,0:0:0:0:
352,192,52609,1,0,0:0:0:0:
480,192,52688,1,0,0:0:0:0:
160,192,52688,1,0,0:0:0:0:
416,192,52688,1,0,0:0:0:0:
352,192,52768,1,0,0:0:0:0:
96,192,52848,1,0,0:0:0:0:
480,192,52848,1,0,0:0:0:0:
224,192,52848,1,0,0:0:0:0:
288,192,52848,1,0,0:0:0:0:
160,192,52928,1,0,0:0:0:0:
224,192,53008,1,0,0:0:0:0:
416,192,53008,1,0,0:0:0:0:
288,192,53087,1,0,0:0:0:0:
96,192,53167,1,0,0:0:0:0:
224,192,53167,1,0,0:0:0:0:
480,192,53167,1,0,0:0:0:0:
416,192,53167,1,0,0:0:0:0:
352,192,53247,1,0,0:0:0:0:
160,192,53327,1,0,0:0:0:0:
288,192,53327,1,0,0:0:0:0:
224,192,53406,1,0,0:0:0:0:
96,192,53486,1,0,0:0:0:0:
160,192,53486,1,0,0:0:0:0:
352,192,53486,1,0,0:0:0:0:
480,192,53486,1,0,0:0:0:0:
224,192,53566,1,0,0:0:0:0:
288,192,53646,1,0,0:0:0:0:
416,192,53646,1,0,0:0:0:0:
352,192,53726,1,0,0:0:0:0:
96,192,53805,1,0,0:0:0:0:
288,192,53805,1,0,0:0:0:0:
416,192,53805,1,0,0:0:0:0:
480,192,53805,1,0,0:0:0:0:
352,192,53885,1,0,0:0:0:0:
224,192,53885,1,0,0:0:0:0:
160,192,53965,1,0,0:0:0:0:
288,192,53965,1,0,0:0:0:0:
160,192,54045,1,0,0:0:0:0:
416,192,54045,1,0,0:0:0:0:
96,192,54125,1,0,0:0:0:0:
224,192,54125,1,0,0:0:0:0:
480,192,54125,1,0,0:0:0:0:
352,192,54125,1,0,0:0:0:0:
288,192,54204,1,0,0:0:0:0:
352,192,54284,1,0,0:0:0:0:
416,192,54284,1,0,0:0:0:0:
160,192,54284,1,0,0:0:0:0:
224,192,54284,1,0,0:0:0:0:
288,192,54364,1,0,0:0:0:0:
96,192,54444,1,0,0:0:0:0:
352,192,54523,1,0,0:0:0:0:
288,192,54603,1,0,0:0:0:0:
416,192,54603,1,0,0:0:0:0:
160,192,54603,1,0,0:0:0:0:
352,192,54683,1,0,0:0:0:0:
480,192,54683,1,0,0:0:0:0:
224,192,54683,1,0,0:0:0:0:
96,192,54763,1,0,0:0:0:0:
288,192,54763,1,0,0:0:0:0:
416,192,54763,1,0,0:0:0:0:
224,192,54843,1,0,0:0:0:0:
160,192,54922,1,0,0:0:0:0:
224,192,55002,1,0,0:0:0:0:
352,192,55002,1,0,0:0:0:0:
480,192,55002,1,0,0:0:0:0:
96,192,55082,1,0,0:0:0:0:
288,192,55162,1,0,0:0:0:0:
160,192,55242,1,0,0:0:0:0:
352,192,55242,1,0,0:0:0:0:
224,192,55242,1,0,0:0:0:0:
416,192,55321,1,0,0:0:0:0:
160,192,55401,1,0,0:0:0:0:
480,192,55401,1,0,0:0:0:0:
96,192,55401,1,0,0:0:0:0:
352,192,55401,1,0,0:0:0:0:
288,192,55401,1,0,0:0:0:0:
160,192,55561,1,0,0:0:0:0:
288,192,55561,1,0,0:0:0:0:
352,192,55561,1,0,0:0:0:0:
96,192,55720,1,0,0:0:0:0:
288,192,55720,1,0,0:0:0:0:
352,192,55720,1,0,0:0:0:0:
416,192,55720,1,0,0:0:0:0:
224,192,55720,1,0,0:0:0:0:
224,192,55880,1,0,0:0:0:0:
352,192,55880,1,0,0:0:0:0:
416,192,55880,1,0,0:0:0:0:
288,192,56039,1,0,0:0:0:0:
480,192,56039,1,0,0:0:0:0:
96,192,56039,1,0,0:0:0:0:
160,192,56039,1,0,0:0:0:0:
416,192,56039,1,0,0:0:0:0:
288,192,56199,1,0,0:0:0:0:
480,192,56199,1,0,0:0:0:0:
416,192,56199,1,0,0:0:0:0:
96,192,56199,1,0,0:0:0:0:
416,192,56359,1,0,0:0:0:0:
480,192,56359,1,0,0:0:0:0:
96,192,56359,1,0,0:0:0:0:
224,192,56359,1,0,0:0:0:0:
352,192,56359,1,0,0:0:0:0:
352,192,56518,1,0,0:0:0:0:
480,192,56518,1,0,0:0:0:0:
224,192,56518,1,0,0:0:0:0:
96,192,56518,1,0,0:0:0:0:
96,192,56598,1,0,0:0:0:0:
32,192,56678,1,0,0:0:0:0:
96,192,56678,1,0,0:0:0:0:
416,192,56678,1,0,0:0:0:0:
288,192,56678,1,0,0:0:0:0:
160,192,56758,1,0,0:0:0:0:
224,192,56758,1,0,0:0:0:0:
288,192,56837,1,0,0:0:0:0:
416,192,56837,1,0,0:0:0:0:
352,192,56917,1,0,0:0:0:0:
480,192,56917,1,0,0:0:0:0:
96,192,56997,1,0,0:0:0:0:
288,192,56997,1,0,0:0:0:0:
160,192,56997,1,0,0:0:0:0:
224,192,57077,1,0,0:0:0:0:
416,192,57077,1,0,0:0:0:0:
352,192,57156,1,0,0:0:0:0:
288,192,57156,1,0,0:0:0:0:
416,192,57236,1,0,0:0:0:0:
224,192,57236,1,0,0:0:0:0:
96,192,57316,1,0,0:0:0:0:
480,192,57316,1,0,0:0:0:0:
160,192,57316,1,0,0:0:0:0:
224,192,57396,1,0,0:0:0:0:
352,192,57396,1,0,0:0:0:0:
288,192,57476,1,0,0:0:0:0:
416,192,57476,1,0,0:0:0:0:
352,192,57555,1,0,0:0:0:0:
480,192,57555,1,0,0:0:0:0:
96,192,57635,1,0,0:0:0:0:
416,192,57635,1,0,0:0:0:0:
224,192,57635,1,0,0:0:0:0:
160,192,57715,1,0,0:0:0:0:
288,192,57715,1,0,0:0:0:0:
480,192,57795,1,0,0:0:0:0:
352,192,57795,1,0,0:0:0:0:
160,192,57875,1,0,0:0:0:0:
288,192,57875,1,0,0:0:0:0:
96,192,57954,1,0,0:0:0:0:
416,192,57954,1,0,0:0:0:0:
480,192,57954,1,0,0:0:0:0:
160,192,58034,1,0,0:0:0:0:
352,192,58034,1,0,0:0:0:0:
224,192,58114,1,0,0:0:0:0:
288,192,58114,1,0,0:0:0:0:
160,192,58194,1,0,0:0:0:0:
352,192,58194,1,0,0:0:0:0:
96,192,58273,1,0,0:0:0:0:
416,192,58273,1,0,0:0:0:0:
224,192,58273,1,0,0:0:0:0:
288,192,58353,1,0,0:0:0:0:
352,192,58353,1,0,0:0:0:0:
160,192,58433,1,0,0:0:0:0:
224,192,58433,1,0,0:0:0:0:
480,192,58513,1,0,0:0:0:0:
352,192,58513,1,0,0:0:0:0:
96,192,58593,1,0,0:0:0:0:
224,192,58593,1,0,0:0:0:0:
288,192,58593,1,0,0:0:0:0:
416,192,58672,1,0,0:0:0:0:
160,192,58672,1,0,0:0:0:0:
352,192,58752,1,0,0:0:0:0:
224,192,58752,1,0,0:0:0:0:
288,192,58832,1,0,0:0:0:0:
416,192,58832,1,0,0:0:0:0:
96,192,58912,1,0,0:0:0:0:
480,192,58912,1,0,0:0:0:0:
352,192,58912,1,0,0:0:0:0:
224,192,58992,1,0,0:0:0:0:
416,192,58992,1,0,0:0:0:0:
160,192,59071,1,0,0:0:0:0:
288,192,59071,1,0,0:0:0:0:
352,192,59151,1,0,0:0:0:0:
480,192,59151,1,0,0:0:0:0:
160,192,59151,1,0,0:0:0:0:
96,192,59231,1,0,0:0:0:0:
288,192,59231,1,0,0:0:0:0:
416,192,59231,1,0,0:0:0:0:
224,192,59311,1,0,0:0:0:0:
352,192,59311,1,0,0:0:0:0:
160,192,59390,1,0,0:0:0:0:
288,192,59390,1,0,0:0:0:0:
480,192,59470,1,0,0:0:0:0:
352,192,59470,1,0,0:0:0:0:
96,192,59550,1,0,0:0:0:0:
224,192,59550,1,0,0:0:0:0:
416,192,59550,1,0,0:0:0:0:
160,192,59630,1,0,0:0:0:0:
352,192,59630,1,0,0:0:0:0:
288,192,59710,1,0,0:0:0:0:
416,192,59710,1,0,0:0:0:0:
480,192,59789,1,0,0:0:0:0:
160,192,59789,1,0,0:0:0:0:
96,192,59869,1,0,0:0:0:0:
224,192,59869,1,0,0:0:0:0:
416,192,59869,1,0,0:0:0:0:
160,192,59949,1,0,0:0:0:0:
352,192,59949,1,0,0:0:0:0:
288,192,60029,1,0,0:0:0:0:
224,192,60029,1,0,0:0:0:0:
480,192,60109,1,0,0:0:0:0:
352,192,60109,1,0,0:0:0:0:
96,192,60188,1,0,0:0:0:0:
288,192,60188,1,0,0:0:0:0:
416,192,60188,1,0,0:0:0:0:
224,192,60268,1,0,0:0:0:0:
352,192,60268,1,0,0:0:0:0:
160,192,60348,1,0,0:0:0:0:
480,192,60348,1,0,0:0:0:0:
416,192,60428,1,0,0:0:0:0:
224,192,60428,1,0,0:0:0:0:
96,192,60508,1,0,0:0:0:0:
352,192,60508,1,0,0:0:0:0:
480,192,60508,1,0,0:0:0:0:
288,192,60587,1,0,0:0:0:0:
416,192,60587,1,0,0:0:0:0:
224,192,60667,1,0,0:0:0:0:
352,192,60667,1,0,0:0:0:0:
480,192,60667,1,0,0:0:0:0:
160,192,60747,1,0,0:0:0:0:
288,192,60747,1,0,0:0:0:0:
96,192,60827,5,0,0:0:0:0:
224,192,60827,1,0,0:0:0:0:
416,192,60827,1,0,0:0:0:0:
160,192,60906,1,0,0:0:0:0:
288,192,60906,1,0,0:0:0:0:
224,192,60986,1,0,0:0:0:0:
352,192,60986,1,0,0:0:0:0:
288,192,61066,1,0,0:0:0:0:
480,192,61066,1,0,0:0:0:0:
96,192,61146,1,0,0:0:0:0:
224,192,61146,1,0,0:0:0:0:
416,192,61146,1,0,0:0:0:0:
352,192,61226,1,0,0:0:0:0:
160,192,61226,1,0,0:0:0:0:
224,192,61305,1,0,0:0:0:0:
416,192,61305,1,0,0:0:0:0:
288,192,61385,1,0,0:0:0:0:
480,192,61385,1,0,0:0:0:0:
96,192,61465,1,0,0:0:0:0:
352,192,61465,1,0,0:0:0:0:
224,192,61465,1,0,0:0:0:0:
288,192,61545,1,0,0:0:0:0:
416,192,61545,1,0,0:0:0:0:
96,192,61625,1,0,0:0:0:0:
224,192,61625,1,0,0:0:0:0:
352,192,61625,1,0,0:0:0:0:
160,192,61704,1,0,0:0:0:0:
288,192,61704,1,0,0:0:0:0:
32,192,61784,5,0,0:0:0:0:
96,192,61784,1,0,0:0:0:0:
224,192,61784,1,0,0:0:0:0:
416,192,61784,1,0,0:0:0:0:
352,192,61864,1,0,0:0:0:0:
480,192,61864,1,0,0:0:0:0:
224,192,61944,1,0,0:0:0:0:
96,192,61944,1,0,0:0:0:0:
352,192,62023,1,0,0:0:0:0:
480,192,62023,1,0,0:0:0:0:
224,192,62103,1,0,0:0:0:0:
96,192,62103,1,0,0:0:0:0:
160,192,62103,1,0,0:0:0:0:
352,192,62183,1,0,0:0:0:0:
480,192,62183,1,0,0:0:0:0:
160,192,62263,1,0,0:0:0:0:
288,192,62263,1,0,0:0:0:0:
352,192,62343,1,0,0:0:0:0:
480,192,62343,1,0,0:0:0:0:
224,192,62422,1,0,0:0:0:0:
96,192,62422,1,0,0:0:0:0:
416,192,62422,1,0,0:0:0:0:
352,192,62502,1,0,0:0:0:0:
480,192,62502,1,0,0:0:0:0:
288,192,62582,1,0,0:0:0:0:
224,192,62662,1,0,0:0:0:0:
352,192,62662,1,0,0:0:0:0:
480,192,62662,1,0,0:0:0:0:
160,192,62742,1,0,0:0:0:0:
96,192,62742,1,0,0:0:0:0:
352,192,62821,1,0,0:0:0:0:
480,192,62821,1,0,0:0:0:0:
224,192,62901,1,0,0:0:0:0:
416,192,62901,1,0,0:0:0:0:
352,192,62981,1,0,0:0:0:0:
480,192,62981,1,0,0:0:0:0:
32,192,63061,1,0,0:0:0:0:
160,192,63061,1,0,0:0:0:0:
288,192,63061,1,0,0:0:0:0:
416,192,63061,1,0,0:0:0:0:
352,192,63140,1,0,0:0:0:0:
480,192,63140,1,0,0:0:0:0:
224,192,63220,1,0,0:0:0:0:
288,192,63300,1,0,0:0:0:0:
480,192,63300,1,0,0:0:0:0:
416,192,63300,1,0,0:0:0:0:
224,192,63380,1,0,0:0:0:0:
96,192,63380,1,0,0:0:0:0:
352,192,63460,1,0,0:0:0:0:
480,192,63460,1,0,0:0:0:0:
288,192,63539,1,0,0:0:0:0:
160,192,63539,1,0,0:0:0:0:
352,192,63619,1,0,0:0:0:0:
480,192,63619,1,0,0:0:0:0:
32,192,63699,1,0,0:0:0:0:
224,192,63699,1,0,0:0:0:0:
96,192,63699,1,0,0:0:0:0:
352,192,63779,1,0,0:0:0:0:
480,192,63779,1,0,0:0:0:0:
288,192,63859,1,0,0:0:0:0:
416,192,63859,1,0,0:0:0:0:
352,192,63938,1,0,0:0:0:0:
96,192,63938,1,0,0:0:0:0:
480,192,63938,1,0,0:0:0:0:
288,192,64018,1,0,0:0:0:0:
96,192,64018,1,0,0:0:0:0:
416,192,64018,1,0,0:0:0:0:
352,192,64098,1,0,0:0:0:0:
480,192,64098,1,0,0:0:0:0:
288,192,64178,1,0,0:0:0:0:
96,192,64178,1,0,0:0:0:0:
160,192,64178,1,0,0:0:0:0:
352,192,64258,1,0,0:0:0:0:
480,192,64258,1,0,0:0:0:0:
32,192,64337,1,0,0:0:0:0:
96,192,64337,1,0,0:0:0:0:
224,192,64337,1,0,0:0:0:0:
416,192,64337,1,0,0:0:0:0:
352,192,64417,1,0,0:0:0:0:
480,192,64417,1,0,0:0:0:0:
96,192,64497,1,0,0:0:0:0:
224,192,64497,1,0,0:0:0:0:
160,192,64497,1,0,0:0:0:0:
352,192,64577,1,0,0:0:0:0:
480,192,64577,1,0,0:0:0:0:
32,192,64656,1,0,0:0:0:0:
96,192,64656,1,0,0:0:0:0:
224,192,64656,1,0,0:0:0:0:
288,192,64656,1,0,0:0:0:0:
352,192,64736,1,0,0:0:0:0:
480,192,64736,1,0,0:0:0:0:
96,192,64816,1,0,0:0:0:0:
288,192,64816,1,0,0:0:0:0:
416,192,64816,1,0,0:0:0:0:
352,192,64896,1,0,0:0:0:0:
224,192,64896,1,0,0:0:0:0:
32,192,64976,1,0,0:0:0:0:
96,192,64976,1,0,0:0:0:0:
160,192,64976,1,0,0:0:0:0:
480,192,64976,1,0,0:0:0:0:
416,192,64976,1,0,0:0:0:0:
352,192,65055,1,0,0:0:0:0:
224,192,65055,1,0,0:0:0:0:
96,192,65135,1,0,0:0:0:0:
480,192,65135,1,0,0:0:0:0:
288,192,65135,1,0,0:0:0:0:
160,192,65215,1,0,0:0:0:0:
416,192,65215,1,0,0:0:0:0:
32,192,65295,1,0,0:0:0:0:
96,192,65295,1,0,0:0:0:0:
480,192,65295,1,0,0:0:0:0:
352,192,65295,1,0,0:0:0:0:
224,192,65295,1,0,0:0:0:0:
416,192,65375,1,0,0:0:0:0:
160,192,65375,1,0,0:0:0:0:
96,192,65454,1,0,0:0:0:0:
288,192,65454,1,0,0:0:0:0:
480,192,65454,1,0,0:0:0:0:
160,192,65534,1,0,0:0:0:0:
416,192,65534,1,0,0:0:0:0:
352,192,65614,1,0,0:0:0:0:
224,192,65614,1,0,0:0:0:0:
480,192,65614,1,0,0:0:0:0:
96,192,65614,1,0,0:0:0:0:
32,192,65773,1,0,0:0:0:0:
96,192,65773,1,0,0:0:0:0:
160,192,65773,1,0,0:0:0:0:
288,192,65773,1,0,0:0:0:0:
352,192,65773,1,0,0:0:0:0:
480,192,65773,1,0,0:0:0:0:
32,192,66093,1,0,0:0:0:0:
96,192,66093,1,0,0:0:0:0:
224,192,66093,1,0,0:0:0:0:
288,192,66093,1,0,0:0:0:0:
416,192,66093,1,0,0:0:0:0:
480,192,66093,1,0,0:0:0:0:
32,192,66412,1,0,0:0:0:0:
96,192,66412,1,0,0:0:0:0:
160,192,66412,1,0,0:0:0:0:
288,192,66412,1,0,0:0:0:0:
352,192,66412,1,0,0:0:0:0:
480,192,66412,1,0,0:0:0:0:
224,192,66571,1,0,0:0:0:0:
480,192,66571,1,0,0:0:0:0:
160,192,66611,1,0,0:0:0:0:
352,192,66611,1,0,0:0:0:0:
96,192,66651,1,0,0:0:0:0:
416,192,66651,1,0,0:0:0:0:
224,192,66691,1,0,0:0:0:0:
288,192,66691,1,0,0:0:0:0:
160,192,66731,1,0,0:0:0:0:
480,192,66731,1,0,0:0:0:0:
96,192,66771,1,0,0:0:0:0:
352,192,66771,1,0,0:0:0:0:
224,192,66811,1,0,0:0:0:0:
416,192,66811,1,0,0:0:0:0:
160,192,66851,1,0,0:0:0:0:
288,192,66851,1,0,0:0:0:0:
32,192,66890,1,0,0:0:0:0:
96,192,66890,1,0,0:0:0:0:
352,192,66890,1,0,0:0:0:0:
480,192,66890,1,0,0:0:0:0:
224,192,66970,1,0,0:0:0:0:
352,192,67050,1,0,0:0:0:0:
224,192,67130,1,0,0:0:0:0:
352,192,67210,1,0,0:0:0:0:
96,192,67210,1,0,0:0:0:0:
224,192,67369,1,0,0:0:0:0:
288,192,67529,1,0,0:0:0:0:
96,192,67529,1,0,0:0:0:0:
224,192,67688,1,0,0:0:0:0:
352,192,67768,1,0,0:0:0:0:
96,192,67848,1,0,0:0:0:0:
288,192,67928,1,0,0:0:0:0:
224,192,68008,1,0,0:0:0:0:
352,192,68008,1,0,0:0:0:0:
416,192,68167,1,0,0:0:0:0:
96,192,68167,1,0,0:0:0:0:
288,192,68247,1,0,0:0:0:0:
416,192,68327,1,0,0:0:0:0:
288,192,68406,1,0,0:0:0:0:
416,192,68486,1,0,0:0:0:0:
96,192,68486,1,0,0:0:0:0:
352,192,68646,1,0,0:0:0:0:
288,192,68805,1,0,0:0:0:0:
96,192,68805,1,0,0:0:0:0:
224,192,68965,1,0,0:0:0:0:
352,192,69045,1,0,0:0:0:0:
96,192,69125,1,0,0:0:0:0:
288,192,69204,1,0,0:0:0:0:
224,192,69284,1,0,0:0:0:0:
352,192,69284,1,0,0:0:0:0:
96,192,69284,1,0,0:0:0:0:
96,192,69444,1,0,0:0:0:0:
288,192,69444,1,0,0:0:0:0:
416,192,69523,1,0,0:0:0:0:
288,192,69603,1,0,0:0:0:0:
416,192,69683,1,0,0:0:0:0:
96,192,69763,1,0,0:0:0:0:
288,192,69763,1,0,0:0:0:0:
224,192,69922,1,0,0:0:0:0:
96,192,70082,1,0,0:0:0:0:
224,192,70082,1,0,0:0:0:0:
160,192,70242,1,0,0:0:0:0:
416,192,70321,1,0,0:0:0:0:
96,192,70401,1,0,0:0:0:0:
288,192,70481,1,0,0:0:0:0:
160,192,70561,1,0,0:0:0:0:
416,192,70561,1,0,0:0:0:0:
96,192,70720,1,0,0:0:0:0:
416,192,70720,1,0,0:0:0:0:
288,192,70800,5,0,0:0:0:0:
352,192,70880,5,0,0:0:0:0:
224,192,70960,1,0,0:0:0:0:
96,192,71039,5,0,0:0:0:0:
288,192,71039,1,0,0:0:0:0:
160,192,71119,1,0,0:0:0:0:
352,192,71199,1,0,0:0:0:0:
224,192,71279,1,0,0:0:0:0:
96,192,71359,1,0,0:0:0:0:
480,192,71359,1,0,0:0:0:0:
224,192,71518,1,0,0:0:0:0:
480,192,71598,1,0,0:0:0:0:
96,192,71678,1,0,0:0:0:0:
352,192,71758,1,0,0:0:0:0:
96,192,71837,1,0,0:0:0:0:
224,192,71837,1,0,0:0:0:0:
288,192,71917,1,0,0:0:0:0:
160,192,71917,1,0,0:0:0:0:
96,192,71997,5,0,0:0:0:0:
352,192,71997,1,0,0:0:0:0:
288,192,72156,1,0,0:0:0:0:
160,192,72156,1,0,0:0:0:0:
288,192,72316,1,0,0:0:0:0:
96,192,72316,1,0,0:0:0:0:
480,192,72316,1,0,0:0:0:0:
160,192,72476,1,0,0:0:0:0:
352,192,72476,1,0,0:0:0:0:
288,192,72635,1,0,0:0:0:0:
96,192,72635,1,0,0:0:0:0:
288,192,72795,1,0,0:0:0:0:
160,192,72795,1,0,0:0:0:0:
96,192,72954,1,0,0:0:0:0:
480,192,72954,1,0,0:0:0:0:
352,192,72954,1,0,0:0:0:0:
288,192,73114,1,0,0:0:0:0:
160,192,73114,1,0,0:0:0:0:
288,192,73273,1,0,0:0:0:0:
96,192,73273,1,0,0:0:0:0:
160,192,73433,1,0,0:0:0:0:
416,192,73433,1,0,0:0:0:0:
288,192,73593,1,0,0:0:0:0:
96,192,73593,1,0,0:0:0:0:
480,192,73593,1,0,0:0:0:0:
288,192,73752,1,0,0:0:0:0:
160,192,73752,1,0,0:0:0:0:
416,192,73912,1,0,0:0:0:0:
96,192,73912,1,0,0:0:0:0:
416,192,74071,1,0,0:0:0:0:
224,192,74071,1,0,0:0:0:0:
480,192,74231,1,0,0:0:0:0:
96,192,74231,1,0,0:0:0:0:
352,192,74231,1,0,0:0:0:0:
224,192,74390,1,0,0:0:0:0:
416,192,74390,1,0,0:0:0:0:
96,192,74550,1,0,0:0:0:0:
416,192,74550,1,0,0:0:0:0:
288,192,74550,1,0,0:0:0:0:
480,192,74550,1,0,0:0:0:0:
96,192,74710,1,0,0:0:0:0:
160,192,74710,1,0,0:0:0:0:
416,192,74710,1,0,0:0:0:0:
288,192,74710,1,0,0:0:0:0:
96,192,74869,1,0,0:0:0:0:
480,192,74869,1,0,0:0:0:0:
352,192,74869,1,0,0:0:0:0:
224,192,74869,1,0,0:0:0:0:
96,192,75029,1,0,0:0:0:0:
160,192,75029,1,0,0:0:0:0:
416,192,75029,1,0,0:0:0:0:
288,192,75029,1,0,0:0:0:0:
96,192,75188,1,0,0:0:0:0:
352,192,75188,1,0,0:0:0:0:
224,192,75188,1,0,0:0:0:0:
416,192,75188,1,0,0:0:0:0:
96,192,75348,1,0,0:0:0:0:
160,192,75348,1,0,0:0:0:0:
352,192,75348,1,0,0:0:0:0:
288,192,75348,1,0,0:0:0:0:
96,192,75508,1,0,0:0:0:0:
416,192,75508,1,0,0:0:0:0:
352,192,75508,1,0,0:0:0:0:
224,192,75508,1,0,0:0:0:0:
96,192,75667,1,0,0:0:0:0:
160,192,75667,1,0,0:0:0:0:
416,192,75667,1,0,0:0:0:0:
288,192,75667,1,0,0:0:0:0:
96,192,75827,1,0,0:0:0:0:
480,192,75827,1,0,0:0:0:0:
352,192,75827,1,0,0:0:0:0:
224,192,75827,1,0,0:0:0:0:
160,192,76066,1,0,0:0:0:0:
288,192,76066,1,0,0:0:0:0:
416,192,76066,1,0,0:0:0:0:
96,192,76066,1,0,0:0:0:0:
480,192,76305,1,0,0:0:0:0:
352,192,76325,1,0,0:0:0:0:
224,192,76345,1,0,0:0:0:0:
96,192,76365,1,0,0:0:0:0:
416,192,76385,1,0,0:0:0:0:
288,192,76405,1,0,0:0:0:0:
160,192,76425,1,0,0:0:0:0:
96,192,76445,1,0,0:0:0:0:
352,192,76465,1,0,0:0:0:0:
480,192,76465,1,0,0:0:0:0:
96,192,76704,1,0,0:0:0:0:
160,192,76704,1,0,0:0:0:0:
224,192,76704,1,0,0:0:0:0:
352,192,76704,1,0,0:0:0:0:
480,192,76944,1,0,0:0:0:0:
416,192,76964,1,0,0:0:0:0:
288,192,76984,1,0,0:0:0:0:
160,192,77004,1,0,0:0:0:0:
96,192,77023,1,0,0:0:0:0:
224,192,77043,1,0,0:0:0:0:
352,192,77063,1,0,0:0:0:0:
480,192,77083,1,0,0:0:0:0:
96,192,77103,1,0,0:0:0:0:
96,192,77263,1,0,0:0:0:0:
480,192,77263,1,0,0:0:0:0:
352,192,77343,1,0,0:0:0:0:
224,192,77343,1,0,0:0:0:0:
32,192,77422,1,0,0:0:0:0:
96,192,77422,1,0,0:0:0:0:
480,192,77422,1,0,0:0:0:0:
288,192,77582,1,0,0:0:0:0:
160,192,77662,1,0,0:0:0:0:
96,192,77742,1,0,0:0:0:0:
416,192,77742,1,0,0:0:0:0:
224,192,77901,1,0,0:0:0:0:
480,192,77981,1,0,0:0:0:0:
96,192,78061,1,0,0:0:0:0:
352,192,78061,1,0,0:0:0:0:
288,192,78140,1,0,0:0:0:0:
224,192,78220,1,0,0:0:0:0:
480,192,78220,1,0,0:0:0:0:
96,192,78380,1,0,0:0:0:0:
416,192,78380,1,0,0:0:0:0:
288,192,78460,1,0,0:0:0:0:
416,192,78539,1,0,0:0:0:0:
288,192,78619,1,0,0:0:0:0:
96,192,78699,1,0,0:0:0:0:
416,192,78699,1,0,0:0:0:0:
224,192,78859,1,0,0:0:0:0:
96,192,79018,1,0,0:0:0:0:
352,192,79018,1,0,0:0:0:0:
160,192,79178,1,0,0:0:0:0:
288,192,79258,1,0,0:0:0:0:
96,192,79337,1,0,0:0:0:0:
288,192,79417,1,0,0:0:0:0:
224,192,79497,1,0,0:0:0:0:
96,192,79497,1,0,0:0:0:0:
352,192,79497,1,0,0:0:0:0:
96,192,79656,1,0,0:0:0:0:
352,192,79656,1,0,0:0:0:0:
224,192,79816,1,0,0:0:0:0:
352,192,79896,1,0,0:0:0:0:
96,192,79976,1,0,0:0:0:0:
224,192,80055,1,0,0:0:0:0:
288,192,80135,1,0,0:0:0:0:
160,192,80135,1,0,0:0:0:0:
96,192,80295,1,0,0:0:0:0:
416,192,80295,1,0,0:0:0:0:
224,192,80454,1,0,0:0:0:0:
416,192,80534,1,0,0:0:0:0:
96,192,80614,1,0,0:0:0:0:
288,192,80694,1,0,0:0:0:0:
352,192,80773,1,0,0:0:0:0:
224,192,80773,1,0,0:0:0:0:
96,192,80933,1,0,0:0:0:0:
480,192,80933,1,0,0:0:0:0:
352,192,81013,1,0,0:0:0:0:
96,192,81093,1,0,0:0:0:0:
416,192,81093,1,0,0:0:0:0:
288,192,81172,1,0,0:0:0:0:
96,192,81252,1,0,0:0:0:0:
352,192,81252,1,0,0:0:0:0:
224,192,81332,1,0,0:0:0:0:
96,192,81412,1,0,0:0:0:0:
288,192,81412,1,0,0:0:0:0:
160,192,81492,1,0,0:0:0:0:
96,192,81571,1,0,0:0:0:0:
32,192,81571,1,0,0:0:0:0:
224,192,81571,1,0,0:0:0:0:
96,192,81811,1,0,0:0:0:0:
32,192,81811,1,0,0:0:0:0:
224,192,81811,1,0,0:0:0:0:
96,192,82050,1,0,0:0:0:0:
288,192,82050,1,0,0:0:0:0:
96,192,82130,1,0,0:0:0:0:
96,192,82210,1,0,0:0:0:0:
32,192,82210,1,0,0:0:0:0:
224,192,82210,1,0,0:0:0:0:
416,192,82210,1,0,0:0:0:0:
160,192,82289,1,0,0:0:0:0:
96,192,82369,1,0,0:0:0:0:
416,192,82369,1,0,0:0:0:0:
224,192,82369,1,0,0:0:0:0:
288,192,82449,1,0,0:0:0:0:
96,192,82529,1,0,0:0:0:0:
480,192,82529,1,0,0:0:0:0:
352,192,82529,1,0,0:0:0:0:
160,192,82609,1,0,0:0:0:0:
96,192,82688,1,0,0:0:0:0:
224,192,82688,1,0,0:0:0:0:
416,192,82688,1,0,0:0:0:0:
288,192,82768,1,0,0:0:0:0:
96,192,82848,1,0,0:0:0:0:
352,192,82848,1,0,0:0:0:0:
480,192,82848,1,0,0:0:0:0:
160,192,82928,1,0,0:0:0:0:
96,192,83008,1,0,0:0:0:0:
224,192,83008,1,0,0:0:0:0:
288,192,83087,1,0,0:0:0:0:
416,192,83087,1,0,0:0:0:0:
96,192,83167,1,0,0:0:0:0:
352,192,83167,1,0,0:0:0:0:
160,192,83247,1,0,0:0:0:0:
96,192,83327,1,0,0:0:0:0:
224,192,83327,1,0,0:0:0:0:
416,192,83327,1,0,0:0:0:0:
96,192,83406,1,0,0:0:0:0:
288,192,83406,1,0,0:0:0:0:
96,192,83486,1,0,0:0:0:0:
32,192,83486,1,0,0:0:0:0:
480,192,83486,1,0,0:0:0:0:
352,192,83486,1,0,0:0:0:0:
160,192,83566,5,0,0:0:0:0:
96,192,83646,5,0,0:0:0:0:
224,192,83646,1,0,0:0:0:0:
416,192,83726,1,0,0:0:0:0:
288,192,83726,1,0,0:0:0:0:
96,192,83805,1,0,0:0:0:0:
352,192,83805,1,0,0:0:0:0:
160,192,83885,1,0,0:0:0:0:
96,192,83965,1,0,0:0:0:0:
416,192,83965,1,0,0:0:0:0:
224,192,83965,1,0,0:0:0:0:
96,192,84045,1,0,0:0:0:0:
288,192,84045,1,0,0:0:0:0:
96,192,84125,1,0,0:0:0:0:
32,192,84125,1,0,0:0:0:0:
480,192,84125,1,0,0:0:0:0:
352,192,84125,1,0,0:0:0:0:
160,192,84204,1,0,0:0:0:0:
96,192,84284,1,0,0:0:0:0:
224,192,84284,1,0,0:0:0:0:
480,192,84364,1,0,0:0:0:0:
288,192,84364,1,0,0:0:0:0:
96,192,84444,1,0,0:0:0:0:
352,192,84444,1,0,0:0:0:0:
160,192,84523,1,0,0:0:0:0:
416,192,84523,1,0,0:0:0:0:
288,192,84523,1,0,0:0:0:0:
96,192,84603,1,0,0:0:0:0:
352,192,84603,1,0,0:0:0:0:
224,192,84603,1,0,0:0:0:0:
416,192,84683,1,0,0:0:0:0:
288,192,84683,1,0,0:0:0:0:
96,192,84763,5,0,0:0:0:0:
160,192,84763,1,0,0:0:0:0:
352,192,84763,1,0,0:0:0:0:
32,192,84763,1,0,0:0:0:0:
224,192,84843,1,0,0:0:0:0:
416,192,84843,1,0,0:0:0:0:
480,192,84843,1,0,0:0:0:0:
96,192,84922,1,0,0:0:0:0:
160,192,84922,1,0,0:0:0:0:
288,192,84922,1,0,0:0:0:0:
352,192,85002,5,0,0:0:0:0:
224,192,85002,1,0,0:0:0:0:
480,192,85002,1,0,0:0:0:0:
416,192,85082,1,0,0:0:0:0:
96,192,85082,1,0,0:0:0:0:
288,192,85082,1,0,0:0:0:0:
32,192,85082,1,0,0:0:0:0:
352,192,85162,1,0,0:0:0:0:
480,192,85162,1,0,0:0:0:0:
160,192,85162,1,0,0:0:0:0:
416,192,85242,1,0,0:0:0:0:
224,192,85242,1,0,0:0:0:0:
288,192,85242,1,0,0:0:0:0:
352,192,85321,1,0,0:0:0:0:
160,192,85321,1,0,0:0:0:0:
480,192,85321,1,0,0:0:0:0:
32,192,85401,1,0,0:0:0:0:
96,192,85401,1,0,0:0:0:0:
224,192,85401,1,0,0:0:0:0:
288,192,85401,1,0,0:0:0:0:
416,192,85401,1,0,0:0:0:0:
160,192,85640,1,0,0:0:0:0:
288,192,85640,1,0,0:0:0:0:
32,192,85640,1,0,0:0:0:0:
352,192,85640,1,0,0:0:0:0:
480,192,85640,1,0,0:0:0:0:
96,192,85880,1,0,0:0:0:0:
224,192,85880,1,0,0:0:0:0:
32,192,85880,1,0,0:0:0:0:
288,192,85880,1,0,0:0:0:0:
416,192,85880,1,0,0:0:0:0:
32,192,86199,5,0,0:0:0:0:
96,192,86199,1,0,0:0:0:0:
160,192,86199,1,0,0:0:0:0:
224,192,86199,1,0,0:0:0:0:
288,192,86199,1,0,0:0:0:0:
416,192,86199,1,0,0:0:0:0:
32,192,86438,1,0,0:0:0:0:
96,192,86438,1,0,0:0:0:0:
160,192,86438,1,0,0:0:0:0:
224,192,86438,1,0,0:0:0:0:
352,192,86438,1,0,0:0:0:0:
416,192,86438,1,0,0:0:0:0:
32,192,86678,1,0,0:0:0:0:
96,192,86678,1,0,0:0:0:0:
160,192,86678,1,0,0:0:0:0:
288,192,86678,1,0,0:0:0:0:
352,192,86678,1,0,0:0:0:0:
480,192,86678,1,0,0:0:0:0:
32,192,86917,1,0,0:0:0:0:
96,192,86917,1,0,0:0:0:0:
160,192,86917,1,0,0:0:0:0:
480,192,86917,1,0,0:0:0:0:
416,192,86917,1,0,0:0:0:0:
288,192,86917,1,0,0:0:0:0:
32,192,87156,1,0,0:0:0:0:
96,192,87156,1,0,0:0:0:0:
288,192,87156,1,0,0:0:0:0:
352,192,87156,1,0,0:0:0:0:
480,192,87156,1,0,0:0:0:0:
224,192,87156,1,0,0:0:0:0:
32,192,87236,1,0,0:0:0:0:
32,192,87476,1,0,0:0:0:0:
160,192,87476,1,0,0:0:0:0:
288,192,87476,1,0,0:0:0:0:
224,192,87476,1,0,0:0:0:0:
96,192,87476,1,0,0:0:0:0:
416,192,87476,1,0,0:0:0:0:
32,192,87715,1,0,0:0:0:0:
352,192,87715,1,0,0:0:0:0:
160,192,87715,1,0,0:0:0:0:
224,192,87715,1,0,0:0:0:0:
96,192,87715,1,0,0:0:0:0:
480,192,87715,1,0,0:0:0:0:
32,192,87954,1,0,0:0:0:0:
96,192,87954,1,0,0:0:0:0:
480,192,87954,1,0,0:0:0:0:
160,192,87954,1,0,0:0:0:0:
288,192,87954,1,0,0:0:0:0:
416,192,87954,1,0,0:0:0:0:
32,192,88194,1,0,0:0:0:0:
96,192,88194,1,0,0:0:0:0:
224,192,88194,1,0,0:0:0:0:
352,192,88194,1,0,0:0:0:0:
416,192,88194,1,0,0:0:0:0:
480,192,88194,1,0,0:0:0:0:
32,192,88433,1,0,0:0:0:0:
96,192,88433,1,0,0:0:0:0:
288,192,88433,1,0,0:0:0:0:
352,192,88433,1,0,0:0:0:0:
416,192,88433,1,0,0:0:0:0:
480,192,88433,1,0,0:0:0:0:
160,192,88473,1,0,0:0:0:0:
224,192,88513,1,0,0:0:0:0:
288,192,88553,1,0,0:0:0:0:
32,192,88593,1,0,0:0:0:0:
96,192,88593,1,0,0:0:0:0:
352,192,88593,1,0,0:0:0:0:
480,192,88593,1,0,0:0:0:0:
224,192,88672,1,0,0:0:0:0:
416,192,88672,1,0,0:0:0:0:
160,192,88752,1,0,0:0:0:0:
288,192,88752,1,0,0:0:0:0:
352,192,88832,1,0,0:0:0:0:
480,192,88832,1,0,0:0:0:0:
96,192,88912,1,0,0:0:0:0:
416,192,88912,1,0,0:0:0:0:
224,192,88912,1,0,0:0:0:0:
352,192,88992,1,0,0:0:0:0:
160,192,88992,1,0,0:0:0:0:
480,192,89071,1,0,0:0:0:0:
224,192,89071,1,0,0:0:0:0:
352,192,89151,1,0,0:0:0:0:
160,192,89151,1,0,0:0:0:0:
96,192,89231,1,0,0:0:0:0:
288,192,89231,1,0,0:0:0:0:
416,192,89231,1,0,0:0:0:0:
224,192,89311,1,0,0:0:0:0:
352,192,89311,1,0,0:0:0:0:
160,192,89390,1,0,0:0:0:0:
416,192,89390,1,0,0:0:0:0:
224,192,89470,1,0,0:0:0:0:
480,192,89470,1,0,0:0:0:0:
96,192,89550,1,0,0:0:0:0:
416,192,89550,1,0,0:0:0:0:
288,192,89550,1,0,0:0:0:0:
352,192,89630,1,0,0:0:0:0:
160,192,89630,1,0,0:0:0:0:
480,192,89710,1,0,0:0:0:0:
224,192,89710,1,0,0:0:0:0:
288,192,89789,1,0,0:0:0:0:
416,192,89789,1,0,0:0:0:0:
96,192,89869,1,0,0:0:0:0:
224,192,89869,1,0,0:0:0:0:
480,192,89869,1,0,0:0:0:0:
160,192,89949,1,0,0:0:0:0:
288,192,89949,1,0,0:0:0:0:
352,192,90029,1,0,0:0:0:0:
224,192,90029,1,0,0:0:0:0:
160,192,90109,1,0,0:0:0:0:
288,192,90109,1,0,0:0:0:0:
96,192,90188,1,0,0:0:0:0:
480,192,90188,1,0,0:0:0:0:
224,192,90188,1,0,0:0:0:0:
416,192,90268,1,0,0:0:0:0:
288,192,90268,1,0,0:0:0:0:
224,192,90348,1,0,0:0:0:0:
160,192,90348,1,0,0:0:0:0:
352,192,90428,1,0,0:0:0:0:
480,192,90428,1,0,0:0:0:0:
96,192,90508,1,0,0:0:0:0:
416,192,90508,1,0,0:0:0:0:
288,192,90508,1,0,0:0:0:0:
160,192,90587,1,0,0:0:0:0:
352,192,90587,1,0,0:0:0:0:
224,192,90667,1,0,0:0:0:0:
416,192,90667,1,0,0:0:0:0:
288,192,90747,1,0,0:0:0:0:
480,192,90747,1,0,0:0:0:0:
96,192,90827,1,0,0:0:0:0:
224,192,90827,1,0,0:0:0:0:
416,192,90827,1,0,0:0:0:0:
160,192,90906,1,0,0:0:0:0:
352,192,90906,1,0,0:0:0:0:
224,192,90986,1,0,0:0:0:0:
416,192,90986,1,0,0:0:0:0:
288,192,91066,1,0,0:0:0:0:
480,192,91066,1,0,0:0:0:0:
96,192,91146,1,0,0:0:0:0:
224,192,91146,1,0,0:0:0:0:
416,192,91146,1,0,0:0:0:0:
160,192,91226,1,0,0:0:0:0:
352,192,91226,1,0,0:0:0:0:
288,192,91305,1,0,0:0:0:0:
416,192,91305,1,0,0:0:0:0:
224,192,91385,1,0,0:0:0:0:
480,192,91385,1,0,0:0:0:0:
96,192,91465,1,0,0:0:0:0:
288,192,91465,1,0,0:0:0:0:
416,192,91465,1,0,0:0:0:0:
160,192,91545,1,0,0:0:0:0:
224,192,91545,1,0,0:0:0:0:
352,192,91625,1,0,0:0:0:0:
480,192,91625,1,0,0:0:0:0:
160,192,91704,1,0,0:0:0:0:
224,192,91704,1,0,0:0:0:0:
96,192,91784,1,0,0:0:0:0:
288,192,91784,1,0,0:0:0:0:
416,192,91784,1,0,0:0:0:0:
224,192,91864,1,0,0:0:0:0:
352,192,91864,1,0,0:0:0:0:
160,192,91944,1,0,0:0:0:0:
288,192,91944,1,0,0:0:0:0:
480,192,92023,1,0,0:0:0:0:
352,192,92023,1,0,0:0:0:0:
96,192,92103,1,0,0:0:0:0:
416,192,92103,1,0,0:0:0:0:
288,192,92103,1,0,0:0:0:0:
352,192,92183,1,0,0:0:0:0:
224,192,92183,1,0,0:0:0:0:
480,192,92263,1,0,0:0:0:0:
288,192,92263,1,0,0:0:0:0:
416,192,92343,1,0,0:0:0:0:
224,192,92343,1,0,0:0:0:0:
96,192,92422,1,0,0:0:0:0:
352,192,92422,1,0,0:0:0:0:
480,192,92422,1,0,0:0:0:0:
160,192,92422,1,0,0:0:0:0:
288,192,92422,1,0,0:0:0:0:
352,192,92582,1,0,0:0:0:0:
480,192,92582,1,0,0:0:0:0:
160,192,92582,1,0,0:0:0:0:
224,192,92582,1,0,0:0:0:0:
96,192,92742,1,0,0:0:0:0:
288,192,92742,1,0,0:0:0:0:
416,192,92742,1,0,0:0:0:0:
224,192,92742,1,0,0:0:0:0:
480,192,92742,1,0,0:0:0:0:
288,192,92901,1,0,0:0:0:0:
416,192,92901,1,0,0:0:0:0:
160,192,92901,1,0,0:0:0:0:
480,192,92901,1,0,0:0:0:0:
96,192,93061,1,0,0:0:0:0:
224,192,93061,1,0,0:0:0:0:
352,192,93061,1,0,0:0:0:0:
160,192,93061,1,0,0:0:0:0:
416,192,93061,1,0,0:0:0:0:
224,192,93220,1,0,0:0:0:0:
352,192,93220,1,0,0:0:0:0:
96,192,93220,1,0,0:0:0:0:
416,192,93220,1,0,0:0:0:0:
96,192,93380,1,0,0:0:0:0:
480,192,93380,1,0,0:0:0:0:
352,192,93380,1,0,0:0:0:0:
160,192,93380,1,0,0:0:0:0:
416,192,93460,1,0,0:0:0:0:
288,192,93460,1,0,0:0:0:0:
96,192,93539,1,0,0:0:0:0:
352,192,93539,1,0,0:0:0:0:
224,192,93539,1,0,0:0:0:0:
288,192,93619,1,0,0:0:0:0:
160,192,93619,1,0,0:0:0:0:
480,192,93619,1,0,0:0:0:0:
96,192,93699,1,0,0:0:0:0:
224,192,93699,1,0,0:0:0:0:
352,192,93699,1,0,0:0:0:0:
288,192,93779,1,0,0:0:0:0:
416,192,93779,1,0,0:0:0:0:
160,192,93859,1,0,0:0:0:0:
480,192,93859,1,0,0:0:0:0:
352,192,93938,1,0,0:0:0:0:
224,192,93938,1,0,0:0:0:0:
416,192,94018,1,0,0:0:0:0:
96,192,94018,1,0,0:0:0:0:
288,192,94018,1,0,0:0:0:0:
224,192,94098,1,0,0:0:0:0:
160,192,94098,1,0,0:0:0:0:
480,192,94178,1,0,0:0:0:0:
416,192,94178,1,0,0:0:0:0:
224,192,94258,1,0,0:0:0:0:
160,192,94258,1,0,0:0:0:0:
96,192,94337,1,0,0:0:0:0:
288,192,94337,1,0,0:0:0:0:
416,192,94337,1,0,0:0:0:0:
352,192,94417,1,0,0:0:0:0:
224,192,94417,1,0,0:0:0:0:
288,192,94497,1,0,0:0:0:0:
160,192,94497,1,0,0:0:0:0:
480,192,94577,1,0,0:0:0:0:
352,192,94577,1,0,0:0:0:0:
96,192,94656,1,0,0:0:0:0:
288,192,94656,1,0,0:0:0:0:
160,192,94656,1,0,0:0:0:0:
352,192,94736,1,0,0:0:0:0:
224,192,94736,1,0,0:0:0:0:
416,192,94816,1,0,0:0:0:0:
480,192,94816,1,0,0:0:0:0:
160,192,94896,1,0,0:0:0:0:
288,192,94896,1,0,0:0:0:0:
96,192,94976,1,0,0:0:0:0:
416,192,94976,1,0,0:0:0:0:
224,192,94976,1,0,0:0:0:0:
352,192,95055,1,0,0:0:0:0:
480,192,95055,1,0,0:0:0:0:
160,192,95135,1,0,0:0:0:0:
288,192,95135,1,0,0:0:0:0:
224,192,95215,1,0,0:0:0:0:
416,192,95215,1,0,0:0:0:0:
96,192,95295,1,0,0:0:0:0:
480,192,95295,1,0,0:0:0:0:
352,192,95295,1,0,0:0:0:0:
224,192,95375,1,0,0:0:0:0:
416,192,95375,1,0,0:0:0:0:
288,192,95454,1,0,0:0:0:0:
160,192,95454,1,0,0:0:0:0:
480,192,95534,1,0,0:0:0:0:
352,192,95534,1,0,0:0:0:0:
96,192,95614,1,0,0:0:0:0:
416,192,95614,1,0,0:0:0:0:
224,192,95614,1,0,0:0:0:0:
352,192,95694,1,0,0:0:0:0:
480,192,95694,1,0,0:0:0:0:
160,192,95773,1,0,0:0:0:0:
288,192,95773,1,0,0:0:0:0:
224,192,95853,1,0,0:0:0:0:
416,192,95853,1,0,0:0:0:0:
96,192,95933,1,0,0:0:0:0:
480,192,95933,1,0,0:0:0:0:
352,192,95933,1,0,0:0:0:0:
224,192,96013,1,0,0:0:0:0:
416,192,96013,1,0,0:0:0:0:
288,192,96093,1,0,0:0:0:0:
480,192,96093,1,0,0:0:0:0:
160,192,96172,1,0,0:0:0:0:
352,192,96172,1,0,0:0:0:0:
96,192,96252,1,0,0:0:0:0:
480,192,96252,1,0,0:0:0:0:
416,192,96252,1,0,0:0:0:0:
224,192,96332,1,0,0:0:0:0:
288,192,96332,1,0,0:0:0:0:
352,192,96412,1,0,0:0:0:0:
416,192,96412,1,0,0:0:0:0:
160,192,96492,1,0,0:0:0:0:
224,192,96492,1,0,0:0:0:0:
96,192,96571,1,0,0:0:0:0:
416,192,96571,1,0,0:0:0:0:
480,192,96571,1,0,0:0:0:0:
224,192,96651,1,0,0:0:0:0:
288,192,96651,1,0,0:0:0:0:
352,192,96731,1,0,0:0:0:0:
416,192,96731,1,0,0:0:0:0:
160,192,96811,1,0,0:0:0:0:
224,192,96811,1,0,0:0:0:0:
96,192,96890,1,0,0:0:0:0:
288,192,96890,1,0,0:0:0:0:
416,192,96890,1,0,0:0:0:0:
480,192,96890,1,0,0:0:0:0:
160,192,96970,1,0,0:0:0:0:
352,192,96970,1,0,0:0:0:0:
224,192,97050,1,0,0:0:0:0:
416,192,97050,1,0,0:0:0:0:
480,192,97130,1,0,0:0:0:0:
288,192,97130,1,0,0:0:0:0:
96,192,97210,1,0,0:0:0:0:
224,192,97210,1,0,0:0:0:0:
352,192,97210,1,0,0:0:0:0:
288,192,97289,1,0,0:0:0:0:
480,192,97289,1,0,0:0:0:0:
160,192,97369,1,0,0:0:0:0:
224,192,97369,1,0,0:0:0:0:
352,192,97369,1,0,0:0:0:0:
96,192,97529,1,0,0:0:0:0:
32,192,97529,1,0,0:0:0:0:
352,192,97529,1,0,0:0:0:0:
480,192,97529,1,0,0:0:0:0:
224,192,97529,1,0,0:0:0:0:
416,192,97529,1,0,0:0:0:0:
32,192,97688,1,0,0:0:0:0:
96,192,97688,1,0,0:0:0:0:
160,192,97688,1,0,0:0:0:0:
352,192,97688,1,0,0:0:0:0:
480,192,97688,1,0,0:0:0:0:
224,192,97688,1,0,0:0:0:0:
32,192,97848,1,0,0:0:0:0:
96,192,97848,1,0,0:0:0:0:
288,192,97848,1,0,0:0:0:0:
416,192,97848,1,0,0:0:0:0:
480,192,97848,1,0,0:0:0:0:
224,192,97848,1,0,0:0:0:0:
96,192,97928,1,0,0:0:0:0:
32,192,97928,1,0,0:0:0:0:
224,192,97928,1,0,0:0:0:0:
352,192,97928,1,0,0:0:0:0:
416,192,97928,1,0,0:0:0:0:
160,192,97928,1,0,0:0:0:0:
32,192,98087,1,0,0:0:0:0:
96,192,98087,1,0,0:0:0:0:
160,192,98087,1,0,0:0:0:0:
288,192,98087,1,0,0:0:0:0:
416,192,98087,1,0,0:0:0:0:
480,192,98087,1,0,0:0:0:0:
32,192,98327,1,0,0:0:0:0:
96,192,98327,1,0,0:0:0:0:
416,192,98327,1,0,0:0:0:0:
288,192,98327,1,0,0:0:0:0:
160,192,98406,1,0,0:0:0:0:
480,192,98406,1,0,0:0:0:0:
352,192,98406,1,0,0:0:0:0:
96,192,98486,1,0,0:0:0:0:
288,192,98486,1,0,0:0:0:0:
416,192,98486,1,0,0:0:0:0:
224,192,98566,1,0,0:0:0:0:
352,192,98566,1,0,0:0:0:0:
480,192,98566,1,0,0:0:0:0:
32,192,98646,1,0,0:0:0:0:
96,192,98646,1,0,0:0:0:0:
288,192,98646,1,0,0:0:0:0:
160,192,98646,1,0,0:0:0:0:
32,192,98726,1,0,0:0:0:0:
480,192,98726,1,0,0:0:0:0:
352,192,98726,1,0,0:0:0:0:
224,192,98726,1,0,0:0:0:0:
32,192,98805,1,0,0:0:0:0:
96,192,98805,1,0,0:0:0:0:
416,192,98805,1,0,0:0:0:0:
96,192,99125,1,0,0:0:0:0:
288,192,99125,1,0,0:0:0:0:
416,192,99284,1,0,0:0:0:0:
96,192,99444,1,0,0:0:0:0:
224,192,99444,1,0,0:0:0:0:
480,192,99683,1,0,0:0:0:0:
96,192,99763,1,0,0:0:0:0:
416,192,99922,1,0,0:0:0:0:
96,192,100082,1,0,0:0:0:0:
288,192,100082,1,0,0:0:0:0:
160,192,100242,1,0,0:0:0:0:
96,192,100401,1,0,0:0:0:0:
288,192,100401,1,0,0:0:0:0:
416,192,100640,1,0,0:0:0:0:
96,192,100720,1,0,0:0:0:0:
96,192,101039,1,0,0:0:0:0:
96,192,101359,1,0,0:0:0:0:
416,192,101359,1,0,0:0:0:0:
96,192,101678,1,0,0:0:0:0:
224,192,101678,1,0,0:0:0:0:
416,192,101837,1,0,0:0:0:0:
96,192,101997,1,0,0:0:0:0:
288,192,101997,1,0,0:0:0:0:
352,192,102236,1,0,0:0:0:0:
96,192,102316,1,0,0:0:0:0:
96,192,102476,1,0,0:0:0:0:
416,192,102476,1,0,0:0:0:0:
96,192,102635,1,0,0:0:0:0:
32,192,102635,1,0,0:0:0:0:
480,192,102635,1,0,0:0:0:0:
96,192,102795,5,0,0:0:0:0:
96,192,102954,1,0,0:0:0:0:
96,192,103114,1,0,0:0:0:0:
96,192,103273,1,0,0:0:0:0:
32,192,103273,1,0,0:0:0:0:
224,192,103353,1,0,0:0:0:0:
352,192,103433,1,0,0:0:0:0:
224,192,103513,1,0,0:0:0:0:
96,192,103593,1,0,0:0:0:0:
32,192,103593,1,0,0:0:0:0:
480,192,103593,1,0,0:0:0:0:
224,192,103672,1,0,0:0:0:0:
416,192,103672,1,0,0:0:0:0:
352,192,103752,1,0,0:0:0:0:
96,192,103752,1,0,0:0:0:0:
224,192,103832,1,0,0:0:0:0:
416,192,103832,1,0,0:0:0:0:
96,192,103912,5,0,0:0:0:0:
32,192,103912,1,0,0:0:0:0:
480,192,103912,1,0,0:0:0:0:
352,192,103912,1,0,0:0:0:0:
160,192,103992,1,0,0:0:0:0:
288,192,103992,1,0,0:0:0:0:
224,192,104071,1,0,0:0:0:0:
480,192,104071,1,0,0:0:0:0:
352,192,104071,1,0,0:0:0:0:
160,192,104151,1,0,0:0:0:0:
416,192,104151,1,0,0:0:0:0:
96,192,104231,1,0,0:0:0:0:
480,192,104231,1,0,0:0:0:0:
352,192,104231,1,0,0:0:0:0:
160,192,104311,1,0,0:0:0:0:
288,192,104311,1,0,0:0:0:0:
224,192,104390,1,0,0:0:0:0:
480,192,104390,1,0,0:0:0:0:
352,192,104390,1,0,0:0:0:0:
160,192,104470,1,0,0:0:0:0:
416,192,104470,1,0,0:0:0:0:
96,192,104550,1,0,0:0:0:0:
480,192,104550,1,0,0:0:0:0:
352,192,104550,1,0,0:0:0:0:
160,192,104630,1,0,0:0:0:0:
288,192,104630,1,0,0:0:0:0:
224,192,104710,1,0,0:0:0:0:
352,192,104710,1,0,0:0:0:0:
288,192,104789,1,0,0:0:0:0:
96,192,104789,1,0,0:0:0:0:
480,192,104789,1,0,0:0:0:0:
416,192,104789,1,0,0:0:0:0:
224,192,104869,1,0,0:0:0:0:
352,192,104869,1,0,0:0:0:0:
160,192,104949,1,0,0:0:0:0:
288,192,104949,1,0,0:0:0:0:
224,192,105029,1,0,0:0:0:0:
96,192,105029,1,0,0:0:0:0:
480,192,105029,1,0,0:0:0:0:
352,192,105029,1,0,0:0:0:0:
288,192,105109,1,0,0:0:0:0:
416,192,105109,1,0,0:0:0:0:
96,192,105188,1,0,0:0:0:0:
32,192,105188,1,0,0:0:0:0:
480,192,105188,1,0,0:0:0:0:
224,192,105188,1,0,0:0:0:0:
352,192,105188,1,0,0:0:0:0:
416,192,105268,1,0,0:0:0:0:
288,192,105268,1,0,0:0:0:0:
224,192,105348,1,0,0:0:0:0:
352,192,105348,1,0,0:0:0:0:
288,192,105428,1,0,0:0:0:0:
160,192,105428,1,0,0:0:0:0:
96,192,105508,1,0,0:0:0:0:
480,192,105508,1,0,0:0:0:0:
224,192,105508,1,0,0:0:0:0:
352,192,105508,1,0,0:0:0:0:
416,192,105587,1,0,0:0:0:0:
288,192,105587,1,0,0:0:0:0:
224,192,105667,1,0,0:0:0:0:
352,192,105667,1,0,0:0:0:0:
288,192,105747,1,0,0:0:0:0:
160,192,105747,1,0,0:0:0:0:
96,192,105827,1,0,0:0:0:0:
32,192,105827,1,0,0:0:0:0:
480,192,105827,1,0,0:0:0:0:
224,192,105827,1,0,0:0:0:0:
352,192,105827,1,0,0:0:0:0:
416,192,105906,1,0,0:0:0:0:
288,192,105906,1,0,0:0:0:0:
224,192,105986,1,0,0:0:0:0:
352,192,105986,1,0,0:0:0:0:
288,192,106066,1,0,0:0:0:0:
160,192,106066,1,0,0:0:0:0:
96,192,106146,1,0,0:0:0:0:
32,192,106146,1,0,0:0:0:0:
480,192,106146,1,0,0:0:0:0:
224,192,106146,1,0,0:0:0:0:
352,192,106146,1,0,0:0:0:0:
416,192,106226,1,0,0:0:0:0:
288,192,106226,1,0,0:0:0:0:
224,192,106305,1,0,0:0:0:0:
352,192,106305,1,0,0:0:0:0:
288,192,106385,1,0,0:0:0:0:
160,192,106385,1,0,0:0:0:0:
32,192,106465,1,0,0:0:0:0:
96,192,106465,1,0,0:0:0:0:
480,192,106465,1,0,0:0:0:0:
352,192,106465,1,0,0:0:0:0:
224,192,106465,1,0,0:0:0:0:
416,192,106465,1,0,0:0:0:0:
96,192,106625,1,0,0:0:0:0:
480,192,106625,1,0,0:0:0:0:
224,192,106625,1,0,0:0:0:0:
352,192,106625,1,0,0:0:0:0:
160,192,106625,1,0,0:0:0:0:
96,192,106784,1,0,0:0:0:0:
480,192,106784,1,0,0:0:0:0:
288,192,106784,1,0,0:0:0:0:
416,192,106784,1,0,0:0:0:0:
224,192,106784,1,0,0:0:0:0:
96,192,106944,1,0,0:0:0:0:
480,192,106944,1,0,0:0:0:0:
160,192,106944,1,0,0:0:0:0:
288,192,106944,1,0,0:0:0:0:
352,192,106944,1,0,0:0:0:0:
96,192,107103,1,0,0:0:0:0:
480,192,107103,1,0,0:0:0:0:
352,192,107103,1,0,0:0:0:0:
224,192,107103,1,0,0:0:0:0:
288,192,107183,1,0,0:0:0:0:
160,192,107183,1,0,0:0:0:0:
416,192,107183,1,0,0:0:0:0:
96,192,107263,1,0,0:0:0:0:
480,192,107263,1,0,0:0:0:0:
224,192,107263,1,0,0:0:0:0:
352,192,107263,1,0,0:0:0:0:
160,192,107343,1,0,0:0:0:0:
288,192,107343,1,0,0:0:0:0:
416,192,107343,1,0,0:0:0:0:
96,192,107422,1,0,0:0:0:0:
480,192,107422,1,0,0:0:0:0:
224,192,107422,1,0,0:0:0:0:
352,192,107422,1,0,0:0:0:0:
160,192,107502,1,0,0:0:0:0:
416,192,107502,1,0,0:0:0:0:
288,192,107502,1,0,0:0:0:0:
96,192,107582,1,0,0:0:0:0:
480,192,107582,1,0,0:0:0:0:
224,192,107582,1,0,0:0:0:0:
352,192,107582,1,0,0:0:0:0:
160,192,107662,1,0,0:0:0:0:
416,192,107662,1,0,0:0:0:0:
288,192,107662,1,0,0:0:0:0:
480,192,107742,1,0,0:0:0:0:
96,192,107742,1,0,0:0:0:0:
160,192,107901,1,0,0:0:0:0:
288,192,107901,1,0,0:0:0:0:
352,192,107901,1,0,0:0:0:0:
416,192,107901,1,0,0:0:0:0:
224,192,107901,1,0,0:0:0:0:
96,192,108220,1,0,0:0:0:0:
160,192,108220,1,0,0:0:0:0:
288,192,108220,1,0,0:0:0:0:
416,192,108220,1,0,0:0:0:0:
480,192,108220,1,0,0:0:0:0:
160,192,108539,1,0,0:0:0:0:
224,192,108539,1,0,0:0:0:0:
288,192,108539,1,0,0:0:0:0:
352,192,108539,1,0,0:0:0:0:
416,192,108539,1,0,0:0:0:0:
480,192,108699,1,0,0:0:0:0:
416,192,108719,1,0,0:0:0:0:
352,192,108739,1,0,0:0:0:0:
288,192,108759,1,0,0:0:0:0:
96,192,108779,1,0,0:0:0:0:
160,192,108799,1,0,0:0:0:0:
224,192,108819,1,0,0:0:0:0:
288,192,108839,1,0,0:0:0:0:
480,192,108859,1,0,0:0:0:0:
416,192,108879,1,0,0:0:0:0:
352,192,108898,1,0,0:0:0:0:
288,192,108918,1,0,0:0:0:0:
96,192,108938,1,0,0:0:0:0:
160,192,108958,1,0,0:0:0:0:
224,192,108978,1,0,0:0:0:0:
288,192,108998,1,0,0:0:0:0:
32,192,109018,1,0,0:0:0:0:
96,192,109018,1,0,0:0:0:0:
480,192,109018,1,0,0:0:0:0:
224,192,109178,1,0,0:0:0:0:
352,192,109178,1,0,0:0:0:0:
160,192,109497,1,0,0:0:0:0:
416,192,109497,1,0,0:0:0:0:
96,192,109577,1,0,0:0:0:0:
480,192,109577,1,0,0:0:0:0:
32,192,109656,1,0,0:0:0:0:
160,192,109656,1,0,0:0:0:0:
416,192,109656,1,0,0:0:0:0:
224,192,109896,1,0,0:0:0:0:
352,192,109896,1,0,0:0:0:0:
160,192,110135,1,0,0:0:0:0:
416,192,110135,1,0,0:0:0:0:
96,192,110295,1,0,0:0:0:0:
32,192,110295,1,0,0:0:0:0:
480,192,110295,1,0,0:0:0:0:
224,192,110454,1,0,0:0:0:0:
352,192,110454,1,0,0:0:0:0:
96,192,110614,1,0,0:0:0:0:
32,192,110614,1,0,0:0:0:0:
480,192,110614,1,0,0:0:0:0:
416,192,110694,1,0,0:0:0:0:
160,192,110694,1,0,0:0:0:0:
96,192,110853,1,0,0:0:0:0:
32,192,110853,1,0,0:0:0:0:
224,192,110853,1,0,0:0:0:0:
352,192,110853,1,0,0:0:0:0:
480,192,110853,1,0,0:0:0:0:
160,192,110933,1,0,0:0:0:0:
416,192,110933,1,0,0:0:0:0:
224,192,111013,1,0,0:0:0:0:
352,192,111013,1,0,0:0:0:0:
96,192,111093,1,0,0:0:0:0:
480,192,111093,1,0,0:0:0:0:
160,192,111133,1,0,0:0:0:0:
416,192,111133,1,0,0:0:0:0:
224,192,111172,1,0,0:0:0:0:
352,192,111172,1,0,0:0:0:0:
288,192,111212,1,0,0:0:0:0:
96,192,111252,1,0,0:0:0:0:
32,192,111252,1,0,0:0:0:0:
480,192,111252,1,0,0:0:0:0:
