osu file format v14

[General]
AudioFilename: audio.mp3
AudioLeadIn: 0
PreviewTime: 25831
Countdown: 0
SampleSet: Soft
StackLeniency: 0.7
Mode: 3
LetterboxInBreaks: 0
SpecialStyle: 0
WidescreenStoryboard: 1

[Editor]
Bookmarks: 1925,7925,13925,19925,25925,37925,49925,55925,61925,73925,79925,85925,97925,109925
DistanceSpacing: 0.5
BeatDivisor: 4
GridSize: 4
TimelineZoom: 2

[Metadata]
Title:Butterfly Twist
TitleUnicode:Butterfly Twist
Artist:Yooh
ArtistUnicode:Yooh
Creator:Shima Rin
Version:Madoka's NOVICE
Source:SOUND VOLTEX VIVID WAVE
Tags:SDVX V DANCERUSH STARDOM BEMANI KONAMI Tofu1222 Madoka2574 FAMoss Electronic Video Game Instrumental Omega Ω Dimension Phase 8 常世神 Tokoyo no Kami Nono SELECTION いちかのBEMANI超じゃんけん大会2020
BeatmapID:2444740
BeatmapSetID:1148070

[Difficulty]
HPDrainRate:7
CircleSize:4
OverallDifficulty:7
ApproachRate:5
SliderMultiplier:1.4
SliderTickRate:1

[Events]
//Background and Video events
0,0,"BG.jpg",0,0
//Break Periods
//Storyboard Layer 0 (Background)
//Storyboard Layer 1 (Fail)
//Storyboard Layer 2 (Pass)
//Storyboard Layer 3 (Foreground)
//Storyboard Layer 4 (Overlay)
//Storyboard Sound Samples
Sample,48425,0,"LR_Drum Kick Low.wav",70
Sample,73925,0,"VEC3 Snares 004.wav",70
Sample,76925,0,"VEC3 Snares 004.wav",70
Sample,108425,0,"LR_Drum Kick Low.wav",70

[TimingPoints]
1925,375,4,2,1,40,1,0
7925,-100,4,2,1,50,0,0
13925,-100,4,2,1,60,0,0
25925,-100,4,2,1,70,0,1
49925,-100,4,2,1,70,0,0
85925,-100,4,2,1,70,0,1
109925,-100,4,2,1,50,0,0

[HitObjects]
64,192,1925,5,2,0:0:0:0:
192,192,1925,1,0,0:0:0:0:
448,192,2206,1,0,0:0:0:0:
192,192,2487,1,0,0:0:0:0:
320,192,2768,1,0,0:0:0:0:
64,192,3050,1,0,0:0:0:0:
320,192,3237,1,0,0:0:0:0:
448,192,3425,1,0,0:0:0:0:
64,192,3706,1,0,0:0:0:0:
64,192,3987,1,0,0:0:0:0:
448,192,4268,1,0,0:0:0:0:
448,192,4550,1,0,0:0:0:0:
192,192,4737,1,0,0:0:0:0:
320,192,4925,1,0,0:0:0:0:
64,192,5206,1,0,0:0:0:0:
320,192,5487,1,0,0:0:0:0:
192,192,5768,1,0,0:0:0:0:
448,192,6050,1,0,0:0:0:0:
192,192,6237,1,0,0:0:0:0:
320,192,6425,1,0,0:0:0:0:
448,192,6706,1,0,0:0:0:0:
448,192,6987,1,0,0:0:0:0:
192,192,7268,1,0,0:0:0:0:
192,192,7550,1,0,0:0:0:0:
64,192,7737,1,0,0:0:0:0:
320,192,7925,1,0,0:0:0:0:
192,192,8206,1,0,0:0:0:0:
320,192,8487,1,0,0:0:0:0:
64,192,8768,1,0,0:0:0:0:
448,192,9050,1,0,0:0:0:0:
64,192,9237,1,0,0:0:0:0:
192,192,9425,1,0,0:0:0:0:
320,192,9706,1,0,0:0:0:0:
320,192,9987,1,0,0:0:0:0:
64,192,10268,1,0,0:0:0:0:
64,192,10550,1,0,0:0:0:0:
448,192,10737,1,0,0:0:0:0:
192,192,10925,1,0,0:0:0:0:
320,192,11206,1,0,0:0:0:0:
192,192,11487,1,0,0:0:0:0:
448,192,11768,1,0,0:0:0:0:
64,192,12050,1,0,0:0:0:0:
448,192,12237,1,0,0:0:0:0:
192,192,12425,1,0,0:0:0:0:
192,192,12706,1,0,0:0:0:0:
192,192,12987,1,0,0:0:0:0:
192,192,13268,1,0,0:0:0:0:
448,192,13550,128,0,13737:0:0:0:70:LR_Snare Fast.wav
64,192,13737,128,0,13925:0:0:0:70:LR_Snare Fast-D.wav
320,192,13925,1,2,0:0:0:0:
448,192,13925,1,0,0:0:0:0:
192,192,14206,1,0,0:0:0:0:
448,192,14300,1,8,0:0:0:0:
192,192,14487,1,0,0:0:0:0:
448,192,14768,1,0,0:0:0:0:
64,192,14862,1,0,0:0:0:0:
320,192,15050,1,8,0:0:0:0:
192,192,15237,1,0,0:0:0:0:
448,192,15425,1,0,0:0:0:0:
320,192,15706,1,0,0:0:0:0:
64,192,15800,1,8,0:0:0:0:
320,192,15987,1,0,0:0:0:0:
192,192,16268,1,0,0:0:0:0:
448,192,16362,1,0,0:0:0:0:
320,192,16550,1,8,0:0:0:0:
64,192,16737,1,0,0:0:0:0:
448,192,16925,1,0,0:0:0:0:
192,192,17206,1,0,0:0:0:0:
448,192,17300,1,8,0:0:0:0:
192,192,17487,1,0,0:0:0:0:
320,192,17768,1,0,0:0:0:0:
64,192,17862,1,0,0:0:0:0:
192,192,18050,1,8,0:0:0:0:
448,192,18237,1,0,0:0:0:0:
64,192,18425,1,0,0:0:0:0:
320,192,18706,1,0,0:0:0:0:
64,192,18800,1,8,0:0:0:0:
320,192,18987,1,0,0:0:0:0:
64,192,19268,1,0,0:0:0:0:
448,192,19362,1,0,0:0:0:0:
320,192,19550,1,8,0:0:0:0:
192,192,19737,1,0,0:0:0:0:
64,192,19925,1,0,0:0:0:70:VEC3 Snares 004.wav
448,192,19925,1,0,0:0:0:0:
320,192,20112,1,0,0:0:0:70:VEC3 Snares 004.wav
320,192,20300,1,0,0:0:0:70:VEC3 Snares 004.wav
64,192,20425,1,0,0:0:0:70:VEC3 Snares 004.wav
192,192,20675,1,0,0:0:0:70:VEC3 Snares 004.wav
448,192,20675,1,0,0:0:0:0:
320,192,20862,1,0,0:0:0:70:VEC3 Snares 004.wav
64,192,21050,1,0,0:0:0:70:VEC3 Snares 004.wav
448,192,21175,1,0,0:0:0:70:VEC3 Snares 004.wav
192,192,21425,1,0,0:0:0:70:VEC3 Snares 004.wav
320,192,21425,1,0,0:0:0:0:
64,192,21612,1,0,0:0:0:70:VEC3 Snares 004.wav
448,192,21800,1,0,0:0:0:70:VEC3 Snares 004.wav
192,192,21925,1,0,0:0:0:70:VEC3 Snares 004.wav
64,192,22175,1,0,0:0:0:70:VEC3 Snares 004.wav
448,192,22175,1,0,0:0:0:0:
320,192,22362,1,0,0:0:0:70:VEC3 Snares 004.wav
192,192,22550,1,0,0:0:0:70:VEC3 Snares 004.wav
448,192,22675,1,0,0:0:0:70:VEC3 Snares 004.wav
64,192,22925,1,0,0:0:0:70:VEC3 Snares 004.wav
320,192,22925,1,0,0:0:0:0:
320,192,23112,1,0,0:0:0:70:VEC3 Snares 004.wav
192,192,23300,1,0,0:0:0:70:VEC3 Snares 004.wav
192,192,23487,1,0,0:0:0:70:VEC3 Snares 004.wav
448,192,23675,1,0,0:0:0:70:VEC3 Snares 004.wav
448,192,23862,1,0,0:0:0:60:VEC3 Snares 004.wav
64,192,24050,1,0,0:0:0:50:VEC3 Snares 004.wav
64,192,24237,1,0,0:0:0:40:VEC3 Snares 004.wav
320,192,24425,1,0,0:0:0:50:LR4_BassLineLDRN.wav
320,192,24800,1,0,0:0:0:0:
320,192,25175,1,0,0:0:0:0:
64,192,25550,1,0,0:0:0:0:
320,192,25925,128,2,26300:0:0:0:0:
448,192,25925,128,4,26300:0:0:0:0:
64,192,26300,128,2,26675:0:0:0:0:
192,192,26300,1,8,0:0:0:0:
192,192,26675,1,2,0:0:0:0:
448,192,26675,1,0,0:0:0:0:
448,192,26862,1,0,0:0:0:0:
64,192,27050,1,2,0:0:0:0:
320,192,27050,1,8,0:0:0:0:
320,192,27237,1,0,0:0:0:0:
64,192,27425,1,2,0:0:0:0:
192,192,27425,128,0,27612:0:0:0:0:
448,192,27612,128,0,27800:0:0:0:0:
64,192,27800,1,2,0:0:0:0:
320,192,27800,128,8,28175:0:0:0:0:
192,192,28175,1,2,0:0:0:0:
448,192,28175,1,0,0:0:0:0:
192,192,28362,1,0,0:0:0:0:
64,192,28550,1,2,0:0:0:0:
448,192,28550,1,8,0:0:0:0:
448,192,28737,1,0,0:0:0:0:
192,192,28925,128,2,29300:0:0:0:0:
320,192,28925,1,0,0:0:0:0:
320,192,29300,1,8,0:0:0:0:
448,192,29300,128,2,29487:0:0:0:0:
64,192,29487,1,0,0:0:0:0:
320,192,29675,1,2,0:0:0:0:
448,192,29675,128,0,29862:0:0:0:0:
192,192,29862,1,0,0:0:0:0:
320,192,30050,1,8,0:0:0:0:
448,192,30050,128,2,30237:0:0:0:0:
64,192,30237,1,0,0:0:0:0:
192,192,30425,128,2,30612:0:0:0:0:
448,192,30425,1,0,0:0:0:0:
320,192,30612,128,0,30800:0:0:0:0:
64,192,30800,128,8,30987:0:0:0:0:
448,192,30800,1,2,0:0:0:0:
192,192,30987,1,0,0:0:0:0:
64,192,31175,1,2,0:0:0:0:
448,192,31175,128,0,31362:0:0:0:0:
320,192,31362,1,0,0:0:0:0:
64,192,31550,128,8,31737:0:0:0:0:
192,192,31550,1,2,0:0:0:0:
448,192,31737,1,0,0:0:0:0:
64,192,31925,1,2,0:0:0:0:
320,192,31925,128,0,32300:0:0:0:0:
64,192,32300,1,2,0:0:0:0:
448,192,32300,128,8,32675:0:0:0:0:
192,192,32675,1,2,0:0:0:0:
320,192,32675,1,0,0:0:0:0:
192,192,32862,1,0,0:0:0:0:
64,192,33050,1,2,0:0:0:0:
448,192,33050,1,8,0:0:0:0:
64,192,33237,1,0,0:0:0:0:
320,192,33425,1,2,0:0:0:0:
448,192,33425,128,0,33612:0:0:0:0:
192,192,33612,128,0,33800:0:0:0:0:
320,192,33800,1,2,0:0:0:0:
448,192,33800,128,8,34175:0:0:0:0:
64,192,34175,1,2,0:0:0:0:
192,192,34175,1,0,0:0:0:0:
64,192,34362,1,0,0:0:0:0:
320,192,34550,1,2,0:0:0:0:
448,192,34550,1,8,0:0:0:0:
448,192,34737,1,0,0:0:0:0:
192,192,34925,1,2,0:0:0:0:
320,192,34925,128,0,35112:0:0:0:0:
64,192,35112,128,0,35300:0:0:0:0:
320,192,35300,1,8,0:0:0:0:
448,192,35300,128,2,35487:0:0:0:0:
64,192,35581,1,0,0:0:0:0:
192,192,35862,1,0,0:0:0:0:
320,192,36143,1,0,0:0:0:0:
192,192,36425,1,2,0:0:0:0:
448,192,36425,128,0,36612:0:0:0:0:
64,192,36612,128,0,36800:0:0:0:0:
320,192,36800,128,8,36987:0:0:0:0:
448,192,36800,1,2,0:0:0:0:
192,192,37175,1,2,0:0:0:0:
320,192,37175,128,0,37362:0:0:0:0:
64,192,37550,1,8,0:0:0:0:
320,192,37550,128,2,37737:0:0:0:0:
448,192,37737,128,0,37925:0:0:0:0:
64,192,37925,128,2,38300:0:0:0:0:
192,192,37925,128,4,38300:0:0:0:0:
320,192,38300,1,2,0:0:0:0:
448,192,38300,128,8,38675:0:0:0:0:
64,192,38675,1,2,0:0:0:0:
320,192,38675,1,0,0:0:0:0:
64,192,38862,1,0,0:0:0:0:
192,192,39050,1,2,0:0:0:0:
448,192,39050,1,8,0:0:0:0:
192,192,39237,1,0,0:0:0:0:
320,192,39425,128,2,39612:0:0:0:0:
448,192,39425,1,0,0:0:0:0:
64,192,39612,128,0,39800:0:0:0:0:
192,192,39800,1,2,0:0:0:0:
448,192,39800,128,8,40175:0:0:0:0:
64,192,40175,1,2,0:0:0:0:
320,192,40175,1,0,0:0:0:0:
320,192,40362,1,0,0:0:0:0:
192,192,40550,1,2,0:0:0:0:
448,192,40550,1,8,0:0:0:0:
192,192,40737,1,0,0:0:0:0:
64,192,40925,128,2,41300:0:0:0:0:
448,192,40925,1,0,0:0:0:0:
320,192,41300,1,8,0:0:0:0:
448,192,41300,128,2,41487:0:0:0:0:
192,192,41487,1,0,0:0:0:0:
320,192,41675,1,2,0:0:0:0:
448,192,41675,128,0,41862:0:0:0:0:
64,192,41862,1,0,0:0:0:0:
320,192,42050,1,8,0:0:0:0:
448,192,42050,128,2,42237:0:0:0:0:
192,192,42237,1,0,0:0:0:0:
64,192,42425,128,2,42612:0:0:0:0:
320,192,42425,1,0,0:0:0:0:
448,192,42612,128,0,42800:0:0:0:0:
64,192,42800,1,8,0:0:0:0:
192,192,42800,128,2,42987:0:0:0:0:
320,192,42987,128,0,43175:0:0:0:0:
64,192,43175,128,2,43362:0:0:0:0:
448,192,43175,1,0,0:0:0:0:
448,192,43362,128,0,43550:0:0:0:0:
64,192,43550,1,8,0:0:0:0:
192,192,43550,128,2,43737:0:0:0:0:
320,192,43737,128,0,43925:0:0:0:0:
64,192,43925,128,4,44300:0:0:0:0:
448,192,43925,1,2,0:0:0:0:
320,192,44300,1,8,0:0:0:0:
448,192,44300,128,2,44675:0:0:0:0:
64,192,44675,1,2,0:0:0:0:
192,192,44675,1,0,0:0:0:0:
192,192,44862,1,0,0:0:0:0:
320,192,45050,1,8,0:0:0:0:
448,192,45050,1,2,0:0:0:0:
320,192,45237,1,0,0:0:0:0:
64,192,45425,1,2,0:0:0:0:
192,192,45425,128,4,45612:0:0:0:0:
448,192,45612,128,0,45800:0:0:0:0:
64,192,45800,128,8,46175:0:0:0:0:
320,192,45800,1,2,0:0:0:0:
192,192,46175,1,2,0:0:0:0:
448,192,46175,1,0,0:0:0:0:
448,192,46362,1,0,0:0:0:0:
64,192,46550,1,8,0:0:0:0:
320,192,46550,1,2,0:0:0:0:
64,192,46737,1,0,0:0:0:0:
192,192,46925,1,2,0:0:0:0:
448,192,46925,128,4,47112:0:0:0:0:
64,192,47112,128,0,47300:0:0:0:0:
320,192,47300,128,2,47487:0:0:0:0:
448,192,47300,1,8,0:0:0:0:
192,192,47675,1,2,0:0:0:0:
320,192,47675,128,4,47862:0:0:0:0:
64,192,48050,1,2,0:0:0:0:
320,192,48050,128,8,48237:0:0:0:0:
64,192,48237,1,10,0:0:0:0:
448,192,48425,1,4,0:0:0:0:
448,192,48706,1,0,0:0:0:70:LR_Drum Kick Low.wav
448,192,48987,1,0,0:0:0:70:LR_Drum Kick Low.wav
448,192,49268,1,0,0:0:0:70:LR_Drum Kick Low.wav
64,192,49550,1,0,0:0:0:70:LR4_SnareBPDT.wav
192,192,49550,1,0,0:0:0:0:
320,192,49925,1,4,0:0:0:0:
448,192,49925,1,2,0:0:0:0:
64,192,50112,1,0,0:0:0:0:
448,192,50300,1,0,0:0:0:0:
192,192,50487,1,0,0:0:0:0:
448,192,50675,128,0,50956:0:0:0:0:
320,192,50956,1,0,0:0:0:0:
64,192,51143,128,0,51425:0:0:0:0:
448,192,51425,128,0,51706:0:0:0:0:
64,192,51706,1,0,0:0:0:0:
192,192,51893,1,0,0:0:0:0:
320,192,52081,1,0,0:0:0:0:
64,192,52268,1,0,0:0:0:0:
448,192,52362,1,0,0:0:0:0:
192,192,52550,128,0,52737:0:0:0:0:
320,192,52737,128,0,52925:0:0:0:0:
64,192,52925,1,0,0:0:0:0:
448,192,53112,1,0,0:0:0:0:
64,192,53300,1,0,0:0:0:0:
320,192,53487,1,0,0:0:0:0:
64,192,53675,128,0,53956:0:0:0:0:
448,192,53956,1,0,0:0:0:0:
320,192,54143,128,0,54425:0:0:0:0:
192,192,54425,128,0,54706:0:0:0:0:
448,192,54706,1,0,0:0:0:0:
64,192,54893,1,0,0:0:0:0:
192,192,55081,1,0,0:0:0:0:
448,192,55268,1,0,0:0:0:0:
64,192,55362,1,0,0:0:0:0:
320,192,55550,128,0,55737:0:0:0:0:
448,192,55737,128,0,55925:0:0:0:0:
192,192,55925,1,0,0:0:0:0:
448,192,56112,1,0,0:0:0:0:
192,192,56300,1,8,0:0:0:0:
320,192,56487,1,0,0:0:0:0:
192,192,56675,128,0,57050:0:0:0:0:
64,192,57050,1,8,0:0:0:0:
448,192,57237,1,0,0:0:0:0:
192,192,57425,128,0,57612:0:0:0:0:
448,192,57612,128,0,57800:0:0:0:0:
320,192,57800,1,8,0:0:0:0:
64,192,57893,1,0,0:0:0:0:
448,192,58081,1,0,0:0:0:0:
192,192,58268,1,0,0:0:0:0:
320,192,58362,1,0,0:0:0:0:
448,192,58550,128,8,58737:0:0:0:0:
64,192,58737,128,0,58925:0:0:0:0:
320,192,58925,1,0,0:0:0:0:
64,192,59112,1,0,0:0:0:0:
320,192,59300,1,8,0:0:0:0:
192,192,59487,1,0,0:0:0:0:
320,192,59675,128,0,60050:0:0:0:0:
64,192,60050,1,8,0:0:0:0:
192,192,60237,1,0,0:0:0:0:
448,192,60425,128,0,60612:0:0:0:50:LR_Drum Kick Low.wav
192,192,60612,128,0,60800:0:0:0:50:LR_Drum Kick Low.wav
448,192,60800,1,8,0:0:0:0:
64,192,60893,1,0,0:0:0:50:LR_Drum Kick Low.wav
192,192,61081,1,0,0:0:0:0:
448,192,61175,128,0,61550:0:0:0:0:
64,192,61550,128,0,61925:0:0:0:50:VEC3 Snares 004.wav
192,192,61925,1,4,0:0:0:0:
448,192,61925,1,2,0:0:0:0:
320,192,62112,1,0,0:0:0:0:
64,192,62300,1,2,0:0:0:0:
192,192,62300,1,0,0:0:0:0:
64,192,62675,1,2,0:0:0:0:
320,192,62675,1,0,0:0:0:0:
192,192,63050,1,2,0:0:0:0:
448,192,63050,1,0,0:0:0:0:
64,192,63425,1,2,0:0:0:0:
448,192,63425,1,0,0:0:0:0:
192,192,63800,1,2,0:0:0:0:
320,192,63800,1,0,0:0:0:0:
320,192,64175,1,2,0:0:0:0:
448,192,64175,1,0,0:0:0:0:
64,192,64550,1,2,0:0:0:0:
192,192,64550,1,0,0:0:0:0:
64,192,64925,1,2,0:0:0:0:
448,192,64925,1,0,0:0:0:0:
192,192,65112,1,0,0:0:0:0:
320,192,65300,1,2,0:0:0:0:
448,192,65300,1,0,0:0:0:0:
64,192,65675,1,2,0:0:0:0:
320,192,65675,1,0,0:0:0:0:
64,192,66050,1,2,0:0:0:0:
448,192,66050,1,0,0:0:0:0:
192,192,66425,1,2,0:0:0:0:
448,192,66425,1,0,0:0:0:0:
64,192,66800,1,2,0:0:0:0:
320,192,66800,1,0,0:0:0:0:
192,192,67175,1,2,0:0:0:0:
448,192,67175,1,0,0:0:0:0:
64,192,67362,1,0,0:0:0:0:
320,192,67550,1,2,0:0:0:0:
448,192,67550,1,0,0:0:0:0:
192,192,67737,1,0,0:0:0:0:
64,192,67925,1,2,0:0:0:0:
320,192,67925,1,0,0:0:0:0:
448,192,68112,1,0,0:0:0:0:
64,192,68300,1,2,0:0:0:0:
192,192,68300,1,0,0:0:0:0:
320,192,68675,1,2,0:0:0:0:
448,192,68675,1,0,0:0:0:0:
64,192,69050,1,2,0:0:0:0:
448,192,69050,1,0,0:0:0:0:
64,192,69425,1,2,0:0:0:0:
320,192,69425,1,0,0:0:0:0:
192,192,69800,1,2,0:0:0:0:
320,192,69800,1,0,0:0:0:0:
64,192,70175,1,2,0:0:0:0:
448,192,70175,1,0,0:0:0:0:
192,192,70550,1,2,0:0:0:0:
448,192,70550,1,0,0:0:0:0:
64,192,70925,1,2,0:0:0:0:
448,192,70925,1,0,0:0:0:0:
320,192,71112,1,0,0:0:0:0:
64,192,71300,1,2,0:0:0:0:
192,192,71300,1,0,0:0:0:0:
320,192,71675,1,2,0:0:0:0:
448,192,71675,1,0,0:0:0:0:
192,192,72050,1,2,0:0:0:0:
320,192,72050,1,0,0:0:0:0:
64,192,72425,128,2,72612:0:0:0:0:
192,192,72425,1,0,0:0:0:0:
448,192,72706,1,0,0:0:0:0:
192,192,72800,128,0,72987:0:0:0:0:
320,192,73175,1,2,0:0:0:0:
448,192,73175,128,0,73362:0:0:0:0:
64,192,73456,1,0,0:0:0:70:LR_Drum Kick Low.wav
320,192,73550,128,0,73737:0:0:0:0:
192,192,73925,1,6,0:0:0:0:
192,192,74112,1,0,0:0:0:70:VEC3 Snares 004.wav
448,192,74300,1,0,0:0:0:70:VEC3 Snares 004.wav
448,192,74487,1,0,0:0:0:70:VEC3 Snares 004.wav
64,192,74675,1,0,0:0:0:70:VEC3 Snares 004.wav
64,192,74862,1,0,0:0:0:60:VEC3 Snares 004.wav
320,192,75050,1,0,0:0:0:50:VEC3 Snares 004.wav
320,192,75237,1,0,0:0:0:40:VEC3 Snares 004.wav
192,192,75425,1,0,0:0:0:70:VEC3 Snares 004.wav
192,192,75612,1,0,0:0:0:70:VEC3 Snares 004.wav
448,192,75800,1,0,0:0:0:70:VEC3 Snares 004.wav
448,192,75987,1,0,0:0:0:70:VEC3 Snares 004.wav
64,192,76175,1,0,0:0:0:70:VEC3 Snares 004.wav
64,192,76362,1,0,0:0:0:60:VEC3 Snares 004.wav
320,192,76550,1,0,0:0:0:50:VEC3 Snares 004.wav
320,192,76737,1,0,0:0:0:40:VEC3 Snares 004.wav
192,192,76925,1,4,0:0:0:0:
448,192,77112,1,0,0:0:0:70:VEC3 Snares 004.wav
192,192,77300,1,0,0:0:0:70:VEC3 Snares 004.wav
448,192,77487,1,0,0:0:0:70:VEC3 Snares 004.wav
64,192,77675,1,0,0:0:0:70:VEC3 Snares 004.wav
320,192,77862,1,0,0:0:0:60:VEC3 Snares 004.wav
64,192,78050,1,0,0:0:0:50:VEC3 Snares 004.wav
320,192,78237,1,0,0:0:0:40:VEC3 Snares 004.wav
448,192,78425,1,0,0:0:0:70:VEC3 Snares 004.wav
64,192,78612,1,0,0:0:0:70:VEC3 Snares 004.wav
448,192,78800,1,0,0:0:0:70:VEC3 Snares 004.wav
64,192,78987,1,0,0:0:0:70:VEC3 Snares 004.wav
320,192,79175,1,0,0:0:0:70:VEC3 Snares 004.wav
64,192,79362,1,0,0:0:0:70:LR_Drum Kick Low.wav
192,192,79456,1,0,0:0:0:0:
320,192,79550,128,0,79925:0:0:0:70:LR4_SnareBPDT.wav
448,192,79550,128,0,79925:0:0:0:0:
64,192,79925,1,4,0:0:0:0:
192,192,79925,1,0,0:0:0:70:VEC3 Snares 004.wav
448,192,80112,1,0,0:0:0:70:VEC3 Snares 004.wav
64,192,80206,1,0,0:0:0:70:VEC3 Snares 004.wav
320,192,80393,128,0,80675:0:0:0:70:VEC3 Snares 004.wav
192,192,80675,1,0,0:0:0:70:VEC3 Snares 004.wav
448,192,80675,1,0,0:0:0:0:
64,192,80862,1,0,0:0:0:70:VEC3 Snares 004.wav
448,192,80956,1,0,0:0:0:70:VEC3 Snares 004.wav
192,192,81143,128,0,81425:0:0:0:70:VEC3 Snares 004.wav
64,192,81425,1,0,0:0:0:70:VEC3 Snares 004.wav
448,192,81425,1,0,0:0:0:0:
320,192,81612,1,0,0:0:0:70:VEC3 Snares 004.wav
64,192,81706,1,0,0:0:0:70:VEC3 Snares 004.wav
448,192,81893,128,0,82175:0:0:0:70:VEC3 Snares 004.wav
64,192,82175,1,0,0:0:0:60:VEC3 Snares 004.wav
320,192,82175,1,0,0:0:0:0:
192,192,82362,1,0,0:0:0:60:VEC3 Snares 004.wav
448,192,82456,1,0,0:0:0:60:VEC3 Snares 004.wav
64,192,82643,128,0,82925:0:0:0:60:VEC3 Snares 004.wav
448,192,82925,128,0,83112:0:0:0:50:VEC3 Snares 004.wav
64,192,83112,128,0,83300:0:0:0:50:VEC3 Snares 004.wav
448,192,83300,128,0,83487:0:0:0:40:VEC3 Snares 004.wav
64,192,83487,128,0,83675:0:0:0:40:VEC3 Snares 004.wav
320,192,83675,128,0,84425:0:0:0:40:VEC3 Snares 004.wav
192,192,84050,128,0,84425:0:0:0:40:VEC3 Snares 004.wav
64,192,84425,1,0,0:0:0:50:LR4_BassLineLDRN.wav
448,192,84425,1,0,0:0:0:0:
320,192,85175,128,0,85550:0:0:0:0:
64,192,85925,128,2,86300:0:0:0:0:
448,192,85925,128,4,86300:0:0:0:0:
320,192,86300,1,0,0:0:0:0:
320,192,86487,1,0,0:0:0:0:
64,192,86675,1,0,0:0:0:70:S1.wav
192,192,86675,128,0,86862:0:0:0:0:
448,192,86862,128,0,87050:0:0:0:0:
192,192,87050,128,0,87237:0:0:0:0:
320,192,87425,128,2,87612:0:0:0:0:
448,192,87425,1,0,0:0:0:0:
64,192,87612,128,0,87800:0:0:0:0:
320,192,87800,128,2,87987:0:0:0:0:
448,192,87800,1,8,0:0:0:0:
64,192,88175,1,0,0:0:0:70:S1.wav
192,192,88175,128,0,88362:0:0:0:0:
320,192,88362,128,0,88550:0:0:0:0:
192,192,88550,128,0,88737:0:0:0:0:
64,192,88925,1,2,0:0:0:0:
448,192,88925,128,0,89300:0:0:0:0:
192,192,89300,1,0,0:0:0:0:
192,192,89487,1,0,0:0:0:0:
64,192,89675,1,0,0:0:0:70:S1.wav
448,192,89675,1,0,0:0:0:0:
448,192,89862,1,0,0:0:0:0:
448,192,90050,128,0,90237:0:0:0:0:
64,192,90425,1,2,0:0:0:0:
320,192,90425,1,0,0:0:0:0:
64,192,90612,1,0,0:0:0:0:
320,192,90706,1,2,0:0:0:0:
64,192,90800,128,8,90987:0:0:0:0:
320,192,90987,1,2,0:0:0:0:
192,192,91175,1,0,0:0:0:70:S1.wav
448,192,91175,1,0,0:0:0:0:
448,192,91362,1,0,0:0:0:0:
448,192,91550,128,0,91737:0:0:0:0:
64,192,91737,128,0,91925:0:0:0:0:
192,192,91925,128,2,92300:0:0:0:0:
320,192,91925,1,0,0:0:0:0:
448,192,92300,1,0,0:0:0:0:
448,192,92487,1,0,0:0:0:0:
64,192,92675,128,0,92862:0:0:0:70:S1.wav
192,192,92675,1,0,0:0:0:0:
448,192,92862,128,0,93050:0:0:0:0:
64,192,93050,128,0,93237:0:0:0:0:
320,192,93425,1,2,0:0:0:0:
448,192,93425,128,0,93612:0:0:0:0:
64,192,93612,128,0,93800:0:0:0:0:
320,192,93800,1,2,0:0:0:0:
448,192,93800,128,8,93987:0:0:0:0:
192,192,94175,1,0,0:0:0:70:S1.wav
320,192,94175,128,0,94362:0:0:0:0:
64,192,94362,128,0,94550:0:0:0:0:
448,192,94550,128,8,94925:0:0:0:0:
64,192,94925,128,2,95112:0:0:0:0:
192,192,94925,128,0,95112:0:0:0:0:
320,192,95300,128,0,95487:0:0:0:0:
64,192,95581,1,0,0:0:0:0:
192,192,95862,1,0,0:0:0:0:
320,192,96143,1,0,0:0:0:0:
64,192,96425,1,2,0:0:0:0:
448,192,96425,1,0,0:0:0:0:
192,192,96612,1,0,0:0:0:0:
320,192,96800,1,2,0:0:0:0:
448,192,96800,1,8,0:0:0:0:
64,192,97175,1,2,0:0:0:0:
192,192,97175,1,0,0:0:0:0:
320,192,97550,1,2,0:0:0:0:
448,192,97550,1,4,0:0:0:0:
192,192,97737,128,0,97925:0:0:0:0:
448,192,97925,128,0,98112:0:0:0:0:
64,192,98112,128,0,98300:0:0:0:0:
320,192,98300,128,6,98675:0:0:0:0:
448,192,98300,128,8,98675:0:0:0:0:
64,192,98675,1,2,0:0:0:0:
192,192,98675,1,0,0:0:0:0:
192,192,98862,1,0,0:0:0:0:
64,192,99050,1,8,0:0:0:0:
448,192,99050,1,2,0:0:0:0:
448,192,99237,1,0,0:0:0:0:
192,192,99425,1,2,0:0:0:0:
320,192,99425,1,0,0:0:0:0:
320,192,99612,1,0,0:0:0:0:
64,192,99800,1,8,0:0:0:0:
448,192,99800,1,2,0:0:0:0:
64,192,99987,1,0,0:0:0:0:
320,192,100175,1,2,0:0:0:0:
448,192,100175,1,0,0:0:0:0:
448,192,100362,1,0,0:0:0:0:
192,192,100550,1,2,0:0:0:0:
320,192,100550,1,8,0:0:0:0:
192,192,100737,1,0,0:0:0:0:
64,192,100925,128,2,101300:0:0:0:0:
448,192,100925,1,4,0:0:0:0:
320,192,101300,1,2,0:0:0:0:
448,192,101300,128,8,101487:0:0:0:0:
192,192,101487,1,0,0:0:0:0:
320,192,101675,1,2,0:0:0:0:
448,192,101675,128,0,101862:0:0:0:0:
64,192,101862,1,0,0:0:0:0:
320,192,102050,1,8,0:0:0:0:
448,192,102050,128,2,102237:0:0:0:0:
192,192,102237,1,0,0:0:0:0:
64,192,102425,128,2,102612:0:0:0:0:
448,192,102425,1,0,0:0:0:0:
320,192,102612,1,0,0:0:0:0:
64,192,102800,128,8,102987:0:0:0:0:
192,192,102800,1,2,0:0:0:0:
320,192,102987,1,0,0:0:0:0:
64,192,103175,1,2,0:0:0:0:
448,192,103175,128,0,103550:0:0:0:0:
192,192,103550,128,2,103925:0:0:0:0:
320,192,103550,1,8,0:0:0:0:
64,192,103925,1,2,0:0:0:0:
448,192,103925,128,4,104300:0:0:0:0:
192,192,104300,1,2,0:0:0:0:
320,192,104300,128,8,104675:0:0:0:0:
64,192,104675,1,2,0:0:0:0:
448,192,104675,1,4,0:0:0:0:
64,192,104862,1,0,0:0:0:0:
192,192,105050,1,8,0:0:0:0:
448,192,105050,1,2,0:0:0:0:
448,192,105237,1,0,0:0:0:0:
64,192,105425,1,2,0:0:0:0:
320,192,105425,128,4,105612:0:0:0:0:
192,192,105612,128,0,105800:0:0:0:0:
320,192,105800,1,8,0:0:0:0:
448,192,105800,128,2,106175:0:0:0:0:
64,192,106175,1,2,0:0:0:0:
192,192,106175,1,4,0:0:0:0:
192,192,106362,1,0,0:0:0:0:
320,192,106550,1,2,0:0:0:0:
448,192,106550,1,8,0:0:0:0:
320,192,106737,1,0,0:0:0:0:
64,192,106925,128,2,107112:0:0:0:0:
192,192,106925,1,4,0:0:0:0:
448,192,107112,128,0,107300:0:0:0:0:
192,192,107300,128,10,107487:0:0:0:0:
320,192,107300,1,4,0:0:0:0:
64,192,107675,1,2,0:0:0:0:
192,192,107675,128,4,107862:0:0:0:0:
192,192,108050,128,10,108237:0:0:0:0:
448,192,108050,1,4,0:0:0:0:
448,192,108237,1,10,0:0:0:0:
64,192,108425,1,4,0:0:0:0:
64,192,108706,1,0,0:0:0:70:LR_Drum Kick Low.wav
64,192,108987,1,0,0:0:0:70:LR_Drum Kick Low.wav
64,192,109268,1,0,0:0:0:70:LR_Drum Kick Low.wav
320,192,109550,1,0,0:0:0:70:LR4_SnareBPDT.wav
448,192,109550,1,0,0:0:0:0:
64,192,109925,1,4,0:0:0:0:
192,192,109925,1,0,0:0:0:50:LR4_BassLineLDRN.wav
448,192,110112,1,0,0:0:0:0:
64,192,110300,1,0,0:0:0:0:
320,192,110487,1,0,0:0:0:0:
64,192,110675,128,0,110956:0:0:0:0:
192,192,110956,1,0,0:0:0:0:
448,192,111143,128,0,111425:0:0:0:0:
64,192,111425,128,0,111706:0:0:0:0:
448,192,111706,1,0,0:0:0:0:
320,192,111893,1,0,0:0:0:0:
192,192,112081,1,0,0:0:0:0:
64,192,112268,1,0,0:0:0:0:
448,192,112362,1,0,0:0:0:0:
320,192,112550,128,0,112737:0:0:0:0:
192,192,112737,128,0,112925:0:0:0:0:
448,192,112925,1,0,0:0:0:0:
64,192,113112,1,0,0:0:0:0:
448,192,113300,1,0,0:0:0:0:
192,192,113487,1,0,0:0:0:0:
448,192,113675,128,0,113956:0:0:0:0:
64,192,113956,1,0,0:0:0:0:
192,192,114143,128,0,114425:0:0:0:0:
320,192,114425,128,0,114706:0:0:0:0:
64,192,114706,1,0,0:0:0:0:
448,192,114893,1,0,0:0:0:0:
320,192,115081,1,0,0:0:0:0:
192,192,115268,1,0,0:0:0:0:
448,192,115362,1,0,0:0:0:0:
64,192,115550,128,0,115737:0:0:0:0:
320,192,115737,128,0,115925:0:0:0:0:
192,192,115925,1,0,0:0:0:0:
448,192,116112,1,0,0:0:0:0:
192,192,116300,1,0,0:0:0:0:
320,192,116487,1,0,0:0:0:0:
192,192,116675,128,0,116956:0:0:0:0:
448,192,116956,1,0,0:0:0:0:
320,192,117143,128,0,117425:0:0:0:0:
64,192,117425,128,0,117706:0:0:0:0:
192,192,117706,1,0,0:0:0:0:
448,192,117893,1,0,0:0:0:0:
64,192,118081,1,0,0:0:0:0:
320,192,118268,1,0,0:0:0:0:
192,192,118362,1,0,0:0:0:0:
448,192,118550,128,0,118737:0:0:0:0:
192,192,118737,128,0,118925:0:0:0:0:
320,192,118925,1,0,0:0:0:0:
64,192,119112,1,0,0:0:0:0:
320,192,119300,1,0,0:0:0:0:
192,192,119487,1,0,0:0:0:0:
320,192,119675,128,0,119956:0:0:0:0:
64,192,119956,1,0,0:0:0:0:
192,192,120143,128,0,120425:0:0:0:0:
448,192,120425,128,0,120706:0:0:0:0:
64,192,120706,1,0,0:0:0:0:
192,192,120893,1,0,0:0:0:0:
320,192,121081,1,0,0:0:0:0:
64,192,121175,128,0,121550:0:0:0:0:
448,192,121550,128,0,121925:0:0:0:0:
