osu file format v14

[General]
AudioFilename: audio.mp3
AudioLeadIn: 0
PreviewTime: 25831
Countdown: 0
SampleSet: Soft
StackLeniency: 0.7
Mode: 3
LetterboxInBreaks: 0
SpecialStyle: 0
WidescreenStoryboard: 0

[Editor]
DistanceSpacing: 0.5
BeatDivisor: 4
GridSize: 4
TimelineZoom: 2

[Metadata]
Title:Butterfly Twist
TitleUnicode:Butterfly Twist
Artist:Yooh
ArtistUnicode:Yooh
Creator:Shima Rin
Version:EXHAUST
Source:SOUND VOLTEX VIVID WAVE
Tags:SDVX V DANCERUSH STARDOM BEMANI KONAMI Tofu1222 Madoka2574 FAMoss Electronic Video Game Instrumental Omega Ω Dimension Phase 8 常世神 Tokoyo no Kami Nono SELECTION いちかのBEMANI超じゃんけん大会2020
BeatmapID:2397133
BeatmapSetID:1148070

[Difficulty]
HPDrainRate:8
CircleSize:4
OverallDifficulty:7.8
ApproachRate:5
SliderMultiplier:1.4
SliderTickRate:1

[Events]
//Background and Video events
0,0,"BG.jpg",0,0
//Break Periods
//Storyboard Layer 0 (Background)
//Storyboard Layer 1 (Fail)
//Storyboard Layer 2 (Pass)
//Storyboard Layer 3 (Foreground)
//Storyboard Layer 4 (Overlay)
//Storyboard Sound Samples

[TimingPoints]
1925,375,4,2,1,40,1,0
7925,-100,4,2,1,50,0,0
13925,-100,4,2,1,60,0,0
25925,-100,4,2,1,70,0,1
49925,-100,4,2,1,70,0,0
85925,-100,4,2,1,70,0,1
109925,-100,4,2,1,50,0,0

[HitObjects]
64,192,1925,5,2,0:0:0:0:
320,192,1925,1,0,0:0:0:0:
448,192,1925,1,0,0:0:0:0:
192,192,2112,1,0,0:0:0:0:
320,192,2206,1,0,0:0:0:0:
64,192,2300,1,0,0:0:0:0:
320,192,2487,1,0,0:0:0:0:
64,192,2675,128,0,2862:0:0:0:0:
448,192,2768,1,0,0:0:0:0:
64,192,3050,128,0,3425:0:0:0:0:
448,192,3050,1,0,0:0:0:0:
192,192,3237,128,0,3425:0:0:0:0:
320,192,3237,1,0,0:0:0:0:
448,192,3425,1,0,0:0:0:0:
448,192,3706,1,0,0:0:0:0:
64,192,3800,128,0,4175:0:0:0:0:
192,192,3987,128,0,4175:0:0:0:0:
448,192,3987,1,0,0:0:0:0:
448,192,4268,1,0,0:0:0:0:
64,192,4550,128,0,4925:0:0:0:0:
448,192,4550,1,0,0:0:0:0:
192,192,4737,128,0,4925:0:0:0:0:
320,192,4737,1,0,0:0:0:0:
448,192,4925,1,0,0:0:0:0:
320,192,5112,1,0,0:0:0:0:
192,192,5206,1,0,0:0:0:0:
448,192,5300,1,0,0:0:0:0:
192,192,5487,1,0,0:0:0:0:
448,192,5675,128,0,5862:0:0:0:0:
64,192,5768,1,0,0:0:0:0:
320,192,5862,1,0,0:0:0:0:
64,192,6050,1,0,0:0:0:0:
448,192,6050,128,0,6425:0:0:0:0:
192,192,6237,1,0,0:0:0:0:
320,192,6237,128,0,6425:0:0:0:0:
64,192,6425,1,0,0:0:0:0:
320,192,6612,1,0,0:0:0:0:
64,192,6706,1,0,0:0:0:0:
448,192,6800,128,0,7175:0:0:0:0:
64,192,6987,1,0,0:0:0:0:
320,192,6987,128,0,7175:0:0:0:0:
64,192,7268,1,0,0:0:0:0:
320,192,7362,1,0,0:0:0:0:
64,192,7550,1,0,0:0:0:0:
448,192,7550,128,0,7925:0:0:0:0:
192,192,7737,1,0,0:0:0:0:
320,192,7737,128,0,7925:0:0:0:0:
64,192,7925,1,0,0:0:0:0:
192,192,8112,1,0,0:0:0:0:
320,192,8206,1,0,0:0:0:0:
64,192,8300,1,0,0:0:0:0:
320,192,8487,1,0,0:0:0:0:
64,192,8675,128,0,8862:0:0:0:0:
448,192,8768,1,0,0:0:0:0:
64,192,9050,128,0,9425:0:0:0:0:
448,192,9050,1,0,0:0:0:0:
192,192,9237,128,0,9425:0:0:0:0:
320,192,9237,1,0,0:0:0:0:
448,192,9425,1,0,0:0:0:0:
448,192,9706,1,0,0:0:0:0:
64,192,9800,128,0,10175:0:0:0:0:
192,192,9987,128,0,10175:0:0:0:0:
448,192,9987,1,0,0:0:0:0:
448,192,10268,1,0,0:0:0:0:
64,192,10550,128,0,10925:0:0:0:0:
448,192,10550,1,0,0:0:0:0:
192,192,10737,128,0,10925:0:0:0:0:
320,192,10737,1,0,0:0:0:0:
320,192,10925,1,0,0:0:0:0:
448,192,10925,1,0,0:0:0:0:
192,192,11112,1,0,0:0:0:0:
320,192,11206,1,0,0:0:0:0:
448,192,11206,1,0,0:0:0:0:
64,192,11300,1,0,0:0:0:0:
192,192,11487,1,0,0:0:0:0:
320,192,11487,1,0,0:0:0:0:
448,192,11675,128,0,11862:0:0:0:0:
64,192,11768,1,0,0:0:0:0:
192,192,11768,1,0,0:0:0:0:
64,192,12050,1,0,0:0:0:0:
192,192,12050,1,0,0:0:0:0:
448,192,12050,128,0,12425:0:0:0:0:
64,192,12237,1,0,0:0:0:0:
192,192,12237,1,0,0:0:0:0:
320,192,12237,128,0,12425:0:0:0:0:
64,192,12425,128,0,12612:0:0:0:0:
192,192,12425,1,0,0:0:0:0:
320,192,12706,1,0,0:0:0:0:
448,192,12706,1,0,0:0:0:0:
64,192,12800,128,0,12987:0:0:0:0:
320,192,12987,1,0,0:0:0:0:
448,192,12987,1,0,0:0:0:0:
64,192,13175,128,0,13362:0:0:0:0:
320,192,13268,1,0,0:0:0:0:
448,192,13268,1,0,0:0:0:0:
64,192,13550,128,0,13737:0:0:0:70:LR_Snare Fast.wav
320,192,13550,1,0,0:0:0:0:
448,192,13550,1,0,0:0:0:0:
192,192,13643,1,0,0:0:0:70:LR_Snare Fast-C#.wav
320,192,13737,1,0,0:0:0:70:LR_Snare Fast-D.wav
448,192,13737,1,0,0:0:0:0:
192,192,13831,1,0,0:0:0:70:LR_Snare Fast-D#.wav
64,192,13925,1,2,0:0:0:0:
448,192,13925,1,0,0:0:0:0:
320,192,14112,1,0,0:0:0:0:
64,192,14206,1,0,0:0:0:0:
192,192,14206,1,0,0:0:0:0:
448,192,14300,1,8,0:0:0:0:
192,192,14487,1,0,0:0:0:0:
320,192,14487,1,0,0:0:0:0:
64,192,14675,128,0,14862:0:0:0:0:
320,192,14768,1,0,0:0:0:0:
448,192,14768,1,0,0:0:0:0:
64,192,15050,128,8,15425:0:0:0:0:
320,192,15050,1,0,0:0:0:0:
448,192,15050,1,0,0:0:0:0:
192,192,15237,128,0,15425:0:0:0:0:
320,192,15237,1,0,0:0:0:0:
448,192,15237,1,0,0:0:0:0:
320,192,15425,1,0,0:0:0:0:
448,192,15425,1,0,0:0:0:0:
192,192,15706,1,0,0:0:0:0:
320,192,15706,1,0,0:0:0:0:
448,192,15800,128,8,16175:0:0:0:0:
64,192,15987,1,0,0:0:0:0:
192,192,15987,1,0,0:0:0:0:
320,192,15987,128,0,16175:0:0:0:0:
320,192,16268,1,0,0:0:0:0:
448,192,16268,1,0,0:0:0:0:
64,192,16550,128,8,16925:0:0:0:0:
320,192,16550,1,0,0:0:0:0:
448,192,16550,1,0,0:0:0:0:
192,192,16737,128,0,16925:0:0:0:0:
320,192,16737,1,0,0:0:0:0:
448,192,16737,1,0,0:0:0:0:
320,192,16925,1,0,0:0:0:0:
448,192,16925,1,0,0:0:0:0:
192,192,17112,1,0,0:0:0:0:
320,192,17206,1,0,0:0:0:0:
448,192,17206,1,0,0:0:0:0:
64,192,17300,1,8,0:0:0:0:
192,192,17487,1,0,0:0:0:0:
320,192,17487,1,0,0:0:0:0:
448,192,17675,128,0,17862:0:0:0:0:
64,192,17768,1,0,0:0:0:0:
192,192,17768,1,0,0:0:0:0:
64,192,18050,1,8,0:0:0:0:
192,192,18050,1,0,0:0:0:0:
448,192,18050,128,0,18425:0:0:0:0:
64,192,18237,1,0,0:0:0:0:
192,192,18237,1,0,0:0:0:0:
320,192,18237,128,0,18425:0:0:0:0:
64,192,18425,1,0,0:0:0:0:
192,192,18425,1,0,0:0:0:0:
192,192,18706,1,0,0:0:0:0:
320,192,18706,1,0,0:0:0:0:
64,192,18800,128,8,19175:0:0:0:0:
192,192,18987,128,0,19175:0:0:0:0:
320,192,18987,1,0,0:0:0:0:
448,192,18987,1,0,0:0:0:0:
64,192,19268,1,0,0:0:0:0:
192,192,19268,1,0,0:0:0:0:
64,192,19550,1,8,0:0:0:0:
192,192,19550,1,0,0:0:0:0:
448,192,19550,128,0,19925:0:0:0:0:
64,192,19737,1,0,0:0:0:0:
192,192,19737,1,0,0:0:0:0:
320,192,19737,128,0,19925:0:0:0:0:
64,192,19925,128,0,20112:0:0:0:70:VEC3 Snares 004.wav
192,192,19925,1,0,0:0:0:0:
320,192,20112,1,0,0:0:0:70:VEC3 Snares 004.wav
448,192,20112,1,0,0:0:0:0:
64,192,20300,128,0,20487:0:0:0:70:VEC3 Snares 004.wav
192,192,20300,1,0,0:0:0:0:
320,192,20425,1,0,0:0:0:70:VEC3 Snares 004.wav
448,192,20425,1,0,0:0:0:0:
192,192,20612,1,0,0:0:0:70:VEC3 Snares 004.wav
320,192,20612,1,0,0:0:0:0:
64,192,20675,1,0,0:0:0:70:VEC3 Snares 004.wav
448,192,20675,128,0,20862:0:0:0:0:
64,192,20862,1,0,0:0:0:70:VEC3 Snares 004.wav
192,192,20862,1,0,0:0:0:0:
320,192,21050,1,0,0:0:0:70:VEC3 Snares 004.wav
448,192,21050,128,0,21237:0:0:0:0:
64,192,21175,1,0,0:0:0:70:VEC3 Snares 004.wav
192,192,21175,1,0,0:0:0:0:
192,192,21362,1,0,0:0:0:70:VEC3 Snares 004.wav
320,192,21362,1,0,0:0:0:0:
64,192,21425,128,0,21612:0:0:0:70:VEC3 Snares 004.wav
448,192,21425,1,0,0:0:0:0:
320,192,21612,1,0,0:0:0:70:VEC3 Snares 004.wav
448,192,21612,1,0,0:0:0:0:
64,192,21800,128,0,21987:0:0:0:70:VEC3 Snares 004.wav
192,192,21800,1,0,0:0:0:0:
320,192,21925,1,0,0:0:0:70:VEC3 Snares 004.wav
448,192,21925,1,0,0:0:0:0:
192,192,22112,1,0,0:0:0:70:VEC3 Snares 004.wav
320,192,22112,1,0,0:0:0:0:
64,192,22175,1,0,0:0:0:70:VEC3 Snares 004.wav
448,192,22175,128,0,22362:0:0:0:0:
64,192,22362,1,0,0:0:0:70:VEC3 Snares 004.wav
192,192,22362,1,0,0:0:0:0:
320,192,22550,1,0,0:0:0:70:VEC3 Snares 004.wav
448,192,22550,128,0,22737:0:0:0:0:
64,192,22675,1,0,0:0:0:70:VEC3 Snares 004.wav
192,192,22675,1,0,0:0:0:0:
192,192,22862,1,0,0:0:0:70:VEC3 Snares 004.wav
320,192,22862,1,0,0:0:0:0:
64,192,22925,128,0,23018:0:0:0:70:VEC3 Snares 004.wav
448,192,22925,1,0,0:0:0:0:
192,192,23112,128,0,23206:0:0:0:70:VEC3 Snares 004.wav
320,192,23112,1,0,0:0:0:0:
64,192,23300,1,0,0:0:0:70:VEC3 Snares 004.wav
448,192,23300,128,0,23393:0:0:0:0:
192,192,23487,1,0,0:0:0:70:VEC3 Snares 004.wav
320,192,23487,128,0,23581:0:0:0:0:
64,192,23675,128,0,23768:0:0:0:70:VEC3 Snares 004.wav
448,192,23675,1,0,0:0:0:0:
320,192,23768,1,0,0:0:0:70:VEC3 Snares 004.wav
64,192,23862,1,0,0:0:0:60:VEC3 Snares 004.wav
192,192,23862,128,0,23956:0:0:0:0:
320,192,23956,1,0,0:0:0:60:VEC3 Snares 004.wav
64,192,24050,1,0,0:0:0:50:VEC3 Snares 004.wav
448,192,24050,128,0,24143:0:0:0:0:
192,192,24143,1,0,0:0:0:50:VEC3 Snares 004.wav
320,192,24237,128,0,24331:0:0:0:40:VEC3 Snares 004.wav
448,192,24237,1,0,0:0:0:0:
192,192,24331,1,0,0:0:0:40:VEC3 Snares 004.wav
64,192,24425,128,0,24612:0:0:0:50:LR4_BassLineLDRN.wav
448,192,24425,1,0,0:0:0:0:
64,192,24800,128,0,24987:0:0:0:0:
448,192,24800,128,0,25550:0:0:0:0:
64,192,25175,128,0,25362:0:0:0:0:
320,192,25175,128,0,25550:0:0:0:0:
64,192,25550,128,0,25643:0:0:0:0:
192,192,25550,128,0,25643:0:0:0:0:
64,192,25925,128,2,26206:0:0:0:0:
192,192,25925,128,4,26206:0:0:0:0:
448,192,25925,1,0,0:0:0:0:
64,192,26300,1,2,0:0:0:0:
320,192,26300,128,8,26581:0:0:0:0:
448,192,26300,128,0,26581:0:0:0:0:
64,192,26581,1,0,0:0:0:0:
192,192,26581,1,0,0:0:0:0:
320,192,26675,1,2,0:0:0:0:
448,192,26675,1,0,0:0:0:0:
64,192,26768,1,0,0:0:0:0:
192,192,26768,1,0,0:0:0:0:
320,192,26862,1,0,0:0:0:0:
448,192,26862,1,0,0:0:0:0:
192,192,27050,1,2,0:0:0:0:
448,192,27050,1,8,0:0:0:0:
64,192,27143,1,0,0:0:0:0:
320,192,27143,1,0,0:0:0:0:
192,192,27237,1,0,0:0:0:0:
448,192,27237,1,0,0:0:0:0:
64,192,27425,128,2,27518:0:0:0:0:
320,192,27425,1,0,0:0:0:0:
448,192,27425,1,0,0:0:0:0:
64,192,27612,128,0,27706:0:0:0:0:
320,192,27612,1,0,0:0:0:0:
64,192,27800,1,2,0:0:0:0:
192,192,27800,128,8,28081:0:0:0:0:
448,192,27800,128,0,28081:0:0:0:0:
64,192,28081,1,0,0:0:0:0:
320,192,28081,1,0,0:0:0:0:
192,192,28175,1,2,0:0:0:0:
448,192,28175,1,0,0:0:0:0:
64,192,28268,1,0,0:0:0:0:
320,192,28268,1,0,0:0:0:0:
192,192,28362,1,0,0:0:0:0:
448,192,28362,1,0,0:0:0:0:
320,192,28550,1,2,0:0:0:0:
448,192,28550,1,8,0:0:0:0:
64,192,28643,1,0,0:0:0:0:
192,192,28643,1,0,0:0:0:0:
320,192,28737,1,0,0:0:0:0:
448,192,28737,1,0,0:0:0:0:
64,192,28925,128,2,29300:0:0:0:0:
192,192,28925,128,0,29300:0:0:0:0:
448,192,28925,1,0,0:0:0:0:
320,192,29300,1,8,0:0:0:0:
448,192,29300,1,2,0:0:0:0:
64,192,29393,1,0,0:0:0:0:
192,192,29393,1,0,0:0:0:0:
320,192,29487,1,0,0:0:0:0:
448,192,29487,1,0,0:0:0:0:
192,192,29675,1,2,0:0:0:0:
320,192,29675,1,0,0:0:0:0:
64,192,29768,1,0,0:0:0:0:
448,192,29768,1,0,0:0:0:0:
192,192,29862,1,0,0:0:0:0:
320,192,29862,1,0,0:0:0:0:
64,192,30050,1,8,0:0:0:0:
192,192,30050,1,2,0:0:0:0:
320,192,30143,1,0,0:0:0:0:
448,192,30143,1,0,0:0:0:0:
64,192,30237,1,0,0:0:0:0:
192,192,30237,1,0,0:0:0:0:
320,192,30425,1,2,0:0:0:0:
448,192,30425,1,0,0:0:0:0:
64,192,30518,128,0,30612:0:0:0:0:
320,192,30612,128,0,30706:0:0:0:0:
64,192,30706,128,0,30800:0:0:0:0:
320,192,30800,1,8,0:0:0:0:
448,192,30800,128,2,30987:0:0:0:0:
192,192,30987,128,0,31175:0:0:0:0:
64,192,31175,128,2,31362:0:0:0:0:
448,192,31175,1,0,0:0:0:0:
320,192,31362,128,0,31550:0:0:0:0:
64,192,31550,1,8,0:0:0:0:
448,192,31550,128,2,31737:0:0:0:0:
192,192,31737,128,0,31925:0:0:0:0:
64,192,31925,1,2,0:0:0:0:
320,192,31925,128,0,32206:0:0:0:0:
448,192,31925,128,0,32206:0:0:0:0:
64,192,32300,128,2,32581:0:0:0:0:
192,192,32300,128,8,32581:0:0:0:0:
448,192,32300,1,0,0:0:0:0:
320,192,32581,1,0,0:0:0:0:
448,192,32581,1,0,0:0:0:0:
64,192,32675,1,2,0:0:0:0:
192,192,32675,1,0,0:0:0:0:
320,192,32768,1,0,0:0:0:0:
448,192,32768,1,0,0:0:0:0:
64,192,32862,1,0,0:0:0:0:
192,192,32862,1,0,0:0:0:0:
192,192,33050,1,2,0:0:0:0:
448,192,33050,1,8,0:0:0:0:
64,192,33143,1,0,0:0:0:0:
320,192,33143,1,0,0:0:0:0:
192,192,33237,1,0,0:0:0:0:
448,192,33237,1,0,0:0:0:0:
64,192,33425,1,2,0:0:0:0:
192,192,33425,1,0,0:0:0:0:
448,192,33425,128,0,33518:0:0:0:0:
192,192,33612,1,0,0:0:0:0:
448,192,33612,128,0,33706:0:0:0:0:
64,192,33800,128,2,34081:0:0:0:0:
320,192,33800,128,8,34081:0:0:0:0:
448,192,33800,1,0,0:0:0:0:
192,192,34081,1,0,0:0:0:0:
448,192,34081,1,0,0:0:0:0:
64,192,34175,1,2,0:0:0:0:
320,192,34175,1,0,0:0:0:0:
192,192,34268,1,0,0:0:0:0:
448,192,34268,1,0,0:0:0:0:
64,192,34362,1,0,0:0:0:0:
320,192,34362,1,0,0:0:0:0:
64,192,34550,1,2,0:0:0:0:
192,192,34550,1,8,0:0:0:0:
320,192,34643,1,0,0:0:0:0:
448,192,34643,1,0,0:0:0:0:
64,192,34737,1,0,0:0:0:0:
192,192,34737,1,0,0:0:0:0:
64,192,34925,1,2,0:0:0:0:
320,192,34925,1,0,0:0:0:0:
448,192,34925,128,0,35206:0:0:0:0:
320,192,35112,128,0,35206:0:0:0:0:
64,192,35300,128,8,35393:0:0:0:0:
192,192,35300,128,2,35393:0:0:0:0:
320,192,35300,1,0,0:0:0:0:
64,192,35487,1,0,0:0:0:0:
192,192,35581,1,0,0:0:0:0:
320,192,35581,128,0,35675:0:0:0:0:
448,192,35581,128,0,35675:0:0:0:0:
64,192,35675,1,2,0:0:0:0:
192,192,35862,1,0,0:0:0:0:
320,192,35862,128,0,35956:0:0:0:0:
448,192,35862,128,0,35956:0:0:0:0:
448,192,36050,1,10,0:0:0:0:
64,192,36143,128,0,36237:0:0:0:0:
192,192,36143,128,0,36237:0:0:0:0:
320,192,36143,1,0,0:0:0:0:
448,192,36237,1,0,0:0:0:0:
64,192,36425,1,2,0:0:0:0:
192,192,36425,1,0,0:0:0:0:
448,192,36425,1,0,0:0:0:0:
320,192,36612,1,0,0:0:0:0:
64,192,36706,1,0,0:0:0:0:
192,192,36706,1,0,0:0:0:0:
320,192,36800,1,8,0:0:0:0:
448,192,36800,128,2,36987:0:0:0:0:
64,192,36987,1,0,0:0:0:0:
192,192,36987,1,0,0:0:0:0:
320,192,37175,1,2,0:0:0:0:
448,192,37175,128,0,37362:0:0:0:0:
64,192,37268,1,0,0:0:0:0:
192,192,37268,1,0,0:0:0:0:
320,192,37362,1,0,0:0:0:0:
64,192,37550,1,8,0:0:0:0:
192,192,37550,1,2,0:0:0:0:
448,192,37550,128,0,37737:0:0:0:0:
320,192,37737,1,0,0:0:0:0:
192,192,37831,1,0,0:0:0:0:
64,192,37925,128,2,38206:0:0:0:0:
320,192,37925,128,4,38206:0:0:0:0:
448,192,37925,1,0,0:0:0:0:
64,192,38300,1,2,0:0:0:0:
192,192,38300,128,8,38581:0:0:0:0:
448,192,38300,128,0,38581:0:0:0:0:
64,192,38581,1,0,0:0:0:0:
320,192,38581,1,0,0:0:0:0:
192,192,38675,1,2,0:0:0:0:
448,192,38675,1,0,0:0:0:0:
64,192,38768,1,0,0:0:0:0:
320,192,38768,1,0,0:0:0:0:
192,192,38862,1,0,0:0:0:0:
448,192,38862,1,0,0:0:0:0:
320,192,39050,1,2,0:0:0:0:
448,192,39050,1,8,0:0:0:0:
64,192,39143,1,0,0:0:0:0:
192,192,39143,1,0,0:0:0:0:
320,192,39237,1,0,0:0:0:0:
448,192,39237,1,0,0:0:0:0:
64,192,39425,128,2,39518:0:0:0:0:
192,192,39425,1,0,0:0:0:0:
448,192,39425,1,0,0:0:0:0:
64,192,39612,128,0,39706:0:0:0:0:
192,192,39612,1,0,0:0:0:0:
64,192,39800,1,2,0:0:0:0:
320,192,39800,128,8,40081:0:0:0:0:
448,192,39800,128,0,40081:0:0:0:0:
64,192,40081,1,0,0:0:0:0:
192,192,40081,1,0,0:0:0:0:
320,192,40175,1,2,0:0:0:0:
448,192,40175,1,0,0:0:0:0:
64,192,40268,1,0,0:0:0:0:
192,192,40268,1,0,0:0:0:0:
320,192,40362,1,0,0:0:0:0:
448,192,40362,1,0,0:0:0:0:
192,192,40550,1,2,0:0:0:0:
448,192,40550,1,8,0:0:0:0:
64,192,40643,1,0,0:0:0:0:
320,192,40643,1,0,0:0:0:0:
192,192,40737,1,0,0:0:0:0:
448,192,40737,1,0,0:0:0:0:
64,192,40925,128,2,41300:0:0:0:0:
320,192,40925,128,0,41300:0:0:0:0:
448,192,40925,1,0,0:0:0:0:
192,192,41300,1,8,0:0:0:0:
448,192,41300,1,2,0:0:0:0:
64,192,41393,1,0,0:0:0:0:
320,192,41393,1,0,0:0:0:0:
192,192,41487,1,0,0:0:0:0:
448,192,41487,1,0,0:0:0:0:
64,192,41675,1,2,0:0:0:0:
448,192,41675,1,0,0:0:0:0:
192,192,41768,1,0,0:0:0:0:
320,192,41768,1,0,0:0:0:0:
64,192,41862,1,0,0:0:0:0:
448,192,41862,1,0,0:0:0:0:
64,192,42050,1,8,0:0:0:0:
320,192,42050,1,2,0:0:0:0:
192,192,42143,1,0,0:0:0:0:
448,192,42143,1,0,0:0:0:0:
64,192,42237,1,0,0:0:0:0:
320,192,42237,1,0,0:0:0:0:
192,192,42425,1,2,0:0:0:0:
448,192,42425,1,0,0:0:0:0:
320,192,42518,128,0,42612:0:0:0:0:
192,192,42612,128,0,42706:0:0:0:0:
320,192,42706,128,0,42800:0:0:0:0:
64,192,42800,1,8,0:0:0:0:
448,192,42800,128,2,42987:0:0:0:0:
320,192,42987,128,0,43175:0:0:0:0:
64,192,43175,128,2,43362:0:0:0:0:
448,192,43175,1,0,0:0:0:0:
192,192,43362,128,0,43550:0:0:0:0:
64,192,43550,1,8,0:0:0:0:
448,192,43550,128,2,43737:0:0:0:0:
320,192,43737,128,0,43925:0:0:0:0:
64,192,43925,1,4,0:0:0:0:
192,192,43925,128,2,44206:0:0:0:0:
448,192,43925,128,0,44206:0:0:0:0:
64,192,44300,128,8,44581:0:0:0:0:
320,192,44300,128,2,44581:0:0:0:0:
448,192,44300,1,0,0:0:0:0:
192,192,44581,1,0,0:0:0:0:
448,192,44581,1,0,0:0:0:0:
64,192,44675,1,2,0:0:0:0:
320,192,44675,1,0,0:0:0:0:
192,192,44768,1,0,0:0:0:0:
448,192,44768,1,0,0:0:0:0:
64,192,44862,1,0,0:0:0:0:
320,192,44862,1,0,0:0:0:0:
64,192,45050,1,8,0:0:0:0:
192,192,45050,1,2,0:0:0:0:
320,192,45143,1,0,0:0:0:0:
448,192,45143,1,0,0:0:0:0:
64,192,45237,1,0,0:0:0:0:
192,192,45237,1,0,0:0:0:0:
64,192,45425,1,2,0:0:0:0:
320,192,45425,1,4,0:0:0:0:
448,192,45425,128,0,45518:0:0:0:0:
320,192,45612,1,0,0:0:0:0:
448,192,45612,128,0,45706:0:0:0:0:
64,192,45800,128,8,46081:0:0:0:0:
192,192,45800,128,2,46081:0:0:0:0:
448,192,45800,1,0,0:0:0:0:
320,192,46081,1,0,0:0:0:0:
448,192,46081,1,0,0:0:0:0:
64,192,46175,1,2,0:0:0:0:
192,192,46175,1,0,0:0:0:0:
320,192,46268,1,0,0:0:0:0:
448,192,46268,1,0,0:0:0:0:
64,192,46362,1,0,0:0:0:0:
192,192,46362,1,0,0:0:0:0:
64,192,46550,1,8,0:0:0:0:
320,192,46550,1,2,0:0:0:0:
192,192,46643,1,0,0:0:0:0:
448,192,46643,1,0,0:0:0:0:
64,192,46737,1,0,0:0:0:0:
320,192,46737,1,0,0:0:0:0:
64,192,46925,128,2,47112:0:0:0:0:
192,192,46925,1,4,0:0:0:0:
448,192,46925,1,0,0:0:0:0:
320,192,47112,1,0,0:0:0:0:
64,192,47300,128,2,47393:0:0:0:0:
192,192,47300,1,8,0:0:0:0:
448,192,47300,128,0,47487:0:0:0:0:
192,192,47487,128,0,47581:0:0:0:0:
64,192,47675,128,2,47768:0:0:0:0:
320,192,47675,1,4,0:0:0:0:
448,192,47675,128,0,47862:0:0:0:0:
192,192,47862,128,0,47956:0:0:0:0:
64,192,48050,128,2,48143:0:0:0:0:
192,192,48050,1,8,0:0:0:0:
448,192,48050,128,0,48237:0:0:0:0:
192,192,48237,128,2,48331:0:0:0:0:
320,192,48237,1,8,0:0:0:0:
64,192,48425,1,4,0:0:0:0:
192,192,48425,1,0,0:0:0:70:LR_Drum Kick Low.wav
448,192,48425,128,0,48612:0:0:0:0:
64,192,48706,1,0,0:0:0:70:LR_Drum Kick Low.wav
192,192,48706,1,0,0:0:0:0:
448,192,48800,128,0,48987:0:0:0:70:LR_Drum Kick Low.wav
64,192,48987,1,0,0:0:0:70:LR_Drum Kick Low.wav
192,192,48987,1,0,0:0:0:0:
448,192,49175,128,0,49362:0:0:0:0:
64,192,49268,1,0,0:0:0:70:LR_Drum Kick Low.wav
192,192,49268,1,0,0:0:0:0:
448,192,49456,1,0,0:0:0:0:
64,192,49550,1,0,0:0:0:70:LR4_SnareBPDT.wav
192,192,49550,1,0,0:0:0:0:
320,192,49550,128,0,49737:0:0:0:0:
192,192,49737,1,0,0:0:0:0:
64,192,49925,1,4,0:0:0:0:
320,192,49925,1,2,0:0:0:0:
448,192,49925,1,0,0:0:0:0:
192,192,50018,1,0,0:0:0:0:
64,192,50112,128,0,50300:0:0:0:0:
192,192,50300,1,0,0:0:0:0:
320,192,50393,1,0,0:0:0:0:
448,192,50487,128,0,50675:0:0:0:0:
64,192,50675,1,0,0:0:0:0:
320,192,50768,1,0,0:0:0:0:
192,192,50862,1,0,0:0:0:0:
64,192,50956,128,0,51143:0:0:0:0:
192,192,51143,1,0,0:0:0:0:
320,192,51237,1,0,0:0:0:0:
448,192,51331,1,0,0:0:0:0:
64,192,51425,1,0,0:0:0:0:
320,192,51518,1,0,0:0:0:0:
192,192,51612,1,0,0:0:0:0:
64,192,51706,128,0,51893:0:0:0:0:
320,192,51893,128,0,52081:0:0:0:0:
192,192,52081,128,0,52268:0:0:0:0:
320,192,52268,1,0,0:0:0:0:
448,192,52362,128,0,52550:0:0:0:0:
192,192,52550,1,0,0:0:0:0:
320,192,52643,1,0,0:0:0:0:
448,192,52737,1,0,0:0:0:0:
64,192,52831,1,0,0:0:0:0:
320,192,52925,1,0,0:0:0:0:
192,192,53018,1,0,0:0:0:0:
64,192,53112,128,0,53300:0:0:0:0:
192,192,53300,1,0,0:0:0:0:
320,192,53393,1,0,0:0:0:0:
448,192,53487,128,0,53675:0:0:0:0:
64,192,53675,1,0,0:0:0:0:
320,192,53768,1,0,0:0:0:0:
192,192,53862,1,0,0:0:0:0:
64,192,53956,128,0,54143:0:0:0:0:
192,192,54143,1,0,0:0:0:0:
320,192,54237,1,0,0:0:0:0:
448,192,54331,1,0,0:0:0:0:
64,192,54425,1,0,0:0:0:0:
320,192,54518,1,0,0:0:0:0:
192,192,54612,1,0,0:0:0:0:
64,192,54706,128,0,54893:0:0:0:0:
320,192,54893,128,0,55081:0:0:0:0:
192,192,55081,128,0,55268:0:0:0:0:
320,192,55268,1,0,0:0:0:0:
448,192,55362,128,0,55550:0:0:0:0:
64,192,55550,1,0,0:0:0:0:
192,192,55643,1,0,0:0:0:0:
320,192,55737,1,0,0:0:0:0:
448,192,55831,1,0,0:0:0:0:
320,192,55925,1,0,0:0:0:0:
192,192,56018,1,0,0:0:0:0:
64,192,56112,128,0,56300:0:0:0:0:
192,192,56300,1,8,0:0:0:0:
448,192,56300,1,0,0:0:0:0:
320,192,56393,1,0,0:0:0:0:
448,192,56487,128,0,56675:0:0:0:0:
64,192,56675,1,0,0:0:0:0:
320,192,56768,1,0,0:0:0:0:
192,192,56862,1,0,0:0:0:0:
64,192,56956,128,0,57143:0:0:0:0:
448,192,57050,1,8,0:0:0:0:
192,192,57143,1,0,0:0:0:0:
320,192,57237,1,0,0:0:0:0:
448,192,57331,1,0,0:0:0:0:
64,192,57425,1,0,0:0:0:0:
320,192,57518,1,0,0:0:0:0:
192,192,57612,1,0,0:0:0:0:
64,192,57706,128,0,57893:0:0:0:0:
448,192,57800,1,8,0:0:0:0:
320,192,57893,128,0,58081:0:0:0:0:
192,192,58081,128,0,58268:0:0:0:0:
320,192,58268,1,0,0:0:0:0:
448,192,58362,128,0,58550:0:0:0:0:
64,192,58550,1,8,0:0:0:0:
192,192,58550,1,0,0:0:0:0:
320,192,58643,1,0,0:0:0:0:
448,192,58737,1,0,0:0:0:0:
64,192,58831,1,0,0:0:0:0:
320,192,58925,1,0,0:0:0:0:
192,192,59018,1,0,0:0:0:0:
64,192,59112,128,0,59300:0:0:0:0:
192,192,59300,1,8,0:0:0:0:
448,192,59300,1,0,0:0:0:0:
320,192,59393,1,0,0:0:0:0:
448,192,59487,128,0,59675:0:0:0:0:
64,192,59675,1,0,0:0:0:0:
320,192,59768,1,0,0:0:0:0:
192,192,59862,1,0,0:0:0:0:
64,192,59956,128,0,60143:0:0:0:0:
448,192,60050,1,8,0:0:0:0:
192,192,60143,1,0,0:0:0:0:
320,192,60237,1,0,0:0:0:0:
448,192,60331,1,0,0:0:0:0:
64,192,60425,1,0,0:0:0:50:LR_Drum Kick Low.wav
192,192,60425,1,0,0:0:0:0:
320,192,60518,1,0,0:0:0:0:
448,192,60612,1,0,0:0:0:50:LR_Drum Kick Low.wav
64,192,60706,1,0,0:0:0:0:
192,192,60706,1,0,0:0:0:0:
320,192,60800,1,8,0:0:0:0:
64,192,60893,1,0,0:0:0:50:LR_Drum Kick Low.wav
320,192,60987,1,0,0:0:0:0:
448,192,60987,1,0,0:0:0:0:
192,192,61081,1,0,0:0:0:0:
64,192,61175,1,0,0:0:0:0:
320,192,61268,1,0,0:0:0:50:LR_Drum Kick Low.wav
448,192,61268,1,0,0:0:0:0:
192,192,61362,1,0,0:0:0:50:LR_Drum Kick Low.wav
448,192,61456,1,0,0:0:0:50:LR_Drum Kick Low.wav
64,192,61550,1,0,0:0:0:50:VEC3 Snares 004.wav
192,192,61550,1,0,0:0:0:0:
320,192,61643,1,0,0:0:0:50:VEC3 Snares 004.wav
448,192,61643,1,0,0:0:0:0:
64,192,61737,1,0,0:0:0:50:LR_Drum Kick Low.wav
192,192,61737,1,0,0:0:0:0:
320,192,61831,1,0,0:0:0:50:LR_Drum Kick Low.wav
448,192,61831,1,0,0:0:0:0:
64,192,61925,1,4,0:0:0:0:
192,192,61925,1,2,0:0:0:0:
320,192,62018,1,0,0:0:0:0:
64,192,62112,1,0,0:0:0:0:
448,192,62112,1,0,0:0:0:0:
64,192,62300,128,2,62487:0:0:0:0:
192,192,62300,1,0,0:0:0:0:
320,192,62393,1,0,0:0:0:0:
448,192,62487,1,0,0:0:0:0:
320,192,62675,1,2,0:0:0:0:
448,192,62675,128,0,62862:0:0:0:0:
192,192,62768,1,0,0:0:0:0:
64,192,62862,1,0,0:0:0:0:
320,192,63050,1,2,0:0:0:0:
448,192,63050,128,0,63237:0:0:0:0:
192,192,63143,1,0,0:0:0:0:
64,192,63237,1,0,0:0:0:0:
64,192,63425,128,2,63612:0:0:0:0:
192,192,63425,1,0,0:0:0:0:
320,192,63518,1,0,0:0:0:0:
448,192,63612,1,0,0:0:0:0:
64,192,63800,128,2,63987:0:0:0:0:
192,192,63800,1,0,0:0:0:0:
320,192,63893,1,0,0:0:0:0:
448,192,63987,1,0,0:0:0:0:
320,192,64175,1,2,0:0:0:0:
448,192,64175,128,0,64362:0:0:0:0:
192,192,64268,1,0,0:0:0:0:
64,192,64362,1,0,0:0:0:0:
320,192,64550,1,2,0:0:0:0:
448,192,64550,128,0,64737:0:0:0:0:
192,192,64643,1,0,0:0:0:0:
64,192,64737,1,0,0:0:0:0:
320,192,64925,1,2,0:0:0:0:
448,192,64925,1,0,0:0:0:0:
192,192,65018,1,0,0:0:0:0:
64,192,65112,1,0,0:0:0:0:
448,192,65112,1,0,0:0:0:0:
320,192,65300,1,2,0:0:0:0:
448,192,65300,128,0,65487:0:0:0:0:
192,192,65393,1,0,0:0:0:0:
64,192,65487,1,0,0:0:0:0:
64,192,65675,128,2,65862:0:0:0:0:
192,192,65675,1,0,0:0:0:0:
320,192,65768,1,0,0:0:0:0:
448,192,65862,1,0,0:0:0:0:
64,192,66050,128,2,66237:0:0:0:0:
192,192,66050,1,0,0:0:0:0:
320,192,66143,1,0,0:0:0:0:
448,192,66237,1,0,0:0:0:0:
320,192,66425,1,2,0:0:0:0:
448,192,66425,128,0,66612:0:0:0:0:
192,192,66518,1,0,0:0:0:0:
64,192,66612,1,0,0:0:0:0:
320,192,66800,1,2,0:0:0:0:
448,192,66800,128,0,66987:0:0:0:0:
192,192,66893,1,0,0:0:0:0:
64,192,66987,1,0,0:0:0:0:
64,192,67175,128,2,67362:0:0:0:0:
192,192,67175,1,0,0:0:0:0:
320,192,67268,1,0,0:0:0:0:
448,192,67362,1,0,0:0:0:0:
64,192,67550,1,2,0:0:0:0:
192,192,67550,1,0,0:0:0:0:
320,192,67643,1,0,0:0:0:0:
64,192,67737,1,0,0:0:0:0:
448,192,67737,1,0,0:0:0:0:
192,192,67831,1,0,0:0:0:0:
320,192,67925,1,2,0:0:0:0:
448,192,67925,1,0,0:0:0:0:
64,192,68018,1,0,0:0:0:0:
192,192,68112,1,0,0:0:0:0:
320,192,68112,1,0,0:0:0:0:
320,192,68300,128,2,68487:0:0:0:0:
448,192,68300,1,0,0:0:0:0:
64,192,68393,1,0,0:0:0:0:
192,192,68487,1,0,0:0:0:0:
64,192,68675,1,2,0:0:0:0:
192,192,68675,128,0,68862:0:0:0:0:
448,192,68768,1,0,0:0:0:0:
320,192,68862,1,0,0:0:0:0:
64,192,69050,1,2,0:0:0:0:
192,192,69050,128,0,69237:0:0:0:0:
448,192,69143,1,0,0:0:0:0:
320,192,69237,1,0,0:0:0:0:
320,192,69425,128,2,69612:0:0:0:0:
448,192,69425,1,0,0:0:0:0:
64,192,69518,1,0,0:0:0:0:
192,192,69612,1,0,0:0:0:0:
320,192,69800,128,2,69987:0:0:0:0:
448,192,69800,1,0,0:0:0:0:
64,192,69893,1,0,0:0:0:0:
192,192,69987,1,0,0:0:0:0:
64,192,70175,1,2,0:0:0:0:
192,192,70175,128,0,70362:0:0:0:0:
448,192,70268,1,0,0:0:0:0:
320,192,70362,1,0,0:0:0:0:
64,192,70550,1,2,0:0:0:0:
192,192,70550,128,0,70737:0:0:0:0:
448,192,70643,1,0,0:0:0:0:
320,192,70737,1,0,0:0:0:0:
320,192,70925,1,2,0:0:0:0:
448,192,70925,1,0,0:0:0:0:
64,192,71018,1,0,0:0:0:0:
192,192,71112,1,0,0:0:0:0:
320,192,71112,1,0,0:0:0:0:
320,192,71300,128,2,71487:0:0:0:0:
448,192,71300,1,0,0:0:0:0:
64,192,71393,1,0,0:0:0:0:
192,192,71487,1,0,0:0:0:0:
64,192,71675,1,2,0:0:0:0:
192,192,71675,128,0,71862:0:0:0:0:
448,192,71768,1,0,0:0:0:0:
320,192,71862,1,0,0:0:0:0:
64,192,72050,1,2,0:0:0:0:
192,192,72050,128,0,72237:0:0:0:0:
448,192,72143,1,0,0:0:0:0:
320,192,72237,1,0,0:0:0:0:
64,192,72425,128,2,72612:0:0:0:0:
448,192,72425,1,0,0:0:0:0:
64,192,72800,1,0,0:0:0:0:
448,192,72800,128,0,72987:0:0:0:0:
192,192,72893,1,0,0:0:0:0:
320,192,72987,1,0,0:0:0:0:
192,192,73081,1,0,0:0:0:0:
64,192,73175,128,2,73362:0:0:0:0:
448,192,73175,1,0,0:0:0:0:
64,192,73456,1,0,0:0:0:70:LR_Drum Kick Low.wav
192,192,73456,1,0,0:0:0:0:
320,192,73550,1,0,0:0:0:0:
448,192,73550,128,0,73737:0:0:0:0:
64,192,73737,1,2,0:0:0:0:
192,192,73737,1,0,0:0:0:0:
64,192,73925,128,2,74112:0:0:0:0:
320,192,73925,1,4,0:0:0:0:
448,192,73925,1,0,0:0:0:70:VEC3 Snares 004.wav
320,192,74112,1,0,0:0:0:70:VEC3 Snares 004.wav
448,192,74112,1,0,0:0:0:0:
64,192,74300,128,0,74487:0:0:0:70:VEC3 Snares 004.wav
320,192,74300,1,0,0:0:0:0:
448,192,74300,1,0,0:0:0:0:
320,192,74487,1,0,0:0:0:70:VEC3 Snares 004.wav
448,192,74487,1,0,0:0:0:0:
64,192,74675,1,0,0:0:0:70:VEC3 Snares 004.wav
192,192,74675,1,0,0:0:0:0:
448,192,74675,128,0,74862:0:0:0:0:
64,192,74862,1,0,0:0:0:60:VEC3 Snares 004.wav
192,192,74862,1,0,0:0:0:0:
320,192,74956,1,0,0:0:0:0:
64,192,75050,1,0,0:0:0:50:VEC3 Snares 004.wav
192,192,75050,1,0,0:0:0:0:
448,192,75050,128,0,75237:0:0:0:0:
64,192,75237,1,0,0:0:0:40:VEC3 Snares 004.wav
192,192,75237,1,0,0:0:0:0:
64,192,75425,128,0,75612:0:0:0:70:VEC3 Snares 004.wav
320,192,75425,1,0,0:0:0:0:
448,192,75425,1,0,0:0:0:0:
320,192,75612,1,0,0:0:0:70:VEC3 Snares 004.wav
448,192,75612,1,0,0:0:0:0:
64,192,75800,128,0,75987:0:0:0:70:VEC3 Snares 004.wav
320,192,75800,1,0,0:0:0:0:
448,192,75800,1,0,0:0:0:0:
320,192,75987,1,0,0:0:0:70:VEC3 Snares 004.wav
448,192,75987,1,0,0:0:0:0:
64,192,76175,1,0,0:0:0:70:VEC3 Snares 004.wav
192,192,76175,1,0,0:0:0:0:
448,192,76175,128,0,76362:0:0:0:0:
64,192,76362,1,0,0:0:0:60:VEC3 Snares 004.wav
192,192,76362,1,0,0:0:0:0:
320,192,76456,1,0,0:0:0:0:
64,192,76550,1,0,0:0:0:50:VEC3 Snares 004.wav
192,192,76550,1,0,0:0:0:0:
448,192,76550,128,0,76737:0:0:0:0:
64,192,76737,1,0,0:0:0:40:VEC3 Snares 004.wav
192,192,76737,1,0,0:0:0:0:
64,192,76925,128,4,77112:0:0:0:0:
192,192,76925,1,0,0:0:0:70:VEC3 Snares 004.wav
448,192,76925,1,0,0:0:0:0:
192,192,77112,1,0,0:0:0:70:VEC3 Snares 004.wav
448,192,77112,1,0,0:0:0:0:
64,192,77300,128,0,77487:0:0:0:70:VEC3 Snares 004.wav
192,192,77300,1,0,0:0:0:0:
448,192,77300,1,0,0:0:0:0:
192,192,77487,1,0,0:0:0:70:VEC3 Snares 004.wav
448,192,77487,1,0,0:0:0:0:
64,192,77675,1,0,0:0:0:70:VEC3 Snares 004.wav
320,192,77675,1,0,0:0:0:0:
448,192,77675,128,0,77862:0:0:0:0:
64,192,77862,1,0,0:0:0:60:VEC3 Snares 004.wav
320,192,77862,1,0,0:0:0:0:
192,192,77956,1,0,0:0:0:0:
64,192,78050,1,0,0:0:0:50:VEC3 Snares 004.wav
320,192,78050,1,0,0:0:0:0:
448,192,78050,128,0,78237:0:0:0:0:
64,192,78237,1,0,0:0:0:40:VEC3 Snares 004.wav
320,192,78237,1,0,0:0:0:0:
64,192,78425,128,0,78612:0:0:0:70:VEC3 Snares 004.wav
192,192,78425,1,0,0:0:0:0:
448,192,78425,1,0,0:0:0:0:
192,192,78612,1,0,0:0:0:70:VEC3 Snares 004.wav
448,192,78612,1,0,0:0:0:0:
64,192,78800,128,0,78987:0:0:0:70:VEC3 Snares 004.wav
192,192,78800,1,0,0:0:0:0:
448,192,78800,1,0,0:0:0:0:
192,192,78987,1,0,0:0:0:70:VEC3 Snares 004.wav
448,192,78987,1,0,0:0:0:0:
64,192,79175,1,0,0:0:0:70:VEC3 Snares 004.wav
320,192,79175,1,0,0:0:0:0:
448,192,79175,128,0,79362:0:0:0:0:
64,192,79362,128,0,79456:0:0:0:70:LR_Drum Kick Low.wav
320,192,79362,1,0,0:0:0:0:
192,192,79456,128,0,79550:0:0:0:0:
64,192,79550,1,0,0:0:0:70:LR4_SnareBPDT.wav
320,192,79550,128,0,79737:0:0:0:0:
448,192,79550,1,0,0:0:0:0:
64,192,79925,1,4,0:0:0:0:
192,192,79925,1,0,0:0:0:70:VEC3 Snares 004.wav
448,192,79925,128,0,80112:0:0:0:0:
64,192,80112,1,0,0:0:0:70:VEC3 Snares 004.wav
320,192,80112,1,0,0:0:0:0:
192,192,80206,1,0,0:0:0:70:VEC3 Snares 004.wav
448,192,80206,1,0,0:0:0:0:
192,192,80393,1,0,0:0:0:70:VEC3 Snares 004.wav
320,192,80393,1,0,0:0:0:0:
64,192,80487,1,0,0:0:0:70:VEC3 Snares 004.wav
448,192,80487,1,0,0:0:0:0:
192,192,80581,1,0,0:0:0:70:VEC3 Snares 004.wav
320,192,80581,1,0,0:0:0:0:
64,192,80675,128,0,80862:0:0:0:70:VEC3 Snares 004.wav
448,192,80675,1,0,0:0:0:0:
192,192,80862,1,0,0:0:0:70:VEC3 Snares 004.wav
448,192,80862,1,0,0:0:0:0:
64,192,80956,1,0,0:0:0:70:VEC3 Snares 004.wav
320,192,80956,1,0,0:0:0:0:
64,192,81143,1,0,0:0:0:70:VEC3 Snares 004.wav
448,192,81143,1,0,0:0:0:0:
192,192,81237,1,0,0:0:0:70:VEC3 Snares 004.wav
320,192,81237,1,0,0:0:0:0:
64,192,81331,1,0,0:0:0:70:VEC3 Snares 004.wav
448,192,81331,1,0,0:0:0:0:
192,192,81425,1,0,0:0:0:70:VEC3 Snares 004.wav
320,192,81425,128,0,81612:0:0:0:0:
64,192,81612,1,0,0:0:0:70:VEC3 Snares 004.wav
192,192,81612,1,0,0:0:0:0:
320,192,81706,1,0,0:0:0:70:VEC3 Snares 004.wav
448,192,81706,1,0,0:0:0:0:
64,192,81893,1,0,0:0:0:70:VEC3 Snares 004.wav
448,192,81893,1,0,0:0:0:0:
192,192,81987,1,0,0:0:0:70:VEC3 Snares 004.wav
320,192,81987,1,0,0:0:0:0:
64,192,82081,1,0,0:0:0:70:VEC3 Snares 004.wav
448,192,82081,1,0,0:0:0:0:
192,192,82175,128,0,82362:0:0:0:60:VEC3 Snares 004.wav
320,192,82175,1,0,0:0:0:0:
320,192,82362,1,0,0:0:0:60:VEC3 Snares 004.wav
448,192,82362,1,0,0:0:0:0:
64,192,82456,1,0,0:0:0:60:VEC3 Snares 004.wav
192,192,82456,1,0,0:0:0:0:
192,192,82643,1,0,0:0:0:60:VEC3 Snares 004.wav
320,192,82643,1,0,0:0:0:0:
64,192,82737,1,0,0:0:0:60:VEC3 Snares 004.wav
448,192,82737,1,0,0:0:0:0:
192,192,82831,1,0,0:0:0:60:VEC3 Snares 004.wav
320,192,82831,1,0,0:0:0:0:
64,192,82925,1,0,0:0:0:50:VEC3 Snares 004.wav
448,192,82925,1,0,0:0:0:0:
192,192,83018,1,0,0:0:0:50:VEC3 Snares 004.wav
320,192,83112,1,0,0:0:0:50:VEC3 Snares 004.wav
64,192,83112,1,0,0:0:0:0:
192,192,83206,1,0,0:0:0:50:VEC3 Snares 004.wav
64,192,83300,1,0,0:0:0:40:VEC3 Snares 004.wav
448,192,83300,1,0,0:0:0:0:
320,192,83393,1,0,0:0:0:40:VEC3 Snares 004.wav
192,192,83487,1,0,0:0:0:40:VEC3 Snares 004.wav
448,192,83487,1,0,0:0:0:0:
320,192,83581,1,0,0:0:0:40:VEC3 Snares 004.wav
64,192,83675,1,0,0:0:0:40:VEC3 Snares 004.wav
448,192,83675,1,0,0:0:0:0:
192,192,83768,1,0,0:0:0:40:VEC3 Snares 004.wav
320,192,83768,1,0,0:0:0:0:
64,192,83862,1,0,0:0:0:40:VEC3 Snares 004.wav
448,192,83862,1,0,0:0:0:0:
192,192,83956,1,0,0:0:0:40:VEC3 Snares 004.wav
320,192,83956,1,0,0:0:0:0:
64,192,84050,1,0,0:0:0:40:VEC3 Snares 004.wav
448,192,84050,1,0,0:0:0:0:
192,192,84143,1,0,0:0:0:40:VEC3 Snares 004.wav
320,192,84143,1,0,0:0:0:0:
64,192,84237,1,0,0:0:0:40:VEC3 Snares 004.wav
448,192,84237,1,0,0:0:0:0:
192,192,84331,1,0,0:0:0:40:VEC3 Snares 004.wav
320,192,84331,1,0,0:0:0:0:
64,192,84425,128,0,84518:0:0:0:50:LR4_BassLineLDRN.wav
448,192,84425,1,0,0:0:0:0:
64,192,84612,128,0,84706:0:0:0:0:
64,192,84800,128,0,85550:0:0:0:0:
320,192,85175,1,0,0:0:0:0:
448,192,85175,128,0,85550:0:0:0:0:
192,192,85300,1,0,0:0:0:0:
320,192,85425,1,0,0:0:0:0:
192,192,85550,1,0,0:0:0:0:
64,192,85925,1,2,0:0:0:0:
320,192,85925,128,4,86206:0:0:0:0:
448,192,85925,128,0,86206:0:0:0:0:
64,192,86300,128,0,86393:0:0:0:0:
448,192,86300,128,0,86393:0:0:0:0:
64,192,86487,128,0,86581:0:0:0:0:
448,192,86487,128,0,86581:0:0:0:0:
64,192,86675,1,0,0:0:0:70:S1.wav
320,192,86675,1,0,0:0:0:0:
448,192,86675,1,0,0:0:0:0:
192,192,86768,128,0,86862:0:0:0:0:
320,192,86862,128,0,87050:0:0:0:0:
448,192,86862,128,0,87050:0:0:0:0:
64,192,87050,128,0,87143:0:0:0:0:
192,192,87050,128,0,87143:0:0:0:0:
320,192,87237,128,0,87331:0:0:0:0:
448,192,87237,128,0,87331:0:0:0:0:
64,192,87425,1,2,0:0:0:0:
192,192,87425,1,0,0:0:0:0:
448,192,87425,1,0,0:0:0:0:
320,192,87518,128,0,87612:0:0:0:0:
64,192,87612,128,0,87800:0:0:0:0:
192,192,87612,128,0,87800:0:0:0:0:
320,192,87800,128,2,87893:0:0:0:0:
448,192,87800,128,8,87893:0:0:0:0:
64,192,87987,128,0,88081:0:0:0:0:
192,192,87987,128,0,88081:0:0:0:0:
64,192,88175,1,0,0:0:0:70:S1.wav
320,192,88175,1,0,0:0:0:0:
448,192,88175,1,0,0:0:0:0:
192,192,88268,128,0,88362:0:0:0:0:
64,192,88362,1,0,0:0:0:0:
448,192,88362,128,0,88456:0:0:0:0:
320,192,88456,128,0,88550:0:0:0:0:
64,192,88550,128,0,88643:0:0:0:0:
192,192,88550,128,0,88643:0:0:0:0:
320,192,88737,128,0,88831:0:0:0:0:
448,192,88737,128,0,88831:0:0:0:0:
64,192,88925,1,2,0:0:0:0:
192,192,88925,128,0,89206:0:0:0:0:
448,192,88925,128,0,89206:0:0:0:0:
192,192,89300,128,0,89393:0:0:0:0:
448,192,89300,128,0,89393:0:0:0:0:
192,192,89487,128,0,89581:0:0:0:0:
448,192,89487,128,0,89581:0:0:0:0:
64,192,89675,128,0,89768:0:0:0:70:S1.wav
320,192,89675,128,0,89768:0:0:0:0:
448,192,89675,1,0,0:0:0:0:
64,192,89862,128,0,89956:0:0:0:0:
320,192,89862,128,0,89956:0:0:0:0:
64,192,90050,128,0,90143:0:0:0:0:
320,192,90050,128,0,90143:0:0:0:0:
64,192,90425,1,2,0:0:0:0:
192,192,90425,128,0,90518:0:0:0:0:
448,192,90425,128,0,90518:0:0:0:0:
192,192,90612,128,0,90706:0:0:0:0:
448,192,90612,128,0,90706:0:0:0:0:
64,192,90706,1,2,0:0:0:0:
192,192,90800,128,8,90893:0:0:0:0:
448,192,90800,128,0,90893:0:0:0:0:
64,192,90987,1,2,0:0:0:0:
64,192,91175,128,0,91268:0:0:0:70:S1.wav
320,192,91175,128,0,91268:0:0:0:0:
448,192,91175,1,0,0:0:0:0:
64,192,91362,128,0,91456:0:0:0:0:
320,192,91362,128,0,91456:0:0:0:0:
64,192,91550,128,0,91643:0:0:0:0:
320,192,91550,128,0,91925:0:0:0:0:
64,192,91925,128,2,92206:0:0:0:0:
192,192,91925,128,0,92206:0:0:0:0:
448,192,91925,1,0,0:0:0:0:
64,192,92300,128,0,92393:0:0:0:0:
448,192,92300,128,0,92393:0:0:0:0:
64,192,92487,128,0,92581:0:0:0:0:
448,192,92487,128,0,92581:0:0:0:0:
64,192,92675,1,0,0:0:0:70:S1.wav
192,192,92675,1,0,0:0:0:0:
448,192,92675,1,0,0:0:0:0:
320,192,92768,128,0,92862:0:0:0:0:
64,192,92862,128,0,93050:0:0:0:0:
192,192,92862,128,0,93050:0:0:0:0:
320,192,93050,128,0,93143:0:0:0:0:
448,192,93050,128,0,93143:0:0:0:0:
64,192,93237,128,0,93331:0:0:0:0:
192,192,93237,128,0,93331:0:0:0:0:
64,192,93425,1,2,0:0:0:0:
320,192,93425,1,0,0:0:0:0:
448,192,93425,1,0,0:0:0:0:
192,192,93518,128,0,93612:0:0:0:0:
320,192,93612,128,0,93800:0:0:0:0:
448,192,93612,128,0,93800:0:0:0:0:
64,192,93800,128,2,93893:0:0:0:0:
192,192,93800,128,8,93893:0:0:0:0:
320,192,93987,128,0,94081:0:0:0:0:
448,192,93987,128,0,94081:0:0:0:0:
64,192,94175,1,0,0:0:0:70:S1.wav
192,192,94175,1,0,0:0:0:0:
448,192,94175,1,0,0:0:0:0:
320,192,94268,128,0,94362:0:0:0:0:
64,192,94362,128,0,94550:0:0:0:0:
192,192,94362,128,0,94550:0:0:0:0:
448,192,94550,128,8,94643:0:0:0:0:
320,192,94643,128,0,94737:0:0:0:0:
448,192,94737,128,0,94831:0:0:0:0:
320,192,94831,128,0,94925:0:0:0:0:
64,192,94925,128,2,95206:0:0:0:0:
192,192,94925,1,0,0:0:0:0:
448,192,94925,1,0,0:0:0:0:
192,192,95112,128,0,95206:0:0:0:0:
192,192,95300,1,0,0:0:0:0:
320,192,95300,128,0,95393:0:0:0:0:
448,192,95300,128,0,95393:0:0:0:0:
448,192,95487,1,0,0:0:0:0:
64,192,95581,128,0,95675:0:0:0:0:
192,192,95581,128,0,95675:0:0:0:0:
320,192,95581,1,0,0:0:0:0:
448,192,95675,1,0,0:0:0:70:S1.wav
64,192,95862,128,0,95956:0:0:0:0:
192,192,95862,128,0,95956:0:0:0:0:
320,192,95862,1,0,0:0:0:0:
64,192,96050,1,8,0:0:0:0:
192,192,96143,1,0,0:0:0:0:
320,192,96143,128,0,96237:0:0:0:0:
448,192,96143,128,0,96237:0:0:0:0:
64,192,96237,1,0,0:0:0:0:
64,192,96425,1,2,0:0:0:0:
320,192,96425,1,0,0:0:0:0:
448,192,96425,1,0,0:0:0:0:
192,192,96612,1,0,0:0:0:0:
320,192,96706,1,0,0:0:0:0:
448,192,96706,1,0,0:0:0:0:
64,192,96800,128,2,96987:0:0:0:0:
192,192,96800,1,8,0:0:0:0:
320,192,96987,1,0,0:0:0:0:
448,192,96987,1,0,0:0:0:0:
64,192,97175,128,2,97362:0:0:0:0:
192,192,97175,1,0,0:0:0:0:
320,192,97268,1,0,0:0:0:0:
448,192,97268,1,0,0:0:0:0:
192,192,97362,1,0,0:0:0:0:
64,192,97550,128,2,97737:0:0:0:0:
320,192,97550,1,4,0:0:0:0:
448,192,97550,1,0,0:0:0:0:
192,192,97737,1,0,0:0:0:0:
320,192,97831,1,0,0:0:0:0:
64,192,97925,1,0,0:0:0:0:
192,192,97925,128,0,98206:0:0:0:0:
448,192,97925,128,0,98206:0:0:0:0:
64,192,98300,128,4,98581:0:0:0:0:
320,192,98300,128,2,98581:0:0:0:0:
448,192,98300,1,8,0:0:0:0:
192,192,98581,1,0,0:0:0:0:
448,192,98581,1,0,0:0:0:0:
64,192,98675,1,2,0:0:0:0:
320,192,98675,1,0,0:0:0:0:
192,192,98768,1,0,0:0:0:0:
448,192,98768,1,0,0:0:0:0:
64,192,98862,1,0,0:0:0:0:
320,192,98862,1,0,0:0:0:0:
64,192,99050,1,8,0:0:0:0:
192,192,99050,1,2,0:0:0:0:
320,192,99143,1,0,0:0:0:0:
448,192,99143,1,0,0:0:0:0:
64,192,99237,1,0,0:0:0:0:
192,192,99237,1,0,0:0:0:0:
192,192,99425,1,2,0:0:0:0:
448,192,99425,1,0,0:0:0:0:
64,192,99518,1,0,0:0:0:0:
320,192,99518,1,0,0:0:0:0:
192,192,99612,1,0,0:0:0:0:
448,192,99612,1,0,0:0:0:0:
320,192,99800,1,8,0:0:0:0:
448,192,99800,1,2,0:0:0:0:
64,192,99893,1,0,0:0:0:0:
192,192,99893,1,0,0:0:0:0:
320,192,99987,1,0,0:0:0:0:
448,192,99987,1,0,0:0:0:0:
64,192,100175,1,2,0:0:0:0:
320,192,100175,1,0,0:0:0:0:
192,192,100268,1,0,0:0:0:0:
448,192,100268,1,0,0:0:0:0:
64,192,100362,1,0,0:0:0:0:
320,192,100362,1,0,0:0:0:0:
64,192,100550,1,2,0:0:0:0:
192,192,100550,1,8,0:0:0:0:
320,192,100643,1,0,0:0:0:0:
448,192,100643,1,0,0:0:0:0:
64,192,100737,1,0,0:0:0:0:
192,192,100737,1,0,0:0:0:0:
64,192,100925,128,2,101300:0:0:0:0:
320,192,100925,128,4,101300:0:0:0:0:
448,192,100925,1,0,0:0:0:0:
192,192,101300,1,2,0:0:0:0:
448,192,101300,1,8,0:0:0:0:
64,192,101393,1,0,0:0:0:0:
320,192,101393,1,0,0:0:0:0:
192,192,101487,1,0,0:0:0:0:
448,192,101487,1,0,0:0:0:0:
64,192,101675,1,2,0:0:0:0:
448,192,101675,1,0,0:0:0:0:
192,192,101768,1,0,0:0:0:0:
320,192,101768,1,0,0:0:0:0:
64,192,101862,1,0,0:0:0:0:
448,192,101862,1,0,0:0:0:0:
64,192,102050,1,8,0:0:0:0:
320,192,102050,1,2,0:0:0:0:
192,192,102143,1,0,0:0:0:0:
448,192,102143,1,0,0:0:0:0:
64,192,102237,1,0,0:0:0:0:
320,192,102237,1,0,0:0:0:0:
192,192,102425,1,2,0:0:0:0:
320,192,102425,1,0,0:0:0:0:
64,192,102518,1,0,0:0:0:0:
448,192,102518,1,0,0:0:0:0:
192,192,102612,1,0,0:0:0:0:
320,192,102612,1,0,0:0:0:0:
64,192,102800,1,8,0:0:0:0:
192,192,102800,1,2,0:0:0:0:
320,192,102893,1,0,0:0:0:0:
448,192,102893,1,0,0:0:0:0:
64,192,102987,1,0,0:0:0:0:
192,192,102987,1,0,0:0:0:0:
320,192,103175,1,2,0:0:0:0:
448,192,103175,128,0,103831:0:0:0:0:
64,192,103550,128,2,103831:0:0:0:0:
192,192,103550,1,8,0:0:0:0:
64,192,103925,1,2,0:0:0:0:
192,192,103925,128,4,104206:0:0:0:0:
448,192,103925,128,0,104206:0:0:0:0:
64,192,104300,128,2,104581:0:0:0:0:
320,192,104300,128,8,104581:0:0:0:0:
448,192,104300,1,0,0:0:0:0:
192,192,104581,1,0,0:0:0:0:
448,192,104581,1,0,0:0:0:0:
64,192,104675,1,2,0:0:0:0:
320,192,104675,1,4,0:0:0:0:
192,192,104768,1,0,0:0:0:0:
448,192,104768,1,0,0:0:0:0:
64,192,104862,1,0,0:0:0:0:
320,192,104862,1,0,0:0:0:0:
64,192,105050,1,8,0:0:0:0:
192,192,105050,1,2,0:0:0:0:
320,192,105143,1,0,0:0:0:0:
448,192,105143,1,0,0:0:0:0:
64,192,105237,1,0,0:0:0:0:
192,192,105237,1,0,0:0:0:0:
64,192,105425,1,2,0:0:0:0:
320,192,105425,1,4,0:0:0:0:
448,192,105425,128,0,105518:0:0:0:0:
320,192,105612,1,0,0:0:0:0:
448,192,105612,128,0,105706:0:0:0:0:
64,192,105800,128,8,106081:0:0:0:0:
192,192,105800,128,2,106081:0:0:0:0:
448,192,105800,1,0,0:0:0:0:
320,192,106081,1,0,0:0:0:0:
448,192,106081,1,0,0:0:0:0:
64,192,106175,1,2,0:0:0:0:
192,192,106175,1,4,0:0:0:0:
320,192,106268,1,0,0:0:0:0:
448,192,106268,1,0,0:0:0:0:
64,192,106362,1,0,0:0:0:0:
192,192,106362,1,0,0:0:0:0:
64,192,106550,1,2,0:0:0:0:
320,192,106550,1,8,0:0:0:0:
192,192,106643,1,0,0:0:0:0:
448,192,106643,1,0,0:0:0:0:
64,192,106737,1,0,0:0:0:0:
320,192,106737,1,0,0:0:0:0:
64,192,106925,128,2,107112:0:0:0:0:
192,192,106925,1,4,0:0:0:0:
448,192,106925,1,0,0:0:0:0:
320,192,107112,1,0,0:0:0:0:
64,192,107300,128,2,107393:0:0:0:0:
192,192,107300,1,8,0:0:0:0:
448,192,107300,128,4,107487:0:0:0:0:
192,192,107487,128,0,107581:0:0:0:0:
64,192,107675,128,2,107768:0:0:0:0:
320,192,107675,1,4,0:0:0:0:
448,192,107675,128,0,107862:0:0:0:0:
192,192,107862,128,0,107956:0:0:0:0:
64,192,108050,128,8,108143:0:0:0:0:
192,192,108050,1,2,0:0:0:0:
448,192,108050,128,4,108237:0:0:0:0:
192,192,108237,128,8,108331:0:0:0:0:
320,192,108237,1,2,0:0:0:0:
64,192,108425,1,4,0:0:0:0:
192,192,108425,1,0,0:0:0:70:LR_Drum Kick Low.wav
448,192,108425,128,0,108612:0:0:0:0:
64,192,108706,1,0,0:0:0:70:LR_Drum Kick Low.wav
192,192,108706,1,0,0:0:0:0:
448,192,108800,128,0,108987:0:0:0:70:LR_Drum Kick Low.wav
64,192,108987,1,0,0:0:0:70:LR_Drum Kick Low.wav
192,192,108987,1,0,0:0:0:0:
448,192,109175,128,0,109362:0:0:0:0:
64,192,109268,1,0,0:0:0:70:LR_Drum Kick Low.wav
192,192,109268,1,0,0:0:0:0:
448,192,109456,1,0,0:0:0:0:
64,192,109550,1,0,0:0:0:70:LR4_SnareBPDT.wav
192,192,109550,1,0,0:0:0:0:
320,192,109550,128,0,109737:0:0:0:0:
192,192,109737,1,0,0:0:0:0:
64,192,109925,1,4,0:0:0:0:
320,192,109925,1,0,0:0:0:50:LR4_BassLineLDRN.wav
448,192,109925,1,0,0:0:0:0:
192,192,110018,1,0,0:0:0:0:
64,192,110112,128,0,110300:0:0:0:0:
192,192,110300,1,0,0:0:0:0:
320,192,110393,1,0,0:0:0:0:
448,192,110487,128,0,110675:0:0:0:0:
64,192,110675,1,0,0:0:0:0:
320,192,110768,1,0,0:0:0:0:
192,192,110862,1,0,0:0:0:0:
64,192,110956,128,0,111143:0:0:0:0:
192,192,111143,1,0,0:0:0:0:
320,192,111237,1,0,0:0:0:0:
448,192,111331,1,0,0:0:0:0:
64,192,111425,1,0,0:0:0:0:
320,192,111518,1,0,0:0:0:0:
192,192,111612,1,0,0:0:0:0:
64,192,111706,128,0,111893:0:0:0:0:
320,192,111893,128,0,112081:0:0:0:0:
192,192,112081,128,0,112268:0:0:0:0:
320,192,112268,1,0,0:0:0:0:
448,192,112362,128,0,112550:0:0:0:0:
192,192,112550,1,0,0:0:0:0:
320,192,112643,1,0,0:0:0:0:
448,192,112737,1,0,0:0:0:0:
64,192,112831,1,0,0:0:0:0:
320,192,112925,1,0,0:0:0:0:
192,192,113018,1,0,0:0:0:0:
64,192,113112,128,0,113300:0:0:0:0:
192,192,113300,1,0,0:0:0:0:
320,192,113393,1,0,0:0:0:0:
448,192,113487,128,0,113675:0:0:0:0:
64,192,113675,1,0,0:0:0:0:
320,192,113768,1,0,0:0:0:0:
192,192,113862,1,0,0:0:0:0:
64,192,113956,128,0,114143:0:0:0:0:
192,192,114143,1,0,0:0:0:0:
320,192,114237,1,0,0:0:0:0:
448,192,114331,1,0,0:0:0:0:
64,192,114425,1,0,0:0:0:0:
320,192,114518,1,0,0:0:0:0:
192,192,114612,1,0,0:0:0:0:
64,192,114706,128,0,114893:0:0:0:0:
320,192,114893,128,0,115081:0:0:0:0:
192,192,115081,128,0,115268:0:0:0:0:
320,192,115268,1,0,0:0:0:0:
448,192,115362,128,0,115550:0:0:0:0:
64,192,115550,1,0,0:0:0:0:
192,192,115643,1,0,0:0:0:0:
320,192,115737,1,0,0:0:0:0:
448,192,115831,1,0,0:0:0:0:
320,192,115925,1,0,0:0:0:0:
192,192,116018,1,0,0:0:0:0:
64,192,116112,128,0,116300:0:0:0:0:
192,192,116300,1,0,0:0:0:0:
320,192,116393,1,0,0:0:0:0:
448,192,116487,128,0,116675:0:0:0:0:
64,192,116675,1,0,0:0:0:0:
320,192,116768,1,0,0:0:0:0:
192,192,116862,1,0,0:0:0:0:
64,192,116956,128,0,117143:0:0:0:0:
192,192,117143,1,0,0:0:0:0:
320,192,117237,1,0,0:0:0:0:
448,192,117331,1,0,0:0:0:0:
64,192,117425,1,0,0:0:0:0:
320,192,117518,1,0,0:0:0:0:
192,192,117612,1,0,0:0:0:0:
64,192,117706,128,0,117893:0:0:0:0:
320,192,117893,128,0,118081:0:0:0:0:
192,192,118081,128,0,118268:0:0:0:0:
320,192,118268,1,0,0:0:0:0:
448,192,118362,128,0,118550:0:0:0:0:
192,192,118550,1,0,0:0:0:0:
320,192,118643,1,0,0:0:0:0:
448,192,118737,1,0,0:0:0:0:
64,192,118831,1,0,0:0:0:0:
320,192,118925,1,0,0:0:0:0:
192,192,119018,1,0,0:0:0:0:
64,192,119112,128,0,119300:0:0:0:0:
192,192,119300,1,0,0:0:0:0:
320,192,119393,1,0,0:0:0:0:
448,192,119487,128,0,119675:0:0:0:0:
64,192,119675,1,0,0:0:0:0:
320,192,119768,1,0,0:0:0:0:
192,192,119862,1,0,0:0:0:0:
64,192,119956,128,0,120143:0:0:0:0:
192,192,120143,1,0,0:0:0:0:
320,192,120237,1,0,0:0:0:0:
448,192,120331,1,0,0:0:0:0:
64,192,120425,1,0,0:0:0:0:
320,192,120518,1,0,0:0:0:0:
192,192,120612,1,0,0:0:0:0:
64,192,120706,128,0,120893:0:0:0:0:
320,192,120893,128,0,121081:0:0:0:0:
192,192,121081,1,0,0:0:0:0:
64,192,121175,1,0,0:0:0:0:
448,192,121268,1,0,0:0:0:0:
320,192,121362,1,0,0:0:0:0:
192,192,121456,1,0,0:0:0:0:
64,192,121550,1,0,0:0:0:0:
192,192,121643,1,0,0:0:0:0:
320,192,121737,1,0,0:0:0:0:
448,192,121831,1,0,0:0:0:0:
