osu file format v14

[General]
AudioFilename: audio.mp3
AudioLeadIn: 0
PreviewTime: 57428
Countdown: 0
SampleSet: Soft
StackLeniency: 0.6
Mode: 0
LetterboxInBreaks: 0
WidescreenStoryboard: 0

[Editor]
Bookmarks: 30424,58250,86076,99989,113902,141728,155642,169555,183468,195641,197381,211293,225206,239119,266945,280858,294772
DistanceSpacing: 1.2
BeatDivisor: 4
GridSize: 4
TimelineZoom: 2.999999

[Metadata]
Title:Sen no Yukari
TitleUnicode:千ノ縁
Artist:YooSanHyakurei
ArtistUnicode:瑶山百霊
Creator:kwk
Version:A Thousand Fated Connections
Source:東方妖々夢 ~ Perfect Cherry Blossom.
Tags:東方project LEMiao Touhou Yonder Voice ネクロファンタジア necrofantasia 蒼羅杏 例大祭13 Reitaisai yaoshanbailing
BeatmapID:1148549
BeatmapSetID:541289

[Difficulty]
HPDrainRate:6
CircleSize:5.4
OverallDifficulty:8
ApproachRate:8.8
SliderMultiplier:1.8
SliderTickRate:1

[Events]
//Background and Video events
0,0,"56015475_p0.jpg",0,0
//Break Periods
//Storyboard Layer 0 (Background)
//Storyboard Layer 1 (Fail)
//Storyboard Layer 2 (Pass)
//Storyboard Layer 3 (Foreground)
//Storyboard Sound Samples

[TimingPoints]
907,434.782608695652,4,2,1,10,1,0
1776,-100,4,2,1,20,0,0
1993,-100,4,2,1,25,0,0
2211,-100,4,2,1,30,0,0
2428,-100,4,2,1,35,0,0
2646,-100,4,2,1,40,0,0
3080,-100,4,2,2,40,0,0
9602,-100,4,2,1,40,0,0
9711,-100,4,2,2,40,0,0
13080,-100,4,2,1,40,0,0
13189,-100,4,2,2,40,0,0
16559,-58.8235294117647,4,2,1,50,0,0
16776,-83.3333333333333,4,2,1,50,0,0
18298,-83.3333333333333,4,2,1,50,0,0
20037,-83.3333333333333,4,2,1,50,0,0
23516,-58.8235294117647,4,2,1,50,0,0
23841,-83.3333333333333,4,2,1,50,0,0
30472,-100,4,2,1,40,0,0
33950,-76.9230769230769,4,2,1,40,0,0
34603,-100,4,2,1,40,0,0
37429,-76.9230769230769,4,2,1,40,0,0
37863,-100,4,2,1,40,0,0
40906,-76.9230769230769,4,2,1,40,0,0
41124,-100,4,2,1,40,0,0
42646,-100,4,2,1,40,0,0
58298,-83.3333333333333,4,2,1,55,0,0
60037,-66.6666666666667,4,2,1,55,0,0
60472,-83.3333333333333,4,2,1,55,0,0
61776,-66.6666666666667,4,2,1,55,0,0
61994,-83.3333333333333,4,2,1,55,0,0
63516,-66.6666666666667,4,2,1,55,0,0
63733,-83.3333333333333,4,2,1,55,0,0
66994,-66.6666666666667,4,2,1,55,0,0
67211,-83.3333333333333,4,2,1,55,0,0
68733,-66.6666666666667,4,2,1,55,0,0
68950,-83.3333333333333,4,2,1,55,0,0
70472,-66.6666666666667,4,2,1,55,0,0
70690,-83.3333333333333,4,2,1,55,0,0
71776,-50,4,2,1,55,0,0
72211,-66.6666666666667,4,2,1,65,0,1
84167,-200,4,2,1,65,0,0
85254,-200,4,2,1,25,0,0
86124,-58.8235294117647,4,2,1,70,0,1
101667,-58.8235294117647,4,3,1,5,0,0
101776,-58.8235294117647,4,3,1,70,0,0
113950,-125,4,2,1,20,0,0
125907,-200,4,2,1,20,0,0
126776,-83.3333333333333,4,2,1,35,0,0
127863,-58.8235294117647,4,2,1,45,0,0
128081,-83.3333333333333,4,2,1,45,0,0
134820,-58.8235294117647,4,2,1,45,0,0
135254,-83.3333333333333,4,2,1,45,0,0
141776,-100,4,2,1,35,0,0
145255,-76.9230769230769,4,2,1,35,0,0
145690,-100,4,2,1,35,0,0
148733,-76.9230769230769,4,2,1,35,0,0
148950,-100,4,2,1,35,0,0
152211,-76.9230769230769,4,2,1,35,0,0
152429,-100,4,2,1,35,0,0
155689,-83.3333333333333,4,2,1,55,0,0
157428,-66.6666666666667,4,2,1,55,0,0
157646,-83.3333333333333,4,2,1,55,0,0
159167,-66.6666666666667,4,2,1,55,0,0
159385,-83.3333333333333,4,2,1,55,0,0
160906,-66.6666666666667,4,2,1,55,0,0
161124,-83.3333333333333,4,2,1,55,0,0
166124,-66.6666666666667,4,2,1,55,0,0
166450,-83.3333333333333,4,2,1,55,0,0
169167,-50,4,2,1,55,0,0
169602,-66.6666666666667,4,2,1,65,0,1
181559,-200,4,2,1,65,0,0
182646,-200,4,2,1,25,0,0
183515,-58.8235294117647,4,2,1,70,0,1
197428,-58.8235294117647,4,3,1,70,0,0
211341,-100,4,2,1,25,0,0
211414,-100,4,2,1,10,0,0
213515,-100,4,2,1,25,0,0
214892,-100,4,2,1,10,0,0
215146,-100,4,2,1,25,0,0
215218,-100,4,2,1,10,0,0
215472,-100,4,2,1,25,0,0
215544,-100,4,2,1,10,0,0
216993,-100,4,2,1,25,0,0
218298,-100,4,2,1,25,0,0
218370,-100,4,2,1,10,0,0
218624,-100,4,2,1,25,0,0
218696,-100,4,2,1,10,0,0
218950,-100,4,2,1,25,0,0
219022,-100,4,2,1,10,0,0
220037,-100,4,2,1,25,0,0
220109,-100,4,2,1,10,0,0
221776,-100,4,2,1,25,0,0
221849,-100,4,2,1,10,0,0
222102,-100,4,2,1,25,0,0
222175,-100,4,2,1,10,0,0
222428,-100,4,2,1,25,0,0
222501,-100,4,2,1,10,0,0
224820,-100,4,2,1,25,0,0
225254,-142.857142857143,4,2,1,25,0,0
238298,-142.857142857143,4,2,1,30,0,0
239167,-142.857142857143,4,2,1,30,0,0
266993,-58.8235294117647,4,2,1,70,0,1
280906,-58.8235294117647,4,3,1,70,0,0
294820,-100,4,2,1,30,0,0
297428,-142.857142857143,4,2,1,20,0,0
297971,1100.91743119266,4,2,1,20,1,0
299071,645.161290322581,4,2,1,20,1,0
299232,857.142857142857,4,2,1,20,1,0
299660,1304.34782608696,4,2,1,20,1,0
299986,1666.66666666667,4,2,1,20,1,0
301652,1875,4,2,1,10,1,0
301652,-83.3333333333333,4,2,1,10,0,0
303292,-83.3333333333333,4,2,1,5,0,0
303527,-83.3333333333333,4,2,1,10,0,0

[Colours]
Combo1 : 255,255,166
Combo2 : 255,128,128
Combo3 : 0,255,255
Combo4 : 0,255,128

[HitObjects]
336,144,1776,5,0,0:0:0:0:
300,230,1993,1,0,0:0:0:0:
204,233,2211,1,0,0:0:0:0:
166,153,2428,1,0,0:0:0:0:
196,68,2646,6,0,P|236:88|260:136,1,90,4|0,0:0|0:0,0:0:0:0:
252,148,2972,1,0,0:0:0:0:
248,172,3080,2,0,P|266:210|310:230,1,90,8|0,0:0|0:0,0:0:0:0:
328,224,3407,1,0,0:0:0:0:
348,220,3515,2,0,B|392:212|392:212|452:220,2,90,0|0|8,0:0|0:0|0:0,0:0:0:0:
248,280,4168,1,0,0:0:0:0:
144,228,4385,6,0,P|132:176|168:120,1,90
272,32,4820,1,8,0:0:0:0:
280,49,4928,1,0,0:0:0:0:
290,69,5037,1,0,0:0:0:0:
299,89,5146,1,0,0:0:0:0:
309,110,5254,1,0,0:0:0:0:
318,130,5363,1,0,0:0:0:0:
328,151,5472,1,0,0:0:0:0:
380,256,5690,1,8,0:0:0:0:
444,160,5907,1,0,0:0:0:0:
308,248,6124,6,0,P|265:261|224:245,1,90
208,228,6450,1,0,0:0:0:0:
188,236,6559,2,0,P|172:277|186:319,1,90,8|0,0:0|0:0,0:0:0:0:
208,320,6885,1,0,0:0:0:0:
228,308,6994,1,0,0:0:0:0:
268,196,7211,1,0,0:0:0:0:
224,84,7428,1,8,0:0:0:0:
104,72,7646,1,0,0:0:0:0:
12,152,7863,6,0,P|12:220|36:242,1,90
168,272,8298,1,8,0:0:0:0:
180,252,8407,1,0,0:0:0:0:
192,232,8516,1,0,0:0:0:0:
204,212,8624,1,0,0:0:0:0:
216,192,8733,2,0,L|200:128,1,45
124,120,8950,1,0,0:0:0:0:
240,268,9168,2,0,P|280:251|303:213,1,90,8|0,0:0|0:0,0:0:0:0:
280,84,9602,6,0,P|313:55|358:53,1,90,4|0,0:0|0:0,0:0:0:0:
376,64,9929,1,0,0:0:0:0:
384,84,10037,1,8,0:0:0:0:
388,196,10255,1,0,0:0:0:0:
384,220,10364,1,0,0:0:0:0:
388,244,10472,1,0,0:0:0:0:
496,300,10690,1,0,0:0:0:0:
396,272,10907,2,0,P|348:268|292:284,1,90,8|0,0:0|0:0,0:0:0:0:
128,376,11342,6,0,P|129:331|156:284,1,90
264,204,11776,1,8,0:0:0:0:
278,186,11884,1,0,0:0:0:0:
287,166,11993,1,0,0:0:0:0:
291,144,12102,1,0,0:0:0:0:
288,122,12210,1,0,0:0:0:0:
279,101,12319,1,0,0:0:0:0:
265,84,12428,1,0,0:0:0:0:
148,72,12646,2,0,P|112:108|112:172,1,90,8|0,0:0|0:0,0:0:0:0:
200,288,13080,6,0,P|204:237|163:188,1,90,4|0,0:0|0:0,0:0:0:0:
164,192,13406,1,0,0:0:0:0:
145,203,13515,1,8,0:0:0:0:
130,311,13733,1,0,0:0:0:0:
222,366,13950,1,0,0:0:0:0:
317,316,14167,1,0,0:0:0:0:
323,209,14385,1,8,0:0:0:0:
256,132,14602,2,0,B|248:88|248:88|272:36,2,90
140,156,15255,5,8,0:0:0:0:
148,172,15363,1,0,0:0:0:0:
156,188,15472,2,0,L|192:248,1,45
116,296,15690,2,0,B|140:300|140:300|176:280,1,45
248,320,15907,2,0,L|224:281,1,45,8|0,0:0|0:0,0:0:0:0:
288,216,16124,2,0,B|264:212|264:212|228:232,1,45,8|0,0:0|0:0,0:0:0:0:
324,272,16341,1,0,0:0:0:0:
408,160,16559,6,0,B|432:104|408:48|408:48|400:72|380:92,1,153.000002918243,6|0,0:0|0:0,0:0:0:0:
264,152,16994,1,0,3:0:0:0:
84,184,17211,1,2,0:0:0:0:
100,204,17320,1,2,0:0:0:0:
128,208,17429,2,0,P|164:184|168:124,1,107.999996704102,2|0,0:0|0:0,0:0:0:0:
148,104,17755,1,2,0:0:0:0:
124,92,17863,2,0,L|68:116,2,53.9999983520508,8|0|0,3:0|0:0|0:0,0:0:0:0:
320,148,18298,6,0,P|288:188|300:264,1,107.999996704102,2|0,3:0|0:0,0:0:0:0:
360,356,18733,1,0,3:0:0:0:
456,224,18950,1,2,0:0:0:0:
456,224,19168,2,0,P|413:192|372:228,1,107.999996704102,2|10,0:0|3:0,0:0:0:0:
352,236,19494,1,0,0:0:0:0:
328,252,19603,2,0,P|264:268|212:232,1,107.999996704102,2|10,0:0|3:0,0:0:0:0:
44,48,20037,6,0,B|56:72|44:92|44:92|56:108|56:108|40:128|52:160,1,107.999996704102,2|2,3:0|0:0,0:0:0:0:
52,176,20363,1,0,0:0:0:0:
64,200,20472,1,4,0:0:0:0:
40,360,20690,1,2,0:0:0:0:
160,324,20906,2,0,P|187:279|169:231,1,107.999996704102,2|2,3:0|0:0,0:0:0:0:
148,212,21233,1,2,0:0:0:0:
120,216,21341,1,8,3:0:0:0:
244,308,21559,5,2,0:0:0:0:
268,316,21668,1,0,0:0:0:0:
292,308,21776,2,0,B|340:300|372:320|372:320|348:344,1,107.999996704102,2|2,3:0|0:0,0:0:0:0:
196,356,22211,2,0,P|176:307|194:258,1,107.999996704102,8|2,3:0|0:0,0:0:0:0:
216,243,22537,1,0,0:0:0:0:
240,235,22646,1,2,0:0:0:0:
100,284,22863,1,2,3:0:0:0:
244,308,23081,1,2,0:0:0:0:
76,344,23298,1,2,3:0:0:0:
186,229,23516,6,0,P|139:186|160:243,1,153.000002918243,4|2,3:0|0:0,0:0:0:0:
166,253,23841,1,0,0:0:0:0:
194,257,23950,2,0,L|326:237,1,107.999996704102,0|2,3:0|0:0,0:0:0:0:
432,268,24385,1,2,0:0:0:0:
320,352,24602,1,0,0:0:0:0:
328,376,24711,1,2,0:0:0:0:
356,380,24820,2,2,P|376:316|352:276,1,107.999996704102,8|2,3:0|0:0,0:0:0:0:
300,120,25255,6,0,B|252:116|220:140|220:140|264:152,1,107.999996704102,8|2,3:0|0:0,0:0:0:0:
372,160,25690,1,0,3:0:0:0:
479,307,25907,1,2,0:0:0:0:
459,291,26016,1,0,0:0:0:0:
432,292,26124,1,0,0:0:0:0:
312,344,26342,1,2,3:0:0:0:
288,352,26450,1,2,0:0:0:0:
264,340,26559,2,0,P|244:284|296:228,1,107.999996704102,0|2,3:0|0:0,0:0:0:0:
392,352,26993,5,8,3:0:0:0:
260,179,27211,2,2,P|256:152|261:125,2,53.9999983520508,2|0|0,0:0|0:0|0:0,0:0:0:0:
208,316,27646,1,2,0:0:0:0:
76,320,27863,2,0,P|140:304|186:310,1,107.999996704102,10|2,3:0|0:0,0:0:0:0:
208,316,28190,1,2,0:0:0:0:
228,300,28298,2,0,P|246:250|226:201,1,107.999996704102,0|2,3:0|0:0,0:0:0:0:
56,160,28733,5,0,3:0:0:0:
168,20,28950,2,0,P|228:16|272:40,1,107.999996704102,2|0,0:0|3:0,0:0:0:0:
268,252,29385,1,2,0:0:0:0:
288,56,29603,1,2,0:0:0:0:
144,132,29820,1,10,3:0:0:0:
372,164,30037,1,2,0:0:0:0:
152,248,30255,1,10,3:0:0:0:
344,288,30472,6,0,P|384:272|456:280,1,90,4|0,0:0|0:0,0:0:0:0:
296,364,30907,1,0,0:0:0:0:
192,364,31124,2,0,B|142:346|104:349|104:349|98:291|36:252,1,180
0,356,31776,1,0,0:0:0:0:
96,144,32211,1,0,0:0:0:0:
96,144,32646,5,0,0:0:0:0:
161,184,32863,1,0,0:0:0:0:
201,116,33081,1,0,0:0:0:0:
277,168,33298,1,0,0:0:0:0:
349,100,33516,1,0,0:0:0:0:
393,200,33733,1,0,0:0:0:0:
280,304,33950,6,0,P|328:256|384:272,1,116.999994644165,8|0,1:0|0:0,0:0:0:0:
288,372,34385,1,0,0:0:0:0:
148,328,34603,2,0,B|85:313|36:332|36:332|71:351|104:348,1,180
212,272,35255,2,0,B|222:204|168:152,1,90
116,48,35689,1,0,0:0:0:0:
116,48,36124,5,0,0:0:0:0:
52,108,36342,1,0,0:0:0:0:
104,184,36559,1,0,0:0:0:0:
212,152,36776,1,0,0:0:0:0:
320,192,36994,1,0,0:0:0:0:
336,304,37211,1,0,0:0:0:0:
180,332,37428,6,0,B|248:304|248:304|244:332|244:332,1,90,4|0,3:2|0:0,0:0:0:0:
244,348,37754,1,0,0:0:0:0:
244,372,37863,1,0,3:0:0:0:
120,380,38081,2,0,B|80:320|124:284|124:280|124:276|144:232|104:192,1,180,0|0,3:0|0:0,0:0:0:0:
40,252,38733,1,0,0:0:0:0:
184,336,38950,1,0,0:0:0:0:
288,208,39168,6,0,B|363:211|399:245|399:245|356:242|321:289,1,180
272,380,39820,1,0,0:0:0:0:
420,384,40037,2,0,P|422:321|380:380,1,180
304,344,40689,1,0,0:0:0:0:
236,224,40906,6,0,L|219:157,1,58.4999973220826,0|0,3:0|0:0,0:0:0:0:
284,112,41124,2,0,L|296:68,2,45,0|0|0,3:0|0:0|0:0,0:0:0:0:
150,52,41559,2,0,P|138:124|234:164,1,180,0|0,3:0|0:0,0:0:0:0:
368,124,42211,2,0,P|324:104|281:112,1,90
312,208,42646,5,0,0:0:0:0:
236,268,42863,1,0,0:0:0:0:
146,232,43080,1,0,0:0:0:0:
132,136,43298,1,0,0:0:0:0:
220,228,43515,1,0,0:0:0:0:
160,340,43733,1,0,0:0:0:0:
44,300,43950,1,2,0:0:0:0:
36,280,44059,1,2,0:0:0:0:
28,260,44168,1,0,3:0:0:0:
92,164,44385,6,0,P|128:144|188:148,1,90,4|0,0:0|0:0,0:0:0:0:
196,156,44711,1,0,0:0:0:0:
208,176,44820,2,0,L|200:224,1,45
116,284,45037,2,0,P|164:252|268:304,1,180,0|0,3:0|0:0,0:0:0:0:
473,357,45689,2,0,B|454:333|448:285|448:285|421:351|358:348,1,180
265,298,46341,1,0,0:1:0:0:
128,200,46993,2,0,B|112:224|120:259|120:259|64:200|36:216|36:216|52:224,1,180,8|0,1:0|0:0,0:0:0:0:
188,236,47863,6,0,B|252:200|324:228,1,135,0|0,3:0|0:0,0:0:0:0:
332,244,48298,1,0,0:0:0:0:
204,332,48515,2,0,P|164:352|52:308,1,135
64,320,48950,1,0,0:0:0:0:
84,208,49167,2,0,P|184:240|208:312,1,180
96,356,49820,2,0,P|108:276|128:344,1,180
24,240,50472,1,8,1:0:0:0:
176,64,50907,1,0,0:0:0:0:
280,276,51342,6,0,B|200:308|152:232,1,135,4|0,3:2|3:0,0:0:0:0:
152,224,51776,1,0,0:0:0:0:
216,52,51993,2,0,L|236:168,1,90
332,244,52429,1,0,0:0:0:0:
388,160,52646,2,0,B|380:184|388:212|388:212|352:220|332:244|332:244|352:277|328:321,1,180
256,356,53298,1,0,0:0:0:0:
80,240,53733,1,0,0:0:0:0:
80,240,53950,2,0,P|155:250|180:355,1,180,8|0,1:0|0:0,0:0:0:0:
284,176,54820,5,0,3:0:0:0:
264,60,55037,2,0,L|320:16,2,45,0|0|0,0:0|3:0|0:0,0:0:0:0:
380,104,55472,2,0,B|416:108|436:128|436:128|462:99|448:40|448:40|420:88,1,180,0|0,3:0|0:0,0:0:0:0:
384,176,56124,2,0,P|373:219|413:267,1,90,8|0,1:0|0:0,1:0:0:0:
471,357,56559,1,0,0:0:0:0:
471,357,56776,2,0,B|493:350|532:296|444:292|416:392|332:316,1,180
272,152,57429,6,0,P|264:84|328:80,1,135
332,88,57863,1,0,0:0:0:0:
348,100,57972,1,0,0:0:0:0:
372,104,58081,1,0,0:0:0:0:
396,100,58190,1,0,0:0:0:0:
416,88,58298,6,0,P|404:20|352:0,1,107.999996704102,4|0,3:0|0:0,0:0:0:0:
336,152,58624,1,0,0:0:0:0:
372,208,58733,2,0,P|366:235|354:259,1,53.9999983520508,0|0,3:0|0:0,0:0:0:0:
216,260,58950,2,0,P|243:254|266:240,1,53.9999983520508
185,128,59168,2,0,P|200:149|201:204,1,53.9999983520508
149,316,59385,2,0,P|134:294|133:240,1,53.9999983520508,0|0,3:0|0:0,0:0:0:0:
0,140,59602,2,0,P|68:128|116:160,1,107.999996704102,2|0,3:2|0:0,0:0:0:0:
104,172,59928,1,0,0:0:0:0:
136,188,60037,6,0,P|168:136|88:80,1,135.000005149842,2|0,1:0|0:0,0:0:0:0:
36,220,60472,2,0,L|60:284,1,53.9999983520508,0|0,3:0|0:0,0:0:0:0:
184,304,60690,1,2,0:0:0:0:
212,308,60798,1,2,0:0:0:0:
236,296,60906,2,2,L|260:232,1,53.9999983520508,2|0,0:0|0:0,0:0:0:0:
300,124,61124,1,0,3:0:0:0:
374,258,61341,1,2,0:0:0:0:
224,148,61559,1,2,0:0:0:0:
392,80,61776,6,0,P|444:88|424:164,1,135.000005149842,4|0,3:0|0:0,0:0:0:0:
416,172,62103,1,0,0:0:0:0:
388,172,62211,2,0,L|288:80,1,107.999996704102,2|0,0:0|0:0,0:0:0:0:
288,84,62537,1,0,0:0:0:0:
268,64,62646,1,0,0:0:0:0:
168,196,62863,1,0,0:0:0:0:
20,116,63080,2,0,P|60:108|96:124,1,53.9999983520508,2|0,0:0|0:0,0:0:0:0:
240,160,63298,1,0,0:0:0:0:
136,16,63516,6,0,B|157:104|157:104|120:48,1,135.000005149842,4|0,3:1|0:0,0:0:0:0:
248,24,63950,2,0,P|274:18|300:26,1,53.9999983520508,0|0,3:0|0:0,0:0:0:0:
412,130,64168,1,2,0:0:0:0:
388,142,64276,1,2,0:0:0:0:
360,138,64385,2,0,L|340:82,1,53.9999983520508,2|0,0:0|0:0,0:0:0:0:
440,36,64603,1,2,3:2:0:0:
412,216,64820,1,0,3:0:0:0:
260,116,65037,1,2,3:2:0:0:
32,192,65254,6,0,P|68:204|144:148,1,107.999996704102,4|0,3:0|0:0,0:0:0:0:
136,40,65580,1,0,0:0:0:0:
136,40,65689,2,0,L|172:124,1,53.9999983520508,0|0,3:0|0:0,0:0:0:0:
208,192,65906,2,0,L|237:239,1,53.9999983520508
300,124,66124,2,0,P|260:116|232:128,1,53.9999983520508
148,252,66341,2,0,P|140:292|152:320,1,53.9999983520508
292,376,66559,2,0,P|300:336|288:308,1,53.9999983520508,0|0,3:0|0:0,0:0:0:0:
232,240,66776,1,0,0:0:0:0:
376,120,66993,6,0,P|448:140|476:192,1,107.999996704102,2|0,1:1|0:0,0:0:0:0:
412,352,67428,2,0,L|352:320,1,53.9999983520508,2|0,0:0|0:0,0:0:0:0:
232,348,67646,1,2,0:0:0:0:
208,356,67754,1,2,0:0:0:0:
184,364,67863,2,0,L|208:296,1,53.9999983520508,2|0,0:0|0:0,0:0:0:0:
240,216,68080,1,2,3:2:0:0:
364,328,68298,1,0,3:0:0:0:
148,240,68516,1,2,3:2:0:0:
284,116,68733,6,0,P|298:162|240:216,1,135.000005149842,4|0,3:0|0:0,0:0:0:0:
212,212,69059,1,0,0:0:0:0:
192,192,69167,1,0,0:0:0:0:
364,164,69385,2,0,B|440:172|440:172|416:136,1,107.999996704102
316,52,69820,1,0,0:0:0:0:
236,148,70037,1,2,3:2:0:0:
184,44,70255,1,0,0:0:0:0:
108,176,70472,6,0,P|128:112|60:84,1,135.000005149842,4|0,1:0|2:0,2:0:0:0:
56,256,70906,2,0,L|128:248,1,53.9999983520508,0|0,3:0|0:0,0:0:0:0:
256,188,71124,1,2,0:0:0:0:
244,160,71232,1,2,0:0:0:0:
216,152,71341,2,0,P|198:174|188:214,1,53.9999983520508,2|0,0:0|0:0,0:0:0:0:
228,336,71559,1,2,0:0:0:0:
296,184,71776,6,0,P|341:186|383:212,1,90,2|0,0:0|0:0,0:0:0:0:
316,292,71993,2,0,P|315:255|332:276,1,90
228,336,72211,6,0,P|208:256|240:200,1,135.000005149842,8|0,3:0|0:0,0:0:0:0:
240,144,72537,1,0,0:0:0:0:
143,219,72646,2,0,B|111:227|111:227|51:211,1,67.5000025749208,8|0,0:0|0:0,0:0:0:0:
0,64,72863,2,0,B|32:56|32:56|65:65,1,67.5000025749208
148,88,73081,2,0,L|160:160,1,67.5000025749208,0|0,3:0|0:0,0:0:0:0:
8,240,73298,2,0,L|19:173,1,67.5000025749208
224,143,73516,2,0,P|206:205|143:219,1,135.000005149842,8|0,0:0|0:0,0:0:0:0:
96,172,73841,1,0,0:0:0:0:
4,272,73950,6,0,B|-12:304|0:344,1,67.5000025749208,0|0,3:0|0:0,0:0:0:0:
163,371,74167,2,0,B|179:339|167:299,1,67.5000025749208
96,172,74385,2,0,L|108:260,1,67.5000025749208,8|0,0:0|0:0,0:0:0:0:
169,306,74602,1,2,0:0:0:0:
236,324,74711,1,2,0:0:0:0:
300,308,74820,2,0,P|344:260|312:184,1,135.000005149842,0|0,3:0|0:0,0:0:0:0:
300,180,75146,1,0,0:0:0:0:
284,152,75255,2,0,P|284:116|304:84,1,67.5000025749208,10|0,0:0|0:0,0:0:0:0:
408,20,75472,2,0,P|428:48|420:100,1,67.5000025749208,2|0,0:0|0:0,0:0:0:0:
496,208,75690,6,0,P|436:156|360:180,1,135.000005149842,8|0,3:0|0:0,0:0:0:0:
332,204,76015,1,0,0:0:0:0:
296,328,76124,2,0,L|284:240,1,67.5000025749208,8|0,0:0|0:0,0:0:0:0:
164,136,76342,2,0,L|154:203,1,67.5000025749208
117,290,76559,2,0,L|213:278,1,67.5000025749208,0|0,3:0|0:0,0:0:0:0:
316,168,76776,2,0,L|250:178,1,67.5000025749208
362,295,76994,2,0,L|386:151,1,135.000005149842,8|0,0:0|0:0,0:0:0:0:
344,108,77320,1,0,0:0:0:0:
307,6,77429,6,0,P|290:34|288:67,1,67.5000025749208,0|0,3:0|0:0,0:0:0:0:
253,241,77646,2,0,P|257:193|241:169,1,67.5000025749208
108,136,77863,2,0,P|68:136|32:156,1,67.5000025749208,8|0,0:0|0:0,0:0:0:0:
33,245,78080,1,2,0:0:0:0:
93,277,78190,1,2,0:0:0:0:
156,248,78298,2,0,B|184:212|172:168|172:168|180:200|204:224,1,135.000005149842,0|0,3:0|0:0,0:0:0:0:
220,236,78624,1,0,0:0:0:0:
253,241,78733,2,0,P|285:232|305:202,1,67.5000025749208,10|0,0:0|0:0,0:0:0:0:
424,144,78950,2,0,P|391:149|360:136,1,67.5000025749208,2|0,0:0|0:0,0:0:0:0:
280,67,79168,6,0,P|233:111|244:176,1,135.000005149842,8|0,3:0|0:0,0:0:0:0:
304,205,79493,1,0,0:0:0:0:
424,144,79602,2,0,P|443:171|449:204,1,67.5000025749208,8|0,0:0|0:0,0:0:0:0:
356,320,79820,2,0,L|372:244,1,67.5000025749208
304,205,80037,2,0,L|320:129,1,67.5000025749208,0|0,3:0|0:0,0:0:0:0:
216,212,80254,2,0,P|224:248|252:280,1,67.5000025749208
148,360,80472,2,0,P|128:288|60:264,1,135.000005149842,8|0,0:0|0:0,0:0:0:0:
8,284,80798,1,0,0:0:0:0:
120,200,80907,6,0,P|128:165|100:104,1,67.5000025749208,0|0,3:0|0:0,0:0:0:0:
8,24,81124,2,0,P|33:48|101:54,1,67.5000025749208
160,44,81341,2,0,P|191:55|215:78,1,67.5000025749208,8|0,0:0|0:0,0:0:0:0:
220,181,81559,1,2,0:0:0:0:
280,213,81667,1,2,0:0:0:0:
344,193,81776,2,0,P|368:109|340:77,1,135.000005149842,0|0,3:0|0:0,0:0:0:0:
312,65,82103,1,0,0:0:0:0:
280,61,82211,2,0,L|214:78,1,67.5000025749208,10|0,0:0|0:0,0:0:0:0:
160,144,82428,2,0,L|80:132,1,67.5000025749208,2|0,0:0|0:0,0:0:0:0:
68,0,82646,6,0,P|20:40|52:156,1,135.000005149842,8|0,3:0|0:0,0:0:0:0:
28,176,82972,1,0,0:0:0:0:
160,208,83081,2,0,L|95:228,1,67.5000025749208,8|0,0:0|0:0,0:0:0:0:
0,304,83298,2,0,L|66:315,1,67.5000025749208
128,356,83516,2,0,P|140:312|120:260,1,67.5000025749208,0|0,3:0|0:0,0:0:0:0:
27,177,83733,2,0,P|16:100|64:40,1,135.000005149842,0|8,0:0|0:0,0:0:0:0:
112,168,84059,5,0,0:0:0:0:
112,168,84167,2,0,P|151:111|83:135,1,180
32,240,85255,2,0,B|52:208|52:208|48:176|20:152|20:152|20:188,1,135
92,300,86124,6,0,L|132:235,1,76.5000014591217,4|0,3:0|0:0,0:0:0:0:
220,268,86342,2,0,P|236:222|225:191,1,76.5000014591217
296,88,86559,2,0,B|280:128|304:160|304:160|352:156|392:172,1,153.000002918243,8|0,0:0|0:0,0:0:0:0:
456,180,86885,1,0,0:0:0:0:
484,252,86994,2,0,P|482:290|467:325,1,76.5000014591217,0|0,3:0|0:0,0:0:0:0:
392,264,87211,2,0,P|352:252|316:260,1,76.5000014591217
216,368,87429,2,0,P|240:336|238:301,1,76.5000014591217,8|0,0:0|0:0,0:0:0:0:
240,212,87646,2,0,P|238:174|262:145,1,76.5000014591217
379,108,87863,6,0,P|310:130|260:77,1,153.000002918243,4|0,3:1|0:0,0:0:0:0:
220,8,88190,1,0,0:0:0:0:
164,60,88298,2,0,L|168:160,1,76.5000014591217,10|0,0:0|0:0,0:0:0:0:
316,208,88516,2,0,L|312:131,1,76.5000014591217
88,80,88733,2,0,L|91:156,1,76.5000014591217,2|0,3:2|0:0,0:0:0:0:
240,228,88951,2,0,L|236:151,1,76.5000014591217
12,108,89167,2,0,L|16:208,1,76.5000014591217,10|0,0:0|0:0,0:0:0:0:
164,256,89385,2,0,L|160:179,1,76.5000014591217
276,48,89603,6,0,P|208:44|184:120,1,153.000002918243,6|0,3:0|0:0,0:0:0:0:
260,156,89929,1,0,0:0:0:0:
260,156,90037,2,0,P|308:161|336:191,1,76.5000014591217,8|0,0:0|0:0,0:0:0:0:
440,128,90255,2,0,P|459:172|448:212,1,76.5000014591217
480,328,90472,2,0,P|442:327|411:306,1,76.5000014591217,2|0,3:0|0:0,0:0:0:0:
276,232,90689,2,0,B|212:216|172:244|172:244|236:264,1,153.000002918243,2|8,0:0|0:0,3:0:0:0:
240,348,91015,1,0,0:0:0:0:
240,348,91124,2,0,L|156:324,1,76.5000014591217,0|0,0:2|0:0,0:0:0:0:
88,112,91342,6,0,B|100:212|100:212|124:128,1,153.000002918243,2|0,3:1|0:0,0:0:0:0:
104,288,91668,1,0,0:0:0:0:
36,268,91776,2,0,P|20:232|28:184,1,76.5000014591217,10|0,0:0|0:0,0:0:0:0:
176,124,91993,2,0,P|192:160|184:208,1,76.5000014591217
188,372,92211,2,0,P|210:341|245:324,1,76.5000014591217,2|0,3:0|0:0,0:0:0:0:
400,344,92429,2,0,P|376:353|409:309,1,153.000002918243,2|8,0:3|0:0,0:0:0:0:
468,264,92755,1,0,0:0:0:0:
496,196,92863,2,0,P|504:152|492:120,1,76.5000014591217
272,108,93081,6,0,P|312:124|356:112,1,76.5000014591217,6|0,3:0|0:0,0:0:0:0:
420,164,93298,2,0,B|392:192|392:192|388:232,1,76.5000014591217
204,272,93516,2,0,B|256:304|300:288|300:288|288:252|264:240,1,153.000002918243,10|0,0:0|0:0,0:0:0:0:
216,196,93842,1,0,0:0:0:0:
144,224,93950,2,0,P|128:256|152:320,1,76.5000014591217,2|0,3:0|0:0,0:0:0:0:
112,160,94168,2,0,B|153:102|116:52|116:52|108:120,1,153.000002918243,2|8,0:0|0:0,0:0:0:0:
216,196,94494,1,0,0:0:0:0:
280,152,94603,2,0,P|252:124|177:120,1,76.5000014591217,2|0,0:0|0:0,0:0:0:0:
376,48,94820,6,0,P|368:88|460:152,1,153.000002918243,4|0,3:2|0:0,0:0:0:0:
508,196,95146,1,0,0:0:0:0:
512,272,95255,2,0,P|472:260|408:296,1,76.5000014591217,10|0,0:0|0:0,0:0:0:0:
376,304,95472,2,0,P|364:344|400:408,1,76.5000014591217
240,304,95690,2,0,P|201:290|132:301,1,76.5000014591217,2|0,3:0|0:0,0:0:0:0:
33,238,95907,2,0,P|98:248|120:167,1,153.000002918243,2|8,0:0|0:0,0:0:0:0:
124,100,96233,1,0,0:0:0:0:
52,76,96342,2,0,P|41:102|59:144,1,76.5000014591217,2|0,0:0|0:0,0:0:0:0:
236,52,96559,6,0,P|292:28|380:72,1,153.000002918243,6|0,3:0|0:0,0:0:0:0:
408,132,96885,1,0,0:0:0:0:
404,207,96994,2,0,P|377:234|340:241,1,76.5000014591217,10|0,0:0|0:0,0:0:0:0:
472,172,97211,2,0,P|482:207|465:248,1,76.5000014591217
264,268,97428,2,0,P|254:303|271:344,1,76.5000014591217,2|0,0:0|0:0,0:0:0:0:
412,336,97646,2,0,B|445:316|445:316|400:292|329:310,1,153.000002918243,2|8,0:0|0:0,0:0:0:0:
194,341,97972,1,0,0:0:0:0:
194,341,98081,2,0,P|242:349|294:301,1,76.5000014591217,2|0,0:0|0:0,0:0:0:0:
40,324,98298,6,0,P|37:375|51:355,1,153.000002918243,2|0,3:1|0:0,0:0:0:0:
112,320,98624,1,0,0:0:0:0:
112,320,98733,2,0,P|122:261|107:237,1,76.5000014591217,8|0,0:0|0:0,0:0:0:0:
0,192,98950,5,2,0:0:0:0:
40,256,99059,1,2,0:0:0:0:
76,188,99168,2,2,L|92:104,1,76.5000014591217,2|0,3:0|0:0,0:0:0:0:
144,36,99385,5,2,0:0:0:0:
216,16,99493,1,2,0:0:0:0:
292,0,99603,2,0,L|278:78,1,76.5000014591217,10|0,0:0|0:0,0:0:0:0:
140,232,99820,2,0,L|152:154,1,76.5000014591217,10|0,0:0|0:0,0:0:0:0:
300,152,100037,6,0,B|356:100|436:140|436:140|444:52|392:28|392:28|388:108,2,306.000005836487,4|0|8,3:0|0:0|3:0,0:0:0:0:
208,300,101124,1,0,1:0:0:0:
376,296,101342,2,0,P|429:254|324:216,1,229.500004377365,8|0,3:0|0:0,0:0:0:0:
224,224,101776,2,0,B|180:240|148:212|148:212|96:260|36:240|36:240|36:208|24:176|24:176|76:224,2,306.000005836487,12|8|8,3:0|0:0|3:0,0:0:0:0:
188,64,102863,2,0,P|181:104|193:140,1,76.5000014591217,0|0,3:0|3:0,0:0:0:0:
112,20,103081,1,0,1:0:0:0:
308,92,103298,1,8,0:0:0:0:
148,216,103516,6,0,B|204:174|264:212|264:212|300:188|300:188|308:228|308:228|296:260|296:260|304:288|352:300,2,306.000005836487,4|8|8,3:0|0:0|3:0,0:0:0:0:
64,276,104603,2,0,P|128:312|184:288,1,76.5000014591217,8|0,1:0|0:0,2:0:0:0:
204,296,104820,1,0,1:0:0:0:
352,104,105037,2,0,L|372:196,1,76.5000014591217
356,258,105254,2,0,B|278:262|278:262|221:209|221:209|138:216,1,229.500004377365,2|0,1:0|0:0,0:0:0:0:
84,160,105690,6,0,P|157:116|107:37,1,153.000002918243,8|0,0:0|0:0,0:0:0:0:
84,16,106016,1,2,0:2:0:0:
20,52,106124,1,2,0:2:0:0:
232,148,106342,1,2,0:2:0:0:
56,248,106559,2,0,P|60:284|100:324,1,76.5000014591217,6|0,1:2|0:0,0:0:0:0:
164,368,106776,1,0,0:0:0:0:
164,232,106994,6,0,B|172:180|228:148|228:148|332:160|332:160|264:160|232:208,1,306.000005836487,4|0,0:0|0:0,0:0:0:0:
228,336,107646,1,0,0:0:0:0:
296,372,107754,1,0,0:0:0:0:
356,332,107863,2,0,P|384:296|296:288,1,153.000002918243,8|2,0:1|0:2,1:0:0:0:
160,364,108298,1,8,1:3:0:0:
16,240,108515,1,2,3:2:0:0:
111,148,108733,6,0,B|123:167|103:207|103:207|111:231|111:231|95:255|99:295,1,153.000002918243,2|0,0:1|2:0,0:0:0:0:
28,156,109168,1,0,0:0:0:0:
4,332,109385,1,2,0:2:0:0:
104,208,109603,6,0,P|137:188|253:208,1,153.000002918243,4|8,1:3|0:0,2:0:0:0:
381,299,110037,2,0,P|348:279|317:171,1,153.000002918243,2|8,1:2|3:0,2:0:0:0:
392,4,110472,6,0,L|360:84,1,76.5000014591217,4|0,0:0|2:0,0:0:0:0:
315,175,110690,2,0,P|387:183|455:107,2,153.000002918243
196,36,111341,6,0,B|188:100|254:120|254:120|220:156|240:216|240:216|220:164|176:153,4,306.000005836487,4|0|4|0|0,0:0|0:0|0:0|0:0|0:0,0:0:0:0:
140,244,113298,1,0,0:0:0:0:
288,272,113516,2,0,B|352:268|369:211|369:211|308:176,1,153.000002918243,8|0,0:1|0:0,0:0:0:0:
216,72,113950,5,4,0:0:0:0:
116,168,114168,1,0,0:0:0:0:
116,92,114385,1,0,0:0:0:0:
216,148,114603,1,0,0:0:0:0:
216,72,114820,5,0,0:0:0:0:
116,168,115038,1,0,0:0:0:0:
116,92,115255,1,0,0:0:0:0:
216,148,115473,1,0,0:0:0:0:
328,280,115690,5,0,0:0:0:0:
235,238,115906,1,0,0:0:0:0:
242,321,116124,1,0,0:0:0:0:
308,203,116340,1,0,0:0:0:0:
328,280,116559,5,0,0:0:0:0:
235,238,116775,1,0,0:0:0:0:
242,321,116993,1,0,0:0:0:0:
308,203,117211,1,0,0:0:0:0:
136,188,117428,6,0,P|81:230|15:210,1,144,4|0,0:0|0:0,0:0:0:0:
67,156,118081,2,0,B|53:123|73:87|73:87|53:55|53:55|33:83,1,144,8|0,0:1|0:0,0:0:0:0:
136,128,118733,1,0,0:0:0:0:
204,156,118950,1,0,0:0:0:0:
272,132,119168,6,0,P|344:131|376:68,1,144,4|0,0:0|0:0,0:0:0:0:
304,64,119820,2,0,B|312:116|312:116|344:144|344:144|352:200,1,144,8|0,0:1|0:0,0:0:0:0:
268,228,120472,2,0,L|276:176,3,36
324,272,120907,5,4,0:0:0:0:
300,204,121124,1,0,0:0:0:0:
232,176,121342,1,0,0:0:0:0:
164,192,121559,1,0,0:0:0:0:
68,284,121776,5,0,0:0:0:0:
136,260,121993,1,0,0:0:0:0:
164,192,122211,1,0,0:0:0:0:
148,124,122428,1,0,0:0:0:0:
56,28,122646,5,4,0:0:0:0:
148,124,122863,1,0,0:0:0:0:
80,96,123081,1,0,0:0:0:0:
216,108,123298,1,0,0:0:0:0:
208,24,123516,5,0,0:0:0:0:
300,120,123733,1,0,0:0:0:0:
232,92,123951,1,0,0:0:0:0:
368,104,124168,1,0,0:0:0:0:
424,16,124385,5,4,0:0:0:0:
488,120,124603,1,0,0:0:0:0:
512,48,124820,1,0,0:0:0:0:
416,160,125037,2,0,P|408:196|428:248,1,72
512,320,125472,2,0,P|484:295|429:286,1,72
340,272,125907,2,0,B|288:272|256:288|256:288|268:256|260:228,1,135
176,252,126776,5,2,0:0:0:0:
148,172,126994,1,2,0:0:0:0:
208,92,127211,1,2,0:0:0:0:
324,92,127429,1,2,0:0:0:0:
376,200,127646,1,2,0:0:0:0:
360,324,127863,6,0,B|330:336|290:320|290:320|250:304|210:320,1,153.000002918243,6|0,0:0|0:0,0:0:0:0:
184,324,128189,1,0,0:0:0:0:
164,340,128298,1,0,0:0:0:0:
116,264,128515,1,2,0:0:0:0:
124,240,128624,1,0,0:0:0:0:
132,216,128733,2,0,B|156:140|156:140|196:204,1,107.999996704102,2|0,0:0|0:0,0:0:0:0:
180,188,129059,1,2,0:0:0:0:
196,208,129167,2,0,B|224:212|224:212|248:204,2,53.9999983520508,0|0|2,0:0|0:0|0:0,0:0:0:0:
16,196,129603,6,0,B|62:171|62:171|117:178,1,107.999996704102,4|2,0:0|0:0,0:0:0:0:
116,288,130037,1,0,0:0:0:0:
224,252,130254,1,2,0:0:0:0:
230,225,130363,1,0,0:0:0:0:
236,198,130472,2,0,L|260:82,1,107.999996704102,2|2,0:0|0:0,0:0:0:0:
272,116,130798,1,2,0:0:0:0:
288,140,130907,2,0,P|337:158|387:141,1,107.999996704102,0|2,0:0|0:0,0:0:0:0:
384,12,131341,6,0,P|335:-6|285:11,1,107.999996704102,4|2,0:0|0:0,0:0:0:0:
268,32,131667,1,0,0:0:0:0:
264,60,131776,1,0,0:0:0:0:
384,140,131994,1,2,0:0:0:0:
296,192,132211,2,0,B|292:272|292:272|328:224,1,107.999996704102,2|0,0:0|0:0,0:0:0:0:
336,244,132537,1,2,0:0:0:0:
360,252,132646,2,0,B|376:300|376:300|356:364,1,107.999996704102,0|2,0:0|0:0,0:0:0:0:
192,313,133080,6,0,B|152:300|131:259|131:259|153:246,1,107.999996704102,4|2,0:0|0:0,0:0:0:0:
175,227,133406,1,0,0:0:0:0:
188,202,133515,2,0,P|198:143|130:94,1,107.999996704102,0|2,0:0|0:0,0:0:0:0:
144,100,133841,1,0,0:0:0:0:
120,112,133950,1,2,0:0:0:0:
172,232,134167,1,2,0:0:0:0:
300,248,134385,1,2,0:0:0:0:
388,164,134602,1,2,0:0:0:0:
256,44,134820,6,0,B|208:28|143:77|143:77|184:60|232:84,1,153.000002918243,2|2,0:1|0:0,0:0:0:0:
204,88,135146,1,0,0:0:0:0:
224,104,135254,2,0,P|212:168|176:128,1,107.999996704102,0|2,0:0|0:0,0:0:0:0:
172,144,135580,1,0,0:0:0:0:
144,140,135690,2,0,P|112:176|156:216,1,107.999996704102,2|0,0:0|0:0,0:0:0:0:
168,228,136015,1,2,0:0:0:0:
188,248,136124,2,0,B|202:276|205:327|205:327|167:283,1,107.999996704102,0|2,0:0|0:0,0:0:0:0:
16,280,136559,6,0,P|64:272|156:292,1,107.999996704102,4|2,0:0|0:0,0:0:0:0:
264,332,136994,1,0,0:0:0:0:
288,348,137103,1,0,0:0:0:0:
316,344,137211,2,0,P|344:332|372:256,1,107.999996704102,2|0,0:0|0:0,0:0:0:0:
264,156,137646,1,2,0:0:0:0:
243,164,137754,2,0,P|231:239|300:272,1,161.999995056153,0|2,0:0|0:0,0:0:0:0:
464,304,138298,6,0,P|412:296|356:320,1,107.999996704102,4|2,0:1|0:0,0:0:0:0:
336,328,138624,1,0,0:0:0:0:
320,348,138733,1,0,0:0:0:0:
232,232,138950,1,2,0:0:0:0:
40,268,139167,2,0,L|152:284,1,107.999996704102,2|0,0:0|0:0,0:0:0:0:
124,300,139494,1,2,0:0:0:0:
104,320,139603,2,0,L|216:304,1,107.999996704102,0|2,0:0|0:0,0:0:0:0:
344,328,140037,5,0,0:0:0:0:
316,152,140254,1,2,0:0:0:0:
152,256,140472,1,0,0:0:0:0:
144,232,140580,1,0,0:0:0:0:
136,204,140689,2,0,L|160:144,1,53.9999983520508,2|0,0:0|0:0,0:0:0:0:
248,92,140906,1,2,0:0:0:0:
52,212,141124,1,2,0:0:0:0:
244,200,141341,1,2,0:0:0:0:
148,32,141559,1,2,0:0:0:0:
52,212,141776,6,0,B|32:276|32:276|16:240,1,90,4|0,1:0|0:0,0:0:0:0:
40,120,142211,1,0,1:0:0:0:
148,135,142429,2,0,P|204:103|128:39,1,180,0|0,0:0|1:0,0:0:0:0:
120,204,143081,2,0,P|168:212|212:196,1,90
288,84,143516,1,0,0:0:0:0:
352,212,143733,1,0,0:0:0:0:
428,88,143951,2,0,L|320:160,1,90,0|0,1:0|0:0,0:0:0:0:
228,200,144385,2,0,B|180:208|180:208|132:180,2,90,0|0|0,0:0|1:0|0:0,0:0:0:0:
192,132,145037,1,0,0:0:0:0:
76,176,145255,6,0,B|84:260|84:260|107:211,1,116.999994644165,4|0,1:2|0:0,0:0:0:0:
120,128,145690,1,0,1:0:0:0:
216,222,145907,2,0,B|182:203|141:219|141:219|114:199|114:199|84:260,1,180,0|0,0:0|1:0,0:0:0:0:
200,364,146559,2,0,P|200:311|176:276,1,90
120,340,146994,1,0,1:0:0:0:
205,190,147211,1,0,0:0:0:0:
392,292,147429,6,0,P|364:312|264:284,1,135,0|0,1:0|0:0,0:0:0:0:
252,272,147863,1,0,0:0:0:0:
176,328,148080,2,0,L|180:224,1,90,0|0,1:0|0:0,0:0:0:0:
128,160,148406,2,0,L|136:116,2,45
104,92,148733,6,0,P|140:112|216:72,1,116.999994644165,2|0,1:1|0:0,0:0:0:0:
212,64,149059,1,0,3:0:0:0:
208,44,149168,1,0,1:0:0:0:
280,104,149385,6,0,L|300:220,1,90,0|0,3:0|0:0,0:0:0:0:
228,272,149820,1,0,1:0:0:0:
124,320,150037,2,0,L|139:231,1,90
60,160,150472,6,0,P|56:116|80:72,1,90,0|0,1:0|0:0,0:0:0:0:
182,29,150907,1,0,1:0:0:0:
207,105,151124,2,0,P|171:132|127:131,2,90,0|0|0,0:0|0:0|1:0,0:0:0:0:
304,20,151776,2,0,P|284:64|296:144,1,90
332,176,152211,6,0,B|400:180|400:180|332:152,1,116.999994644165,4|0,1:2|0:0,0:0:0:0:
320,152,152537,1,0,3:0:0:0:
296,172,152646,1,0,1:0:0:0:
268,280,152863,6,0,L|276:176,1,90,0|0,3:0|0:0,0:0:0:0:
128,268,153298,1,0,1:0:0:0:
184,224,153516,2,0,P|184:176|144:136,1,90,2|0,0:1|0:0,0:0:0:0:
80,124,153950,1,0,1:0:0:0:
64,24,154168,1,0,0:0:0:0:
12,160,154385,2,0,B|0:196|8:224|8:224|24:208|48:200,1,90,0|0,1:0|0:0,0:0:0:0:
79,353,154820,6,0,P|55:316|60:272,1,90,0|0,0:0|1:0,0:0:0:0:
168,256,155254,1,0,0:0:0:0:
192,256,155363,1,0,0:0:0:0:
211,264,155472,1,0,0:0:0:0:
223,283,155581,1,0,0:0:0:0:
220,304,155689,6,0,P|168:324|108:276,1,107.999996704102,4|0,3:0|0:0,0:0:0:0:
220,220,156015,1,0,0:0:0:0:
283,275,156124,2,0,P|288:301|282:328,1,53.9999983520508,0|0,3:0|0:0,0:0:0:0:
288,187,156341,2,0,P|282:161|288:135,1,53.9999983520508
404,240,156559,2,0,P|377:245|351:241,1,53.9999983520508
220,220,156776,2,0,P|193:215|167:221,1,53.9999983520508,0|0,3:0|0:0,0:0:0:0:
40,332,156994,2,0,P|108:312|160:340,1,107.999996704102,0|0,3:0|0:0,0:0:0:0:
164,336,157320,1,0,0:0:0:0:
188,348,157429,6,0,B|248:372|248:372|324:328,1,135.000005149842,2|0,1:1|0:0,0:0:0:0:
364,176,157863,2,0,L|336:120,1,53.9999983520508,0|0,3:0|0:0,0:0:0:0:
228,188,158081,1,2,0:0:0:0:
224,216,158190,1,2,0:0:0:0:
220,244,158298,2,0,L|244:304,1,53.9999983520508,2|0,0:0|0:0,0:0:0:0:
168,372,158516,1,0,3:0:0:0:
156,168,158733,1,2,0:0:0:0:
88,316,158950,1,2,0:0:0:0:
240,296,159168,6,0,P|292:236|268:192,1,135.000005149842,4|0,3:0|0:0,0:0:0:0:
244,188,159493,1,0,0:0:0:0:
216,192,159602,2,0,L|108:205,1,107.999996704102,0|0,3:0|0:0,0:0:0:0:
84,208,159928,1,0,0:0:0:0:
56,212,160037,1,0,0:0:0:0:
188,132,160254,1,0,0:0:0:0:
4,264,160472,2,0,L|32:192,1,53.9999983520508,0|0,3:0|0:0,0:0:0:0:
24,100,160689,1,0,0:0:0:0:
236,12,160906,6,0,P|192:60|124:24,1,135.000005149842,4|0,1:0|0:0,0:0:0:0:
313,65,161341,2,0,P|345:57|381:65,1,53.9999983520508,0|0,3:0|0:0,0:0:0:0:
397,185,161559,1,2,0:0:0:0:
377,201,161667,1,2,0:0:0:0:
349,197,161776,2,0,P|338:175|350:131,1,53.9999983520508,2|0,0:0|0:0,0:0:0:0:
433,85,161993,1,2,3:2:0:0:
273,249,162211,1,0,3:0:0:0:
333,49,162428,1,2,3:2:0:0:
349,197,162646,6,0,P|297:186|266:144,1,107.999996704102,4|0,3:0|0:0,0:0:0:0:
220,16,162972,1,0,0:0:0:0:
220,16,163080,2,0,P|243:27|259:49,1,53.9999983520508,0|0,3:0|0:0,0:0:0:0:
266,144,163297,2,0,P|264:170|250:193,1,53.9999983520508
104,224,163515,2,0,P|80:212|64:190,1,53.9999983520508
58,96,163732,2,0,P|59:69|73:46,1,53.9999983520508
156,128,163950,2,0,P|168:152|160:216,1,53.9999983520508,0|0,3:0|0:0,0:0:0:0:
96,292,164167,1,0,0:0:0:0:
296,336,164385,6,0,P|300:252|252:208,1,107.999996704102,2|0,1:1|0:0,0:0:0:0:
396,300,164820,2,0,P|432:312|456:308,1,53.9999983520508,0|0,3:0|0:0,0:0:0:0:
488,192,165037,1,2,0:0:0:0:
468,172,165146,1,2,0:0:0:0:
444,156,165254,2,0,P|408:144|384:148,1,53.9999983520508,2|0,0:0|0:0,0:0:0:0:
188,200,165472,1,2,3:0:0:0:
288,328,165689,1,2,0:0:0:0:
320,112,165906,1,2,3:0:0:0:
460,256,166124,6,0,P|384:220|324:240,1,135.000005149842,4|0,3:0|0:0,0:0:0:0:
324,252,166450,1,0,0:0:0:0:
312,276,166559,2,0,P|260:296|188:260,1,107.999996704102,0|0,3:0|0:0,0:0:0:0:
136,136,166993,1,0,0:0:0:0:
256,28,167211,1,0,0:0:0:0:
400,188,167428,2,0,L|324:168,1,53.9999983520508,0|0,3:0|0:0,0:0:0:0:
256,148,167646,1,0,0:0:0:0:
180,344,167863,6,0,P|224:332|264:260,1,107.999996704102,4|0,3:1|0:0,0:0:0:0:
256,148,168298,2,0,L|188:132,1,53.9999983520508,0|0,3:0|0:0,0:0:0:0:
348,96,168515,1,2,0:0:0:0:
356,120,168624,1,2,0:0:0:0:
360,148,168732,2,0,P|357:177|335:211,1,53.9999983520508,2|0,0:0|0:0,0:0:0:0:
260,284,168950,1,2,0:0:0:0:
63,310,169167,6,0,P|111:328|151:302,1,90,2|0,0:0|0:0,0:0:0:0:
184,244,169385,2,0,L|172:152,1,90,2|0,0:0|0:0,0:0:0:0:
276,160,169602,6,0,B|340:140|340:140|412:152,1,135.000005149842,8|0,3:0|0:0,0:0:0:0:
436,212,169928,1,0,0:0:0:0:
364,288,170037,2,0,L|360:212,1,67.5000025749208,8|0,0:0|0:0,0:0:0:0:
392,364,170254,2,0,L|327:383,1,67.5000025749208
216,380,170472,2,0,P|211:351|240:288,1,67.5000025749208,0|0,3:0|0:0,0:0:0:0:
235,165,170689,2,0,P|244:197|236:229,1,67.5000025749208
40,288,170906,2,0,B|80:272|80:272|128:284|128:284|184:260,1,135.000005149842,8|0,0:0|0:0,0:0:0:0:
168,200,171233,1,0,0:0:0:0:
64,152,171341,6,0,L|104:213,1,67.5000025749208,0|0,3:0|0:0,0:0:0:0:
24,353,171559,2,0,L|40:283,1,67.5000025749208
168,200,171776,2,0,P|208:204|232:228,1,67.5000025749208,8|0,0:0|0:0,0:0:0:0:
300,288,171993,1,2,0:0:0:0:
364,304,172102,1,2,0:0:0:0:
424,272,172211,2,0,B|440:212|408:172|408:172|380:236,1,135.000005149842,0|0,3:0|0:0,0:0:0:0:
376,224,172537,1,0,0:0:0:0:
344,228,172646,2,0,P|296:212|276:168,1,67.5000025749208,10|0,0:0|0:0,0:0:0:0:
244,68,172863,2,0,P|242:117|202:148,1,67.5000025749208,2|0,0:0|0:0,0:0:0:0:
64,192,173080,6,0,P|172:192|200:220,1,135.000005149842,8|0,3:0|0:0,0:0:0:0:
228,260,173406,1,0,0:0:0:0:
149,334,173515,2,0,L|160:268,1,67.5000025749208,8|0,0:0|0:0,0:0:0:0:
286,200,173733,2,0,L|278:120,1,67.5000025749208
200,116,173950,2,0,L|188:28,1,67.5000025749208,0|0,3:0|0:0,0:0:0:0:
64,192,174167,2,0,P|108:188|148:152,1,67.5000025749208
264,68,174385,2,0,P|320:72|352:120,1,67.5000025749208,8|0,0:0|0:0,0:0:0:0:
388,28,174602,2,0,P|405:62|401:95,1,67.5000025749208
216,172,174820,6,0,P|191:199|191:245,1,67.5000025749208,0|0,3:0|0:0,0:0:0:0:
208,380,175037,2,0,P|196:344|156:322,1,67.5000025749208
52,344,175254,2,0,P|-4:284|4:256,1,67.5000025749208,8|0,0:0|0:0,0:0:0:0:
4,196,175472,1,2,0:0:0:0:
48,144,175580,1,2,0:0:0:0:
116,152,175689,2,0,B|184:164|196:96|196:96|164:136,1,135.000005149842,0|0,3:0|0:0,0:0:0:0:
156,216,176015,1,0,0:0:0:0:
188,228,176124,2,0,P|224:216|252:184,1,67.5000025749208,10|0,0:0|0:0,0:0:0:0:
288,48,176341,2,0,P|280:85|294:125,1,67.5000025749208,2|0,0:0|0:0,0:0:0:0:
472,228,176559,6,0,P|444:197|344:192,1,135.000005149842,8|0,3:0|0:0,3:0:0:0:
312,240,176885,1,0,0:0:0:0:
316,348,176993,2,0,P|290:369|257:373,1,67.5000025749208,8|0,0:0|0:0,0:0:0:0:
56,348,177211,2,0,B|87:334|87:334|120:340,1,67.5000025749208
196,284,177428,2,0,L|204:152,1,67.5000025749208,0|0,3:0|0:0,0:0:0:0:
128,88,177646,2,0,L|132:164,1,67.5000025749208
0,256,177863,2,0,B|64:228|64:228|148:256,1,135.000005149842,8|0,0:0|0:0,0:0:0:0:
136,316,178189,1,0,0:0:0:0:
256,312,178298,6,0,P|220:288|160:296,1,67.5000025749208,0|0,3:0|0:0,0:0:0:0:
168,184,178515,2,0,P|204:208|264:200,1,67.5000025749208
368,120,178733,2,0,P|332:132|308:164,1,67.5000025749208,10|0,0:0|0:0,0:0:0:0:
304,288,178950,1,2,0:0:0:0:
368,308,179059,1,2,0:0:0:0:
424,272,179167,2,0,P|447:188|408:132,1,135.000005149842,0|0,3:0|0:0,0:0:0:0:
396,136,179493,1,0,0:0:0:0:
368,120,179602,2,0,P|352:72|368:40,1,67.5000025749208,10|0,0:0|0:0,0:0:0:0:
488,32,179820,2,0,P|504:80|488:112,1,67.5000025749208,2|0,0:0|0:0,0:0:0:0:
372,212,180037,6,0,P|318:196|282:112,1,135.000005149842,8|0,3:0|0:0,0:0:0:0:
277,66,180363,1,0,0:0:0:0:
176,4,180472,2,0,P|150:26|138:57,1,67.5000025749208,8|0,0:0|0:0,0:0:0:0:
84,224,180689,2,0,P|109:202|121:171,1,67.5000025749208
264,0,180906,2,0,L|280:80,1,67.5000025749208,0|0,3:0|0:0,0:0:0:0:
204,204,181124,2,0,B|236:184|276:180|276:180|224:140,1,135.000005149842,0|8,0:0|0:0,0:0:0:0:
124,172,181450,5,0,0:0:0:0:
124,172,181559,2,0,B|108:204|128:241|128:241|72:216|24:256,1,180
60,316,182646,2,0,P|104:344|80:296,1,135
43,211,183515,6,0,P|32:175|43:139,1,76.5000014591217,4|0,3:0|0:0,0:0:0:0:
148,136,183733,2,0,P|184:126|211:100,1,76.5000014591217
288,32,183950,2,0,B|339:53|378:88|378:88|326:82,1,153.000002918243,8|0,0:0|0:0,0:0:0:0:
276,136,184276,1,0,0:0:0:0:
220,188,184385,2,0,P|209:229|235:290,1,76.5000014591217,0|0,3:0|0:0,0:0:0:0:
148,300,184602,2,0,P|178:330|243:338,1,76.5000014591217
319,360,184820,2,0,P|354:346|380:319,1,76.5000014591217,8|0,0:0|0:0,0:0:0:0:
456,348,185037,2,0,P|462:310|451:274,1,76.5000014591217
375,112,185254,6,0,P|333:170|365:236,1,153.000002918243,4|0,3:1|0:0,0:0:0:0:
432,196,185580,1,0,0:0:0:0:
456,124,185689,2,2,L|440:44,1,76.5000014591217,10|0,0:0|0:0,0:0:0:0:
312,0,185906,2,0,L|375:44,1,76.5000014591217
152,96,186124,2,2,L|90:149,1,76.5000014591217,10|0,0:0|0:0,0:0:0:0:
130,276,186341,2,0,L|138:200,1,76.5000014591217
312,332,186559,2,2,L|389:358,1,76.5000014591217,10|0,0:0|0:0,0:0:0:0:
478,258,186776,2,0,L|409:291,1,76.5000014591217
392,152,186993,6,0,B|344:120|364:52|364:52|432:96,1,153.000002918243,6|0,3:0|0:0,0:0:0:0:
292,152,187320,1,0,0:0:0:0:
292,152,187428,2,0,P|272:108|292:52,1,76.5000014591217,8|0,0:0|0:0,0:0:0:0:
120,20,187646,2,0,P|168:24|206:70,1,76.5000014591217
216,168,187863,2,0,L|180:264,1,76.5000014591217,2|0,3:0|0:0,0:0:0:0:
204,368,188080,2,0,B|216:312|216:312|252:284|252:284|272:220,1,153.000002918243,2|8,0:0|0:0,0:0:0:0:
280,364,188406,1,0,0:0:0:0:
280,364,188515,2,0,P|324:372|364:348,1,76.5000014591217
444,224,188733,6,0,P|388:272|464:292,1,153.000002918243,2|0,3:1|0:0,0:0:0:0:
512,252,189059,1,0,0:0:0:0:
512,176,189167,2,0,P|508:124|461:83,1,76.5000014591217,10|0,0:0|0:0,0:0:0:0:
408,8,189385,2,0,P|411:59|458:100,1,76.5000014591217
432,156,189602,2,0,B|352:180,1,76.5000014591217,2|0,3:0|0:0,0:0:0:0:
208,20,189820,2,0,P|308:72|300:116,1,153.000002918243,2|8,0:0|0:0,0:0:0:0:
260,152,190146,1,0,0:0:0:0:
212,208,190254,2,0,P|196:245|206:281,1,76.5000014591217
328,356,190472,6,0,P|303:324|266:314,1,76.5000014591217,4|0,3:0|0:0,0:0:0:0:
140,312,190689,2,0,L|60:336,1,76.5000014591217
269,314,190906,2,0,P|307:303|331:273,1,76.5000014591217,10|0,0:0|0:0,0:0:0:0:
408,308,191124,2,0,P|423:270|413:234,1,76.5000014591217
283,190,191341,2,0,P|245:189|211:207,1,76.5000014591217,2|0,3:0|0:0,0:0:0:0:
124,324,191559,2,0,B|156:236|92:248|132:152,1,153.000002918243,2|8,0:0|0:0,0:0:0:0:
124,100,191884,1,0,0:0:0:0:
164,32,191993,2,0,P|196:68|199:104,1,76.5000014591217,2|0,0:0|0:0,0:0:0:0:
211,206,192211,6,0,P|236:233|273:242,1,76.5000014591217,4|0,3:2|0:0,0:0:0:0:
444,232,192428,2,0,P|418:204|381:195,1,76.5000014591217,2|0,0:0|0:0,0:0:0:0:
280,176,192646,2,0,P|280:116|320:160,1,153.000002918243,10|0,0:0|0:0,0:0:0:0:
273,242,192972,1,0,0:0:0:0:
211,206,193080,2,0,P|163:198|111:218,1,76.5000014591217,2|0,3:0|0:0,0:0:0:0:
44,328,193297,2,0,B|56:296|96:276|96:276|128:296|171:278,1,153.000002918243,2|8,0:0|0:0,0:0:0:0:
312,296,193623,1,0,0:0:0:0:
312,296,193732,2,0,P|272:308|232:296,1,76.5000014591217,2|0,0:0|0:0,0:0:0:0:
408,340,193950,6,0,B|504:324|504:324|424:308,1,153.000002918243,4|0,3:0|0:0,0:0:0:0:
396,176,194276,1,0,0:0:0:0:
396,176,194385,2,0,P|380:220|412:280,1,76.5000014591217,10|0,0:0|0:0,0:0:0:0:
301,368,194602,2,0,P|317:324|285:264,1,76.5000014591217
256,176,194820,2,0,L|180:152,1,76.5000014591217,2|0,3:0|0:0,0:0:0:0:
32,224,195037,2,0,B|72:228|72:228|108:208|108:208|136:248|192:240,1,153.000002918243,2|8,0:0|0:0,0:0:0:0:
248,248,195363,1,0,0:0:0:0:
320,224,195472,2,0,P|368:224|408:248,1,76.5000014591217,2|0,0:0|0:0,0:0:0:0:
488,320,195689,6,0,P|437:323|457:309,1,153.000002918243,2|0,3:1|0:0,0:0:0:0:
340,332,196015,1,0,0:0:0:0:
340,332,196124,2,0,L|256:352,1,76.5000014591217,8|0,0:0|0:0,0:0:0:0:
124,372,196341,5,2,0:0:0:0:
96,300,196450,1,2,0:0:0:0:
160,256,196559,2,0,L|248:284,1,76.5000014591217,2|0,3:3|0:0,0:0:0:0:
324,268,196776,5,2,0:0:0:0:
400,252,196885,1,2,0:0:0:0:
473,235,196994,2,2,L|486:159,1,76.5000014591217,10|0,0:0|0:0,0:0:0:0:
332,24,197211,2,0,L|315:103,1,76.5000014591217,2|0,0:0|0:0,0:0:0:0:
196,200,197428,6,0,B|196:148|236:128|236:128|280:144|284:192|284:192|328:184|364:200|364:200|380:180|352:156,2,306.000005836487,8|8|8,0:0|0:0|0:0,0:0:0:0:
312,288,198515,1,0,1:0:0:0:
232,336,198733,2,0,B|152:304|84:412|-8:340,1,229.500004377365,8|0,0:0|0:0,0:0:0:0:
100,172,199167,6,0,P|99:286|4:196,2,306.000005836487,4|8|8,0:0|0:0|0:0,0:0:0:0:
24,36,200254,2,0,P|12:72|24:124,1,76.5000014591217,0|0,0:0|0:0,1:0:0:0:
64,228,200472,1,0,1:0:0:0:
176,120,200689,1,8,0:0:0:0:
308,200,200906,6,0,B|360:228|404:188|404:188|436:216|436:272|468:292|468:292|476:244|500:208,2,306.000005836487,4|8|0,0:0|0:0|0:0,0:0:0:0:
240,96,201993,2,0,P|204:160|236:208,1,76.5000014591217,0|0,1:0|0:2,0:0:0:0:
224,252,202211,1,8,0:0:0:0:
404,188,202428,2,0,P|428:144|428:104,1,76.5000014591217
331,42,202646,6,0,P|251:110|307:199,1,229.500004377365,2|0,0:1|0:1,0:0:0:0:
340,268,203080,2,0,L|192:304,1,153.000002918243,8|2,0:0|2:0,0:0:0:0:
120,348,203406,1,2,3:2:0:0:
52,312,203514,1,2,3:2:0:0:
211,202,203732,1,2,3:2:0:0:
392,312,203950,2,0,P|408:276|368:216,1,76.5000014591217,0|0,1:0|0:0,0:0:0:0:
324,152,204167,1,8,0:0:0:0:
204,44,204385,6,0,B|188:104|224:152|224:152|236:172|240:216|196:244|144:216|140:156|188:132,1,306.000005836487,4|8,0:0|0:0,0:0:0:0:
324,72,205037,1,0,0:0:0:0:
396,48,205146,1,0,0:0:0:0:
468,68,205254,2,0,P|491:137|448:197,1,153.000002918243,0|2,1:0|3:2,0:0:0:0:
264,148,205689,1,0,1:2:0:0:
144,280,205906,1,2,0:2:0:0:
320,344,206124,6,0,B|359:337|378:315|378:315|396:324|396:324|424:304|484:316,1,153.000002918243,2|0,0:1|0:1,0:1:0:0:
292,240,206558,1,0,1:2:0:0:
136,340,206775,1,2,3:2:0:0:
20,196,206993,2,0,P|108:172|180:208,1,153.000002918243,4|0,3:0|2:0,1:0:0:0:
392,288,207428,2,0,P|304:312|236:264,1,153.000002918243,2|0,1:2|2:0,0:0:0:0:
173,117,207863,6,0,L|160:210,1,76.5000014591217,4|0,0:0|2:0,2:0:0:0:
64,320,208080,2,0,B|24:352|24:352|52:236,2,153.000002918243,4|0|0,0:0|0:0|0:0,0:0:0:0:
268,208,208733,6,0,B|319:221|331:277|331:277|351:205|400:184|400:184|388:144|388:144|412:92,4,306.000005836487,4|8|4|0|0,0:0|0:0|0:0|0:0|0:0,0:0:0:0:
84,228,210689,1,0,2:0:0:0:
168,372,210906,2,0,P|236:356|244:268,1,153.000002918243,8|0,0:1|0:0,0:0:0:0:
200,136,211341,6,0,L|204:88,27,30,2|0|0|0|0|0|0|0|0|0|0|0|0|0|0|0|0|0|0|0|0|0|0|0|0|0|0|0,0:0|0:0|0:0|0:0|0:0|0:0|0:0|0:0|0:0|0:0|0:0|0:0|0:0|0:0|0:0|0:0|0:0|0:0|0:0|0:0|0:0|0:0|0:0|0:0|0:0|0:0|0:0|0:0,0:0:0:0:
352,192,213515,5,2,0:0:0:0:
248,224,213950,1,2,0:0:0:0:
208,324,214385,1,2,0:0:0:0:
128,152,214820,6,0,B|104:148|104:148|80:152,3,30,2|0|0|0,0:0|0:0|0:0|0:0,0:0:0:0:
180,200,215146,2,0,B|195:181|195:181|200:160,3,30,2|0|0|0,0:0|0:0|0:0|0:0,0:0:0:0:
116,220,215472,2,0,B|124:242|124:242|144:264,18,30,2|0|0|0|0|0|0|0|0|0|0|0|0|0|0|0|0|0|0,0:0|0:0|0:0|0:0|0:0|0:0|0:0|0:0|0:0|0:0|0:0|0:0|0:0|0:0|0:0|0:0|0:0|0:0|0:0,0:0:0:0:
180,200,216993,1,2,0:0:0:0:
168,324,217428,1,2,0:0:0:0:
52,348,217863,1,2,0:0:0:0:
344,328,218298,6,0,L|392:336,3,30,2|0|0|0,0:0|0:0|0:0|0:0,0:0:0:0:
236,348,218624,2,0,L|284:356,3,30,2|0|0|0,0:0|0:0|0:0|0:0,0:0:0:0:
128,368,218950,2,0,L|176:376,13,30,2|0|0|0|0|0|0|0|0|0|0|0|0|0,0:0|0:0|0:0|0:0|0:0|0:0|0:0|0:0|0:0|0:0|0:0|0:0|0:0|0:0,0:0:0:0:
20,272,220037,6,0,L|16:224,22,30,2|0|0|0|0|0|0|0|0|0|0|0|0|0|0|0|0|0|0|0|0|0|0,0:0|0:0|0:0|0:0|0:0|0:0|0:0|0:0|0:0|0:0|0:0|0:0|0:0|0:0|0:0|0:0|0:0|0:0|0:0|0:0|0:0|0:0|0:0,0:0:0:0:
163,281,221776,6,0,L|196:320,3,30,2|0|0|0,0:0|0:0|0:0|0:0,0:0:0:0:
208,224,222102,2,0,L|264:232,3,30,2|0|0|0,0:0|0:0|0:0|0:0,0:0:0:0:
192,156,222428,2,0,L|240:128,31,30,2|0|0|0|0|0|0|0|0|0|0|0|0|0|0|0|0|0|0|0|0|0|0|0|0|0|0|0|0|0|0|0,0:0|0:0|0:0|0:0|0:0|0:0|0:0|0:0|0:0|0:0|0:0|0:0|0:0|0:0|0:0|0:0|0:0|0:0|0:0|0:0|0:0|0:0|0:0|0:0|0:0|0:0|0:0|0:0|0:0|0:0|0:0|0:0,0:0:0:0:
184,305,224820,2,0,L|189:255,2,45
292,364,225254,6,0,P|384:288|296:200,1,251.999992309571,2|0,0:0|0:0,0:0:0:0:
188,244,226559,1,0,0:0:0:0:
24,200,226993,2,0,P|133:196|72:88,1,251.999992309571,2|0,0:0|0:0,0:0:0:0:
76,156,228298,1,0,0:0:0:0:
160,288,228733,6,0,B|204:264|248:296|248:296|224:224|272:196,1,188.999994232178,2|0,0:1|0:0,0:0:0:0:
332,100,229602,6,0,B|358:68|341:44|341:44|307:32|283:68|283:68|244:32|208:68,1,188.999994232178,2|0,0:0|0:0,0:0:0:0:
76,188,230472,6,0,B|104:200|130:187|130:187|152:176|301:254|200:337|104:256|171:227|212:195|212:195|284:148|224:68|172:136|224:168,1,440.999986541748,2|0,0:0|0:0,0:0:0:0:
276,240,232211,6,0,B|324:208|319:147|319:147|346:145|396:158|417:216|352:277|300:312|300:312|360:304|388:360,1,440.999986541748,6|0,0:0|0:0,0:0:0:0:
480,304,233950,6,0,P|472:204|512:124,1,188.999994232178,2|0,0:0|0:0,0:0:0:0:
441,85,234820,6,0,P|363:80|408:16,1,188.999994232178,2|0,0:0|0:0,0:0:0:0:
280,64,235689,6,0,B|256:64|236:44|236:44|204:108|112:72|112:72|80:64|68:20|100:-4|160:28|120:136|120:136|136:208|64:264|64:264|184:220|228:284,1,692.999978851319,6|0,0:0|0:0,0:0:0:0:
148,360,238298,6,0,P|272:376|320:316,1,188.999994232178,4|0,0:0|0:0,0:0:0:0:
243,169,239167,2,0,P|203:213|216:273,1,125.999996154785,2|0,0:0|0:0,0:0:0:0:
128,212,240037,1,0,0:0:0:0:
276,238,240472,1,0,0:0:0:0:
276,238,240689,2,0,P|308:255|327:277,2,62.9999980773926
200,232,241341,1,2,0:0:0:0:
124,332,241776,1,2,0:0:0:0:
240,284,242211,2,0,P|284:268|340:292,1,94.499997116089,2|0,0:0|0:0,0:0:0:0:
340,304,242646,6,0,L|388:180,1,125.999996154785,2|0,0:3|0:0,0:0:0:0:
440,248,243298,1,0,0:0:0:0:
440,248,243515,2,0,L|364:256,1,62.9999980773926
265,190,243950,2,0,L|353:182,1,62.9999980773926
377,254,244385,2,0,P|385:314|313:338,1,125.999996154785,2|0,0:0|0:0,0:0:0:0:
32,200,245254,1,2,0:0:0:0:
116,300,245472,2,0,P|67:267|58:238,1,62.9999980773926
96,176,245906,2,2,L|112:128,1,31.4999990386963
96,88,246124,6,0,P|140:140|160:112,1,125.999996154785,2|0,0:3|0:0,0:0:0:0:
240,60,246993,1,2,0:0:0:0:
308,120,247211,2,0,L|292:200,1,62.9999980773926,2|0,0:0|0:0,0:0:0:0:
264,268,247646,2,0,L|228:256,1,31.4999990386963,2|2,0:0|0:0,0:0:0:0:
224,312,247863,2,0,L|204:180,1,125.999996154785,2|0,0:3|0:0,0:0:0:0:
160,320,248733,1,2,0:0:0:0:
252,340,248950,2,0,P|292:339|328:312,1,62.9999980773926
352,256,249385,1,2,0:0:0:0:
421,302,249602,6,0,P|432:271|388:181,1,125.999996154785,2|0,0:3|0:0,0:0:0:0:
308,104,250472,1,0,0:0:0:0:
188,144,250689,2,0,P|231:148|259:136,1,62.9999980773926
284,8,251124,1,0,0:0:0:0:
352,40,251341,2,0,P|396:116|316:180,1,188.999994232178
220,160,252211,1,2,0:0:0:0:
148,244,252428,1,2,0:0:0:0:
212,344,252646,2,0,P|225:293|212:260,1,62.9999980773926,2|0,0:3|0:0,0:0:0:0:
320,332,253080,6,0,P|375:358|372:304,1,125.999996154785,2|0,0:1|0:0,0:0:0:0:
340,240,253950,1,0,0:0:0:0:
360,120,254385,1,0,0:0:0:0:
396,184,254602,1,0,0:0:0:0:
296,160,254820,2,0,P|212:144|136:172,1,157.499995193482,2|0,0:0|0:0,0:0:0:0:
136,184,255472,2,0,P|170:250|196:205,1,157.499995193482,2|0,0:3|0:0,0:0:0:0:
200,192,256124,2,0,L|196:112,1,62.9999980773926,2|0,0:0|0:0,0:0:0:0:
136,92,256559,6,0,P|220:108|260:72,1,125.999996154785,4|0,0:0|0:0,0:0:0:0:
192,40,257428,1,0,0:0:0:0:
260,92,257646,2,0,L|328:140,1,62.9999980773926
392,236,258080,2,0,P|328:216|252:240,1,125.999996154785,2|0,0:0|0:0,0:0:0:0:
216,276,258733,2,0,L|197:336,1,62.9999980773926,2|0,0:0|0:0,0:0:0:0:
112,304,259167,1,2,0:0:0:0:
148,236,259385,2,0,L|124:148,2,62.9999980773926,2|0|0,0:0|0:0|0:0,0:0:0:0:
216,276,260037,5,2,1:0:0:0:
276,220,260254,1,0,1:0:0:0:
348,264,260472,2,0,P|387:273|428:256,1,62.9999980773926
456,208,260906,1,0,0:0:0:0:
367,142,261124,2,0,L|380:204,1,62.9999980773926
348,264,261559,5,4,1:2:0:0:
440,176,261776,1,0,1:0:0:0:
300,160,261993,1,0,1:0:0:0:
384,56,262211,2,0,L|378:118,1,62.9999980773926,2|0,0:0|0:0,0:0:0:0:
360,216,262646,2,0,P|296:244|236:204,1,125.999996154785,0|0,1:0|0:0,0:0:0:0:
192,168,263298,1,0,0:0:0:0:
200,312,263515,5,4,1:0:0:0:
72,248,263733,2,0,P|60:192|88:172,1,94.499997116089,2|0,0:3|0:0,0:0:0:0:
108,172,264167,2,0,P|180:128|152:68,1,157.499995193482,2|0,0:0|0:0,0:0:0:0:
152,92,264820,2,0,P|172:136|240:132,1,94.499997116089,2|0,0:0|0:0,0:0:0:0:
232,136,265254,2,0,P|328:104|428:136,2,188.999994232178,2|0|0,0:0|0:0|0:0,0:0:0:0:
48,344,266993,6,0,P|88:348|140:320,1,76.5000014591217,4|0,3:0|0:0,0:0:0:0:
116,192,267211,2,0,P|92:224|90:283,1,76.5000014591217
176,272,267428,2,0,L|268:260,1,76.5000014591217,8|0,0:0|0:0,0:0:0:0:
380,199,267646,2,0,L|288:187,1,76.5000014591217
392,272,267863,2,0,P|448:228|440:144,1,153.000002918243,0|0,3:0|0:0,0:0:0:0:
384,104,268189,1,0,0:0:0:0:
308,120,268298,2,0,P|312:72|340:44,1,76.5000014591217,8|0,0:0|0:0,0:0:0:0:
466,83,268515,2,0,P|462:131|434:159,1,76.5000014591217
273,224,268733,6,0,P|345:214|391:271,1,153.000002918243,4|0,3:1|0:0,0:0:0:0:
360,340,269059,1,0,0:0:0:0:
288,368,269167,2,0,L|196:356,1,76.5000014591217,10|0,0:0|0:0,0:0:0:0:
64,284,269385,2,0,L|156:272,1,76.5000014591217
348,233,269602,2,0,L|256:221,1,76.5000014591217,10|0,0:0|0:0,0:0:0:0:
124,149,269820,2,0,L|216:137,1,76.5000014591217
408,98,270037,2,0,L|316:86,1,76.5000014591217,10|0,0:0|0:0,0:0:0:0:
184,14,270254,2,0,L|276:2,1,76.5000014591217
484,104,270472,6,0,B|454:209|454:209|447:179|436:171,1,153.000002918243,4|0,3:0|0:0,0:0:0:0:
356,240,270798,1,0,0:0:0:0:
356,240,270906,2,0,P|318:244|284:224,1,76.5000014591217,8|0,0:0|0:0,0:0:0:0:
208,212,271124,2,0,P|222:176|257:157,1,76.5000014591217
128,28,271341,2,0,L|264:16,1,76.5000014591217,2|0,3:0|0:0,0:0:0:0:
356,40,271559,2,0,P|376:124|320:180,1,153.000002918243,2|8,0:0|0:0,0:0:0:0:
228,88,271885,1,0,0:0:0:0:
228,87,271993,2,0,P|265:81|298:99,1,76.5000014591217
208,212,272211,6,0,B|164:232|99:209|99:209|180:188,1,153.000002918243,2|0,3:1|0:0,0:0:0:0:
212,288,272537,1,0,0:0:0:0:
284,308,272646,2,0,P|328:315|388:304,1,76.5000014591217,10|0,0:0|0:0,0:0:0:0:
512,248,272863,2,0,P|467:255|408:244,1,76.5000014591217
328,148,273080,2,0,L|340:252,1,76.5000014591217,2|0,3:0|0:0,0:0:0:0:
468,180,273298,2,0,B|504:96|504:96|460:140,1,153.000002918243,2|8,0:0|0:0,0:0:0:0:
336,223,273624,1,0,0:0:0:0:
336,223,273733,2,0,P|284:232|240:215,1,76.5000014591217
152,148,273950,6,0,P|175:187|100:272,1,153.000002918243,4|0,3:0|0:0,0:0:0:0:
48,256,274276,1,0,0:0:0:0:
120,284,274385,2,0,L|236:320,1,76.5000014591217,10|0,0:0|0:0,0:0:0:0:
336,276,274602,2,0,L|220:240,1,76.5000014591217
152,148,274820,2,0,L|162:73,1,76.5000014591217,2|0,3:2|0:0,0:0:0:0:
112,208,275037,2,0,P|180:212|224:128,1,153.000002918243,2|8,3:0|0:0,0:0:0:0:
236,72,275363,1,0,0:0:0:0:
308,44,275472,2,0,P|352:52|376:96,1,76.5000014591217,2|0,0:0|0:0,0:0:0:0:
284,216,275689,6,0,B|336:236|336:236|376:224|376:224|444:240,1,153.000002918243,4|0,3:2|0:0,0:0:0:0:
464,320,276015,1,0,0:0:0:0:
388,368,276124,2,0,L|380:288,1,76.5000014591217,10|0,0:0|0:0,0:0:0:0:
284,216,276341,2,0,L|292:136,1,76.5000014591217
459,79,276559,2,0,P|411:91|379:79,1,76.5000014591217,2|0,3:0|0:0,0:0:0:0:
184,120,276776,2,0,P|220:52|296:36,1,153.000002918243,2|8,0:0|0:0,0:0:0:0:
387,84,277102,1,0,0:0:0:0:
387,84,277211,2,0,L|368:176,1,76.5000014591217,2|0,0:0|0:0,0:0:0:0:
404,272,277428,6,0,B|496:256|496:256|456:236|392:240,1,153.000002918243,4|0,3:0|0:0,0:0:0:0:
332,244,277754,1,0,0:0:0:0:
260,264,277863,2,0,P|232:292|232:340,1,76.5000014591217,10|0,0:0|0:0,0:0:0:0:
308,384,278080,2,0,P|336:356|336:308,1,76.5000014591217
268,188,278298,6,0,P|260:134|315:68,1,76.5000014591217,2|0,3:0|0:0,0:0:0:0:
456,84,278515,2,0,P|488:144|456:244,1,153.000002918243,2|8,0:0|0:0,0:0:0:0:
396,208,278841,1,0,0:0:0:0:
332,244,278950,2,0,P|328:284|340:336,1,76.5000014591217,2|0,0:0|0:0,0:0:0:0:
176,368,279167,6,0,P|256:356|220:300,1,153.000002918243,2|0,3:1|0:0,0:0:0:0:
164,296,279493,1,0,0:0:0:0:
100,336,279602,2,0,L|88:240,1,76.5000014591217,8|0,0:0|0:0,0:0:0:0:
112,132,279820,5,2,0:0:0:0:
60,188,279928,1,2,0:0:0:0:
136,204,280037,2,0,P|176:208|228:168,1,76.5000014591217,2|0,3:0|0:0,0:0:0:0:
252,112,280254,5,2,0:0:0:0:
324,84,280362,1,2,0:0:0:0:
400,96,280471,2,0,P|415:130|410:168,1,76.5000014591217,10|0,0:0|0:0,0:0:0:0:
288,240,280689,2,0,P|290:277|312:308,1,76.5000014591217,10|0,0:0|0:0,0:0:0:0:
496,264,280906,6,0,B|440:212|360:252|360:252|396:216|408:168|408:168|376:196|308:208,2,306.000005836487,4|8|8,0:0|0:0|0:0,0:0:0:0:
424,332,281993,1,0,1:0:0:0:
248,356,282211,2,0,P|214:289|233:217,1,153.000002918243,8|0,0:0|0:0,0:0:0:0:
328,116,282646,2,0,B|336:68|296:28|296:28|336:52|385:39|390:37|424:-8|504:40,2,306.000005836487,4|8|8,0:0|0:0|0:0,0:0:0:0:
228,104,283733,6,0,P|190:100|154:114,1,76.5000014591217,0|0,0:0|0:0,2:0:0:0:
208,200,283950,1,8,0:0:0:0:
296,28,284167,1,0,0:0:0:0:
364,196,284385,6,0,P|428:92|356:140,2,306.000005836487,4|8|8,0:0|0:0|0:0,0:0:0:0:
288,96,285471,2,0,P|252:160|284:208,1,76.5000014591217,0|0,1:0|2:0,0:0:0:0:
232,280,285689,1,0,1:0:0:0:
72,184,285906,2,0,P|99:209|108:246,1,76.5000014591217,0|0,0:0|2:0,0:0:0:0:
11,289,286124,6,0,B|75:257|119:289|123:289|127:289|179:321|243:273,1,229.500004377365,2|0,0:1|0:0,2:0:0:0:
288,240,286558,2,0,P|372:224|460:260,1,153.000002918243,2|0,0:2|0:0,0:0:0:0:
424,336,286885,1,2,0:2:0:0:
352,312,286992,1,2,0:2:0:0:
176,372,287210,1,0,1:0:0:0:
56,264,287428,2,0,P|40:228|80:168,1,76.5000014591217,2|0,0:0|2:0,0:0:0:0:
112,128,287645,1,8,0:0:0:0:
223,23,287863,6,0,B|223:67|195:99|195:99|251:107|251:107|290:153|290:153|311:111|303:71|303:71|255:103,1,306.000005836487,4|2,0:0|0:2,0:0:0:0:
212,180,288515,1,0,0:2:0:0:
264,236,288624,1,0,0:2:0:0:
340,240,288732,2,0,P|392:152|384:56,1,153.000002918243,2|2,1:2|0:0,0:0:0:0:
256,28,289167,1,0,1:0:0:0:
128,192,289384,1,2,1:0:0:0:
276,340,289602,6,0,B|297:367|297:367|277:251,1,153.000002918243,4|0,0:0|2:0,0:0:0:0:
188,328,290036,1,0,1:0:0:0:
264,124,290253,1,2,3:2:0:0:
64,184,290471,6,0,P|152:160|224:188,1,153.000002918243,4|0,1:3|0:0,0:0:0:0:
340,100,290906,2,0,P|252:124|192:76,1,153.000002918243,2|0,1:2|2:0,0:0:0:0:
424,12,291341,6,0,L|408:96,1,76.5000014591217,4|0,0:0|0:0,0:0:0:0:
280,200,291559,2,0,B|283:249|283:249|320:283|320:283|329:363,2,153.000002918243,0|0|8,0:0|0:0|0:0,0:0:0:0:
128,128,292211,6,0,B|180:108|216:128|216:128|212:84|212:84|254:85|312:24|312:24|323:74,4,306.000005836487,4|8|4|0|2,0:0|0:0|0:0|0:0|0:0,0:0:0:0:
292,140,294167,1,2,3:0:0:0:
152,48,294385,1,2,0:0:0:0:
172,248,294602,1,2,2:0:0:0:
25,311,294820,6,0,P|11:265|33:219,1,90,2|0,1:0|0:0,0:0:0:0:
76,164,295254,1,2,0:0:0:0:
182,42,295689,1,2,0:0:0:0:
182,42,295906,2,0,P|284:32|360:100,1,180,2|0,0:0|0:0,0:0:0:0:
285,243,296776,2,0,P|272:201|288:160,1,90,2|2,0:0|0:0,0:0:0:0:
368,256,297211,1,2,0:0:0:0:
320,324,297428,6,0,L|208:316,1,94.499997116089,2|0,0:0|0:0,0:0:0:0:
132,328,297972,2,0,P|216:338|200:256,1,180,2|0,0:0|0:0,0:0:0:0:
180,272,299232,2,0,L|200:144,1,90,6|0,0:0|0:0,0:0:0:0:
240,120,299986,5,0,0:0:0:0:
316,160,300402,1,0,0:0:0:0:
376,100,300819,1,0,0:0:0:0:
377,187,301652,6,0,P|453:139|443:51,1,188.999994232178,2|0,0:0|0:0,0:0:0:0:
368,20,303527,5,4,0:2:0:0:
