osu file format v14

[General]
AudioFilename: audio.mp3
AudioLeadIn: 0
PreviewTime: 46993
Countdown: 0
SampleSet: Soft
StackLeniency: 0.3
Mode: 0
LetterboxInBreaks: 0
WidescreenStoryboard: 1

[Editor]
Bookmarks: 1379,12607,23835,35063,47695,58923,70151,81379,92607,104011,104186,104361,104537,104712,104888,105063,105239,105414,105590,105765,105940,117870,129098,140326,151554,164186,175414,186642,200677
DistanceSpacing: 0.8
BeatDivisor: 4
GridSize: 32
TimelineZoom: 2.899998

[Metadata]
Title:Last Train
TitleUnicode:Last Train
Artist:YooSanHyakurei
ArtistUnicode:瑶山百霊
Creator:KogumaX
Version:Lunatic
Source:東方Project
Tags:Yonder_Voice dnb 53ミニッツの青い海、ヒロシゲ36号 ~ Neo Super-Express/卯酉東海道 蒼羅杏 GhostFinal japanese video game touhou zun retrospective 53 minutes 花月夜 例大祭11 星月トラジコメディー c92 pop jpop PEPOTTI kogumano-putaro Satellite
BeatmapID:2303727
BeatmapSetID:1060639

[Difficulty]
HPDrainRate:6
CircleSize:4
OverallDifficulty:7.5
ApproachRate:9
SliderMultiplier:1.8
SliderTickRate:1

[Events]
//Background and Video events
0,0,"50609496_p0.png",0,0
//Break Periods
//Storyboard Layer 0 (Background)
//Storyboard Layer 1 (Fail)
//Storyboard Layer 2 (Pass)
//Storyboard Layer 3 (Foreground)
//Storyboard Layer 4 (Overlay)
//Storyboard Sound Samples

[TimingPoints]
-24,350.877192982456,4,2,2,50,1,0
1379,-133.333333333333,4,2,2,50,0,0
11905,-133.333333333333,4,2,99,50,0,0
12256,-133.333333333333,4,2,3,70,0,0
12607,-80,4,2,3,70,0,0
21554,-80,4,2,3,50,0,0
22081,-80,4,2,3,70,0,0
23835,-100,4,2,3,70,0,0
24800,-100,4,2,3,40,0,0
24888,-100,4,2,3,70,0,0
26204,-100,4,2,3,40,0,0
26291,-100,4,2,3,70,0,0
30239,-100,4,2,3,40,0,0
30326,-100,4,2,3,70,0,0
35063,-200,4,2,55,70,0,0
35765,-66.6666666666667,4,2,3,70,0,0
35940,-66.6666666666667,4,2,55,60,0,0
36467,-57.1428571428571,4,2,3,70,0,0
37519,-57.1428571428571,4,2,2,80,0,0
37870,-57.1428571428571,4,2,55,70,0,0
38104,-100,4,2,3,70,0,0
38572,-57.1428571428571,4,2,55,70,0,0
38806,-100,4,2,3,70,0,0
40326,-133.333333333333,4,2,55,70,0,0
40590,-100,4,2,3,90,0,0
40677,-79.9999999999999,4,2,3,70,0,0
41028,-100,4,2,3,70,0,0
42081,-133.333333333333,4,2,3,70,0,0
42256,-100,4,2,3,70,0,0
42783,-133.333333333333,4,2,3,70,0,0
42958,-40,4,2,3,70,0,0
43309,-90.9090909090909,4,2,3,70,0,0
43484,-60.6060606060606,4,2,3,70,0,0
43835,-90.9090909090909,4,2,2,90,0,0
44186,-90.9090909090909,4,2,55,50,0,0
44888,-66.6666666666667,4,2,3,70,0,0
46291,-100,4,2,1,70,0,0
46993,-100,4,2,1,70,0,0
47168,-100,4,2,2,70,0,0
47344,-100,4,2,3,70,0,0
47695,-66.6666666666667,4,2,3,80,0,0
48484,-66.6666666666667,4,2,3,50,0,0
48572,-66.6666666666667,4,2,3,80,0,0
49098,-66.6666666666667,4,2,10,60,0,0
49449,-66.6666666666667,4,2,3,80,0,0
49625,-66.6666666666667,4,2,10,60,0,0
50151,-66.6666666666667,4,2,3,80,0,0
50502,-66.6666666666667,4,2,10,60,0,0
50853,-66.6666666666667,4,2,3,80,0,0
51379,-66.6666666666667,4,2,10,60,0,0
51554,-66.6666666666667,4,2,3,80,0,0
51905,-66.6666666666667,4,2,10,60,0,0
52081,-66.6666666666667,4,2,3,80,0,0
54098,-66.6666666666667,4,2,3,50,0,0
54186,-66.6666666666667,4,2,3,80,0,0
54712,-66.6666666666667,4,2,10,60,0,0
55063,-66.6666666666667,4,2,3,80,0,0
55590,-66.6666666666667,4,2,10,60,0,0
55765,-66.6666666666667,4,2,3,80,0,0
55940,-66.6666666666667,4,2,10,60,0,0
56467,-66.6666666666667,4,2,3,80,0,0
60326,-66.6666666666667,4,2,10,60,0,0
60677,-66.6666666666667,4,2,3,80,0,0
60853,-66.6666666666667,4,2,10,60,0,0
61379,-66.6666666666667,4,2,3,80,0,0
61730,-66.6666666666667,4,2,10,60,0,0
62081,-66.6666666666667,4,2,3,80,0,0
62607,-66.6666666666667,4,2,10,60,0,0
62783,-66.6666666666667,4,2,3,80,0,0
63133,-66.6666666666667,4,2,10,60,0,0
63309,-66.6666666666667,4,2,3,80,0,0
64537,-66.6666666666667,4,2,10,60,0,0
64712,-66.6666666666667,4,2,3,80,0,0
65326,-66.6666666666667,4,2,3,50,0,0
65414,-66.6666666666667,4,2,3,80,0,0
65940,-66.6666666666667,4,2,10,60,0,0
66291,-66.6666666666667,4,2,3,80,0,0
66467,-66.6666666666667,4,2,10,60,0,0
66642,-66.6666666666667,4,2,3,80,0,0
66818,-66.6666666666667,4,2,10,60,0,0
66993,-66.6666666666667,4,2,3,80,0,0
68747,-133.333333333333,4,2,1,100,0,0
69449,-100,4,2,2,100,0,0
69800,-100,4,2,2,100,0,0
70151,-100,4,2,3,70,0,0
70940,-100,4,2,3,50,0,0
71028,-100,4,2,3,70,0,0
73747,-100,4,2,3,50,0,0
73835,-100,4,2,3,70,0,0
75063,-50,4,2,3,70,0,0
75590,-32.7868852459016,4,2,3,70,0,0
75765,-100,4,2,3,70,0,0
76554,-100,4,2,3,50,0,0
76642,-100,4,2,3,70,0,0
78572,-66.6666666666667,4,2,3,50,0,0
78923,-66.6666666666667,4,2,3,70,0,0
79098,-66.6666666666667,4,2,3,50,0,0
79449,-66.6666666666667,4,2,3,70,0,0
79625,-100,4,2,3,70,0,0
80677,-100,4,2,2,100,0,0
81028,-40,4,2,3,70,0,0
81204,-100,4,2,3,70,0,0
81379,-200,4,2,3,70,0,0
83484,-100,4,2,3,70,0,0
84186,-66.6666666666667,4,2,3,70,0,0
84888,-75.187969924812,4,2,3,70,0,0
85063,-66.6666666666667,4,2,1,5,0,0
85151,-66.6666666666667,4,2,3,70,0,0
85414,-66.6666666666667,4,2,3,70,0,0
86291,-100,4,2,3,70,0,0
87870,-100,4,2,1,5,0,0
87958,-100,4,2,3,70,0,0
88133,-100,4,2,1,5,0,0
88221,-100,4,2,3,70,0,0
91028,-100,4,2,3,70,0,0
91818,-66.6666666666667,4,2,1,5,0,0
91905,-1000,4,2,1,30,0,0
92607,-200,4,2,99,50,0,0
92629,-200,4,2,1,50,0,0
96818,-200,4,2,1,75,0,0
98046,-200,4,2,1,5,0,0
98221,-200,4,2,1,50,0,0
101730,-200,4,1,1,40,0,0
102344,-200,4,2,1,5,0,0
102432,-200,4,2,1,40,0,0
103747,-200,4,2,1,5,0,0
103835,-100,4,2,99,100,0,0
105940,-200,4,2,1,60,0,0
106642,-133.333333333333,4,2,70,100,0,0
106993,-133.333333333333,4,2,70,40,0,0
116467,-133.333333333333,4,2,3,40,0,0
117168,-79.9999999999999,4,2,99,40,0,0
117256,-79.9999999999999,4,2,3,60,0,0
117870,-66.6666666666667,4,2,3,80,0,0
119274,-66.6666666666667,4,2,10,70,0,0
119625,-66.6666666666667,4,2,3,80,0,0
119800,-66.6666666666667,4,2,10,70,0,0
120326,-66.6666666666667,4,2,3,80,0,0
120677,-66.6666666666667,4,2,10,70,0,0
121028,-66.6666666666667,4,2,3,80,0,0
121554,-66.6666666666667,4,2,10,70,0,0
121730,-66.6666666666667,4,2,3,80,0,0
124888,-66.6666666666667,4,2,10,70,0,0
125239,-66.6666666666667,4,2,3,80,0,0
125414,-66.6666666666667,4,2,10,70,0,0
125940,-66.6666666666667,4,2,3,80,0,0
127695,-133.333333333333,4,2,1,100,0,0
128397,-100,4,2,2,50,0,0
128747,-100,4,2,2,50,0,0
129098,-100,4,2,3,70,0,0
131554,-66.6666666666667,4,2,3,60,0,0
131905,-100,4,2,3,50,0,0
132256,-100,4,2,3,70,0,0
136818,-100,4,2,2,70,0,0
137168,-100,4,2,3,70,0,0
139975,-200,4,2,99,70,0,0
140063,-200,4,2,3,70,0,0
140326,-100,4,2,3,70,0,0
142432,-200,4,2,3,70,0,0
142607,-100,4,2,3,70,0,0
145590,-66.6666666666667,4,2,3,70,0,0
145940,-100,4,2,3,70,0,0
147344,-133.333333333333,4,2,3,70,0,0
147695,-133.333333333333,4,2,3,40,0,0
148133,-133.333333333333,4,2,3,70,0,0
148747,-100,4,2,3,40,0,0
148923,-100,4,2,3,70,0,0
149098,-100,4,2,3,40,0,0
149449,-100,4,2,3,70,0,0
149625,-100,4,2,3,40,0,0
149975,-100,4,2,3,70,0,0
150326,-66.6666666666667,4,2,3,70,0,0
150677,-100,4,2,3,70,0,0
150853,-66.6666666666667,4,2,3,70,0,0
151554,-200,4,2,55,70,0,0
152256,-100,4,2,3,70,0,0
152432,-66.6666666666667,4,2,55,60,0,0
152958,-66.6666666666667,4,2,3,70,0,0
153660,-133.333333333333,4,2,3,70,0,0
154011,-133.333333333333,4,2,2,80,0,0
154361,-133.333333333333,4,2,3,70,0,0
154537,-200,4,2,55,70,0,0
154712,-100,4,2,3,70,0,0
155414,-200,4,2,3,70,0,0
156116,-100,4,2,3,70,0,0
156818,-133.333333333333,4,2,55,90,0,0
157081,-133.333333333333,4,2,55,5,0,0
157168,-100,4,2,3,70,0,0
157870,-200,4,2,3,70,0,0
158572,-66.6666666666667,4,2,3,70,0,0
159274,-79.9999999999999,4,2,55,50,0,0
159449,-79.9999999999999,4,2,3,70,0,0
159975,-100,4,2,3,70,0,0
160326,-100,4,2,2,60,0,0
160677,-100,4,2,55,50,0,0
160853,-100,4,2,3,70,0,0
162783,-133.333333333333,4,2,3,70,0,0
163484,-133.333333333333,4,2,2,70,0,0
163835,-133.333333333333,4,2,3,70,0,0
164186,-66.6666666666667,4,2,3,80,0,0
165590,-66.6666666666667,4,2,10,70,0,0
165940,-66.6666666666667,4,2,3,80,0,0
166116,-66.6666666666667,4,2,10,70,0,0
166642,-72.992700729927,4,2,3,80,0,0
166993,-66.6666666666667,4,2,10,70,0,0
167344,-66.6666666666667,4,2,3,80,0,0
167870,-66.6666666666667,4,2,10,70,0,0
168046,-66.6666666666667,4,2,3,80,0,0
169800,-66.6666666666667,4,2,3,80,0,0
171204,-66.6666666666667,4,2,10,70,0,0
171554,-66.6666666666667,4,2,3,80,0,0
171730,-66.6666666666667,4,2,10,70,0,0
172256,-66.6666666666667,4,2,3,80,0,0
172607,-100,4,2,10,70,0,0
172958,-66.6666666666667,4,2,3,80,0,0
173484,-100,4,2,10,70,0,0
173660,-66.6666666666667,4,2,3,80,0,0
176818,-66.6666666666667,4,2,10,70,0,0
177168,-66.6666666666667,4,2,3,80,0,0
177344,-66.6666666666667,4,2,10,70,0,0
177870,-66.6666666666667,4,2,3,80,0,0
178221,-66.6666666666667,4,2,10,70,0,0
178572,-66.6666666666667,4,2,3,80,0,0
179098,-66.6666666666667,4,2,10,70,0,0
179274,-66.6666666666667,4,2,3,80,0,0
179625,-66.6666666666667,4,2,10,70,0,0
179888,-66.6666666666667,4,2,3,80,0,0
179975,-133.333333333333,4,2,3,80,0,0
180326,-66.6666666666667,4,2,3,80,0,0
181028,-66.6666666666667,4,2,10,70,0,0
181291,-66.6666666666667,4,2,3,80,0,0
181730,-66.6666666666667,4,2,2,80,0,0
181905,-66.6666666666667,4,2,3,80,0,0
181993,-66.6666666666667,4,2,2,80,0,0
182081,-66.6666666666667,4,2,3,80,0,0
182432,-66.6666666666667,4,2,10,70,0,0
182783,-66.6666666666667,4,2,3,80,0,0
182958,-66.6666666666667,4,2,10,70,0,0
183484,-66.6666666666667,4,2,3,80,0,0
183835,-50,4,2,3,80,0,0
184186,-53.475935828877,4,2,3,80,0,0
185239,-100,4,2,1,100,0,0
185940,-79.9999999999999,4,2,2,100,0,0
186291,-100,4,2,2,100,0,0
186642,-80,4,2,3,70,0,0
195590,-80,4,2,3,50,0,0
196116,-80,4,2,3,70,0,0
200849,487.80487804878,4,2,1,40,1,0
200849,-200,4,2,1,40,0,0
201353,594.059405940594,4,2,1,30,1,0
201353,-133.333333333333,4,2,1,30,0,0
201965,681.818181818182,4,2,1,30,1,0
204010,-100,4,2,1,5,0,0
204692,-100,4,2,1,30,0,0
207419,-100,4,2,1,5,0,0
207696,681.818181818182,4,2,1,30,1,0
207696,-79.9999999999999,4,2,1,30,0,0
210423,-79.9999999999999,4,2,1,25,0,0
210934,-79.9999999999999,4,2,1,20,0,0
211446,-1000,4,2,1,15,0,0
212298,-1000,4,2,1,10,0,0

[Colours]
Combo1 : 170,0,85
Combo2 : 136,55,55
Combo3 : 255,255,45
Combo4 : 181,0,0

[HitObjects]
2,157,1379,6,0,L|70:141,1,67.5000025749208
138,162,1730,2,0,L|206:146,1,67.5000025749208,0|0,3:0|0:0,0:0:0:0:
266,186,2081,1,0,0:0:0:0:
270,206,2256,1,0,2:0:0:0:
274,226,2432,1,0,0:0:0:0:
278,246,2607,1,0,0:0:0:0:
367,287,2783,6,0,L|375:354,1,67.5000025749208
445,242,3133,2,0,L|452:310,1,67.5000025749208,0|0,3:0|0:0,0:0:0:0:
365,177,3484,1,0,0:0:0:0:
385,173,3659,1,0,0:0:0:0:
405,169,3835,1,0,0:0:0:0:
425,165,4010,1,0,0:0:0:0:
512,74,4186,6,0,B|480:86|480:86|448:74,1,67.5000025749208
382,39,4537,2,0,B|350:27|350:27|318:39,1,67.5000025749208,0|0,3:0|0:0,0:0:0:0:
244,50,4888,1,0,0:0:0:0:
224,46,5063,1,0,0:0:0:0:
204,42,5239,1,0,0:0:0:0:
184,38,5414,1,0,0:0:0:0:
86,114,5590,6,0,B|98:146|98:146|86:178,1,67.5000025749208
10,86,5940,2,0,B|-2:53|-2:53|10:22,1,67.5000025749208,0|0,3:0|0:0,0:0:0:0:
1,170,6291,1,0,0:0:0:0:
5,190,6466,1,0,0:0:0:0:
9,210,6642,1,0,0:0:0:0:
87,230,6817,1,0,0:0:0:0:
79,311,6993,6,0,P|111:303|147:299,1,67.5000025749208,2|0,0:0|0:0,0:0:0:0:
196,354,7344,2,0,P|229:359|263:359,1,67.5000025749208,0|2,3:0|0:0,0:0:0:0:
322,313,7695,2,0,P|340:308|361:306,2,33.7500012874604
253,285,8046,1,0,3:0:0:0:
253,285,8221,1,0,0:0:0:0:
409,193,8397,6,0,P|402:160|401:126,1,67.5000025749208,2|0,0:0|0:0,0:0:0:0:
469,58,8747,2,0,P|476:90|478:124,1,67.5000025749208,0|2,3:0|0:0,0:0:0:0:
472,251,9098,2,0,P|488:248|505:244,2,33.7500012874604
380,263,9449,1,0,3:0:0:0:
380,263,9625,1,0,0:0:0:0:
401,126,9800,6,0,P|370:112|336:110,1,67.5000025749208,2|0,0:0|0:0,0:0:0:0:
277,64,10151,2,0,P|243:70|210:67,1,67.5000025749208,0|2,3:0|0:0,0:0:0:0:
142,34,10502,2,0,P|125:44|98:64,2,33.7500012874604
65,110,10853,1,0,3:0:0:0:
65,110,11028,1,0,0:0:0:0:
15,214,11204,6,0,L|23:294,1,67.5000025749208,2|0,0:0|0:0,0:0:0:0:
92,209,11554,1,0,3:0:0:0:
98,276,11730,1,0,0:0:0:0:
191,325,11905,5,4,0:0:0:0:
191,325,12256,5,10,0:0:0:0:
214,319,12344,1,0,0:0:0:0:
233,332,12432,1,2,0:0:0:0:
259,327,12519,1,0,0:0:0:0:
259,327,12607,6,0,L|373:317,1,112.5,4|0,1:0|0:0,0:0:0:0:
430,257,12958,2,0,P|451:307|442:362,1,112.5,8|0,0:0|0:0,0:0:0:0:
340,116,13309,1,0,0:0:0:0:
479,134,13484,1,0,1:0:0:0:
349,188,13660,1,8,0:0:0:0:
349,188,13835,1,0,0:0:0:0:
282,59,14011,6,0,P|226:51|164:73,1,112.5,0|2,1:0|0:0,0:0:0:0:
115,110,14274,1,0,0:0:0:0:
115,110,14361,2,0,P|61:126|6:118,1,112.5,10|2,0:0|0:0,0:0:0:0:
87,349,14712,6,0,P|100:324|98:297,1,56.25,2|0,0:0|0:0,0:0:0:0:
33,232,14888,2,0,B|18:253|18:253|47:244,1,56.25,2|0,1:2|0:0,0:0:0:0:
121,228,15063,1,10,0:0:0:0:
201,213,15239,1,2,0:0:0:0:
253,341,15414,6,0,B|308:321|306:368|368:349,1,112.5,0|0,1:0|0:0,0:0:0:0:
428,303,15765,2,0,P|482:307|510:353,1,112.5,8|0,0:0|0:0,0:0:0:0:
358,278,16116,1,0,0:0:0:0:
433,379,16291,1,0,1:0:0:0:
506,215,16467,2,0,B|496:163|496:163|487:157|487:157|478:108,1,112.5,8|0,0:0|0:0,0:0:0:0:
383,76,16818,5,2,1:2:0:0:
363,86,16905,1,0,0:0:0:0:
340,84,16993,1,2,0:0:0:0:
321,71,17081,1,0,0:0:0:0:
321,71,17168,6,0,L|257:93,1,56.25,10|0,0:0|0:0,0:0:0:0:
248,78,17344,2,0,L|184:100,1,56.25,2|0,0:0|0:0,0:0:0:0:
87,61,17519,5,0,1:0:0:0:
1,89,17695,1,0,1:0:0:0:
26,175,17870,1,4,3:0:0:0:
112,147,18046,1,4,3:0:0:0:
26,175,18221,6,0,P|71:159|114:297,1,225,4|8,1:0|0:0,0:0:0:0:
55,307,18747,1,0,0:0:0:0:
180,341,18923,2,0,L|291:311,1,112.5,0|0,0:0|1:0,0:0:0:0:
406,279,19274,1,8,0:0:0:0:
361,344,19449,1,0,0:0:0:0:
464,116,19625,5,0,1:0:0:0:
474,115,19712,1,0,0:0:0:0:
487,117,19800,1,2,0:0:0:0:
501,127,19887,1,0,0:0:0:0:
511,143,19975,1,10,0:0:0:0:
511,167,20063,1,0,0:0:0:0:
494,187,20150,1,2,0:0:0:0:
465,196,20238,1,0,0:0:0:0:
437,179,20326,6,2,L|381:189,1,56.25
366,215,20502,2,2,L|310:225,1,56.25,2|2,1:2|0:0,0:0:0:0:
255,178,20677,2,0,B|235:161|235:161|205:170,1,56.25,10|0,0:0|0:0,0:0:0:0:
243,247,20853,2,0,B|213:256|213:256|194:240,1,56.25,2|0,0:0|0:0,0:0:0:0:
79,187,21028,6,0,B|32:102|113:112|54:8,1,168.75,0|0,1:0|0:0,0:0:0:0:
2,76,21379,1,8,0:0:0:0:
146,136,21554,2,2,B|235:146|254:75|222:35|155:55,1,168.75,0|0,0:0|0:0,0:1:0:0:
132,6,21905,1,0,1:0:0:0:
146,136,22081,1,8,0:0:0:0:
146,136,22256,1,0,0:0:0:0:
160,266,22432,5,6,1:0:0:0:
271,240,22607,1,2,1:0:0:0:
356,262,22783,1,8,0:0:0:0:
236,336,22958,5,2,1:0:0:0:
347,362,23133,1,6,1:0:0:0:
432,340,23309,1,8,0:0:0:0:
443,258,23484,5,12,1:2:0:0:
156,347,23660,5,10,0:1:0:0:
229,123,23835,6,0,P|294:128|330:183,1,135,4|0,1:0|0:0,0:0:0:0:
317,211,24186,2,0,L|406:200,1,90,10|2,0:0|0:0,0:0:0:0:
466,160,24537,1,0,0:0:0:0:
372,281,24712,1,2,1:2:0:0:
372,281,24800,1,2,0:0:0:0:
372,281,24888,1,8,0:0:0:0:
396,128,25063,1,2,0:0:0:0:
492,60,25239,6,0,B|433:71|425:36|394:28|355:58,1,135,4|0,1:0|0:0,0:0:0:0:
292,30,25590,2,0,P|230:49|210:89,1,90,10|2,0:2|0:0,0:0:0:0:
144,51,25940,1,0,0:0:0:0:
71,35,26116,1,2,1:2:0:0:
71,35,26204,1,2,0:0:0:0:
71,35,26291,1,8,0:0:0:0:
115,173,26467,1,2,0:0:0:0:
64,112,26642,6,0,B|-8:117|7:215|7:215|15:257,1,180,4|8,1:0|0:0,0:0:0:0:
118,297,27168,2,0,B|159:270|159:270|238:211|171:127,1,180,2|2,0:0|1:2,0:0:0:0:
146,92,27695,1,8,0:0:0:0:
146,92,27870,1,2,0:0:0:0:
46,324,28046,5,2,1:3:0:0:
46,324,28133,1,0,0:0:0:0:
244,323,28309,5,2,3:0:0:0:
244,323,28397,2,0,P|289:329|340:294,1,90,10|0,0:0|0:0,0:0:0:0:
290,213,28747,5,0,0:0:0:0:
369,236,28923,1,2,1:3:0:0:
412,294,29098,1,10,0:0:0:0:
402,332,29274,1,2,1:3:0:0:
494,190,29449,6,0,B|491:149|491:149|508:124|508:124|502:47|502:47|463:30,1,180,0|8,1:0|0:0,0:0:0:0:
397,100,29975,1,2,0:0:0:0:
321,66,30151,1,2,0:0:0:0:
324,103,30239,1,2,0:0:0:0:
328,141,30326,1,2,1:2:0:0:
385,19,30502,1,8,0:0:0:0:
367,207,30677,1,2,0:0:0:0:
363,104,30853,6,0,P|293:124|268:211,2,135,0|0|2,1:0|0:0|0:0,0:0:0:0:
367,207,31554,2,0,B|411:221|411:221|457:204,1,90,0|2,0:0|1:2,0:0:0:0:
239,47,31905,2,0,B|195:33|195:33|149:50,1,90,8|2,0:0|0:0,0:0:0:0:
61,129,32256,6,0,P|125:127|147:187,1,135,0|0,1:0|0:0,0:0:0:0:
134,262,32607,1,8,0:0:0:0:
105,361,32783,1,2,0:0:0:0:
64,213,32958,2,0,P|44:270|22:343,2,135,0|0|2,0:0|0:0|0:0,0:0:0:0:
238,330,33660,6,0,L|327:337,1,90,4|0,1:0|0:0,0:0:0:0:
423,295,34011,2,0,L|512:302,1,90,8|2,0:0|0:0,0:0:0:0:
400,170,34361,1,2,0:0:0:0:
304,212,34537,1,0,1:0:0:0:
229,244,34712,1,10,0:2:0:0:
187,264,34888,1,2,0:0:0:0:
175,272,35063,6,0,B|254:260|233:315|315:316,1,135,6|0,1:2|0:0,0:0:0:0:
381,146,35765,6,0,P|414:141|447:146,1,67.5000025749208,10|0,1:2|0:0,0:1:0:0:
268,171,35940,2,0,P|237:156|212:133,1,67.5000025749208,2|0,0:3|0:0,0:1:0:0:
373,216,36116,2,0,P|388:245|395:278,1,67.5000025749208,2|0,0:3|0:0,0:1:0:0:
314,119,36291,2,0,P|317:85|332:55,1,67.5000025749208,2|0,0:3|0:0,0:1:0:0:
305,231,36467,6,0,P|242:278|165:289,1,157.500001502037,0|0,1:0|0:0,0:0:0:0:
98,362,36730,2,0,P|160:315|237:306,1,157.500001502037,0|0,1:0|0:0,0:0:0:0:
95,266,36993,1,0,1:0:0:0:
214,142,37168,6,0,B|245:149|245:149|225:210|168:219|121:180|141:123|141:123|73:102,1,236.250002253056,10|0,0:0|0:0,0:0:0:0:
171,53,37520,1,2,0:0:0:0:
194,72,37608,1,0,0:0:0:0:
231,71,37696,1,2,0:0:0:0:
267,48,37783,1,0,0:0:0:0:
290,9,37870,6,0,B|347:-13|335:16|396:2|396:2|382:79,1,157.500001502037,2|0,1:2|0:0,0:1:0:0:
382,77,38104,2,2,B|424:94|424:94|469:110|466:57|525:94,1,150,0|0,0:0|0:0,0:1:0:0:
316,274,38572,6,0,P|297:201|354:152,1,157.500001502037,10|0,0:2|0:0,0:0:0:0:
372,223,38806,2,2,B|402:213|402:213|402:213|402:213|433:205|433:205|441:188|441:188|486:176|486:176|473:196,1,150,0|0,0:0|0:0,0:1:0:0:
258,340,39274,1,0,1:0:0:0:
403,293,39449,6,0,L|408:322,2,30,0|0|0,3:0|3:0|3:0,0:0:0:0:
480,274,39625,2,0,L|496:359,2,60,2|2|2,3:0|3:0|3:0,0:0:0:0:
333,322,39975,5,8,0:0:0:0:
258,340,40150,1,0,1:0:0:0:
159,298,40326,2,0,P|119:307|71:321,1,67.5000025749208,2|0,1:2|1:0,0:0:0:0:
38,177,40677,6,0,P|115:194|221:222,1,168.75,4|0,1:2|0:0,0:0:0:0:
207,133,41028,2,0,P|244:140|273:217,1,90,2|0,0:0|0:0,0:0:0:0:
262,251,41379,1,8,0:0:0:0:
340,149,41554,1,2,0:0:0:0:
411,162,41730,1,2,0:0:0:0:
463,211,41905,2,0,P|474:239|472:268,1,45,2|0,3:2|0:0,0:0:0:0:
457,324,42080,5,0,1:0:0:0:
239,367,42256,2,2,P|310:312|385:263,1,180,0|0,0:0|1:0,0:1:0:0:
359,369,42783,1,8,0:0:0:0:
258,244,42958,1,2,0:1:0:0:
170,297,43133,1,2,0:1:0:0:
39,287,43309,2,2,P|59:273|79:258,1,49.5000015106202,0|0,0:0|0:0,0:1:0:0:
155,191,43484,6,0,P|178:116|121:69,1,148.500001416206,8|0,0:0|0:0,0:0:0:0:
67,102,43835,2,0,P|59:160|90:190,1,99.0000030212403
343,52,44186,2,2,B|334:57|263:22|244:69|227:120|261:165|313:200|336:118|408:144,1,297.000009063721,10|0,1:2|0:0,0:1:0:0:
487,73,44888,6,0,B|508:146|508:146|514:141|514:141|507:143|507:143|527:216|527:216|498:196,1,202.500007724762,0|0,1:0|0:0,0:0:0:0:
396,272,45239,2,0,P|460:268|490:325,1,135.000005149842,0|0,0:0|1:0,0:0:0:0:
334,315,45590,5,8,0:0:0:0:
305,384,45765,1,0,1:0:0:0:
237,294,45940,6,0,L|171:307,1,67.5000025749208,12|0,0:0|0:0,0:0:0:0:
247,315,46116,2,0,L|181:327,1,67.5000025749208,8|0,0:0|0:0,0:0:0:0:
304,240,46291,6,0,P|295:111|180:50,1,270,4|0,0:1|0:0,0:0:0:0:
105,46,46993,1,2,0:0:0:0:
30,40,47168,1,2,0:0:0:0:
36,67,47256,1,2,0:0:0:0:
42,94,47344,1,8,0:0:0:0:
105,46,47519,1,0,0:0:0:0:
0,249,47695,6,0,P|67:242|132:228,1,135.000005149842,4|0,1:0|0:0,0:0:0:0:
206,286,48046,2,0,P|272:271|339:265,1,135.000005149842,8|2,0:0|0:0,0:0:0:0:
411,324,48397,1,2,0:0:0:0:
411,324,48484,1,2,0:0:0:0:
411,324,48572,1,0,1:0:0:0:
497,223,48747,1,10,0:0:0:0:
413,247,48923,1,0,0:0:0:0:
432,123,49098,6,0,P|441:64|525:45,1,135.000005149842,4|0,1:2|0:2,0:0:0:0:
512,115,49449,1,8,0:2:0:0:
418,45,49625,2,0,L|277:61,1,135.000005149842,4|0,1:2|0:0,0:0:0:0:
209,27,49975,1,4,1:2:0:0:
147,79,50151,2,0,B|112:105|112:105|76:79|25:84,1,135.000005149842,10|0,0:0|0:0,0:0:0:0:
14,166,50502,6,0,P|105:226|63:313,1,202.500007724762,4|0,1:2|0:0,0:0:0:0:
163,163,50853,2,0,P|187:225|145:337,1,135.000005149842,8|0,0:0|0:0,0:0:0:0:
135,374,51204,1,2,0:0:0:0:
268,269,51379,1,4,1:2:0:0:
374,350,51555,1,8,0:0:0:0:
274,367,51730,1,0,0:0:0:0:
368,252,51905,6,0,B|446:239|446:239|456:249|456:249|510:240,1,135.000005149842,6|0,1:2|0:0,0:0:0:0:
465,150,52256,1,8,0:0:0:0:
374,164,52432,1,0,0:0:0:0:
391,336,52607,1,2,0:0:0:0:
483,324,52783,1,0,1:0:0:0:
475,237,52958,1,10,0:0:0:0:
383,249,53134,1,10,0:0:0:0:
364,251,53221,1,0,0:0:0:0:
345,253,53309,6,0,L|207:272,1,135.000005149842,4|0,1:0|0:0,0:0:0:0:
113,167,53660,2,0,L|247:185,1,135.000005149842,8|2,0:0|0:0,0:0:0:0:
89,76,54011,1,2,0:0:0:0:
47,96,54098,1,2,0:0:0:0:
29,124,54186,1,0,1:0:0:0:
186,13,54361,2,0,P|194:76|254:98,1,135.000005149842,10|0,0:0|0:0,0:0:0:0:
387,215,54712,6,0,B|408:146|408:146|379:91,1,135.000005149842,4|0,1:2|0:0,0:0:0:0:
493,21,55063,2,0,B|472:90|472:90|502:146,1,135.000005149842,10|0,0:0|0:0,0:0:0:0:
408,12,55414,1,0,0:0:0:0:
472,221,55590,1,4,0:0:0:0:
391,329,55765,2,0,P|324:341|235:352,1,135.000005149842,10|4,0:0|0:0,0:0:0:0:
0,299,56116,6,0,B|43:287|43:287|55:298|55:298|102:287|102:287|133:232|213:257,1,202.500007724762,4|0,1:2|0:0,0:0:0:0:
214,255,56467,1,8,0:0:0:0:
89,369,56642,1,0,0:0:0:0:
63,199,56818,1,2,0:0:0:0:
168,324,56993,1,0,1:0:0:0:
142,154,57168,1,8,0:0:0:0:
303,217,57344,1,2,0:0:0:0:
243,134,57519,5,6,1:2:0:0:
271,82,57695,5,0,1:0:0:0:
281,123,57870,5,10,1:2:0:0:
232,93,58046,5,0,1:0:0:0:
366,98,58221,6,0,L|402:90,4,33.7500012874604,4|0|0|0|0,1:0|0:0|0:0|0:0|0:0,0:0:0:0:
475,42,58572,2,0,L|507:34,4,33.7500012874604,4|0|0|0|8,1:0|0:0|0:0|0:0|0:0,0:0:0:0:
494,175,58923,6,0,P|501:272|460:318,1,135.000005149842,4|0,1:0|0:0,0:0:0:0:
277,213,59274,2,0,B|334:189|341:258|357:190|408:228,1,135.000005149842,10|0,0:0|0:0,0:0:0:0:
350,145,59625,1,0,0:0:0:0:
282,286,59800,1,0,1:0:0:0:
197,183,59975,1,10,0:0:0:0:
155,291,60151,1,0,0:0:0:0:
92,224,60326,6,0,B|113:171|65:137|34:143|-7:184,1,135.000005149842,4|0,1:2|0:0,0:0:0:0:
77,298,60677,1,10,0:0:0:0:
188,190,60853,2,0,P|164:115|91:66,1,135.000005149842,4|0,0:0|0:0,0:0:0:0:
14,238,61204,1,4,1:2:0:0:
286,139,61379,2,0,P|257:79|216:15,1,135.000005149842,10|0,0:0|0:0,0:0:0:0:
276,269,61730,6,0,P|371:259|518:247,1,202.500007724762,4|0,1:2|0:0,0:0:0:0:
445,232,62081,2,0,P|451:296|403:339,1,135.000005149842,10|0,0:0|0:0,0:0:0:0:
355,182,62432,1,0,0:0:0:0:
450,50,62607,1,4,1:2:0:0:
492,120,62783,1,10,0:0:0:0:
372,37,62958,5,0,0:0:0:0:
316,93,63133,2,0,B|272:133|272:133|246:118|197:121,1,135.000005149842,6|0,1:2|0:0,0:0:0:0:
0,92,63484,2,0,B|44:52|44:52|70:67|118:63,1,135.000005149842,10|0,0:0|0:0,0:0:0:0:
216,16,63835,1,2,0:0:0:0:
98,171,64011,1,8,1:0:0:0:
194,255,64186,1,2,1:2:0:0:
135,332,64361,1,8,0:0:0:0:
202,384,64537,6,0,P|270:368|338:372,1,135.000005149842,4|0,1:2|0:0,0:0:0:0:
482,262,64888,2,0,P|418:280|351:283,1,135.000005149842,8|0,0:0|0:0,0:0:0:0:
188,196,65239,1,2,0:0:0:0:
188,196,65326,1,2,0:0:0:0:
188,196,65414,1,0,1:0:0:0:
332,142,65590,1,10,0:0:0:0:
245,45,65765,1,0,0:0:0:0:
245,45,65940,6,0,L|381:29,1,135.000005149842,4|0,1:2|0:0,0:0:0:0:
505,10,66291,2,0,L|490:144,1,135.000005149842,10|4,0:0|0:2,0:0:0:0:
409,347,66642,2,0,L|394:212,1,135.000005149842,0|4,0:0|0:0,0:0:0:0:
351,222,66905,1,0,0:0:0:0:
309,237,66993,2,0,P|323:144|417:129,1,202.500007724762,10|0,0:0|0:0,0:0:0:0:
435,233,67344,6,0,L|503:225,1,67.5000025749208,2|0,1:2|0:0,0:0:0:0:
370,324,67519,2,0,L|302:332,1,67.5000025749208,0|0,1:0|0:0,0:0:0:0:
145,291,67695,6,0,P|186:289|213:295,1,67.5000025749208,10|0,1:2|0:0,0:0:0:0:
208,373,67870,2,0,P|175:376|142:370,1,67.5000025749208,2|0,1:2|0:0,0:0:0:0:
46,274,68045,5,2,1:2:0:0:
26,254,68133,1,0,1:0:0:0:
21,226,68221,1,0,1:0:0:0:
34,201,68308,1,0,1:0:0:0:
34,201,68397,6,0,B|31:167|31:167|78:133,1,67.5000025749208,8|2,1:0|1:2,0:0:0:0:
123,175,68572,2,0,B|126:209|126:209|79:243,1,67.5000025749208,2|2,1:2|1:2,0:0:0:0:
78,53,68747,6,0,B|133:29|195:65|134:110|190:147|261:120,1,202.500007724762,4|0,1:0|0:0,0:0:0:0:
321,110,69449,2,0,B|358:93|384:106|422:138|385:188,1,135
406,92,69800,2,0,L|450:83,3,45,2|0|2|0,0:0|0:0|0:0|0:0,0:0:0:0:
486,78,70151,6,0,L|497:168,1,90,4|0,1:0|0:0,0:0:0:0:
436,266,70502,2,0,P|425:308|389:332,1,90,8|0,0:0|0:0,0:0:0:0:
365,218,70853,1,2,0:0:0:0:
328,242,70940,1,2,0:0:0:0:
317,284,71028,1,0,1:0:0:0:
316,358,71204,1,8,0:0:0:0:
316,358,71379,1,0,0:0:0:0:
162,345,71554,5,0,1:0:0:0:
138,333,71642,1,0,0:0:0:0:
127,309,71729,1,2,0:0:0:0:
125,283,71817,1,0,0:0:0:0:
132,255,71905,1,10,0:0:0:0:
139,230,71993,1,0,0:0:0:0:
137,203,72081,1,2,0:0:0:0:
125,179,72168,1,0,0:0:0:0:
101,161,72256,6,0,P|78:154|37:165,1,45,2|0,0:0|0:0,0:0:0:0:
18,232,72432,2,0,P|39:225|61:226,1,45,2|0,1:2|0:0,0:0:0:0:
206,287,72607,6,0,P|228:288|249:281,1,45,10|0,0:0|0:0,0:0:0:0:
390,196,72783,2,0,P|367:195|346:202,1,45,10|0,0:0|0:0,0:0:0:0:
273,208,72958,6,0,B|254:168|292:160|262:99,1,90,0|0,1:0|0:0,0:0:0:0:
224,50,73309,2,0,P|268:45|313:41,1,90,8|0,0:0|0:0,0:0:0:0:
468,96,73660,1,2,0:0:0:0:
458,84,73747,1,2,0:0:0:0:
446,74,73835,2,0,L|402:79,1,45,0|0,1:0|0:0,0:0:0:0:
356,157,74011,2,0,P|360:200|398:220,1,90,8|0,0:0|0:0,0:0:0:0:
224,50,74361,5,2,1:2:0:0:
209,70,74449,1,0,0:0:0:0:
189,80,74536,1,2,0:0:0:0:
167,82,74624,1,0,0:0:0:0:
145,76,74712,1,10,0:0:0:0:
123,70,74800,1,0,0:0:0:0:
101,71,74888,1,2,0:0:0:0:
81,81,74975,1,0,0:0:0:0:
70,101,75063,6,0,P|99:150|126:197,1,90,0|0,1:0|0:0,0:0:0:0:
25,188,75239,2,0,P|47:227|70:265,1,90,0|0,1:0|0:0,0:0:0:0:
173,240,75415,6,0,B|182:254|179:284|179:284|153:267|148:252,1,90,4|0,3:0|0:0,0:0:0:0:
200,355,75590,2,0,B|191:341|194:311|194:311|220:328|225:343,2,90,4|4|4,3:0|3:0|3:0,0:0:0:0:
257,256,75765,6,0,B|292:238|307:276|355:254,1,90,0|0,1:0|0:0,0:0:0:0:
490,238,76116,2,0,P|452:214|408:219,1,90,8|0,0:0|0:0,0:0:0:0:
458,71,76467,1,2,0:0:0:0:
459,78,76554,1,2,0:0:0:0:
461,86,76642,2,0,L|469:129,1,45,0|0,1:0|0:0,0:0:0:0:
386,113,76818,2,0,P|374:75|324:60,1,90,8|0,0:0|0:0,0:0:0:0:
223,22,77168,6,0,B|94:12,1,90,0|2,1:0|0:0,0:0:0:0:
125,109,77432,1,0,0:0:0:0:
117,88,77519,2,0,B|28:82,1,90,10|2,0:0|0:0,0:0:0:0:
28,214,77870,5,2,0:0:0:0:
61,187,77958,1,0,0:0:0:0:
102,179,78046,2,0,P|104:203|113:232,1,45,2|0,1:2|0:0,0:0:0:0:
184,208,78221,2,0,P|182:184|173:155,1,45,10|0,0:0|0:0,0:0:0:0:
246,250,78397,2,0,L|289:239,1,45
165,294,78572,6,2,L|361:244,1,202.500007724762,0|0,1:0|0:0,0:1:0:0:
337,225,78923,2,0,P|309:284|341:308,1,67.5000025749208,8|0,0:0|0:0,0:0:0:0:
308,384,79098,6,2,L|505:335,1,202.500007724762,0|0,0:0|0:0,0:1:0:0:
489,309,79449,2,0,P|484:341|458:361,1,67.5000025749208,0|0,1:0|0:0,0:0:0:0:
431,263,79625,6,0,B|440:231|421:202|421:202|423:196|423:196|428:168|428:168|409:136,1,135,8|0,0:0|0:0,0:0:0:0:
389,111,79975,5,2,1:0:0:0:
347,171,80150,1,2,1:0:0:0:
355,245,80327,1,8,0:0:0:0:
263,103,80502,2,0,P|273:131|255:179,1,45,2|0,1:0|0:0,0:0:0:0:
283,217,80677,5,2,0:1:0:0:
262,247,80765,1,0,0:0:0:0:
240,253,80853,1,0,0:0:0:0:
224,252,80940,1,0,0:0:0:0:
218,248,81028,2,0,P|166:283|170:343,1,112.5,4|0,1:2|0:0,0:0:0:0:
340,314,81204,2,0,P|359:332|364:355,1,45,2|0,0:1|0:0,0:0:0:0:
293,369,81379,6,0,L|225:362,1,67.5,4|0,1:2|0:0,0:0:0:0:
163,328,81730,2,0,L|118:323,1,45,2|0,0:0|0:0,0:0:0:0:
61,146,82081,5,8,0:0:0:0:
136,211,82344,1,2,0:0:0:0:
154,113,82607,1,0,0:0:0:0:
29,140,82783,5,0,1:0:0:0:
146,241,83046,1,2,1:2:0:0:
174,88,83309,1,0,1:0:0:0:
119,155,83484,6,0,P|170:167|214:199,1,90,8|0,0:0|0:0,0:0:0:0:
389,65,83835,2,0,P|345:74|306:96,1,90,2|0,0:0|0:0,0:0:0:0:
398,97,84186,6,0,B|281:52|311:159|186:97,1,202.500007724762,0|0,1:0|0:0,0:0:0:0:
143,69,84537,1,2,0:0:0:0:
244,13,84712,1,0,0:0:0:0:
314,221,84888,6,0,B|319:189|349:172|349:172|409:188|418:233|373:234|364:164,1,180,8|0,0:0|0:0,0:0:0:0:
398,97,85239,2,0,B|386:61|357:45|357:45|374:76|410:85,1,135.000005149842,2|0,0:0|0:0,0:0:0:0:
492,101,85590,5,0,1:0:0:0:
507,245,85853,1,0,0:0:0:0:
511,280,85940,2,0,P|443:309|376:352,1,135.000005149842,2|0,0:0|1:0,0:0:0:0:
235,214,86291,6,0,L|271:241,1,45,10|0,1:2|0:0,0:0:0:0:
391,239,86467,2,0,L|350:257,1,45,2|0,0:0|0:0,0:0:0:0:
291,362,86642,2,0,L|297:318,1,45,10|0,0:0|0:0,0:0:0:0:
305,272,86818,1,0,0:0:0:0:
88,248,86993,6,0,P|156:277|223:320,1,135.000005149842,0|0,1:0|0:0,0:0:0:0:
224,328,87344,1,2,0:0:0:0:
115,338,87519,1,0,0:0:0:0:
148,112,87695,2,0,P|166:152|189:191,1,90,8|0,0:0|0:0,0:0:0:0:
210,80,87958,2,0,P|232:119|251:159,1,90,2|0,0:0|0:0,0:0:0:0:
249,228,88221,1,0,0:0:0:0:
78,198,88397,6,0,P|32:147|38:84,2,135,0|0|0,1:0|1:0|1:0,0:0:0:0:
118,118,89098,1,10,0:0:0:0:
107,30,89274,1,0,0:0:0:0:
189,63,89449,1,2,0:0:0:0:
262,36,89625,1,0,0:0:0:0:
303,55,89800,6,0,B|358:21|396:54|396:54|391:106,1,135,0|0,1:0|0:0,0:0:0:0:
376,164,90151,1,2,0:0:0:0:
359,239,90326,1,0,0:0:0:0:
406,328,90502,6,0,B|398:355|398:355|427:365|427:347|458:356,1,90,8|0,0:0|0:0,0:0:0:0:
507,291,90765,2,0,L|462:285,1,45,0|2,0:0|0:0,0:0:0:0:
265,325,91028,5,0,3:0:0:0:
246,334,91116,1,0,0:0:0:0:
226,329,91204,2,0,B|209:306|216:283|220:287|235:261|212:232|212:232|203:194|203:194|165:203|165:203|165:203|165:203|136:210|136:210|127:181|127:181|123:177|123:177|126:177|126:177|117:147|117:147|153:137,1,315,4|0,3:0|0:0,0:0:0:0:
225,121,91905,6,0,L|255:112,1,31.5,2|0,0:1|0:0,0:0:0:0:
338,92,92607,6,0,P|363:55|404:37,1,90,4|0,0:0|0:0,0:0:0:0:
385,152,93309,2,0,P|425:134|451:98,1,90,2|0,0:0|0:0,0:0:0:0:
311,166,94011,5,2,2:0:0:0:
300,238,94361,1,0,0:0:0:0:
290,311,94712,1,2,0:0:0:0:
358,284,95063,1,0,0:0:0:0:
230,367,95414,6,0,B|199:347|168:359|168:359|156:385,1,90,2|0,0:0|0:0,0:0:0:0:
28,312,96116,2,0,B|59:332|90:320|90:320|102:294,1,90,2|0,0:0|0:0,0:0:0:0:
0,104,96818,6,0,B|8:161|8:161|16:160|16:160|22:200,1,90,2|0,0:0|0:0,0:0:0:0:
76,96,97519,2,0,B|79:120|79:120|87:118|87:118|95:176,1,90,2|0,0:0|0:0,0:0:0:0:
204,42,98221,6,0,B|201:58|201:58|193:106|226:136,1,90,2|0,0:0|0:0,0:0:0:0:
283,162,98923,2,0,B|293:176|293:176|321:215|366:213,1,90,2|0,0:0|0:0,0:0:0:0:
296,247,99625,6,0,B|300:230|300:230|308:182|275:152,1,90,2|0,0:0|0:0,0:0:0:0:
217,127,100327,2,0,B|208:112|208:112|180:73|135:75,1,90,2|0,0:0|0:0,0:0:0:0:
381,209,101028,6,2,B|520:222|350:288|455:393|350:288|280:450|279:301,1,337.5,0|0,0:0|0:0,0:0:0:0:
381,209,102432,2,2,B|370:251|364:300|425:363|425:363|364:300|321:289|276:302,1,337.5,0|0,0:0|0:0,0:1:0:0:
303,223,103835,5,8,0:0:0:0:
38,109,105940,6,0,L|100:103,1,45
144,145,106291,2,0,L|188:149,1,45
251,101,106642,6,0,P|262:70|291:52,1,67.5000025749208,4|0,0:0|0:0,0:0:0:0:
333,154,106993,1,8,0:0:0:0:
326,119,107168,1,0,0:0:0:0:
336,187,107344,5,2,0:0:0:0:
318,221,107519,1,0,0:0:0:0:
282,236,107695,1,2,0:0:0:0:
251,222,107870,1,0,0:0:0:0:
336,187,108046,6,0,B|371:180|371:180|414:197,1,67.5000025749208
448,137,108397,2,0,B|477:148|477:148|512:141,1,67.5000025749208,8|0,0:0|0:0,0:0:0:0:
378,90,108747,5,2,0:0:0:0:
299,98,108923,1,0,0:0:0:0:
249,162,109098,1,2,0:0:0:0:
210,167,109274,1,0,0:0:0:0:
311,265,109449,6,0,L|394:257,1,67.5000025749208
391,384,109800,2,0,L|416:321,1,67.5000025749208,8|0,0:0|0:0,0:0:0:0:
298,348,110151,5,2,0:0:0:0:
335,334,110327,1,0,0:0:0:0:
251,338,110502,5,0,0:0:0:0:
239,313,110678,1,2,0:0:0:0:
248,287,110853,2,0,P|216:301|177:324,1,67.5000025749208
111,226,111204,2,0,P|143:235|176:242,1,67.5000025749208,8|0,0:0|0:0,0:0:0:0:
229,118,111554,2,0,P|252:162|242:210,1,101.250003862381,2|0,0:0|0:0,0:0:0:0:
179,172,111905,1,0,0:0:0:0:
238,281,112081,1,0,0:0:0:0:
152,369,112256,6,0,L|142:302,1,67.5000025749208
80,257,112607,2,0,L|70:190,1,67.5000025749208,8|0,0:0|0:0,0:0:0:0:
21,117,112958,5,2,0:0:0:0:
33,46,113133,1,0,0:0:0:0:
98,101,113309,1,0,0:0:0:0:
112,28,113484,1,2,0:0:0:0:
199,77,113660,6,0,P|227:18|291:4,1,135.000005149842,0|8,0:0|0:0,0:0:0:0:
259,125,114186,1,0,0:0:0:0:
291,191,114361,2,0,P|355:177|384:118,1,135.000005149842,2|0,0:0|0:0,0:0:0:0:
323,74,114888,1,2,0:0:0:0:
291,191,115063,6,0,B|241:220|239:175|180:216,1,101.250003862381
129,244,115414,2,0,P|109:241|89:206,1,33.7500012874604,8|0,0:0|0:0,0:0:0:0:
194,282,115590,1,0,0:0:0:0:
28,330,115765,1,2,0:0:0:0:
49,355,115940,1,0,0:0:0:0:
8,302,116116,5,0,0:0:0:0:
0,234,116291,1,2,0:0:0:0:
42,177,116467,5,4,0:0:0:0:
119,153,116642,5,0,0:0:0:0:
199,182,116818,5,8,0:0:0:0:
292,192,116993,5,2,3:0:0:0:
392,158,117168,6,0,P|430:167|451:203,1,56.25,4|0,0:0|0:0,0:0:0:0:
343,286,117344,2,0,P|364:303|392:306,1,56.25,2|0,0:0|0:0,0:0:0:0:
385,178,117519,6,0,P|423:187|444:223,1,56.25,12|0,0:0|0:0,0:0:0:0:
354,268,117695,2,0,P|375:285|403:288,1,56.25,2|0,0:0|0:0,0:0:0:0:
384,195,117870,6,0,B|321:175|321:210|249:201,1,135.000005149842,4|0,1:0|0:0,0:0:0:0:
114,121,118221,2,0,P|74:165|58:237,1,135.000005149842,8|0,0:0|0:0,0:0:0:0:
174,80,118572,1,2,0:0:0:0:
174,80,118660,1,0,0:0:0:0:
174,80,118747,1,0,1:0:0:0:
166,192,118923,1,10,0:0:0:0:
155,304,119098,1,0,0:0:0:0:
166,192,119274,6,0,B|203:174|230:178|229:192|230:207|266:215|311:186,1,135.000005149842,4|0,1:2|0:0,0:0:0:0:
375,146,119625,1,8,0:0:0:0:
307,126,119800,2,0,P|304:187|373:217,1,135.000005149842,4|0,0:0|0:0,0:0:0:0:
445,209,120151,1,4,1:2:0:0:
500,148,120326,2,0,P|502:86|434:57,1,135.000005149842,10|0,0:0|0:0,0:0:0:0:
384,318,120677,6,0,B|430:269|458:289|503:272|538:363,1,202.500007724762,4|0,1:2|0:0,0:0:0:0:
403,345,121028,2,0,B|334:376|347:313|252:339,1,135.000005149842,8|0,0:0|0:0,0:0:0:0:
197,330,121379,5,0,0:0:0:0:
227,108,121554,1,4,1:2:0:0:
255,263,121730,1,10,0:0:0:0:
275,176,121905,1,0,0:0:0:0:
175,198,122081,5,0,1:0:0:0:
90,182,122256,1,0,0:0:0:0:
5,168,122432,1,10,0:0:0:0:
107,96,122607,1,0,0:0:0:0:
142,269,122783,1,2,0:0:0:0:
243,83,122958,1,8,1:0:0:0:
293,305,123134,1,8,1:2:0:0:
268,194,123309,1,10,1:2:0:0:
306,181,123397,1,0,0:0:0:0:
344,170,123484,6,0,P|393:162|450:254,1,135.000005149842,4|0,1:0|0:0,0:0:0:0:
384,382,123835,2,0,L|368:247,1,135.000005149842,10|0,0:0|0:0,0:0:0:0:
347,69,124186,1,0,0:0:0:0:
475,100,124361,1,0,1:0:0:0:
423,4,124537,2,0,P|360:9|285:23,1,135.000005149842,10|0,0:0|0:0,0:0:0:0:
199,83,124888,6,0,B|188:56|188:56|144:96|144:96|164:160,1,135.000005149842,4|0,1:2|0:0,0:0:0:0:
120,276,125239,2,0,B|131:303|131:303|175:263|175:263|155:199,1,135.000005149842,8|4,0:0|1:2,0:0:0:0:
224,174,125590,6,0,B|275:131|329:157|329:157|320:178,1,135.000005149842,0|4,0:0|1:2,0:0:0:0:
95,182,125940,2,0,B|41:219|-10:189|-10:189|1:169,1,135.000005149842,10|0,0:0|0:0,0:0:0:0:
160,4,126291,6,0,P|176:20|196:60,1,67.5000025749208,0|0,1:0|0:0,0:0:0:0:
216,245,126467,2,0,P|236:217|247:186,1,67.5000025749208,0|0,1:0|0:0,0:0:0:0:
296,35,126642,6,0,L|304:103,1,67.5000025749208,10|0,1:2|0:0,0:0:0:0:
339,242,126818,2,0,L|346:174,1,67.5000025749208,0|0,1:0|0:0,0:0:0:0:
383,104,126993,5,2,1:2:0:0:
427,90,127081,1,0,1:0:0:0:
456,106,127169,1,0,1:0:0:0:
500,92,127256,1,0,1:0:0:0:
508,117,127344,1,8,1:0:0:0:
497,141,127432,1,0,1:2:0:0:
508,165,127519,2,0,B|491:182|491:182|506:249,1,67.5000025749208,0|0,1:0|1:0,0:0:0:0:
512,303,127695,6,0,B|475:368|407:371|356:352|381:293|428:287|457:318,1,202.500007724762,4|0,0:1|0:0,0:0:0:0:
324,269,128397,6,0,P|276:257|236:257,1,90
196,264,128660,1,0,0:0:0:0:
165,289,128747,2,0,P|135:321|112:360,1,90
31,251,129098,6,0,P|17:163|7:73,1,180,4|8,1:2|0:0,0:0:0:0:
95,33,129625,1,0,0:0:0:0:
87,149,129800,2,0,B|123:164|147:136|147:136|190:155|220:124,1,135,2|0,0:0|0:0,0:1:0:0:
234,11,130151,1,8,0:0:0:0:
182,67,130326,1,0,0:0:0:0:
306,77,130502,6,0,P|348:65|325:98,1,90,2|0,1:2|0:0,0:1:0:0:
380,192,130853,2,0,P|422:204|399:171,1,90,8|2,0:0|0:0,0:1:0:0:
414,105,131204,1,0,0:0:0:0:
317,159,131379,1,0,1:0:0:0:
307,265,131554,6,0,P|281:286|265:315,1,67.5000025749208,10|0,0:0|0:0,0:0:0:0:
317,277,131730,2,0,P|292:299|275:328,1,67.5000025749208,2|0,1:2|0:0,0:1:0:0:
321,298,131905,6,0,B|341:225|296:198|226:217,1,135,0|0,1:0|0:0,0:0:0:0:
220,212,132256,1,8,0:0:0:0:
157,168,132432,1,0,0:0:0:0:
44,192,132607,2,0,P|12:222|9:266,1,90,2|0,0:0|1:0,0:0:0:0:
115,318,132958,2,2,P|146:287|149:243,1,90,8|0,0:0|0:0,0:0:0:0:
123,50,133309,5,0,1:0:0:0:
221,35,133484,1,0,0:0:0:0:
295,25,133660,2,0,L|320:140,1,90,8|0,0:0|0:0,0:0:0:0:
444,0,134011,1,0,1:0:0:0:
463,87,134186,1,0,1:0:0:0:
404,188,134361,5,4,3:0:0:0:
391,248,134537,2,0,L|382:286,2,30,4|4|4,3:0|3:0|3:0,0:0:0:0:
412,255,134712,6,0,B|399:304|399:304|431:326,1,90,6|0,1:2|0:0,0:0:0:0:
314,229,135063,2,0,P|271:243|241:276,1,90,10|0,0:0|0:0,0:0:0:0:
275,381,135414,2,0,P|319:386|361:370,1,90,2|0,0:0|1:0,0:0:0:0:
204,384,135765,2,0,B|171:361|171:361|184:312,1,90,10|0,1:2|0:0,0:0:0:0:
22,162,136116,5,2,1:2:0:0:
38,240,136291,1,0,0:1:0:0:
116,221,136467,1,10,0:0:0:0:
100,143,136642,1,0,0:0:0:0:
187,61,136818,6,0,L|243:72,3,45,0|0|0|0,0:0|0:0|1:0|0:0,0:0:0:0:
187,61,137168,2,0,L|318:31,1,135,8|0,0:0|0:0,0:1:0:0:
356,22,137519,5,2,1:2:0:0:
375,100,137695,1,0,0:0:0:0:
446,184,137870,5,10,0:0:0:0:
316,174,138046,5,0,0:1:0:0:
394,155,138222,1,2,0:0:0:0:
478,84,138397,5,0,1:0:0:0:
489,281,138572,2,0,L|389:307,1,90,10|0,0:0|0:0,0:0:0:0:
251,296,138923,5,2,1:2:0:0:
177,294,139098,5,0,1:0:0:0:
103,263,139273,5,8,0:0:0:0:
47,183,139449,5,0,1:0:0:0:
62,80,139625,6,0,P|49:50|44:17,1,45,0|0,1:0|0:0,0:0:0:0:
117,16,139800,2,0,P|126:36|132:58,1,45,0|0,1:0|0:0,0:0:0:0:
118,128,139975,6,0,L|125:152,3,22.5,4|0|0|0,1:2|0:2|1:0|1:0,1:0:0:0:
194,105,140327,5,4,1:0:0:0:
224,136,140414,1,0,0:0:0:0:
261,138,140502,1,2,0:0:0:0:
292,123,140589,1,0,0:0:0:0:
303,107,140677,2,0,L|354:95,1,45,10|0,0:0|0:0,0:0:0:0:
417,119,140853,2,0,L|460:108,1,45,2|0,0:0|0:0,0:0:0:0:
363,171,141028,6,0,P|370:197|360:228,3,45,2|0|0|0,0:0|0:0|1:0|0:0,0:0:0:0:
340,321,141379,2,0,P|334:300|335:278,3,45,10|0|2|0,0:0|0:0|0:0|0:0,0:0:0:0:
295,221,141730,5,2,1:2:0:0:
275,235,141818,1,0,0:0:0:0:
250,233,141905,1,2,0:0:0:0:
225,215,141993,1,0,0:0:0:0:
196,200,142081,1,10,0:0:0:0:
186,197,142168,1,0,0:0:0:0:
173,198,142256,1,2,0:0:0:0:
158,207,142343,1,0,0:0:0:0:
149,223,142432,6,0,L|110:215,1,22.5,2|0,0:0|0:0,0:0:0:0:
54,202,142607,1,2,1:2:0:0:
22,84,142783,2,0,L|110:97,1,90,10|10,0:0|0:0,0:0:0:0:
99,312,143133,5,2,1:2:0:0:
115,309,143221,1,0,0:0:0:0:
135,307,143309,1,2,0:0:0:0:
166,301,143397,1,0,0:0:0:0:
198,297,143484,1,10,0:0:0:0:
235,269,143571,1,0,0:0:0:0:
259,266,143659,1,2,0:0:0:0:
275,275,143747,1,0,0:0:0:0:
283,281,143834,5,2,0:0:0:0:
295,287,143922,1,0,0:0:0:0:
305,286,144010,1,2,1:2:0:0:
311,283,144098,1,0,0:0:0:0:
318,280,144186,2,0,B|336:267|342:237,3,45,10|0|0|0,0:0|0:0|0:0|0:0,0:0:0:0:
370,136,144537,6,0,B|388:149|394:179,1,45,2|0,1:2|0:0,0:0:0:0:
406,277,144712,2,0,B|424:264|428:239,1,45,2|0,0:0|0:0,0:0:0:0:
434,167,144888,2,0,B|452:180|458:210,1,45,10|0,0:0|0:0,0:0:0:0:
473,239,145063,2,0,B|491:226|495:201,1,45,2|0,0:0|0:0,0:0:0:0:
509,132,145239,5,0,1:0:0:0:
447,71,145414,1,0,1:0:0:0:
447,71,145590,1,8,3:2:0:0:
359,63,145765,2,0,L|344:20,2,45,0|0|0,3:0|3:0|3:0,0:0:0:0:
359,63,145940,6,2,P|358:86|305:121,1,90,4|0,1:2|0:0,0:1:0:0:
236,72,146291,1,2,0:1:0:0:
210,68,146379,1,2,0:0:0:0:
185,65,146467,2,0,L|114:55,1,45
102,53,146642,2,2,B|97:96|97:96|139:140,1,90,2|0,0:0|1:0,0:1:0:0:
80,203,146993,2,2,B|116:227|116:227|164:214,1,90,8|0,0:0|0:0,0:1:0:0:
263,163,147344,5,2,1:0:0:0:
269,277,147519,5,0,3:0:0:0:
318,357,147695,5,10,0:1:0:0:
389,377,147870,5,0,0:1:0:0:
452,340,148046,5,2,0:1:0:0:
473,298,148133,1,0,0:0:0:0:
476,250,148221,2,0,L|462:193,1,33.7500012874604,2|0,1:2|0:0,0:0:0:0:
408,266,148397,2,0,L|394:209,1,33.7500012874604,10|0,0:0|0:0,0:0:0:0:
340,282,148572,2,0,L|326:225,1,33.7500012874604,2|0,0:0|0:0,0:0:0:0:
245,322,148747,6,0,P|232:276|223:223,1,90,2|0,1:0|0:0,0:0:0:0:
274,160,149098,1,10,0:1:0:0:
273,341,149274,6,0,P|260:295|251:242,1,90,2|0,0:1|0:0,0:1:0:0:
302,179,149625,1,2,1:0:0:0:
195,118,149800,5,10,0:1:0:0:
165,301,149975,1,0,0:0:0:0:
152,204,150151,6,0,L|90:195,1,45,6|0,1:0|0:0,0:0:0:0:
179,193,150326,2,0,P|74:177|-25:170,1,202.500007724762,2|0,1:0|0:0,0:0:0:0:
27,72,150677,6,0,L|89:81,1,45,6|0,1:0|0:0,0:0:0:0:
0,83,150853,2,0,P|105:99|204:106,1,202.500007724762,6|0,1:0|0:0,0:0:0:0:
281,79,151204,5,4,1:2:0:0:
229,301,151379,1,2,0:1:0:0:
334,165,151554,6,0,B|402:125|402:195|476:152,1,135,2|0,1:2|0:0,0:0:0:0:
405,250,152256,2,0,P|390:234|369:229,1,45,8|0,1:0|0:0,0:0:0:0:
348,238,152432,6,0,L|280:246,1,67.5000025749208,2|0,0:3|0:0,0:0:0:0:
129,290,152607,2,0,L|197:282,1,67.5000025749208,2|0,0:3|0:0,0:0:0:0:
168,150,152783,2,0,P|196:166|212:196,1,67.5000025749208,2|0,0:3|0:0,0:0:0:0:
274,352,152958,6,0,B|370:400|370:304|466:352,2,202.500007724762,0|0|0,1:0|1:0|1:0,0:0:0:0:
357,342,153660,6,0,P|399:320|455:332,1,101.250003862381,8|0,0:0|0:0,0:0:0:0:
500,270,154011,6,0,L|496:236,1,33.7500012874604,2|0,0:0|0:0,0:0:0:0:
460,130,154186,2,0,L|473:161,1,33.7500012874604,2|0,0:0|0:0,0:0:0:0:
394,232,154361,2,0,L|425:219,1,33.7500012874604,0|0,1:0|0:0,0:0:0:0:
374,142,154537,2,0,L|392:154,1,22.5,0|0,0:0|0:0,0:1:0:0:
374,142,154712,6,2,P|332:124|229:157,1,135,0|0,0:0|0:0,0:1:0:0:
171,137,155063,6,0,B|128:173|128:173|114:159|114:159|52:214,1,135,8|0,0:0|0:0,0:0:0:0:
52,272,155414,2,2,P|42:303|55:334,1,67.5,0|0,0:0|0:0,0:1:0:0:
122,297,155765,5,0,1:0:0:0:
195,288,155940,2,0,L|219:285,2,15
189,272,156116,2,0,L|249:264,2,60,2|2|2,3:0|3:0|3:0,0:0:0:0:
122,218,156467,1,8,0:0:0:0:
46,185,156642,1,0,1:0:0:0:
66,44,156818,2,0,P|91:88|111:134,1,101.250003862381,2|0,0:0|0:0,0:0:0:0:
91,24,157168,6,0,P|124:85|148:152,1,135,4|0,1:2|0:0,0:0:0:0:
161,220,157519,1,2,0:0:0:0:
144,293,157695,1,0,0:0:0:0:
69,222,157870,1,8,0:0:0:0:
218,169,158046,6,0,L|247:164,1,22.5,2|0,3:2|0:0,0:0:0:0:
218,272,158221,2,0,L|240:276,1,22.5,2|0,3:2|0:0,0:0:0:0:
287,221,158397,2,0,L|309:221,1,22.5,2|0,3:2|0:0,0:0:0:0:
287,221,158572,6,0,P|350:238|387:293,1,135.000005149842,0|0,1:0|0:0,0:0:0:0:
407,161,158835,2,2,P|456:206|463:271,1,135.000005149842,0|0,1:0|0:0,0:1:0:0:
442,342,159098,2,0,B|447:359|447:359|494:345,1,67.5000025749208,0|0,1:0|0:0,0:0:0:0:
327,352,159274,6,2,B|323:338|323:338|173:378,2,168.75,10|2|0,1:2|0:0|0:0,0:1:0:0:
382,245,159975,6,0,P|381:200|393:156,1,90,0|0,1:0|0:0,0:0:0:0:
446,58,160326,1,0,0:0:0:0:
446,58,160502,1,2,0:0:0:0:
497,157,160677,2,0,P|510:201|507:245,1,90,10|0,0:0|0:0,0:0:0:0:
309,304,161028,2,0,P|297:260|296:216,1,90
342,65,161379,6,0,P|295:72|241:82,1,90,0|0,1:0|0:0,0:0:0:0:
139,66,161730,1,0,0:0:0:0:
57,118,161905,1,0,1:0:0:0:
12,109,162081,2,0,P|56:101|100:94,1,90,8|0,0:0|1:0,0:0:0:0:
228,152,162432,6,0,P|237:171|244:204,1,45,2|0,3:0|0:0,0:0:0:0:
170,196,162607,2,0,P|169:217|161:249,1,45,2|0,3:0|0:0,0:0:0:0:
99,207,162783,2,0,B|78:255|44:265|44:265|38:261|38:261|41:266|41:266|78:255|10:276|32:338|63:328|88:295,1,202.500007724762,4|0,0:1|0:0,0:0:0:0:
169,348,163484,6,0,P|202:337|263:339,1,67.5000025749208,2|0,0:0|0:0,0:0:0:0:
314,348,163835,2,0,P|347:345|379:334,1,67.5000025749208,8|0,0:0|0:0,0:0:0:0:
456,384,164186,6,0,B|494:328|458:279|457:285|438:236|470:190,1,202.500007724762,4|0,1:0|0:0,0:0:0:0:
484,164,164537,1,8,0:0:0:0:
447,49,164712,1,2,0:0:0:0:
415,120,164888,6,0,L|347:140,1,67.5000025749208
272,122,165063,2,0,L|207:141,1,67.5000025749208,0|0,1:0|0:0,0:0:0:0:
197,234,165239,2,0,B|223:254|223:254|290:234|290:234|295:203,1,135.000005149842,8|2,0:0|0:0,0:0:0:0:
159,67,165590,6,0,P|121:37|29:55,1,135.000005149842,4|0,1:2|0:0,0:1:0:0:
50,260,165940,2,0,B|84:249|84:249|83:217,1,67.5000025749208,8|0,0:0|0:0,0:0:0:0:
108,153,166116,2,0,B|90:111|90:111|31:134|31:134|62:201,1,135.000005149842,4|0,0:0|0:0,0:0:0:0:
80,350,166467,6,0,P|111:337|126:299,1,67.5000025749208,4|0,0:0|0:0,0:0:0:0:
192,336,166642,2,0,L|314:315,1,123.300003480606,10|0,0:0|0:0,0:0:0:0:
248,212,166993,6,0,P|348:230|448:246,1,202.500007724762,4|0,1:2|0:0,0:0:0:0:
314,315,167344,2,0,P|357:205|283:118,1,202.500007724762,8|0,0:0|0:0,0:0:0:0:
262,86,167695,1,0,0:0:0:0:
196,54,167870,5,4,1:2:0:0:
119,37,168046,1,8,0:0:0:0:
161,37,168221,1,0,0:0:0:0:
107,231,168397,6,0,B|168:194|154:129|154:129|159:139|159:139|198:133|198:133|168:155,1,202.500007724762,0|0,1:0|0:0,0:0:0:0:
79,129,168747,2,0,P|80:159|30:153,1,67.5000025749208,8|0,0:0|0:0,0:0:0:0:
34,164,168923,6,0,P|34:132|64:121,1,67.5000025749208
220,215,169098,2,0,P|219:246|189:257,1,67.5000025749208,2|0,0:2|0:0,0:0:0:0:
52,300,169274,6,0,B|98:289|98:289|114:312,1,67.5000025749208,8|0,1:0|0:0,0:0:0:0:
197,355,169449,2,0,B|208:371|208:371|254:360,1,67.5000025749208,10|0,0:2|0:0,0:0:0:0:
354,381,169625,1,2,0:2:0:0:
464,322,169800,6,0,B|445:253|485:253|462:189|462:189|396:204,1,202.500007724762,0|0,1:0|0:0,0:0:0:0:
323,229,170151,1,10,0:0:0:0:
382,281,170326,1,0,0:0:0:0:
413,126,170502,1,0,0:0:0:0:
292,106,170677,6,0,P|307:135|338:147,1,67.5000025749208,0|0,1:0|0:0,0:0:0:0:
338,148,170853,2,0,L|209:186,1,135.000005149842,10|0,0:0|0:0,0:0:0:0:
152,118,171204,6,0,B|109:132|109:132|102:173|102:173|103:203|103:203|122:209|122:209|112:208|112:208|80:221|80:221|74:191,1,202.500007724762,4|0,1:2|0:0,0:0:0:0:
37,139,171554,2,0,P|12:162|3:218,1,67.5000025749208,8|0,0:0|0:0,0:0:0:0:
79,63,171730,2,0,P|105:25|126:16,1,67.5000025749208,4|0,0:0|0:0,0:0:0:0:
229,45,171905,6,0,P|258:82|262:104,1,67.5000025749208
216,241,172081,2,0,P|204:272|179:295,1,67.5000025749208,4|0,0:0|0:0,0:0:0:0:
279,190,172256,2,0,P|306:254|331:345,1,135.000005149842,8|0,0:0|0:0,0:0:0:0:
145,160,172607,6,0,P|118:224|93:315,1,135.000005149842,0|0,1:2|0:0,0:0:0:0:
76,355,172958,5,10,0:0:0:0:
42,206,173134,5,0,0:0:0:0:
164,85,173309,5,0,0:0:0:0:
230,205,173484,1,4,0:0:0:0:
187,292,173660,1,10,0:0:0:0:
224,354,173835,1,0,0:0:0:0:
224,354,174011,6,0,L|208:289,1,67.5000025749208,6|0,1:2|0:0,0:0:0:0:
292,297,174186,6,0,L|308:232,1,67.5000025749208,0|0,1:0|0:0,0:0:0:0:
197,196,174361,6,0,L|181:131,1,67.5000025749208,10|0,1:2|0:0,0:0:0:0:
283,93,174537,6,0,L|299:28,1,67.5000025749208,0|0,1:0|0:0,0:0:0:0:
362,156,174712,6,0,B|426:109|429:182|534:134,1,135.000005149842,4|0,1:0|0:0,0:0:0:0:
469,44,175063,1,4,1:0:0:0:
393,218,175239,1,8,0:0:0:0:
393,218,175414,6,0,B|365:139|415:80|490:113|490:148,1,202.500007724762,4|0,1:0|0:0,0:0:0:0:
498,172,175765,1,10,0:0:0:0:
476,264,175940,1,0,0:0:0:0:
320,175,176116,1,2,0:0:0:0:
297,266,176291,6,0,L|225:252,1,67.5000025749208,0|0,1:0|0:0,0:0:0:0:
374,312,176467,2,0,B|390:242|390:242|384:237|384:237|391:239|391:239|409:163,1,135.000005149842,8|0,0:0|0:0,0:0:0:0:
310,255,176818,6,0,B|267:246|267:246|286:373,1,135.000005149842,4|0,1:2|0:0,0:0:0:0:
198,215,177168,2,0,B|196:174|214:172|214:172|231:181,1,67.5000025749208,8|0,0:0|0:0,0:0:0:0:
234,281,177344,2,0,B|189:307|144:275|144:275|105:353,1,135.000005149842,4|0,1:2|0:0,0:0:0:0:
49,240,177695,2,0,B|-3:407|62:240|6:407,2,135.000005149842,4|10|0,1:2|0:0|0:0,0:0:0:0:
7,130,178221,6,0,P|106:119|235:118,1,202.500007724762,4|0,1:2|2:0,2:0:0:0:
50,36,178572,2,0,B|99:125|156:208,1,202.500007724762,8|0,2:0|2:0,2:0:0:0:
228,189,178923,5,0,2:0:0:0:
382,143,179098,1,4,1:2:0:0:
249,225,179273,5,10,2:0:0:0:
347,204,179449,1,0,2:0:0:0:
281,254,179625,6,0,B|319:286|319:349|319:349|349:294|407:288,1,202.500007724762,4|0,1:2|0:0,0:0:0:0:
466,264,179975,2,0,P|495:280|512:308,1,67.5000025749208,8|0,0:0|0:0,0:0:0:0:
445,350,180326,5,2,0:0:0:0:
458,187,180502,1,0,1:0:0:0:
297,174,180677,1,2,1:2:0:0:
284,336,180853,1,8,0:0:0:0:
198,265,181028,6,0,B|112:180|79:339|-12:245,1,202.500007724762,4|0,1:2|0:0,0:0:0:0:
86,352,181379,2,0,B|120:296|133:236|89:193|31:172,1,202.500007724762,10|0,0:0|0:0,0:0:0:0:
64,107,181730,2,0,B|45:88|45:88|85:82,1,67.5000025749208,2|0,3:2|0:0,0:0:0:0:
130,144,181905,6,0,L|196:132,1,67.5000025749208,0|0,1:0|0:0,0:0:0:0:
251,52,182081,2,0,B|304:43|304:43|338:123|274:107|298:184,1,202.500007724762,8|0,0:0|0:0,0:0:0:0:
418,109,182432,6,0,B|394:133|392:162|392:162|418:149|454:186|454:186|413:226|374:175,1,202.500007724762,4|0,1:2|0:0,0:0:0:0:
339,263,182783,1,8,0:0:0:0:
339,263,182958,2,0,B|369:307|337:351|283:367|258:284|207:336|189:382,1,202.500007724762,4|0,1:2|0:0,0:0:0:0:
252,168,183309,6,0,B|269:194|269:194|303:183,1,67.5000025749208,4|0,1:2|0:0,0:0:0:0:
177,196,183484,6,0,B|124:205|116:259|142:308|219:268|218:340|198:386,1,202.500007724762,8|0,0:0|0:0,0:0:0:0:
99,340,183835,5,0,1:0:0:0:
69,197,184011,1,0,1:0:0:0:
52,351,184186,1,8,1:0:0:0:
23,208,184362,1,8,1:0:0:0:
64,273,184537,5,2,1:2:0:0:
152,257,184712,5,0,1:0:0:0:
197,238,184800,1,0,1:0:0:0:
245,251,184888,1,2,1:2:0:0:
268,264,184975,1,0,1:0:0:0:
306,256,185063,1,2,1:2:0:0:
315,247,185151,1,0,1:0:0:0:
313,238,185239,6,0,B|263:256|227:234|227:210|227:210|227:234|149:193|121:261|118:280|140:312,1,270,4|0,1:0|0:0,0:0:0:0:
205,369,185940,2,0,B|259:402|326:370|326:370|316:320,1,168.75
389,281,186291,6,0,L|397:325,1,45,2|0,0:0|0:0,0:0:0:0:
465,263,186467,2,0,L|473:307,1,45,2|0,0:0|0:0,0:0:0:0:
389,281,186642,6,0,P|395:224|460:190,1,112.5,4|0,1:2|0:0,0:0:0:0:
498,47,186993,2,0,B|523:124|523:124|502:148,1,112.5,8|0,0:0|0:0,0:0:0:0:
369,29,187344,1,0,0:0:0:0:
422,100,187519,1,0,1:0:0:0:
287,58,187695,2,0,P|323:100|349:150,1,112.5,8|0,0:0|0:0,0:0:0:0:
251,136,188046,5,2,1:2:0:0:
232,125,188133,1,0,0:0:0:0:
204,122,188221,1,2,0:0:0:0:
173,131,188309,1,0,0:0:0:0:
148,156,188397,1,10,0:0:0:0:
117,181,188485,1,0,0:0:0:0:
70,177,188573,1,2,0:0:0:0:
35,149,188660,1,0,0:0:0:0:
34,103,188747,6,0,B|63:95|63:95|97:114,3,56.25,2|0|0|0,0:0|0:0|1:0|0:0,0:0:0:0:
117,181,189098,2,0,L|122:236,1,56.25,10|0,0:0|0:0,0:0:0:0:
65,286,189274,2,0,L|71:343,1,56.25,2|0,0:0|0:0,0:0:0:0:
164,305,189449,6,0,P|217:290|267:313,1,112.5,0|0,1:0|0:0,0:0:0:0:
390,259,189800,2,0,P|440:282|494:268,1,112.5,8|0,0:0|0:0,0:0:0:0:
341,199,190151,1,0,0:0:0:0:
357,367,190326,1,0,1:0:0:0:
396,143,190502,2,0,P|447:153|445:205,1,112.5,8|0,0:0|0:0,0:0:0:0:
326,126,190853,5,2,1:2:0:0:
293,143,190940,1,0,0:0:0:0:
261,134,191028,1,2,0:0:0:0:
236,115,191116,1,0,0:0:0:0:
218,95,191204,1,8,0:0:0:0:
193,89,191291,1,0,0:0:0:0:
172,90,191379,1,0,0:0:0:0:
156,99,191467,1,0,0:0:0:0:
156,99,191554,6,0,L|100:105,1,56.25,0|0,1:0|0:0,0:0:0:0:
156,190,191730,2,0,L|100:184,1,56.25,0|0,1:0|0:0,0:0:0:0:
42,146,191905,2,0,P|26:153|12:166,4,37.5,4|4|4|4|4,3:0|3:0|3:0|3:0|3:0,0:0:0:0:
42,146,192256,6,0,P|97:142|151:158,1,112.5,0|0,1:0|0:0,0:0:0:0:
194,354,192607,2,0,P|210:300|205:244,1,112.5,8|0,0:0|0:0,0:0:0:0:
116,249,192958,1,0,0:0:0:0:
250,152,193133,1,0,1:0:0:0:
305,314,193309,2,0,P|360:318|420:326,1,112.5,8|0,0:0|0:0,0:0:0:0:
399,221,193660,5,2,1:2:0:0:
431,209,193747,1,0,0:0:0:0:
463,205,193835,2,0,P|491:210|503:241,1,56.25,2|0,0:0|0:0,0:0:0:0:
400,140,194011,5,10,0:0:0:0:
352,160,194098,1,0,0:0:0:0:
320,161,194186,1,2,0:0:0:0:
295,154,194274,1,0,0:0:0:0:
282,147,194361,6,0,P|254:152|242:183,1,56.25,2|0,0:0|0:0,0:0:0:0:
328,82,194537,2,0,P|355:78|369:55,1,56.25,2|0,1:2|0:0,0:0:0:0:
171,22,194712,5,10,0:0:0:0:
218,27,194800,1,0,0:0:0:0:
252,60,194888,1,2,0:0:0:0:
251,80,194975,1,0,0:0:0:0:
251,80,195063,6,0,P|197:69|152:118,1,112.5,0|0,1:0|0:0,0:0:0:0:
61,249,195414,1,8,0:0:0:0:
0,186,195590,2,2,B|105:128|110:232|215:174,1,225,0|0,0:0|1:0,0:1:0:0:
0,313,196116,1,8,0:0:0:0:
146,109,196467,5,2,1:0:0:0:
165,271,196642,1,2,1:0:0:0:
165,271,196818,1,8,0:0:0:0:
202,55,196993,5,2,1:0:0:0:
237,304,197168,1,2,1:0:0:0:
237,304,197344,1,0,0:0:0:0:
136,193,197519,5,12,1:2:0:0:
400,157,197695,2,0,L|505:142,1,56.25,2|0,0:1|0:0,0:0:0:0:
436,70,200849,6,0,L|481:78,1,45,2|0,0:0|0:0,0:0:0:0:
368,38,201353,1,2,0:0:0:0:
324,45,201650,1,0,0:0:0:0:
225,31,201965,6,0,P|167:96|175:183,1,180,2|0,0:0|0:0,0:0:0:0:
78,139,203328,2,0,P|69:226|127:291,1,180,2|0,0:0|0:0,0:0:0:0:
165,190,204692,6,0,B|403:128|167:211|339:160,2,180,2|0|2,0:0|0:0|0:0,0:0:0:0:
93,210,206737,1,2,0:0:0:0:
165,190,207696,6,0,P|271:176|434:160,1,225,2|2,0:0|0:0,0:0:0:0:
474,157,208718,1,0,0:0:0:0:
474,157,209059,1,2,0:0:0:0:
474,157,209400,1,0,0:0:0:0:
438,170,209741,5,2,0:0:0:0:
388,163,210082,5,2,0:0:0:0:
315,136,210423,5,2,0:0:0:0:
220,130,210934,5,2,0:0:0:0:
120,179,211446,6,0,L|97:174,1,22.5,2|2,0:0|0:0,0:0:0:0:
