osu file format v14

[General]
AudioFilename: audio.mp3
AudioLeadIn: 0
PreviewTime: 46993
Countdown: 0
SampleSet: Soft
StackLeniency: 0.2
Mode: 0
LetterboxInBreaks: 0
WidescreenStoryboard: 1

[Editor]
Bookmarks: 1379,12607,23835,35063,47695,58923,70151,81379,92607,103923,104011,104098,104186,104274,104361,104449,104537,104625,104712,104800,104888,104975,105063,105151,105239,105326,105414,105502,105590,105677,105765,105853,105940,117870,129098,140326,151554,164186,175414,186642,200677,212639
DistanceSpacing: 0.8
BeatDivisor: 4
GridSize: 32
TimelineZoom: 2.399999

[Metadata]
Title:Last Train
TitleUnicode:Last Train
Artist:YooSanHyakurei
ArtistUnicode:瑶山百霊
Creator:KogumaX
Version:Collab Extra
Source:東方Project
Tags:Yonder_Voice dnb 53ミニッツの青い海、ヒロシゲ36号 ~ Neo Super-Express/卯酉東海道 蒼羅杏 GhostFinal japanese video game touhou zun retrospective 53 minutes 花月夜 例大祭11 星月トラジコメディー c92 pop jpop PEPOTTI kogumano-putaro Satellite
BeatmapID:2220692
BeatmapSetID:1060639

[Difficulty]
HPDrainRate:6
CircleSize:4
OverallDifficulty:8
ApproachRate:9.3
SliderMultiplier:1.8
SliderTickRate:1

[Events]
//Background and Video events
0,0,"50609496_p0.png",0,0
//Break Periods
//Storyboard Layer 0 (Background)
//Storyboard Layer 1 (Fail)
//Storyboard Layer 2 (Pass)
//Storyboard Layer 3 (Foreground)
Sprite,Foreground,Centre,"SB\White Effect.png",320,240 F,0,1232,1758,0,0.8 M,0,1232,35267,542,408 V,0,1232,35267,0.7,0.25 F,0,1758,34740,0.8 F,0,34740,35267,0.8,0
Sprite,Foreground,Centre,"SB\PEPOTTI.png",320,240 F,0,1407,1758,0,1 M,0,1407,35091,542,408 S,0,1407,35091,0.4 F,0,34740,35091,1,0
Sprite,Foreground,Centre,"SB\White Effect.png",320,240 F,0,34916,35442,0,0.8 M,0,34916,47898,100,100 V,0,34916,47898,0.7,0.25 F,0,35442,47372,0.8 F,0,47372,47898,0.8,0
Sprite,Foreground,Centre,"SB\KogumaX.png",320,240 F,0,35091,35442,0,1 M,0,35091,47723,100,100 S,0,35091,47723,0.4 F,0,47372,47723,1,0
Sprite,Foreground,Centre,"SB\White Effect.png",320,240 F,0,47547,48074,0,0.8 M,0,47547,70354,542,408 V,0,47547,70354,0.7,0.25 F,0,48074,69828,0.8 F,0,69828,70354,0.8,0
Sprite,Foreground,Centre,"SB\PEPOTTI.png",320,240 F,0,47723,48074,0,1 M,0,47723,70179,542,408 S,0,47723,70179,0.4 F,0,69828,70179,1,0
Sprite,Foreground,Centre,"SB\White Effect.png",320,240 F,0,70003,70530,0,0.8 M,0,70003,104039,100,100 V,0,70003,104039,0.7,0.25 F,0,70530,103512,0.8 F,0,103512,104039,0.8,0
Sprite,Foreground,Centre,"SB\KogumaX.png",320,240 F,0,70179,70530,0,1 M,0,70179,103863,100,100 S,0,70179,103863,0.4 F,0,103512,103863,1,0
Sprite,Foreground,Centre,"SB\White Effect.png",320,240 F,0,105793,106319,0,0.8 M,0,105793,118074,100,100 V,0,105793,118074,0.7,0.25 F,0,106319,117547,0.8 F,0,117547,118074,0.8,0
Sprite,Foreground,Centre,"SB\KogumaX.png",320,240 F,0,105968,106319,0,1 M,0,105968,117898,100,100 S,0,105968,117898,0.4 F,0,117547,117898,1,0
Sprite,Foreground,Centre,"SB\White Effect.png",320,240 F,0,117723,118249,0,0.8 M,0,117723,129302,542,408 V,0,117723,129302,0.7,0.25 F,0,118249,128775,0.8 F,0,128775,129302,0.8,0
Sprite,Foreground,Centre,"SB\PEPOTTI.png",320,240 F,0,117898,118249,0,1 M,0,117898,129126,542,408 S,0,117898,129126,0.4 F,0,128775,129126,1,0
Sprite,Foreground,Centre,"SB\White Effect.png",320,240 F,0,128951,129477,0,0.8 M,0,128951,151758,100,100 V,0,128951,151758,0.7,0.25 F,0,129477,151231,0.8 F,0,151231,151758,0.8,0
Sprite,Foreground,Centre,"SB\KogumaX.png",320,240 F,0,129126,129477,0,1 M,0,129126,151582,100,100 S,0,129126,151582,0.4 F,0,151231,151582,1,0
Sprite,Foreground,Centre,"SB\White Effect.png",320,240 F,0,151407,151933,0,0.8 M,0,151407,164389,542,408 V,0,151407,164389,0.7,0.25 F,0,151933,163863,0.8 F,0,163863,164389,0.8,0
Sprite,Foreground,Centre,"SB\PEPOTTI.png",320,240 F,0,151582,151933,0,1 M,0,151582,164214,542,408 S,0,151582,164214,0.4 F,0,163863,164214,1,0
Sprite,Foreground,Centre,"SB\White Effect.png",320,240 F,0,164039,164565,0,0.8 M,0,164039,186846,100,100 V,0,164039,186846,0.7,0.25 F,0,164565,186319,0.8 F,0,186319,186846,0.8,0
Sprite,Foreground,Centre,"SB\KogumaX.png",320,240 F,0,164214,164565,0,1 M,0,164214,186670,100,100 S,0,164214,186670,0.4 F,0,186319,186670,1,0
Sprite,Foreground,Centre,"SB\White Effect.png",320,240 F,0,186495,187021,0,0.8 M,0,186495,197986,542,408 V,0,186495,197986,0.7,0.25 F,0,187021,197460,0.8 F,0,197460,197986,0.8,0
Sprite,Foreground,Centre,"SB\PEPOTTI.png",320,240 F,0,186670,187021,0,1 M,0,186670,197811,542,408 S,0,186670,197811,0.4 F,0,197460,197811,1,0
Sprite,Foreground,Centre,"SB\White Effect.png",320,240 F,0,200705,201232,0,0.8 M,0,200705,212501,100,100 V,0,200705,212501,0.7,0.25 F,0,201232,211975,0.8 F,0,211975,212501,0.8,0
Sprite,Foreground,Centre,"SB\KogumaX.png",320,240 F,0,200881,201232,0,1 M,0,200881,212326,100,100 S,0,200881,212326,0.4 F,0,211975,212326,1,0
//Storyboard Layer 4 (Overlay)
//Storyboard Sound Samples

[TimingPoints]
-24,350.877192982456,4,2,2,50,1,0
1379,-133.333333333333,4,2,2,50,0,0
11905,-133.333333333333,4,2,99,50,0,0
12256,-133.333333333333,4,2,3,70,0,0
12607,-80,4,2,3,70,0,0
21554,-80,4,2,3,50,0,0
22081,-80,4,2,3,70,0,0
23835,-100,4,2,3,70,0,0
24800,-100,4,2,3,40,0,0
24888,-100,4,2,3,70,0,0
26204,-100,4,2,3,40,0,0
26291,-100,4,2,3,70,0,0
30239,-100,4,2,3,40,0,0
30326,-100,4,2,3,70,0,0
32168,-100,4,2,3,40,0,0
32256,-100,4,2,3,70,0,0
35063,-200,4,2,55,70,0,0
35765,-66.6666666666667,4,2,3,70,0,0
35940,-66.6666666666667,4,2,55,60,0,0
36467,-57.1428571428571,4,2,3,70,0,0
37519,-57.1428571428571,4,2,2,80,0,0
37870,-57.1428571428571,4,2,55,70,0,0
38104,-100,4,2,3,70,0,0
38572,-57.1428571428571,4,2,55,70,0,0
38806,-100,4,2,3,70,0,0
40326,-100,4,2,55,70,0,0
40502,-100,4,2,3,90,0,0
40677,-79.9999999999999,4,2,3,70,0,0
41028,-100,4,2,3,70,0,0
42081,-133.333333333333,4,2,3,70,0,0
42256,-100,4,2,3,70,0,0
42783,-133.333333333333,4,2,3,70,0,0
42958,-40,4,2,3,70,0,0
43309,-90.9090909090909,4,2,3,70,0,0
43484,-60.6060606060606,4,2,3,70,0,0
43835,-90.9090909090909,4,2,2,90,0,0
44186,-90.9090909090909,4,2,55,50,0,0
44888,-66.6666666666667,4,2,3,70,0,0
46291,-100,4,2,1,70,0,0
46993,-100,4,2,1,70,0,0
47168,-100,4,2,2,70,0,0
47344,-100,4,2,3,70,0,0
47695,-66.6666666666667,4,2,3,80,0,0
48484,-66.6666666666667,4,2,3,50,0,0
48572,-66.6666666666667,4,2,3,80,0,0
49098,-66.6666666666667,4,2,10,60,0,0
49449,-66.6666666666667,4,2,3,80,0,0
49625,-66.6666666666667,4,2,10,60,0,0
50151,-66.6666666666667,4,2,3,80,0,0
50502,-66.6666666666667,4,2,10,60,0,0
50853,-66.6666666666667,4,2,3,80,0,0
51379,-66.6666666666667,4,2,10,60,0,0
51554,-66.6666666666667,4,2,3,80,0,0
51905,-66.6666666666667,4,2,10,60,0,0
52081,-66.6666666666667,4,2,3,80,0,0
54098,-66.6666666666667,4,2,3,50,0,0
54186,-66.6666666666667,4,2,3,80,0,0
54712,-66.6666666666667,4,2,10,60,0,0
55063,-66.6666666666667,4,2,3,80,0,0
55590,-66.6666666666667,4,2,10,60,0,0
55765,-66.6666666666667,4,2,3,80,0,0
55940,-66.6666666666667,4,2,10,60,0,0
56467,-66.6666666666667,4,2,3,80,0,0
60326,-66.6666666666667,4,2,10,60,0,0
60677,-66.6666666666667,4,2,3,80,0,0
60853,-66.6666666666667,4,2,10,60,0,0
61379,-66.6666666666667,4,2,3,80,0,0
61730,-66.6666666666667,4,2,10,60,0,0
62081,-66.6666666666667,4,2,3,80,0,0
62607,-66.6666666666667,4,2,10,60,0,0
62783,-66.6666666666667,4,2,3,80,0,0
63133,-66.6666666666667,4,2,10,60,0,0
63309,-66.6666666666667,4,2,3,80,0,0
64537,-66.6666666666667,4,2,10,60,0,0
64712,-66.6666666666667,4,2,3,80,0,0
65326,-66.6666666666667,4,2,3,50,0,0
65414,-66.6666666666667,4,2,3,80,0,0
65940,-66.6666666666667,4,2,10,60,0,0
66291,-66.6666666666667,4,2,3,80,0,0
66467,-66.6666666666667,4,2,10,60,0,0
66642,-66.6666666666667,4,2,3,80,0,0
66818,-66.6666666666667,4,2,10,60,0,0
66993,-66.6666666666667,4,2,3,80,0,0
68747,-133.333333333333,4,2,1,100,0,0
69449,-100,4,2,2,100,0,0
69625,-100,4,2,1,5,0,0
69800,-100,4,2,2,100,0,0
70151,-100,4,2,3,70,0,0
70940,-100,4,2,3,50,0,0
71028,-100,4,2,3,70,0,0
73747,-100,4,2,3,50,0,0
73835,-100,4,2,3,70,0,0
75063,-50,4,2,3,70,0,0
75590,-32.7868852459016,4,2,3,70,0,0
75765,-100,4,2,3,70,0,0
76554,-100,4,2,3,50,0,0
76642,-100,4,2,3,70,0,0
78572,-66.6666666666667,4,2,3,50,0,0
78923,-66.6666666666667,4,2,3,70,0,0
79098,-66.6666666666667,4,2,3,50,0,0
79449,-66.6666666666667,4,2,3,70,0,0
79625,-100,4,2,3,70,0,0
80677,-100,4,2,2,100,0,0
81028,-40,4,2,3,70,0,0
81204,-100,4,2,3,70,0,0
81379,-200,4,2,3,70,0,0
82607,-100,4,2,3,70,0,0
82695,-100,4,2,1,5,0,0
82783,-66.6666666666667,4,2,3,70,0,0
83309,-33.3333333333333,4,2,3,70,0,0
83397,-33.3333333333333,4,2,1,5,0,0
83484,-66.6666666666667,4,2,3,70,0,0
84888,-50,4,2,3,70,0,0
85063,-66.6666666666667,4,2,1,5,0,0
85151,-66.6666666666667,4,2,3,70,0,0
85414,-66.6666666666667,4,2,3,70,0,0
86291,-100,4,2,3,70,0,0
87870,-100,4,2,1,5,0,0
87958,-100,4,2,3,70,0,0
88133,-100,4,2,1,5,0,0
88221,-100,4,2,3,70,0,0
91028,-66.6666666666667,4,2,3,70,0,0
91818,-66.6666666666667,4,2,1,5,0,0
91905,-1000,4,2,1,30,0,0
92607,-200,4,2,99,50,0,0
92629,-200,4,2,1,50,0,0
96818,-200,4,2,1,75,0,0
98221,-200,4,2,1,50,0,0
101730,-200,4,1,1,40,0,0
102344,-200,4,2,1,5,0,0
102432,-200,4,2,1,40,0,0
103747,-200,4,2,1,5,0,0
103835,-100,4,2,99,100,0,0
105940,-200,4,2,1,60,0,0
106642,-133.333333333333,4,2,70,100,0,0
106993,-133.333333333333,4,2,70,40,0,0
116467,-133.333333333333,4,2,3,40,0,0
117168,-79.9999999999999,4,2,99,40,0,0
117256,-79.9999999999999,4,2,3,60,0,0
117870,-66.6666666666667,4,2,3,80,0,0
119274,-66.6666666666667,4,2,10,70,0,0
119625,-66.6666666666667,4,2,3,80,0,0
119800,-66.6666666666667,4,2,10,70,0,0
120326,-66.6666666666667,4,2,3,80,0,0
120677,-66.6666666666667,4,2,10,70,0,0
121028,-66.6666666666667,4,2,3,80,0,0
121554,-66.6666666666667,4,2,10,70,0,0
121730,-66.6666666666667,4,2,3,80,0,0
124888,-66.6666666666667,4,2,10,70,0,0
125239,-66.6666666666667,4,2,3,80,0,0
125414,-66.6666666666667,4,2,10,70,0,0
125940,-66.6666666666667,4,2,3,80,0,0
127695,-133.333333333333,4,2,1,100,0,0
128397,-100,4,2,2,50,0,0
128572,-100,4,2,1,5,0,0
128747,-100,4,2,2,50,0,0
129098,-100,4,2,3,70,0,0
131554,-66.6666666666667,4,2,3,60,0,0
131905,-100,4,2,3,50,0,0
132256,-100,4,2,3,70,0,0
134361,-100,4,2,3,70,0,0
136818,-100,4,2,2,70,0,0
137168,-100,4,2,3,70,0,0
139975,-100,4,2,99,70,0,0
140063,-666.666666666667,4,2,3,70,0,0
140326,-100,4,2,3,70,0,0
142432,-133.333333333333,4,2,3,70,0,0
142607,-100,4,2,3,70,0,0
145590,-66.6666666666667,4,2,3,70,0,0
145940,-100,4,2,3,70,0,0
147344,-133.333333333333,4,2,3,70,0,0
147695,-133.333333333333,4,2,3,40,0,0
148133,-133.333333333333,4,2,3,70,0,0
148747,-100,4,2,3,40,0,0
148923,-100,4,2,3,70,0,0
149098,-100,4,2,3,40,0,0
149449,-100,4,2,3,70,0,0
149625,-100,4,2,3,40,0,0
149975,-100,4,2,3,70,0,0
150326,-40,4,2,3,70,0,0
150677,-100,4,2,3,70,0,0
150853,-40,4,2,3,70,0,0
151554,-200,4,2,55,70,0,0
152256,-100,4,2,3,70,0,0
152432,-66.6666666666667,4,2,55,60,0,0
152958,-66.6666666666667,4,2,3,70,0,0
153660,-133.333333333333,4,2,3,70,0,0
154011,-133.333333333333,4,2,2,80,0,0
154361,-200,4,2,3,70,0,0
154537,-200,4,2,55,70,0,0
154712,-100,4,2,3,70,0,0
155063,-200,4,2,3,70,0,0
155414,-100,4,2,3,70,0,0
156116,-100,4,2,3,70,0,0
156818,-100,4,2,55,90,0,0
156993,-100,4,2,3,90,0,0
157168,-100,4,2,3,70,0,0
157519,-133.333333333333,4,2,3,70,0,0
157870,-200,4,2,3,70,0,0
158572,-66.6666666666667,4,2,3,70,0,0
159274,-66.6666666666667,4,2,55,50,0,0
159449,-66.6666666666667,4,2,3,70,0,0
159975,-100,4,2,3,70,0,0
160326,-100,4,2,2,60,0,0
160677,-100,4,2,55,50,0,0
160853,-100,4,2,3,70,0,0
162783,-133.333333333333,4,2,3,70,0,0
163484,-133.333333333333,4,2,2,70,0,0
163835,-133.333333333333,4,2,3,70,0,0
164186,-66.6666666666667,4,2,3,80,0,0
164888,-66.6666666666667,4,2,3,80,0,0
165590,-66.6666666666667,4,2,10,70,0,0
165940,-66.6666666666667,4,2,3,80,0,0
166116,-66.6666666666667,4,2,10,70,0,0
166642,-72.992700729927,4,2,3,80,0,0
166993,-66.6666666666667,4,2,10,70,0,0
167344,-66.6666666666667,4,2,3,80,0,0
167870,-66.6666666666667,4,2,10,70,0,0
168046,-66.6666666666667,4,2,3,80,0,0
169625,-133.333333333333,4,2,3,80,0,0
169800,-66.6666666666667,4,2,3,80,0,0
170590,-66.6666666666667,4,2,3,50,0,0
170677,-66.6666666666667,4,2,3,80,0,0
171204,-66.6666666666667,4,2,10,70,0,0
171554,-66.6666666666667,4,2,3,80,0,0
171730,-66.6666666666667,4,2,10,70,0,0
172256,-66.6666666666667,4,2,3,80,0,0
172607,-100,4,2,10,70,0,0
172958,-66.6666666666667,4,2,3,80,0,0
173484,-100,4,2,10,70,0,0
173660,-66.6666666666667,4,2,3,80,0,0
174186,-58.8235294117647,4,2,3,80,0,0
174361,-52.6315789473684,4,2,3,80,0,0
174537,-47.6190476190476,4,2,3,80,0,0
174712,-66.6666666666667,4,2,3,80,0,0
176204,-66.6666666666667,4,2,3,50,0,0
176291,-66.6666666666667,4,2,3,80,0,0
176818,-66.6666666666667,4,2,10,70,0,0
177168,-66.6666666666667,4,2,3,80,0,0
177344,-66.6666666666667,4,2,10,70,0,0
177870,-66.6666666666667,4,2,3,80,0,0
178221,-66.6666666666667,4,2,10,70,0,0
178572,-66.6666666666667,4,2,3,80,0,0
179098,-66.6666666666667,4,2,10,70,0,0
179274,-66.6666666666667,4,2,3,80,0,0
179625,-66.6666666666667,4,2,10,70,0,0
179888,-66.6666666666667,4,2,3,80,0,0
179975,-133.333333333333,4,2,3,80,0,0
180326,-66.6666666666667,4,2,3,80,0,0
181028,-66.6666666666667,4,2,10,70,0,0
181291,-66.6666666666667,4,2,3,80,0,0
181730,-66.6666666666667,4,2,2,80,0,0
181905,-66.6666666666667,4,2,3,80,0,0
181993,-66.6666666666667,4,2,2,80,0,0
182081,-66.6666666666667,4,2,3,80,0,0
182432,-66.6666666666667,4,2,10,70,0,0
182783,-66.6666666666667,4,2,3,80,0,0
182958,-66.6666666666667,4,2,10,70,0,0
183484,-50,4,2,3,80,0,0
184186,-53.475935828877,4,2,3,80,0,0
185239,-100,4,2,1,100,0,0
185940,-79.9999999999999,4,2,2,100,0,0
186291,-100,4,2,2,100,0,0
186642,-80,4,2,3,70,0,0
195590,-80,4,2,3,50,0,0
196116,-80,4,2,3,70,0,0
200849,487.80487804878,4,2,1,40,1,0
200849,-200,4,2,1,40,0,0
201353,594.059405940594,4,2,1,30,1,0
201353,-133.333333333333,4,2,1,30,0,0
201965,681.818181818182,4,2,1,30,1,0
204010,-100,4,2,1,5,0,0
204692,-100,4,2,1,30,0,0
207419,-100,4,2,1,5,0,0
207696,681.818181818182,4,2,1,30,1,0
207696,-79.9999999999999,4,2,1,30,0,0
210423,-79.9999999999999,4,2,1,25,0,0
210934,-79.9999999999999,4,2,1,20,0,0
211446,-1000,4,2,1,15,0,0
212298,-1000,4,2,1,10,0,0

[Colours]
Combo1 : 170,0,85
Combo2 : 136,55,55
Combo3 : 255,255,45
Combo4 : 181,0,0

[HitObjects]
137,284,1379,22,0,L|205:268,1,67.5000025749208
345,264,1730,2,0,L|281:244,1,67.5000025749208,0|0,3:0|0:0,0:0:0:0:
152,200,2081,2,0,L|142:158,1,33.7500012874604
122,86,2257,1,0,0:0:0:0:
118,66,2432,1,0,0:0:0:0:
114,46,2607,1,0,0:0:0:0:
300,28,2783,22,0,L|292:95,1,67.5000025749208
428,172,3133,2,0,L|435:104,1,67.5000025749208,0|0,3:0|0:0,0:0:0:0:
274,210,3484,2,0,L|316:200,1,33.7500012874604
388,180,3660,1,0,0:0:0:0:
408,176,3835,1,0,0:0:0:0:
428,172,4010,1,0,0:0:0:0:
361,321,4186,22,0,B|329:333|329:333|297:321,1,67.5000025749208
210,210,4537,2,0,B|242:198|242:198|274:210,1,67.5000025749208,0|0,3:0|0:0,0:0:0:0:
172,364,4888,2,0,L|182:322,1,33.7500012874604
202,250,5064,1,0,0:0:0:0:
206,230,5239,1,0,0:0:0:0:
210,210,5414,1,0,0:0:0:0:
108,95,5590,22,0,B|120:127|120:127|108:159,1,67.5000025749208
228,63,5940,2,0,B|216:30|216:30|228:-1,1,67.5000025749208,0|0,3:0|0:0,0:0:0:0:
438,66,6291,2,0,L|396:56,1,33.7500012874604
324,36,6467,1,0,0:0:0:0:
304,32,6642,1,0,0:0:0:0:
395,135,6817,1,0,0:0:0:0:
276,208,6993,22,0,P|308:200|344:196,1,67.5000025749208,2|0,0:0|0:0,0:0:0:0:
467,257,7344,2,0,P|433:257|400:252,1,67.5000025749208,0|2,3:0|0:0,0:0:0:0:
252,128,7695,1,0,0:0:0:0:
252,128,7783,1,0,0:0:0:0:
252,128,7870,1,0,0:0:0:0:
324,276,8046,2,0,P|332:316|332:352,1,67.5000025749208,0|0,3:0|0:0,0:0:0:0:
420,176,8397,22,0,P|422:135|431:100,1,67.5000025749208,2|0,0:0|0:0,0:0:0:0:
312,0,8747,2,0,P|309:40|300:75,1,67.5000025749208,0|2,3:0|0:0,0:0:0:0:
200,192,9098,1,0,0:0:0:0:
200,192,9186,1,0,0:0:0:0:
200,192,9274,1,0,0:0:0:0:
36,136,9449,2,0,P|24:100|24:68,1,67.5000025749208,0|0,3:0|0:0,0:0:0:0:
96,276,9800,22,0,P|131:262|163:261,1,67.5000025749208,2|0,0:0|0:0,0:0:0:0:
352,336,10151,2,0,P|314:339|283:332,1,67.5000025749208,0|2,3:0|0:0,0:0:0:0:
200,192,10502,1,0,0:0:0:0:
200,192,10590,1,0,0:0:0:0:
200,192,10677,1,0,0:0:0:0:
224,380,10853,1,0,3:0:0:0:
224,380,11028,1,0,0:0:0:0:
396,244,11204,22,0,L|388:324,1,67.5000025749208,2|0,0:0|0:0,0:0:0:0:
206,227,11554,2,0,L|212:159,1,67.5000025749208,0|2,3:0|0:0,0:0:0:0:
412,88,11905,1,4,0:0:0:0:
412,88,12256,21,10,0:0:0:0:
354,99,12344,1,0,0:0:0:0:
305,66,12432,1,2,0:0:0:0:
247,78,12519,1,0,0:0:0:0:
198,46,12607,22,0,L|208:160,1,112.5,4|0,1:0|0:0,0:0:0:0:
424,287,12958,2,0,P|373:309|318:299,1,112.5,8|0,0:0|0:0,0:0:0:0:
110,114,13309,1,0,0:0:0:0:
360,187,13484,1,0,1:0:0:0:
132,325,13660,2,0,P|110:274|120:218,1,112.5,8|0,0:0|0:0,0:0:0:0:
411,322,14011,21,0,1:0:0:0:
373,346,14098,1,0,0:0:0:0:
331,362,14186,1,2,0:0:0:0:
285,364,14274,1,0,0:0:0:0:
246,345,14361,1,10,0:0:0:0:
215,311,14449,1,0,0:0:0:0:
197,269,14537,1,2,0:0:0:0:
198,222,14625,1,0,0:0:0:0:
215,180,14712,22,0,P|234:155|256:141,3,56.25,2|0|2|0,0:0|0:0|1:2|0:0,0:0:0:0:
343,60,15063,2,0,P|359:84|367:108,1,56.25,10|0,0:0|0:0,0:0:0:0:
352,211,15239,2,0,P|332:233|311:247,1,56.25,2|0,0:0|0:0,0:0:0:0:
68,129,15414,22,0,P|128:113|180:109,1,112.5,0|0,1:0|0:0,0:0:0:0:
372,273,15765,2,0,P|309:263|260:246,1,112.5,8|0,0:0|0:0,0:0:0:0:
104,21,16116,1,0,0:0:0:0:
140,316,16291,1,0,1:0:0:0:
104,21,16467,2,0,P|164:5|216:1,1,112.5,8|0,0:0|0:0,0:0:0:0:
420,160,16818,21,2,1:2:0:0:
380,180,16905,1,0,0:0:0:0:
335,177,16993,1,2,0:0:0:0:
297,152,17081,1,0,0:0:0:0:
277,111,17169,1,10,0:0:0:0:
279,66,17256,1,0,0:0:0:0:
304,28,17344,1,2,0:0:0:0:
345,8,17432,1,0,0:0:0:0:
390,11,17519,22,0,P|412:12|444:24,1,56.25,0|0,1:0|0:0,0:0:0:0:
488,132,17695,2,0,P|466:131|434:119,1,56.25,0|0,1:0|0:0,0:0:0:0:
390,11,17870,22,0,P|408:23|430:50,1,56.25,4|0,3:0|0:0,0:0:0:0:
410,185,18046,2,0,P|391:174|369:147,1,56.25,4|0,3:0|0:0,0:0:0:0:
503,58,18221,22,0,P|471:158|367:146,1,225,4|8,1:0|0:0,0:0:0:0:
304,4,18747,1,0,0:0:0:0:
100,88,18923,2,0,L|112:204,1,112.5,0|0,0:0|1:0,0:0:0:0:
208,376,19274,1,8,0:0:0:0:
252,142,19449,1,0,0:0:0:0:
27,222,19625,21,0,1:0:0:0:
24,238,19712,1,0,0:0:0:0:
28,259,19800,1,2,0:0:0:0:
44,283,19887,1,0,0:0:0:0:
72,299,19975,1,10,0:0:0:0:
112,299,20063,1,0,0:0:0:0:
144,271,20150,1,2,0:0:0:0:
160,223,20238,1,0,0:0:0:0:
152,167,20326,21,2,0:0:0:0:
144,111,20414,1,0,0:0:0:0:
160,63,20502,1,2,1:2:0:0:
192,35,20589,1,0,0:0:0:0:
232,35,20677,1,10,0:0:0:0:
260,51,20765,1,0,0:0:0:0:
276,75,20852,1,2,0:0:0:0:
280,97,20940,1,0,0:0:0:0:
276,111,21028,22,0,L|164:99,1,112.5,0|0,1:0|0:0,0:0:0:0:
356,3,21379,1,8,0:0:0:0:
296,235,21554,2,2,P|392:207|485:281,1,225,0|0,0:0|1:0,0:1:0:0:
368,355,22081,1,8,0:0:0:0:
184,60,22432,21,6,1:0:0:0:
212,292,22607,1,2,1:0:0:0:
212,292,22783,1,8,0:0:0:0:
327,23,22958,21,2,1:0:0:0:
300,332,23133,1,6,1:0:0:0:
300,332,23309,1,8,0:0:0:0:
108,104,23484,21,12,1:2:0:0:
417,192,23660,1,10,0:1:0:0:
72,296,23835,22,0,P|88:228|148:212,1,135,4|0,1:0|0:0,0:0:0:0:
212,260,24186,2,0,L|200:352,1,90,10|2,0:0|0:0,0:0:0:0:
237,67,24537,1,0,0:0:0:0:
391,183,24712,1,2,1:2:0:0:
391,183,24800,1,2,0:0:0:0:
391,183,24888,1,8,0:0:0:0:
212,260,25063,1,2,0:0:0:0:
464,136,25239,22,0,P|476:196|440:256,1,135,4|0,1:0|0:0,0:0:0:0:
424,340,25590,2,0,P|384:320|360:280,1,90,10|2,0:2|0:0,0:0:0:0:
324,64,25940,1,0,0:0:0:0:
282,266,26116,1,2,1:2:0:0:
282,266,26204,1,2,0:0:0:0:
282,266,26291,1,8,0:0:0:0:
128,149,26467,1,2,0:0:0:0:
212,352,26642,22,0,P|279:299|367:322,1,180,4|8,1:0|0:0,0:0:0:0:
184,224,27168,2,0,P|99:235|34:171,1,180,2|2,0:0|1:2,0:0:0:0:
262,3,27695,2,0,P|274:51|274:91,1,90,8|2,0:0|0:0,0:0:0:0:
184,224,28046,21,2,1:3:0:0:
178,202,28133,1,0,0:0:0:0:
48,338,28309,1,2,0:3:0:0:
42,316,28397,2,0,P|94:291|123:300,1,90,10|2,0:0|0:0,0:0:0:0:
276,256,28747,22,0,B|301:242|301:242|316:252,1,45,2|0,0:0|0:0,0:0:0:0:
334,237,28923,2,0,B|359:223|359:223|374:233,1,45,2|0,1:3|0:0,0:0:0:0:
392,219,29098,2,0,B|417:205|417:205|432:215,1,45,10|0,0:0|0:0,0:0:0:0:
450,201,29274,2,0,B|475:187|475:187|490:197,1,45,2|0,1:3|0:0,0:0:0:0:
504,184,29449,22,0,P|484:96|404:72,1,180,0|8,1:0|0:0,0:0:0:0:
334,237,29975,1,2,0:0:0:0:
168,156,30151,1,2,0:0:0:0:
204,144,30239,1,2,0:0:0:0:
240,132,30326,1,2,1:2:0:0:
74,51,30502,1,8,0:0:0:0:
8,260,30677,21,2,0:0:0:0:
8,260,30853,2,0,B|72:292|72:228|136:260,2,135,0|0|2,1:0|0:0|0:0,0:0:0:0:
220,376,31554,2,0,B|223:326|223:326|215:286,1,90,0|2,0:0|1:2,0:0:0:0:
292,8,31905,2,0,B|288:57|288:57|296:97,1,90,8|2,0:0|0:0,0:0:0:0:
320,176,32168,1,2,0:0:0:0:
320,176,32256,22,0,P|400:172|432:256,1,180,0|8,1:0|0:0,0:0:0:0:
280,364,32783,1,2,0:0:0:0:
108,216,32958,2,0,P|100:276|92:352,2,135,0|0|2,0:0|0:0|0:0,0:0:0:0:
200,48,33660,22,0,L|104:40,1,90,4|0,1:0|0:0,0:0:0:0:
312,168,34011,2,0,L|401:175,1,90,8|2,0:0|0:0,0:0:0:0:
160,264,34361,2,0,L|64:256,1,90,2|0,0:2|1:0,0:0:0:0:
336,364,34712,1,10,0:2:0:0:
388,372,34800,1,0,0:0:0:0:
434,353,34888,1,2,0:0:0:0:
473,318,34975,1,0,0:0:0:0:
488,270,35063,6,0,B|435:268|398:240|398:240|422:281,1,135,6|0,1:2|0:0,0:0:0:0:
383,160,35765,22,0,P|337:155|273:186,1,67.5000025749208,10|0,1:2|0:0,0:1:0:0:
137,150,35940,2,0,P|161:172|191:187,1,67.5000025749208,2|0,0:3|0:0,0:1:0:0:
330,301,36116,2,0,P|323:266|307:237,1,67.5000025749208,2|0,0:3|0:0,0:1:0:0:
262,66,36291,2,0,P|247:96|243:129,1,67.5000025749208,2|0,0:3|0:0,0:1:0:0:
94,312,36467,22,0,P|171:301|233:254,1,157.500001502037,0|0,1:0|0:0,0:0:0:0:
170,112,36730,2,0,P|91:122|29:169,1,157.500001502037,0|0,1:0|0:0,0:0:0:0:
20,261,36993,1,0,1:0:0:0:
163,22,37168,22,0,B|219:41|219:41|275:-5|342:16|370:61|366:124,1,236.250002253056,10|0,0:0|0:0,0:0:0:0:
376,112,37520,1,2,0:0:0:0:
405,144,37608,1,0,0:0:0:0:
456,151,37696,1,2,0:0:0:0:
511,130,37783,1,0,0:0:0:0:
511,130,37870,22,0,B|525:184|495:176|511:235|511:235|434:209,1,157.500001502037,2|0,1:2|0:0,0:1:0:0:
394,241,38104,2,2,B|350:224|350:224|350:215|350:215|347:223|347:223|294:210|260:270,1,150,0|0,0:0|0:0,0:1:0:0:
179,341,38572,22,0,P|106:359|57:302,1,157.500001502037,10|0,0:2|0:0,0:0:0:0:
38,233,38806,2,2,B|30:208|30:208|34:200|34:200|28:202|28:202|19:171|19:171|2:162|2:162|-7:122|-7:122|16:127,1,150,0|0,0:0|0:0,0:1:0:0:
107,251,39274,1,0,1:0:0:0:
220,47,39449,21,0,3:0:0:0:
226,80,39508,21,0,3:0:0:0:
210,111,39566,21,0,3:0:0:0:
217,145,39625,22,0,L|136:164,2,60,2|2|2,3:0|3:0|3:0,0:0:0:0:
301,141,39975,21,8,0:0:0:0:
327,359,40150,1,0,1:0:0:0:
466,61,40327,21,2,1:2:0:0:
438,377,40502,1,0,1:0:0:0:
487,207,40677,22,0,L|305:239,1,168.75,4|0,1:2|0:0,0:0:0:0:
246,249,41028,2,0,P|202:246|171:215,1,90,2|0,0:0|0:0,0:0:0:0:
97,62,41379,1,8,0:0:0:0:
206,117,41554,22,0,L|122:134,1,45,2|0,3:2|0:0,0:0:0:0:
207,126,41730,22,0,L|162:126,1,45,2|0,3:2|0:0,0:0:0:0:
206,134,41905,22,0,L|162:126,1,45,2|0,3:2|0:0,0:0:0:0:
54,180,42081,21,0,1:0:0:0:
197,19,42256,2,2,L|382:52,1,180,0|0,0:0|1:0,0:1:0:0:
54,180,42783,21,8,0:0:0:0:
197,19,42958,22,2,B|238:27|238:27|244:51|244:51|326:66,1,112.5,0|0,0:0|0:0,0:1:0:0:
466,90,43133,2,2,B|421:82|421:82|415:58|415:58|374:50,1,112.5,0|0,0:0|0:0,0:1:0:0:
328,33,43309,22,2,L|336:82,1,49.5000015106202,0|0,0:0|0:0,0:1:0:0:
306,230,43484,22,0,P|339:293|409:286,1,148.50000453186,8|0,0:0|0:0,0:0:0:0:
476,245,43835,2,0,B|506:302|506:302|493:333,1,99.0000030212403
408,210,44186,22,2,B|434:138|352:115|387:63|432:29|483:46|530:65|495:136|500:168,1,297.000009063721,10|0,1:2|0:0,0:1:0:0:
312,184,44888,22,0,B|238:205|238:205|237:213|237:213|235:206|235:206|155:228|155:228|176:196,1,202.500007724762,0|0,1:0|0:0,0:0:0:0:
224,133,45239,2,0,P|248:72|212:18,1,135.000005149842,0|0,0:0|1:0,0:0:0:0:
70,54,45590,21,8,0:0:0:0:
103,318,45765,1,0,1:0:0:0:
18,128,45940,22,0,L|93:142,1,67.5000025749208,12|0,0:0|0:0,0:0:0:0:
6,205,46116,2,0,L|72:217,1,67.5000025749208,8|0,0:0|0:0,0:0:0:0:
184,197,46291,22,0,P|299:258|305:387,1,270,4|0,0:1|0:0,0:0:0:0:
371,194,46993,1,2,0:0:0:0:
251,125,47168,1,2,0:0:0:0:
296,115,47256,1,2,0:0:0:0:
341,105,47344,1,8,0:0:0:0:
251,125,47519,1,0,0:0:0:0:
218,305,47695,6,0,P|163:292|80:284,1,135.000005149842,4|0,1:0|0:0,0:0:0:0:
371,194,48046,2,0,P|425:181|509:173,1,135.000005149842,8|2,0:0|0:0,0:0:0:0:
304,364,48397,1,2,0:0:0:0:
304,364,48484,1,2,0:0:0:0:
304,364,48572,1,0,1:0:0:0:
341,105,48747,1,10,0:0:0:0:
431,279,48923,1,0,0:0:0:0:
212,124,49098,22,0,P|219:52|257:0,1,135.000005149842,4|0,1:2|0:2,0:0:0:0:
420,148,49449,1,8,0:2:0:0:
220,236,49625,2,0,L|228:376,1,135.000005149842,4|0,1:2|0:0,0:0:0:0:
76,168,49975,1,4,1:2:0:0:
431,279,50151,2,0,B|439:207|439:207|419:147,1,135.000005149842,10|0,0:0|0:0,0:0:0:0:
188,4,50502,22,0,P|146:88|202:170,1,202.500007724762,4|0,1:2|0:0,0:0:0:0:
322,138,50853,2,0,P|338:73|309:14,1,135.000005149842,8|0,0:0|0:0,0:0:0:0:
116,357,51204,21,2,0:0:0:0:
380,214,51379,1,4,1:2:0:0:
82,175,51555,1,8,0:0:0:0:
301,382,51730,1,0,0:0:0:0:
245,86,51905,21,6,1:2:0:0:
198,316,52081,1,0,0:0:0:0:
106,177,52256,21,8,0:0:0:0:
337,223,52432,1,0,0:0:0:0:
188,149,52607,21,2,0:0:0:0:
254,252,52783,1,0,1:0:0:0:
273,167,52958,22,0,P|286:191|294:230,1,67.5000025749208,10|0,0:0|0:0,0:0:0:0:
144,306,53133,2,0,P|144:278|157:240,1,67.5000025749208,10|0,0:0|0:0,0:0:0:0:
169,234,53309,22,0,L|188:372,1,135.000005149842,4|0,1:0|0:0,0:0:0:0:
392,136,53660,2,0,L|410:2,1,135.000005149842,8|2,0:0|0:0,0:0:0:0:
152,104,54011,1,2,0:0:0:0:
152,104,54098,1,2,0:0:0:0:
152,104,54186,1,0,1:0:0:0:
375,266,54361,1,10,0:0:0:0:
375,266,54537,1,0,0:0:0:0:
80,140,54712,22,0,P|144:116|212:120,1,135.000005149842,4|0,1:2|0:0,0:0:0:0:
436,320,55063,2,0,P|367:326|303:305,1,135.000005149842,10|2,0:0|0:0,0:0:0:0:
328,40,55414,2,0,P|395:51|452:88,1,135.000005149842,0|4,0:0|0:0,0:0:0:0:
176,372,55765,2,0,P|113:343|68:292,1,135.000005149842,10|4,0:0|0:0,0:0:0:0:
232,12,56116,22,0,B|260:60|236:124|236:124|260:160|260:208,1,202.500007724762,4|0,1:2|0:0,0:0:0:0:
228,296,56467,21,8,0:0:0:0:
123,57,56642,1,0,0:0:0:0:
409,233,56818,1,2,0:0:0:0:
124,204,56993,21,0,1:0:0:0:
364,112,57168,1,8,0:0:0:0:
272,384,57344,1,2,0:0:0:0:
48,88,57519,21,6,1:2:0:0:
68,99,57695,21,0,1:0:0:0:
52,103,57870,21,10,1:2:0:0:
64,84,58046,21,0,1:0:0:0:
212,48,58221,22,0,L|204:12,1,33.7500012874604,4|0,1:0|0:0,0:0:0:0:
240,40,58309,2,0,L|240:0,1,33.7500012874604
268,44,58397,1,0,0:0:0:0:
408,100,58572,2,0,L|400:135,1,33.7500012874604,4|0,1:0|0:0,0:0:0:0:
436,108,58660,2,0,L|436:147,1,33.7500012874604
464,104,58748,1,8,0:0:0:0:
259,278,58923,22,0,L|248:144,1,135.000005149842,4|0,1:0|0:0,0:0:0:0:
508,224,59274,2,0,L|497:358,1,135.000005149842,10|0,0:0|0:0,0:0:0:0:
136,219,59625,1,0,0:0:0:0:
385,282,59800,1,0,1:0:0:0:
92,368,59975,2,0,P|28:344|0:284,1,135.000005149842,10|0,0:0|0:0,0:0:0:0:
140,76,60326,21,4,1:2:0:0:
184,275,60502,1,0,0:0:0:0:
360,44,60677,1,10,0:0:0:0:
316,300,60853,2,0,P|248:280|180:276,1,135.000005149842,4|0,0:0|0:0,0:0:0:0:
478,177,61204,1,4,1:2:0:0:
211,0,61379,2,0,L|227:136,1,135.000005149842,10|0,0:0|0:0,0:0:0:0:
408,334,61730,22,0,P|398:239|308:196,1,202.500007724762,4|0,1:2|0:0,0:0:0:0:
184,275,62081,2,0,P|244:304|310:298,1,135.000005149842,10|0,0:0|0:0,0:0:0:0:
474,138,62432,21,0,0:0:0:0:
186,107,62607,1,4,1:2:0:0:
430,255,62783,1,10,0:0:0:0:
270,20,62958,1,0,0:0:0:0:
310,297,63133,21,6,1:2:0:0:
121,188,63309,1,0,0:0:0:0:
339,188,63484,21,10,0:0:0:0:
231,377,63660,1,0,0:0:0:0:
230,159,63835,21,2,0:0:0:0:
370,253,64011,1,8,1:0:0:0:
227,298,64186,2,0,B|212:268|212:268|217:234,1,67.5000025749208,2|0,1:2|0:0,0:0:0:0:
357,113,64361,2,0,B|362:147|362:147|347:177,1,67.5000025749208,8|0,0:0|0:0,0:0:0:0:
339,190,64537,22,0,P|286:143|287:80,1,135.000005149842,4|0,1:2|0:0,0:0:0:0:
123,129,64888,2,0,P|100:61|132:7,1,135.000005149842,8|0,0:0|0:0,0:0:0:0:
372,116,65239,1,2,0:0:0:0:
372,116,65326,1,2,0:0:0:0:
372,116,65414,1,0,1:0:0:0:
105,264,65590,1,10,0:0:0:0:
127,70,65765,1,0,0:0:0:0:
356,230,65940,22,0,L|340:366,1,135.000005149842,4|0,1:2|0:0,0:0:0:0:
156,154,66291,2,0,L|172:17,1,135.000005149842,10|4,0:0|0:2,0:0:0:0:
480,177,66642,2,0,L|464:314,1,135.000005149842,0|4,0:0|0:0,0:0:0:0:
32,206,66993,2,0,L|48:70,1,135.000005149842,10|0,0:0|0:0,0:0:0:0:
335,288,67344,22,0,L|267:280,1,67.5000025749208,2|0,1:2|0:0,0:0:0:0:
171,237,67519,2,0,L|239:245,1,67.5000025749208,0|0,1:0|0:0,0:0:0:0:
367,312,67695,22,0,P|326:314|299:308,1,67.5000025749208,10|0,1:2|0:0,0:0:0:0:
139,213,67870,2,0,P|180:211|207:217,1,67.5000025749208,2|0,1:2|0:0,0:0:0:0:
230,362,68045,21,2,1:2:0:0:
190,323,68133,1,0,1:0:0:0:
181,267,68221,1,0,1:0:0:0:
206,217,68308,1,0,1:0:0:0:
256,192,68396,1,8,1:0:0:0:
306,167,68484,1,0,1:2:0:0:
331,117,68571,1,0,1:2:0:0:
322,61,68659,1,0,1:2:0:0:
282,22,68747,22,0,P|168:52|176:136,1,202.500007724762,4|0,1:0|0:0,0:0:0:0:
256,192,69449,22,0,L|348:184,1,90
444,320,69800,21,2,0:0:0:0:
395,352,69888,1,0,0:0:0:0:
337,340,69975,1,2,0:0:0:0:
287,373,70063,1,0,0:0:0:0:
230,362,70151,6,0,L|140:373,1,90,4|0,1:0|0:0,0:0:0:0:
55,383,70502,2,0,P|13:372|-11:336,1,90,8|0,0:0|0:0,0:0:0:0:
105,224,70853,1,2,0:0:0:0:
147,235,70940,1,2,0:0:0:0:
171,272,71028,1,0,1:0:0:0:
35,172,71204,21,8,0:0:0:0:
16,251,71379,1,0,0:0:0:0:
72,310,71554,21,0,1:0:0:0:
112,289,71642,1,0,0:0:0:0:
132,249,71729,1,2,0:0:0:0:
135,205,71817,1,0,0:0:0:0:
123,160,71905,1,10,0:0:0:0:
111,117,71993,1,0,0:0:0:0:
114,73,72081,1,2,0:0:0:0:
134,33,72168,1,0,0:0:0:0:
175,3,72256,1,2,0:0:0:0:
231,0,72344,1,0,0:0:0:0:
284,28,72432,1,2,1:2:0:0:
313,85,72519,1,0,0:0:0:0:
287,149,72607,21,10,0:0:0:0:
314,202,72695,1,0,0:0:0:0:
287,252,72783,1,10,0:0:0:0:
305,288,72871,1,0,0:0:0:0:
298,308,72958,22,0,L|400:294,1,90,0|0,1:0|0:0,0:0:0:0:
418,225,73309,2,0,P|454:249|472:290,1,90,8|0,0:0|0:0,0:0:0:0:
222,202,73660,1,2,0:0:0:0:
213,218,73747,1,2,0:0:0:0:
201,204,73835,2,0,L|157:209,1,45,0|0,1:0|0:0,0:0:0:0:
29,285,74011,2,0,P|67:265|72:222,1,90,8|0,0:0|0:0,0:0:0:0:
11,43,74361,21,2,1:2:0:0:
41,84,74449,1,0,0:0:0:0:
81,104,74536,1,2,0:0:0:0:
125,107,74624,1,0,0:0:0:0:
168,95,74712,1,10,0:0:0:0:
213,83,74800,1,0,0:0:0:0:
257,86,74888,1,2,0:0:0:0:
297,106,74975,1,0,0:0:0:0:
318,146,75064,22,0,B|332:190|332:190|286:151,1,90,0|0,1:0|0:0,0:0:0:0:
206,324,75239,2,0,B|192:280|192:280|225:308,1,90,0|0,1:0|0:0,0:0:0:0:
173,179,75415,2,0,B|217:165|217:165|188:198,1,90,4|0,3:0|0:0,0:0:0:0:
351,291,75590,22,0,B|307:305|307:305|335:271,2,90,4|4|4,3:0|3:0|3:0,0:0:0:0:
427,384,75765,22,0,P|443:343|431:300,1,90,0|0,1:0|0:0,0:0:0:0:
426,186,76116,2,0,P|463:209|507:205,1,90,8|0,0:0|0:0,0:0:0:0:
355,77,76467,1,2,0:0:0:0:
364,61,76554,1,2,0:0:0:0:
376,75,76642,2,0,L|420:70,1,45,0|0,1:0|0:0,0:0:0:0:
278,29,76818,2,0,P|274:72|236:93,1,90,8|0,0:0|0:0,0:0:0:0:
43,182,77168,22,0,B|81:207|87:168|129:190,1,90,0|2,1:0|0:0,0:0:0:0:
141,200,77432,1,0,0:0:0:0:
162,205,77519,1,10,0:0:0:0:
208,193,77607,1,0,0:0:0:0:
250,184,77695,1,2,0:0:0:0:
289,202,77783,1,0,0:0:0:0:
311,246,77870,1,2,0:0:0:0:
308,299,77958,1,0,0:0:0:0:
264,342,78046,2,0,L|213:330,1,45,2|0,1:2|0:0,0:0:0:0:
149,346,78221,2,0,L|105:335,1,45,10|0,0:0|0:0,0:0:0:0:
33,350,78397,1,2,0:0:0:0:
238,261,78572,22,2,L|434:211,1,202.500007724762,0|0,1:0|0:0,0:1:0:0:
425,228,78923,2,0,P|397:287|429:311,1,67.5000025749208,8|0,0:0|0:0,0:0:0:0:
236,175,79098,22,2,L|39:224,1,202.500007724762,0|0,0:0|0:0,0:1:0:0:
49,208,79449,2,0,P|77:149|45:125,1,67.5000025749208,0|0,1:0|0:0,0:0:0:0:
0,17,79625,22,0,B|64:32|64:32|70:30|70:30|131:45,1,135,8|0,0:0|0:0,0:0:0:0:
202,68,79975,21,2,1:0:0:0:
395,28,80150,1,2,1:0:0:0:
218,45,80327,1,8,0:0:0:0:
196,184,80502,22,0,P|224:194|272:176,1,45,2|0,1:0|0:0,0:0:0:0:
309,173,80677,1,2,0:1:0:0:
339,194,80765,1,0,0:0:0:0:
353,228,80853,1,0,0:0:0:0:
346,264,80940,1,0,0:0:0:0:
299,355,81028,22,0,L|454:340,1,112.5,4|0,1:2|0:0,0:0:0:0:
427,344,81204,2,0,P|452:358|436:372,1,45,2|0,0:1|0:0,0:0:0:0:
232,309,81379,22,0,L|164:302,1,67.5,4|0,1:2|0:0,0:0:0:0:
105,265,81730,1,2,0:0:0:0:
95,346,81905,1,0,0:0:0:0:
175,222,82081,22,0,L|199:184,1,45,8|0,0:0|0:0,0:0:0:0:
270,106,82344,2,0,L|291:146,1,45,2|0,0:0|0:0,0:0:0:0:
322,247,82607,2,0,L|277:244,1,45
349,91,82783,22,0,B|400:95|418:141|418:141|383:183,1,135.000005149842,0|0,1:0|0:0,0:0:0:0:
296,323,83046,22,0,B|268:365|219:357|219:357|200:306,1,135.000005149842,2|0,1:2|0:0,0:0:0:0:
122,161,83309,22,0,B|99:115|130:77|130:77|184:86,1,135.000005149842,0|0,1:0|0:0,0:0:0:0:
203,93,83484,21,8,0:0:0:0:
50,69,83660,1,0,0:0:0:0:
101,233,83835,21,2,0:0:0:0:
175,216,84011,1,0,0:0:0:0:
28,352,84186,22,0,B|54:346|54:346|59:370|59:370|207:336,1,202.500007724762,0|0,1:0|0:0,0:0:0:0:
275,286,84537,1,2,0:0:0:0:
410,362,84712,1,0,0:0:0:0:
286,370,84888,22,0,B|354:347|356:278|356:278|418:221,1,180,8|0,0:0|0:0,0:0:0:0:
429,214,85151,1,0,0:0:0:0:
452,180,85239,2,0,B|503:137|503:137|463:192,1,135.000005149842,2|0,0:0|0:0,0:0:0:0:
484,318,85590,21,0,1:0:0:0:
343,56,85853,1,0,0:0:0:0:
339,95,85940,1,2,0:0:0:0:
237,159,86116,1,0,1:0:0:0:
413,188,86291,22,0,L|366:208,1,45,10|0,1:2|0:0,0:0:0:0:
237,159,86467,2,0,L|277:189,1,45,2|0,0:0|0:0,0:0:0:0:
299,326,86642,2,0,L|305:282,1,45,10|0,0:0|0:0,0:0:0:0:
333,130,86818,1,0,0:0:0:0:
216,266,86993,22,0,B|160:319|160:246|86:311,1,135,0|0,1:0|0:0,0:0:0:0:
33,349,87344,1,2,0:0:0:0:
148,365,87519,1,0,0:0:0:0:
111,162,87695,2,0,P|152:103|171:102,1,90,8|0,0:0|0:0,0:0:0:0:
169,209,87958,2,0,P|208:190|221:148,1,90,2|0,0:0|0:0,0:0:0:0:
234,77,88221,1,0,0:0:0:0:
234,77,88397,22,0,L|144:178,2,135,0|0|0,1:0|1:0|1:0,0:0:0:0:
131,78,89098,1,10,0:0:0:0:
252,176,89274,1,0,0:0:0:0:
340,148,89449,1,2,0:0:0:0:
410,177,89625,1,0,0:0:0:0:
459,162,89800,22,0,P|433:241|446:290,1,135,0|0,1:0|0:0,0:0:0:0:
357,290,90151,2,0,B|348:321|366:321|356:350|356:350|325:342,1,90,2|0,0:0|0:0,0:0:0:0:
86,287,90502,2,0,P|120:259|165:257,1,90,8|0,0:0|0:0,0:0:0:0:
242,325,90765,2,0,L|197:331,1,45,0|2,0:0|0:0,0:0:0:0:
85,116,91028,21,0,3:0:0:0:
32,167,91116,1,0,0:0:0:0:
102,189,91204,2,0,B|136:164|171:174|166:180|205:203|249:173|249:173|308:155|308:155|295:101|295:101|290:98|290:98|294:97|294:97|283:52|283:52|330:38|330:38|333:33|333:33|334:37|334:37|379:23|379:23|395:78,1,472.500018024445,4|0,3:0|0:0,0:0:0:0:
413,126,91905,22,0,L|422:156,1,31.5,2|0,0:1|0:0,0:0:0:0:
362,229,92607,22,0,P|327:243|294:289,1,90,4|0,0:0|0:0,0:0:0:0:
423,297,93309,2,0,P|397:333|356:351,1,90,2|0,0:0|0:0,0:0:0:0:
39,323,94011,21,2,2:0:0:0:
130,310,94361,1,0,0:0:0:0:
221,297,94712,1,2,0:0:0:0:
187,382,95063,1,0,0:0:0:0:
66,209,95414,22,0,B|78:224|78:224|128:217|128:217|140:191,1,90,2|0,0:0|0:0,0:0:0:0:
266,115,96116,2,0,B|253:99|253:99|203:106|203:106|191:132,1,90,2|0,0:0|0:0,0:0:0:0:
2,39,96818,22,0,B|46:10|95:33|95:33|125:128|60:193|-5:156|6:121|44:95,1,315,2|0,0:0|0:0,0:0:0:0:
199,69,98221,22,0,B|202:85|202:85|210:133|177:163,1,90,2|0,0:0|0:0,0:0:0:0:
120,189,98923,2,0,B|110:203|110:203|82:242|37:240,1,90,2|0,0:0|0:0,0:0:0:0:
107,274,99625,22,0,B|103:257|103:257|95:209|128:179,1,90,2|0,0:0|0:0,0:0:0:0:
186,154,100327,2,0,B|195:139|195:139|223:100|268:102,1,90,2|0,0:0|0:0,0:0:0:0:
268,257,101028,22,2,B|281:118|347:288|452:183|347:288|509:358|360:359,1,337.5,0|0,0:0|0:0,0:0:0:0:
268,257,102432,2,2,B|310:268|359:274|422:213|422:213|359:274|348:317|361:362,1,337.5,0|0,0:0|0:0,0:1:0:0:
282,335,103835,21,8,0:0:0:0:
28,46,105940,22,0,L|34:108,1,45
106,41,106291,2,0,L|110:85,1,45
25,290,106642,22,0,P|52:325|96:326,1,67.5000025749208,4|0,0:0|0:0,0:0:0:0:
225,256,106993,1,8,0:0:0:0:
185,261,107168,1,0,0:0:0:0:
265,251,107344,21,2,0:0:0:0:
308,271,107519,1,0,0:0:0:0:
325,315,107695,1,2,0:0:0:0:
309,354,107870,1,0,0:0:0:0:
284,158,108046,22,0,B|319:151|319:151|362:168,1,67.5000025749208
416,201,108397,2,0,B|445:212|445:212|480:205,1,67.5000025749208,8|0,0:0|0:0,0:0:0:0:
415,123,108747,21,2,0:0:0:0:
349,241,108923,1,0,0:0:0:0:
398,152,109098,1,2,0:0:0:0:
365,211,109274,1,0,0:0:0:0:
420,302,109449,22,0,L|503:294,1,67.5000025749208
427,377,109800,2,0,L|494:370,1,67.5000025749208,8|0,0:0|0:0,0:0:0:0:
282,356,110151,21,2,0:0:0:0:
322,351,110327,1,0,0:0:0:0:
239,336,110502,21,0,0:0:0:0:
222,292,110678,1,2,0:0:0:0:
238,253,110853,2,0,P|204:260|161:274,1,67.5000025749208
300,203,111204,2,0,P|332:212|365:219,1,67.5000025749208,8|0,0:0|0:0,0:0:0:0:
228,177,111554,2,0,P|213:129|231:83,1,101.250003862381,2|0,0:0|0:0,0:0:0:0:
271,22,111905,1,0,0:0:0:0:
304,87,112081,1,0,0:0:0:0:
438,124,112256,22,0,L|526:112,1,67.5000025749208
428,203,112607,2,0,L|516:191,1,67.5000025749208,8|0,0:0|0:0,0:0:0:0:
358,28,112958,21,2,0:0:0:0:
427,53,113133,1,0,0:0:0:0:
298,133,113309,1,0,0:0:0:0:
367,158,113484,1,2,0:0:0:0:
214,51,113660,22,0,P|136:79|122:129,1,135.000005149842,0|8,0:0|0:0,0:0:0:0:
182,172,114186,1,0,0:0:0:0:
18,272,114361,2,0,P|81:258|110:199,1,135.000005149842,2|0,0:0|0:0,0:0:0:0:
49,154,114888,1,2,0:0:0:0:
234,295,115063,22,0,B|284:266|286:311|345:270,1,101.250003862381
396,242,115414,2,0,P|416:245|436:280,1,33.7500012874604,8|0,0:0|0:0,0:0:0:0:
331,204,115590,1,0,0:0:0:0:
481,175,115765,1,2,0:0:0:0:
457,147,115940,1,0,0:0:0:0:
503,205,116116,21,0,0:0:0:0:
509,278,116291,1,2,0:0:0:0:
465,344,116467,21,4,0:0:0:0:
387,365,116642,21,0,0:0:0:0:
298,333,116818,21,8,0:0:0:0:
195,322,116993,21,2,3:0:0:0:
86,357,117168,22,0,P|48:348|27:312,1,56.25,4|0,0:0|0:0,0:0:0:0:
104,179,117344,2,0,P|131:182|153:199,1,56.25,2|0,0:0|0:0,0:0:0:0:
120,279,117519,22,0,P|82:270|61:234,1,56.25,12|0,0:0|0:0,0:0:0:0:
138,101,117695,2,0,P|165:104|187:121,1,56.25
195,322,117870,6,0,L|334:302,1,135.000005149842,4|0,1:0|0:0,0:0:0:0:
274,55,118221,2,0,L|257:192,1,135.000005149842,8|0,0:0|0:0,0:0:0:0:
136,13,118572,1,2,0:0:0:0:
136,13,118660,1,0,0:0:0:0:
136,13,118747,1,0,1:0:0:0:
367,138,118923,1,10,0:0:0:0:
170,233,119098,1,0,0:0:0:0:
402,356,119274,22,0,B|422:291|422:291|400:223,1,135.000005149842,4|0,1:2|0:0,0:0:0:0:
296,72,119625,1,8,0:0:0:0:
176,311,119800,2,0,L|314:292,1,135.000005149842,4|0,0:0|0:0,0:0:0:0:
478,185,120151,1,4,1:2:0:0:
151,75,120326,2,0,P|125:136|142:201,1,135.000005149842,10|0,0:0|0:0,0:0:0:0:
368,214,120677,22,0,P|325:130|231:144,1,202.500007724762,4|0,1:2|0:0,0:0:0:0:
109,292,121028,2,0,L|244:300,1,135.000005149842,8|0,0:0|0:0,0:0:0:0:
266,6,121379,21,0,0:0:0:0:
244,300,121554,1,4,1:2:0:0:
132,70,121730,1,10,0:0:0:0:
377,236,121905,1,0,0:0:0:0:
121,217,122081,21,0,1:0:0:0:
344,164,122256,1,0,0:0:0:0:
208,312,122432,21,10,0:0:0:0:
168,145,122607,1,0,0:0:0:0:
310,255,122783,21,2,0:0:0:0:
131,297,122958,1,8,1:0:0:0:
265,190,123133,22,0,L|332:178,1,67.5000025749208,8|0,0:0|0:0,0:0:0:0:
287,327,123309,2,0,L|220:315,1,67.5000025749208,10|0,0:0|0:0,0:0:0:0:
208,312,123484,22,0,P|184:249|190:183,1,135.000005149842,4|0,1:0|0:0,0:0:0:0:
439,237,123835,2,0,P|376:261|310:255,1,135.000005149842,10|0,0:0|0:0,0:0:0:0:
120,102,124186,1,0,0:0:0:0:
360,153,124361,1,0,1:0:0:0:
124,352,124537,2,0,P|116:284|104:216,1,135.000005149842,10|0,0:0|0:0,0:0:0:0:
254,49,124888,22,0,L|388:64,1,135.000005149842,4|0,0:0|0:0,0:0:0:0:
258,335,125239,2,0,L|124:320,1,135.000005149842,10|4,0:0|0:0,0:0:0:0:
463,224,125590,2,0,P|463:291|442:355,1,135.000005149842,0|4,0:0|0:0,0:0:0:0:
49,159,125940,2,0,P|48:92|69:28,1,135.000005149842,10|0,0:0|0:0,0:0:0:0:
352,113,126291,22,0,L|344:181,1,67.5000025749208,2|0,1:2|0:0,0:0:0:0:
301,277,126466,2,0,L|309:209,1,67.5000025749208,0|0,1:0|0:0,0:0:0:0:
376,81,126642,22,0,P|378:122|372:149,1,67.5000025749208,10|0,1:2|0:0,0:0:0:0:
277,309,126817,2,0,P|275:268|281:241,1,67.5000025749208,2|0,1:2|0:0,0:0:0:0:
426,218,126993,21,2,1:2:0:0:
387,258,127081,1,0,1:0:0:0:
331,267,127169,1,0,1:0:0:0:
281,242,127256,1,0,1:0:0:0:
256,192,127344,1,8,1:0:0:0:
231,142,127432,1,0,1:2:0:0:
181,117,127519,1,0,1:2:0:0:
125,126,127607,1,0,1:2:0:0:
86,166,127695,22,0,P|116:280|200:272,1,202.500007724762,4|0,0:1|0:0,0:0:0:0:
256,192,128397,22,0,P|268:144|268:104,1,90
76,272,128747,2,0,P|77:316|88:360,1,90
299,337,129098,6,0,P|387:323|477:313,1,180,4|8,1:2|0:0,0:0:0:0:
220,356,129625,1,0,0:0:0:0:
312,246,129800,2,0,B|348:261|372:233|372:233|415:252|445:221,1,135,2|0,0:0|0:0,0:1:0:0:
468,163,130151,1,8,0:0:0:0:
512,223,130326,1,0,0:0:0:0:
347,87,130502,22,0,L|437:75,1,90,2|0,1:2|0:0,0:1:0:0:
347,215,130853,2,0,L|437:228,1,90,8|2,0:0|0:0,0:1:0:0:
302,152,131204,2,0,L|212:150,1,90,0|0,0:0|1:0,0:0:0:0:
30,102,131554,22,0,P|46:72|72:51,1,67.5000025749208,10|0,0:0|0:0,0:0:0:0:
129,100,131730,2,0,P|112:129|87:152,1,67.5000025749208,2|0,0:0|0:0,0:0:0:0:
223,22,131905,22,0,B|331:54|331:54|380:32,1,135,0|0,1:0|0:0,0:0:0:0:
375,28,132256,1,8,0:0:0:0:
333,155,132432,1,0,0:0:0:0:
393,107,132607,22,0,P|438:92|487:126,1,90,2|0,0:0|1:0,0:0:0:0:
505,180,132870,1,0,0:0:0:0:
457,240,132958,2,0,P|413:243|378:216,1,90,8|0,0:0|0:0,0:0:0:0:
333,155,133309,21,0,1:0:0:0:
431,170,133484,1,0,0:0:0:0:
505,180,133660,21,8,0:0:0:0:
431,170,133835,1,2,0:0:0:0:
333,155,134011,22,0,L|260:144,1,45,0|0,1:0|0:0,0:0:0:0:
249,139,134186,2,0,L|176:128,1,45,0|0,1:0|0:0,0:0:0:0:
123,128,134361,22,0,L|118:99,2,30,4|4|4,3:0|3:0|3:0,0:0:0:0:
48,172,134537,2,0,L|43:201,2,30,4|4|4,3:0|3:0|3:0,0:0:0:0:
36,100,134712,21,6,1:2:0:0:
95,30,134888,1,0,0:0:0:0:
185,38,135063,1,10,0:0:0:0:
146,200,135239,1,0,0:0:0:0:
122,297,135414,2,0,L|222:317,1,90,2|0,0:0|1:0,0:0:0:0:
288,359,135765,2,0,L|377:342,1,90,10|0,0:0|0:0,0:0:0:0:
504,235,136116,21,2,1:2:0:0:
484,137,136291,1,0,0:1:0:0:
386,160,136467,1,10,0:0:0:0:
406,258,136642,1,0,0:0:0:0:
459,206,136818,21,0,0:0:0:0:
454,182,136906,1,0,0:0:0:0:
430,188,136994,1,0,1:0:0:0:
435,212,137081,1,0,0:0:0:0:
445,198,137168,22,0,L|277:238,1,135,8|0,0:0|0:0,0:1:0:0:
243,254,137519,21,2,1:2:0:0:
155,199,137695,1,0,0:0:0:0:
120,313,137870,1,10,0:0:0:0:
244,172,138046,21,0,0:1:0:0:
358,100,138222,1,2,0:0:0:0:
403,248,138397,1,0,1:0:0:0:
93,150,138572,21,10,0:0:0:0:
93,150,138747,1,0,0:0:0:0:
124,85,138923,21,2,1:2:0:0:
187,151,139098,21,0,1:0:0:0:
279,192,139273,21,8,0:0:0:0:
399,175,139449,21,0,1:0:0:0:
493,104,139625,22,0,P|506:134|511:167,1,45,0|0,1:0|0:0,0:0:0:0:
477,112,139800,2,0,P|483:133|492:153,1,45,0|0,1:0|0:0,0:0:0:0:
449,44,139975,1,4,1:2:0:0:
457,39,140063,1,0,1:0:0:0:
449,34,140151,22,0,L|443:27,1,6.74999979400635,0|0,1:0|0:0,0:0:0:0:
394,98,140327,21,4,1:0:0:0:
351,54,140414,1,0,0:0:0:0:
298,51,140502,1,2,0:0:0:0:
254,73,140589,1,0,0:0:0:0:
236,112,140677,1,10,0:0:0:0:
245,154,140765,1,0,0:0:0:0:
257,200,140853,1,2,0:0:0:0:
252,221,140940,1,0,0:0:0:0:
242,228,141028,22,0,L|191:240,1,45,2|0,0:0|0:0,0:0:0:0:
146,185,141204,22,0,P|122:199|107:228,1,45,0|0,1:0|0:0,0:0:0:0:
102,196,141379,2,0,P|88:213|83:235,1,45,10|0,0:0|0:0,0:0:0:0:
71,221,141554,2,0,P|67:242|71:264,1,45,2|0,0:0|0:0,0:0:0:0:
49,338,141730,21,2,1:2:0:0:
81,362,141818,1,0,0:0:0:0:
123,358,141905,1,2,0:0:0:0:
165,328,141993,1,0,0:0:0:0:
214,304,142081,1,10,0:0:0:0:
230,299,142168,1,0,0:0:0:0:
251,301,142256,1,2,0:0:0:0:
277,315,142343,1,0,0:0:0:0:
292,342,142432,22,0,L|256:349,1,33.7500012874604,2|0,0:0|0:0,0:0:0:0:
348,280,142607,2,0,L|407:291,1,45,2|0,1:2|0:0,0:0:0:0:
260,205,142783,21,10,0:0:0:0:
442,92,142958,21,10,0:0:0:0:
464,305,143133,21,2,1:2:0:0:
472,273,143221,1,0,0:0:0:0:
482,237,143309,1,2,0:0:0:0:
492,195,143397,1,0,0:0:0:0:
504,146,143484,21,10,0:0:0:0:
468,172,143571,1,0,0:0:0:0:
417,177,143659,1,2,0:0:0:0:
385,159,143747,1,0,0:0:0:0:
368,145,143834,1,2,0:0:0:0:
343,133,143922,1,0,0:0:0:0:
320,135,144010,1,2,1:2:0:0:
309,142,144098,1,0,0:0:0:0:
303,145,144186,22,0,B|285:158|285:158|254:158,1,45,10|0,0:0|0:0,0:0:0:0:
241,84,144361,2,0,B|259:71|259:71|281:71,1,45
167,223,144537,21,2,1:2:0:0:
122,194,144625,1,0,0:0:0:0:
105,147,144712,1,2,0:0:0:0:
121,98,144800,1,0,0:0:0:0:
184,147,144888,21,10,0:0:0:0:
179,145,144975,1,0,0:0:0:0:
179,141,145063,1,2,0:0:0:0:
184,139,145151,1,0,0:0:0:0:
186,143,145239,22,0,L|125:165,1,45,0|0,1:0|0:0,0:0:0:0:
4,206,145414,2,0,L|47:191,1,45,0|0,1:0|0:0,0:0:0:0:
52,39,145590,22,0,L|82:124,1,90.0000034332277,8|0,3:2|0:0,0:0:0:0:
118,229,145765,2,0,L|134:274,2,45.0000017166138,0|0|0,3:0|3:0|3:0,0:0:0:0:
100,235,145940,22,2,L|135:336,1,90,4|0,1:2|0:0,0:1:0:0:
242,287,146291,1,2,0:1:0:0:
266,278,146379,1,2,0:0:0:0:
290,269,146467,2,0,L|357:244,1,45
405,223,146642,22,2,P|433:256|429:300,1,90,2|0,0:0|1:0,0:1:0:0:
433,153,146993,2,2,P|412:114|371:100,1,90,8|0,0:0|0:0,0:1:0:0:
275,62,147344,21,2,1:0:0:0:
161,68,147519,21,0,3:0:0:0:
81,117,147695,21,10,0:1:0:0:
61,188,147870,21,0,0:1:0:0:
98,251,148046,21,2,0:1:0:0:
140,273,148133,1,0,0:0:0:0:
188,275,148221,2,0,L|245:261,1,33.7500012874604,2|0,1:2|0:0,0:0:0:0:
300,246,148397,1,10,0:0:0:0:
339,233,148484,1,0,0:0:0:0:
315,264,148572,1,2,0:0:0:0:
334,257,148659,1,0,0:0:0:0:
332,280,148747,22,0,P|378:267|431:258,1,90,2|0,1:0|0:0,0:0:0:0:
489,205,149098,1,10,0:1:0:0:
214,207,149274,22,0,P|168:194|115:185,1,90,2|0,0:1|0:0,0:1:0:0:
57,132,149625,1,2,1:0:0:0:
265,47,149800,21,10,0:1:0:0:
308,309,149975,1,0,0:0:0:0:
324,112,150151,22,0,L|386:121,1,45,6|0,1:0|0:0,0:0:0:0:
441,136,150326,2,0,P|508:193|358:328,1,337.5,2|0,1:0|0:0,0:0:0:0:
242,260,150677,22,0,L|180:251,1,45,2|0,1:0|0:0,0:0:0:0:
125,236,150853,2,0,P|58:179|208:44,1,337.5,6|0,1:0|0:0,0:0:0:0:
305,17,151204,21,4,1:2:0:0:
250,352,151379,1,2,0:1:0:0:
21,163,151554,6,0,B|46:128|92:131|92:131|132:110|165:132,1,157.5,2|0,1:2|0:0,0:0:0:0:
220,212,152256,22,0,P|228:236|232:260,1,45,8|0,1:0|0:0,0:0:0:0:
320,12,152432,22,0,L|312:80,1,67.5000025749208,2|0,0:3|0:0,0:0:0:0:
396,36,152607,2,0,L|388:104,1,67.5000025749208,2|0,0:3|0:0,0:0:0:0:
472,60,152783,2,0,L|464:128,1,67.5000025749208,2|0,0:3|0:0,0:0:0:0:
320,244,152958,22,0,B|416:196|416:292|512:244,2,202.500007724762,0|0|0,1:0|1:0|1:0,0:0:0:0:
154,162,153660,22,0,P|127:173|85:175,1,67.5000025749208,8|0,0:0|0:0,0:0:0:0:
50,348,154011,1,2,0:0:0:0:
111,300,154098,1,0,0:0:0:0:
187,283,154186,1,2,0:0:0:0:
263,299,154273,1,0,0:0:0:0:
326,347,154361,22,0,L|362:344,1,22.5,0|0,1:0|0:0,0:0:0:0:
377,271,154537,2,0,L|399:269,1,22.5,2|0,0:0|0:0,0:1:0:0:
496,308,154712,22,2,B|467:319|467:319|413:309|368:261,1,135,0|0,0:0|0:0,0:1:0:0:
244,238,155063,2,0,B|255:223|255:223|280:214|303:215,1,67.5,8|0,0:0|0:0,0:0:0:0:
506,219,155414,2,2,B|490:227|490:227|439:235|378:172,1,135,0|0,0:0|0:0,0:1:0:0:
314,125,155765,21,0,1:0:0:0:
303,319,155940,1,0,3:0:0:0:
303,319,155999,1,0,3:0:0:0:
303,319,156057,1,0,3:0:0:0:
303,319,156116,2,0,L|299:379,2,60,2|2|2,3:0|3:0|3:0,0:0:0:0:
220,232,156467,21,8,0:0:0:0:
436,196,156642,1,0,1:0:0:0:
200,236,156818,1,2,0:0:0:0:
456,192,156993,1,0,0:0:0:0:
236,8,157168,22,0,L|228:148,1,135,4|0,1:2|0:0,0:0:0:0:
144,180,157519,22,0,P|104:188|44:172,1,101.250003862381,2|0,0:0|0:0,0:0:0:0:
92,48,157870,22,0,L|96:76,1,22.5,8|0,0:0|0:0,0:0:0:0:
244,228,158046,22,0,L|240:200,1,22.5,2|0,3:2|0:0,0:0:0:0:
256,216,158221,2,0,L|252:188,1,22.5,2|0,3:2|0:0,0:0:0:0:
268,204,158397,2,0,L|264:176,1,22.5,2|0,3:2|0:0,0:0:0:0:
32,344,158572,22,0,P|96:320|164:324,1,135.000005149842,0|0,1:0|0:0,0:0:0:0:
236,360,158835,2,2,P|302:363|365:339,1,135.000005149842,0|0,1:0|0:0,0:1:0:0:
416,276,159098,2,0,L|424:352,1,67.5000025749208,0|0,1:0|0:0,0:0:0:0:
492,192,159274,22,0,P|428:168|360:172,1,135.000005149842,10|0,1:2|0:0,0:0:0:0:
288,208,159537,2,2,P|221:211|158:187,1,135.000005149842,0|0,0:0|0:0,0:1:0:0:
108,124,159800,2,0,L|100:200,1,67.5000025749208
256,32,159975,22,0,L|264:128,1,90,0|0,1:0|0:0,0:0:0:0:
280,300,160326,1,0,0:0:0:0:
444,131,160502,1,2,0:0:0:0:
444,131,160590,1,0,0:0:0:0:
444,131,160677,2,0,P|400:143|356:144,1,90,10|0,0:0|0:0,0:0:0:0:
84,100,161028,2,0,P|128:88|172:87,1,90
170,344,161379,22,0,P|124:344|81:333,1,90,0|0,1:0|0:0,0:0:0:0:
144,176,161730,1,0,0:0:0:0:
336,268,161905,1,0,1:0:0:0:
336,268,161993,1,0,0:0:0:0:
336,268,162081,2,0,L|344:364,1,90,8|0,0:0|1:0,0:0:0:0:
488,176,162432,22,0,L|444:172,1,45,2|0,3:0|0:0,0:0:0:0:
504,200,162607,2,0,L|460:196,1,45,2|0,3:0|0:0,0:0:0:0:
313,73,162783,22,0,B|307:136|307:136|340:207|340:207|335:268,1,202.500007724762,4|0,0:1|0:0,0:0:0:0:
224,316,163484,21,2,0:0:0:0:
90,238,163660,21,0,0:0:0:0:
147,295,163835,21,8,0:0:0:0:
168,372,164011,21,0,0:0:0:0:
14,135,164186,6,0,B|70:97|119:133|113:134|162:153|208:121,1,202.500007724762,4|0,1:0|0:0,0:0:0:0:
269,79,164537,1,8,0:0:0:0:
251,222,164712,1,2,0:0:0:0:
318,135,164888,2,0,B|352:128|352:128|311:162,1,67.5000025749208
420,108,165063,2,0,P|455:106|494:135,1,67.5000025749208,0|0,1:0|0:0,0:0:0:0:
461,36,165239,1,8,0:0:0:0:
437,177,165414,1,2,0:0:0:0:
417,289,165590,22,0,B|386:259|386:259|375:298|375:298|314:343|314:343|282:314,1,202.500007724762,4|0,1:2|0:0,0:1:0:0:
212,325,165940,2,0,L|148:302,1,67.5000025749208,8|0,0:0|0:0,0:0:0:0:
417,289,166116,22,0,B|398:327|398:327|374:294|374:294|300:276|300:276|282:315,1,202.500007724762,4|0,0:0|0:0,0:0:0:0:
212,325,166467,2,0,L|158:365,1,67.5000025749208,4|0,0:0|0:0,0:0:0:0:
90,345,166642,22,0,B|43:354|43:354|40:359|40:359|39:354|39:354|14:360|14:360|12:344|12:344|49:338,1,123.300003480606,10|0,0:0|0:0,0:0:0:0:
27,226,166993,22,0,P|17:126|8:25,1,202.500007724762,4|0,1:2|0:0,0:0:0:0:
120,58,167344,2,0,P|130:150|223:157,1,202.500007724762,8|0,0:0|0:0,0:0:0:0:
297,122,167695,1,0,0:0:0:0:
344,49,167870,21,4,1:2:0:0:
391,110,168046,1,8,0:0:0:0:
360,82,168221,1,0,0:0:0:0:
243,282,168397,22,0,B|247:232|288:212|288:212|288:202|288:202|290:211|290:211|339:188|384:216,1,202.500007724762,0|0,1:0|0:0,0:0:0:0:
494,129,168747,22,0,B|483:159|483:159|448:167,1,67.5000025749208,8|0,0:0|0:0,0:0:0:0:
391,110,168923,2,0,P|365:89|351:59,1,67.5000025749208
420,8,169098,2,0,P|445:29|459:59,1,67.5000025749208,2|0,0:2|0:0,0:0:0:0:
458,249,169274,22,0,B|504:238|504:238|520:261,1,67.5000025749208,8|0,1:0|0:0,0:0:0:0:
392,298,169449,2,0,B|346:309|346:309|330:286,1,67.5000025749208,10|0,0:2|0:0,0:0:0:0:
263,155,169625,2,0,B|252:163|252:163|272:167,1,33.7500012874604,2|0,0:2|0:0,0:0:0:0:
223,79,169800,22,0,B|204:148|244:148|221:212|221:212|152:196,1,202.500007724762,0|0,1:0|0:0,0:0:0:0:
82,172,170151,1,10,0:0:0:0:
141,120,170326,1,0,0:0:0:0:
99,319,170502,21,2,0:0:0:0:
61,329,170590,1,2,0:0:0:0:
24,337,170677,2,0,P|10:306|-19:292,1,67.5000025749208,0|0,1:0|0:0,0:0:0:0:
174,301,170853,2,0,L|305:272,1,135.000005149842,10|0,0:0|0:0,0:0:0:0:
501,223,171204,22,0,B|533:281|513:326|513:326|522:335|522:335|510:331|510:331|488:360|488:360|456:332,1,202.500007724762,4|0,1:2|0:0,0:0:0:0:
379,314,171554,1,8,0:0:0:0:
353,193,171730,22,0,P|332:152|333:129,1,67.5000025749208,4|0,0:0|0:0,0:0:0:0:
411,107,171905,2,0,P|433:149|432:172,1,67.5000025749208
411,237,172081,1,4,0:0:0:0:
352,60,172256,2,0,L|404:215,1,135.000005149842,8|0,0:0|0:0,0:0:0:0:
143,145,172607,22,0,L|100:272,1,135.000005149842,0|0,1:2|0:0,0:0:0:0:
69,358,172958,1,10,0:0:0:0:
27,173,173134,1,0,0:0:0:0:
180,23,173309,21,0,0:0:0:0:
259,166,173484,1,4,0:0:0:0:
208,268,173660,1,10,0:0:0:0:
252,342,173835,1,0,0:0:0:0:
225,379,174011,22,0,P|216:345|197:315,1,67.5000025749208,6|0,1:2|0:0,0:0:0:0:
292,280,174186,22,0,P|301:246|334:203,1,76.5000014591217,0|0,1:0|0:0,0:0:0:0:
174,194,174361,22,0,P|165:160|107:103,1,85.4999977169037,10|0,1:2|0:0,0:0:0:0:
285,100,174537,22,0,P|294:65|372:7,1,94.499997116089,0|0,1:0|0:0,0:0:0:0:
411,136,174712,22,0,P|426:130|456:121,4,33.7500012874604,4|0|0|0|0,1:0|0:0|0:0|0:0|0:0,0:0:0:0:
99,292,175063,2,0,P|84:298|54:307,4,33.7500012874604,4|0|0|0|8,1:0|0:0|0:0|0:0|0:0,0:0:0:0:
130,214,175414,22,0,B|189:212|213:285|213:285|202:333|236:367,1,202.500007724762,4|0,1:0|0:0,0:0:0:0:
288,306,175765,2,0,B|328:292|328:292|367:277|378:238|374:220,1,135.000005149842,10|0,0:0|0:0,0:0:0:0:
482,56,176116,1,2,0:0:0:0:
446,32,176204,1,2,0:0:0:0:
403,31,176291,2,0,B|351:44|351:44|363:49,1,67.5000025749208,0|0,1:0|0:0,0:0:0:0:
423,110,176467,2,0,B|352:129|352:129|350:137|350:137|348:130|348:130|271:152|271:152|290:122,1,202.500007724762,8|0,0:0|0:0,0:0:0:0:
242,44,176818,22,0,B|190:77|147:58|147:58|149:51|149:51|145:56|145:56|109:38|37:90,1,202.500007724762,4|0,1:2|0:0,0:0:0:0:
47,86,177168,2,0,B|26:104|18:122|18:122|68:118,1,67.5000025749208,8|0,0:0|0:0,0:0:0:0:
242,44,177344,22,0,B|187:33|163:57|163:57|157:65|157:65|159:60|159:60|106:93|60:74,1,202.500007724762,4|0,1:2|0:0,0:0:0:0:
47,86,177695,2,0,B|29:107|11:115|11:115|15:65,1,67.5000025749208,4|0,1:2|0:0,0:0:0:0:
87,168,177870,22,0,P|40:209|55:310,1,135.000005149842,10|0,0:0|0:0,0:0:0:0:
154,268,178221,22,0,B|181:219|242:239|242:239|250:245|250:245|246:240|246:240|262:200|250:160|192:172,1,202.500007724762,4|0,1:2|2:0,2:0:0:0:
154,268,178572,22,0,B|234:217|263:283|253:211|344:207,1,202.500007724762,8|0,2:0|2:0,2:0:0:0:
224,171,178923,21,0,2:0:0:0:
363,62,179098,1,4,1:2:0:0:
409,121,179273,1,10,2:0:0:0:
421,195,179449,1,0,2:0:0:0:
385,290,179625,22,0,B|432:277|432:277|435:282|435:282|435:276|435:276|499:259|499:259|518:217|518:217|490:224,1,202.500007724762,4|0,1:2|0:0,0:0:0:0:
469,152,179975,2,0,P|438:169|418:221,1,67.5000025749208,8|0,0:0|0:0,0:0:0:0:
452,357,180326,1,2,0:0:0:0:
311,269,180502,22,0,P|297:267|223:307,1,67.5000025749208,0|0,1:0|0:0,0:0:0:0:
121,344,180677,2,0,P|155:346|186:333,1,67.5000025749208,2|0,1:2|0:0,0:0:0:0:
153,205,180853,2,0,B|164:201|164:201|158:227|172:255,1,67.5000025749208,8|0,0:0|0:0,0:0:0:0:
68,115,181028,22,0,B|102:136|156:118|123:143|176:48|210:150|178:120|227:150|284:120,1,202.500007724762,4|0,1:2|0:0,0:0:0:0:
345,57,181379,2,0,P|375:70|409:69,1,67.5000025749208,10|0,0:0|0:0,0:0:0:0:
342,79,181554,2,0,P|375:78|406:91,1,67.5000025749208
419,196,181730,21,2,3:2:0:0:
435,168,181818,21,0,0:0:0:0:
471,143,181905,21,0,1:0:0:0:
497,74,181993,21,0,0:0:0:0:
483,45,182081,22,0,B|510:122|445:108|482:187|482:187|541:175,1,202.500007724762,8|0,0:0|0:0,0:0:0:0:
512,282,182432,22,0,B|365:312|365:312|280:261,1,202.500007724762,4|0,1:2|0:0,0:0:0:0:
338,384,182783,2,0,P|306:373|273:381,1,67.5000025749208,8|0,0:0|0:0,0:0:0:0:
512,282,182958,22,0,B|400:344|430:243|313:288,1,202.500007724762,4|0,1:2|0:0,0:0:0:0:
416,185,183309,2,0,P|383:177|352:188,1,67.5000025749208,4|0,1:2|0:0,0:0:0:0:
151,232,183484,22,0,B|173:182|222:164|307:228|287:195|280:231|311:206|162:217|227:302|236:337,1,270,8|0,0:0|0:0,0:0:0:0:
120,324,183835,22,0,L|42:278,1,90,0|0,1:0|0:0,0:0:0:0:
42,279,184011,2,0,P|8:249|38:149,1,90,0|0,1:0|0:0,0:0:0:0:
238,101,184186,22,0,L|310:143,1,84.1499983307648,8|0,1:0|0:0,0:0:0:0:
310,143,184362,2,0,P|344:171|353:215,1,84.1499983307648,8|0,1:0|0:0,0:0:0:0:
172,212,184537,21,2,1:2:0:0:
242,293,184712,21,0,1:0:0:0:
307,319,184800,1,0,1:0:0:0:
376,301,184888,1,2,1:2:0:0:
409,283,184975,1,0,1:0:0:0:
462,294,185063,1,2,1:2:0:0:
475,307,185151,1,0,1:0:0:0:
472,320,185239,22,0,B|454:270|476:234|500:234|500:234|476:234|465:174|416:168|330:221,1,270,4|0,1:0|0:0,0:0:0:0:
285,237,185940,22,0,B|219:259|231:204|164:236|164:236|174:286,1,168.75
137,362,186291,1,2,0:0:0:0:
100,342,186379,1,0,0:0:0:0:
86,320,186467,2,0,L|79:276,1,45,2|0,0:0|0:0,0:0:0:0:
16,144,186642,6,0,L|132:132,1,112.5,4|0,1:2|0:0,0:0:0:0:
416,232,186993,2,0,L|300:220,1,112.5,8|0,0:0|0:0,0:0:0:0:
172,28,187344,1,0,0:0:0:0:
372,128,187519,1,0,1:0:0:0:
196,344,187695,2,0,L|188:232,1,112.5,8|0,0:0|0:0,0:0:0:0:
436,208,188046,21,2,1:2:0:0:
408,224,188133,1,0,0:0:0:0:
368,228,188221,1,2,0:0:0:0:
324,216,188309,1,0,0:0:0:0:
288,180,188397,1,10,0:0:0:0:
244,144,188485,1,0,0:0:0:0:
184,128,188573,1,2,0:0:0:0:
124,160,188660,1,0,0:0:0:0:
88,224,188747,22,0,L|94:290,3,56.25,2|0|0|0,0:0|0:0|1:0|0:0,0:0:0:0:
216,336,189098,2,0,L|210:279,1,56.25,10|0,0:0|0:0,0:0:0:0:
320,164,189274,2,0,L|326:221,1,56.25,2|0,0:0|0:0,0:0:0:0:
460,336,189449,22,0,L|447:224,1,112.5,0|0,1:0|0:0,0:0:0:0:
188,100,189800,2,0,L|203:234,1,112.5,8|0,0:0|0:0,0:0:0:0:
336,112,190151,1,0,0:0:0:0:
304,360,190326,1,0,1:0:0:0:
80,280,190502,2,0,L|93:168,1,112.5,8|0,0:0|0:0,0:0:0:0:
288,16,190853,21,2,1:2:0:0:
320,76,190940,1,0,0:0:0:0:
304,135,191028,1,2,0:0:0:0:
268,180,191116,1,0,0:0:0:0:
232,215,191204,1,8,0:0:0:0:
220,260,191292,1,0,0:0:0:0:
224,299,191380,1,0,0:0:0:0:
240,328,191467,1,0,0:0:0:0:
304,360,191554,22,0,L|360:354,1,56.25,0|0,1:0|0:0,0:0:0:0:
320,372,191730,2,0,L|376:366,1,56.25,0|0,1:0|0:0,0:0:0:0:
488,264,191905,22,0,P|500:276|509:295,4,37.5,4|4|4|4|4,3:0|3:0|3:0|3:0|3:0,0:0:0:0:
412,200,192256,22,0,P|364:184|300:188,1,112.5,0|0,1:0|0:0,0:0:0:0:
76,284,192607,2,0,P|124:300|188:295,1,112.5,8|0,0:0|0:0,0:0:0:0:
368,96,192958,1,0,0:0:0:0:
340,340,193133,1,0,1:0:0:0:
142,193,193309,2,0,L|152:80,1,112.5,8|0,0:0|0:0,0:0:0:0:
412,16,193660,21,2,1:2:0:0:
424,48,193747,1,0,0:0:0:0:
428,80,193835,1,2,0:0:0:0:
420,112,193923,1,0,0:0:0:0:
400,140,194011,21,10,0:0:0:0:
352,160,194098,1,0,0:0:0:0:
300,152,194186,1,2,0:0:0:0:
256,128,194274,1,0,0:0:0:0:
228,88,194361,21,2,0:0:0:0:
160,76,194449,1,0,0:0:0:0:
104,116,194537,1,2,1:2:0:0:
96,184,194624,1,0,0:0:0:0:
136,240,194712,21,10,0:0:0:0:
188,248,194800,1,0,0:0:0:0:
232,224,194888,1,2,0:0:0:0:
260,180,194975,1,0,0:0:0:0:
256,128,195063,22,0,L|248:16,1,112.5,0|0,1:0|0:0,0:0:0:0:
380,68,195414,1,8,0:0:0:0:
232,224,195590,2,2,B|337:166|342:270|447:212,1,225,0|0,0:0|1:0,0:1:0:0:
292,308,196116,1,8,0:0:0:0:
156,112,196467,21,2,1:0:0:0:
388,140,196642,1,2,1:0:0:0:
388,140,196818,1,8,0:0:0:0:
128,280,196993,21,2,1:0:0:0:
440,236,197168,1,2,1:0:0:0:
440,236,197344,1,0,0:0:0:0:
232,8,197519,21,12,1:2:0:0:
272,320,197695,2,0,L|280:376,1,56.25,2|0,0:1|0:0,0:0:0:0:
280,376,200849,6,0,L|325:368,1,45,2|0,0:0|0:0,0:0:0:0:
391,332,201353,1,2,0:0:0:0:
460,353,201650,1,0,0:0:0:0:
204,280,201965,22,0,P|140:293|41:190,1,180,2|0,0:0|0:0,0:0:0:0:
54,79,203328,2,0,P|138:82|157:164,1,180,2|0,0:0|0:0,0:0:0:0:
51,230,204692,22,0,B|10:195|66:108|106:171|109:145|112:182|182:158,2,180,2|0|2,0:0|0:0|0:0,0:0:0:0:
232,134,206737,2,0,B|277:116|280:153|283:127|323:190|379:103|338:68,1,180,2|0,0:0|0:0,0:0:0:0:
457,25,207696,22,0,P|471:131|487:294,1,225,2|2,0:0|0:0,0:0:0:0:
418,324,208718,1,2,0:0:0:0:
418,324,209059,1,2,0:0:0:0:
418,324,209400,1,2,0:0:0:0:
382,337,209741,21,2,0:0:0:0:
332,330,210082,21,2,0:0:0:0:
259,303,210423,21,2,0:0:0:0:
164,297,210934,21,2,0:0:0:0:
64,346,211446,22,0,L|41:341,1,22.5,2|2,0:0|0:0,0:0:0:0:
