osu file format v14

[General]
AudioFilename: audio.mp3
AudioLeadIn: 0
PreviewTime: 41580
Countdown: 0
SampleSet: Soft
StackLeniency: 0.5
Mode: 0
LetterboxInBreaks: 0
WidescreenStoryboard: 1

[Editor]
Bookmarks: 42436,105594
DistanceSpacing: 1.3
BeatDivisor: 4
GridSize: 32
TimelineZoom: 1

[Metadata]
Title:Flamingo
TitleUnicode:Flamingo
Artist:Yonezu Kenshi
ArtistUnicode:米津玄師
Creator:Petal
Version:Normal
Source:
Tags:Japanese pop short cut ver jpop フラミンゴ Flamingos matha
BeatmapID:2520924
BeatmapSetID:1210565

[Difficulty]
HPDrainRate:4
CircleSize:3.5
OverallDifficulty:4
ApproachRate:5
SliderMultiplier:1.3
SliderTickRate:1

[Events]
//Background and Video events
0,0,"BG.jpg",0,0
//Break Periods
//Storyboard Layer 0 (Background)
//Storyboard Layer 1 (Fail)
//Storyboard Layer 2 (Pass)
//Storyboard Layer 3 (Foreground)
//Storyboard Layer 4 (Overlay)
//Storyboard Sound Samples

[TimingPoints]
391,526.315789473684,4,2,1,40,1,0
8812,-100,4,2,1,50,0,0
25654,-100,4,2,1,60,0,0
33285,-100,4,2,1,60,0,0
34075,-100,4,2,1,60,0,0
41706,-100,4,2,1,40,0,0
42496,-100,4,2,2,70,0,1
42890,-100,4,2,1,70,0,1
43022,-100,4,2,1,70,0,1
43548,-100,4,2,1,70,0,1
44075,-100,4,2,1,70,0,1
44601,-100,4,2,1,70,0,1
44864,-100,4,2,1,70,0,1
45654,-100,4,2,1,70,0,1
45917,-100,4,2,1,70,0,1
46180,-100,4,2,1,70,0,1
46443,-100,4,2,1,70,0,1
46706,-100,4,2,2,70,0,1
47101,-100,4,2,1,70,0,1
47233,-100,4,2,1,70,0,1
47759,-100,4,2,1,70,0,1
48285,-100,4,2,1,70,0,1
49338,-100,4,2,1,70,0,1
49864,-100,4,2,1,70,0,1
50917,-100,4,2,2,70,0,1
51312,-100,4,2,1,70,0,1
51443,-100,4,2,1,70,0,1
51969,-100,4,2,1,70,0,1
52496,-100,4,2,1,70,0,1
53022,-100,4,2,1,70,0,1
53285,-100,4,2,1,70,0,1
53548,-100,4,2,1,70,0,1
53812,-100,4,2,1,70,0,1
54075,-100,4,2,1,70,0,1
54338,-100,4,2,1,70,0,1
55127,-100,4,2,1,60,0,1
57233,-100,4,2,1,60,0,1
60390,-100,4,2,1,60,0,1
60917,-100,4,2,1,60,0,1
61706,-100,4,2,1,60,0,1
61969,-100,4,2,1,60,0,1
62496,-100,4,2,1,50,0,1
62759,-100,4,2,1,50,0,1
63022,-100,4,2,1,50,0,1
63285,-100,4,2,1,40,0,1
63548,-100,4,2,1,50,0,0
63812,-100,4,2,1,50,0,0
64206,-100,4,2,1,50,0,0
64864,-100,4,2,1,50,0,0
65654,-100,4,2,1,50,0,0
66443,-100,4,2,1,50,0,0
67759,-100,4,2,1,40,0,0
71969,-100,4,2,1,5,0,0

[Colours]
Combo1 : 210,172,194
Combo2 : 225,218,174
Combo3 : 249,112,76
Combo4 : 133,172,207

[HitObjects]
26,41,391,6,0,B|98:32|77:86|171:69,1,130,2|8,3:2|0:0,0:0:0:0:
217,22,1180,1,2,0:0:0:0:
287,68,1443,2,0,L|297:143,1,65,2|2,0:0|3:0,0:0:0:0:
247,201,1969,2,0,L|257:276,1,65,8|2,0:0|0:0,0:0:0:0:
185,313,2496,6,0,P|238:313|294:387,1,130,2|8,3:0|0:0,0:0:0:0:
374,368,3285,1,2,0:0:0:0:
457,355,3548,2,0,L|464:268,1,65,2|2,0:0|3:0,0:0:0:0:
490,258,3943,2,0,L|495:193,1,65,2|2,0:0|3:0,0:0:0:0:
470,159,4338,1,2,0:0:0:0:
494,78,4601,6,0,P|438:79|388:137,1,130,2|8,3:2|0:0,0:0:0:0:
323,182,5390,1,2,0:0:0:0:
259,126,5654,2,0,L|271:36,2,65,2|2|8,0:0|3:0|0:0,0:0:0:0:
323,182,6443,1,2,0:0:0:0:
269,247,6706,6,0,B|201:244|211:303|138:289,1,130,2|8,3:0|0:0,0:0:0:0:
88,233,7496,1,2,0:0:0:0:
25,290,7759,1,2,0:0:0:0:
225,17,8812,6,0,L|351:31,1,97.5,2|0,3:0|0:0,0:0:0:0:
361,43,9338,2,0,L|412:26,2,32.5,8|2|2,0:0|0:0|0:0,0:0:0:0:
312,112,9864,1,2,0:0:0:0:
372,171,10127,2,0,L|446:148,2,65,2|10|2,3:0|0:0|0:0,0:0:0:0:
334,247,10917,6,0,L|210:231,1,97.5,2|0,3:0|0:0,0:0:0:0:
205,262,11443,2,0,L|217:312,2,32.5,8|2|2,0:0|0:0|0:0,0:0:0:0:
148,199,11969,2,0,L|154:121,1,65,2|2,0:0|3:2,0:0:0:0:
196,61,12496,1,8,0:0:0:0:
126,13,12759,2,0,L|84:18,1,32.5,10|8,0:0|0:0,0:0:0:0:
52,26,13022,6,0,L|41:137,1,97.5,2|0,3:0|0:0,0:0:0:0:
35,164,13548,2,0,L|3:173,2,32.5,10|2|2,0:0|0:0|0:0,0:0:0:0:
95,223,14075,2,0,L|205:240,1,97.5,2|0,0:0|0:0,0:0:0:0:
219,206,14601,2,0,L|211:166,2,32.5,10|2|2,0:0|0:0|0:0,0:0:0:0:
277,267,15127,6,0,P|335:265|373:217,1,97.5,2|0,3:0|0:0,0:0:0:0:
377,200,15654,2,0,L|368:160,2,32.5,8|2|2,0:0|0:0|0:0,0:0:0:0:
445,249,16180,1,2,0:0:0:0:
507,192,16443,1,2,3:2:0:0:
461,120,16706,2,0,L|475:51,1,65,8|2,0:0|0:0,0:0:0:0:
401,12,17233,6,0,P|350:6|305:50,1,97.5,2|0,3:0|0:0,0:0:0:0:
274,47,17759,2,0,L|232:40,2,32.5,8|2|2,0:0|0:0|0:0,0:0:0:0:
311,122,18285,1,2,0:0:0:0:
349,197,18548,2,0,L|423:209,2,65,2|10|2,3:2|0:0|0:0,0:0:0:0:
311,122,19338,6,0,P|262:140|229:191,1,97.5,2|0,3:0|0:0,0:0:0:0:
212,210,19864,2,0,L|220:257,2,32.5,8|2|2,0:0|0:0|0:0,0:0:0:0:
131,185,20390,1,2,0:0:0:0:
63,235,20654,2,0,L|73:299,1,65,2|8,3:0|0:0,0:0:0:0:
144,344,21180,2,0,L|188:337,1,32.5,10|8,0:0|0:0,0:0:0:0:
214,356,21443,6,0,P|269:331|326:360,1,97.5,2|0,3:0|0:0,0:0:0:0:
344,330,21969,2,0,P|362:340|390:340,2,32.5,10|2|2,0:0|0:0|0:0,0:0:0:0:
324,247,22496,2,0,L|338:129,1,97.5,2|0,0:0|0:0,0:0:0:0:
306,119,23022,2,0,L|296:68,2,32.5,10|2|2,0:0|0:0|0:0,0:0:0:0:
233,162,23548,6,0,P|174:156|152:117,1,97.5,2|0,3:0|0:0,0:0:0:0:
133,90,24075,2,0,L|140:54,2,32.5,8|2|2,0:0|0:0|0:0,0:0:0:0:
70,147,24601,1,2,0:0:0:0:
89,229,24864,1,2,3:0:0:0:
105,311,25127,1,2,0:0:0:0:
271,341,25654,6,0,P|301:322|354:326,1,65,2|2,3:0|0:0,0:0:0:0:
407,352,26180,2,0,L|411:392,2,32.5,8|0|2,0:0|0:0|0:0,0:0:0:0:
449,278,26706,2,0,L|437:188,1,65,2|2,0:0|3:2,0:0:0:0:
383,150,27233,1,10,0:0:0:0:
421,74,27496,1,2,0:0:0:0:
353,22,27759,6,0,B|281:15|304:69|212:57,1,130,2|8,3:0|0:0,0:0:0:0:
160,13,28548,1,2,0:0:0:0:
123,89,28812,2,0,L|135:169,1,65,2|2,0:0|3:0,0:0:0:0:
195,209,29338,1,10,0:0:0:0:
267,166,29601,2,0,L|315:156,1,32.5,10|8,0:0|0:0,0:0:0:0:
339,170,29864,6,0,P|367:218|345:295,1,130,2|8,3:0|0:0,0:0:0:0:
281,336,30654,1,2,0:0:0:0:
200,360,30917,2,0,L|116:354,1,65,2|2,0:0|3:2,0:0:0:0:
71,299,31443,2,0,L|77:222,1,65,10|2,0:0|0:0,0:0:0:0:
33,161,31969,6,0,P|72:187|162:154,1,130,2|8,3:0|0:0,0:0:0:0:
192,96,32759,1,2,0:0:0:0:
264,139,33022,2,0,L|254:217,1,65,2|2,0:0|3:0,0:0:0:0:
339,217,33548,2,0,L|347:152,1,65,8|10,0:0|0:0,0:0:0:0:
363,69,34075,6,0,P|406:38|461:49,1,97.5,2|2,3:0|0:0,0:0:0:0:
481,68,34601,2,0,L|517:56,2,32.5,8|2|2,0:0|0:0|0:0,0:0:0:0:
460,149,35127,2,0,L|469:233,1,65,2|2,0:0|3:2,0:0:0:0:
477,297,35654,1,8,0:0:0:0:
393,306,35917,1,2,0:0:0:0:
327,359,36180,6,0,P|280:343|256:282,1,97.5,2|2,3:0|0:0,0:0:0:0:
239,264,36706,2,0,L|246:215,2,32.5,8|2|2,0:0|0:0|3:2,0:0:0:0:
172,316,37233,1,2,0:0:0:0:
110,257,37496,2,0,L|119:177,1,65,2|8,3:0|0:0,0:0:0:0:
168,126,38022,2,0,L|164:83,1,32.5,10|8,0:0|0:0,0:0:0:0:
142,57,38285,6,0,P|94:35|24:80,1,130,2|8,3:0|0:0,0:0:0:0:
14,151,39075,2,0,L|22:202,1,32.5,2|2,0:0|0:0,0:0:0:0:
42,218,39338,2,0,L|35:298,1,65,2|2,0:0|3:2,0:0:0:0:
82,353,39864,2,0,P|122:365|162:353,1,65,10|2,0:0|0:0,0:0:0:0:
211,310,40390,6,0,L|296:324,2,65,2|2|10,3:0|0:0|0:0,0:0:0:0:
165,238,41180,1,2,0:0:0:0:
212,168,41443,1,6,3:0:0:0:
473,18,42496,6,0,L|493:156,1,130,14|8,3:2|0:0,0:0:0:0:
461,225,43285,1,2,0:0:0:0:
381,195,43548,2,0,B|313:179|318:232|251:214,1,130,2|8,0:0|0:0,0:0:0:0:
196,155,44338,1,2,0:0:0:0:
134,213,44601,5,2,3:0:0:0:
71,155,44864,2,0,P|61:116|61:71,1,65,2|8,0:0|0:0,0:0:0:0:
114,27,45390,1,2,0:0:0:0:
192,60,45654,2,0,P|226:68|262:71,1,65,2|2,0:0|3:0,0:0:0:0:
327,26,46180,1,10,0:0:0:0:
383,88,46443,2,0,L|392:128,1,32.5,10|10,0:0|0:0,0:0:0:0:
385,161,46706,6,0,L|254:190,1,130,6|8,3:2|0:0,0:0:0:0:
212,260,47496,1,2,0:0:0:0:
264,325,47759,2,0,B|335:322|310:371|414:367,1,130,2|10,0:0|0:0,0:0:0:0:
457,324,48548,1,2,0:0:0:0:
405,256,48812,5,2,3:0:0:0:
470,202,49075,2,0,L|477:113,1,65,2|8,0:0|0:0,0:0:0:0:
451,56,49601,1,2,0:0:0:0:
375,94,49864,2,0,P|343:98|305:77,1,65,2|2,0:0|3:2,0:0:0:0:
257,21,50390,1,8,0:0:0:0:
192,76,50654,1,10,0:0:0:0:
129,19,50917,6,0,L|148:165,1,130,6|8,3:2|0:0,0:0:0:0:
214,197,51706,1,2,0:0:0:0:
164,265,51969,2,0,P|112:270|39:305,1,130,2|10,0:0|0:0,0:0:0:0:
85,375,52759,1,2,0:0:0:0:
169,378,53022,5,2,3:0:0:0:
244,340,53285,2,0,L|321:350,1,65,2|8,0:0|0:0,0:0:0:0:
347,333,53680,2,0,P|364:280|351:231,1,97.5,2|2,0:0|0:0,0:0:0:0:
294,181,54338,1,2,3:0:0:0:
346,114,54601,1,8,0:0:0:0:
423,146,54864,2,0,L|463:142,1,32.5,10|8,0:0|0:0,0:0:0:0:
492,121,55127,6,0,P|499:65|440:11,1,130,2|8,3:0|0:0,0:0:0:0:
369,32,55917,1,2,0:0:0:0:
346,114,56180,2,0,B|274:108|288:159|200:135,1,130,2|10,0:0|0:0,0:0:0:0:
155,87,56969,1,2,0:0:0:0:
95,147,57233,6,0,L|107:232,1,65,2|2,3:0|0:0,0:0:0:0:
84,293,57759,2,0,L|148:301,1,65,8|2,0:0|0:0,0:0:0:0:
225,265,58285,1,2,0:0:0:0:
288,320,58548,1,2,3:0:0:0:
360,275,58812,2,0,P|369:243|370:204,1,65,8|10,0:0|0:0,0:0:0:0:
321,142,59338,6,0,L|335:-3,1,130,2|8,3:0|0:0,0:0:0:0:
417,5,60127,1,2,0:0:0:0:
490,47,60390,2,0,P|505:93|492:178,1,130,2|10,0:0|0:0,0:0:0:0:
411,187,61180,1,2,0:0:0:0:
436,267,61443,6,0,L|444:341,1,65,2|2,3:0|0:0,0:0:0:0:
368,372,61969,2,0,L|230:357,1,130,8|2,0:0|0:0,0:0:0:0:
156,378,62759,1,2,3:0:0:0:
103,311,63022,2,0,P|98:268|111:234,1,65,8|10,0:0|0:0,0:0:0:0:
165,190,63548,6,0,P|121:205|49:145,1,130,2|8,3:0|0:0,0:0:0:0:
64,78,64338,1,2,0:0:0:0:
133,30,64601,2,0,P|164:37|207:40,1,65,2|2,0:0|3:2,0:0:0:0:
262,93,65127,2,0,P|293:85|326:83,1,65,10|2,0:0|0:0,0:0:0:0:
395,34,65654,6,0,P|376:81|362:179,1,130,2|8,3:0|0:0,0:0:0:0:
420,220,66443,1,2,0:0:0:0:
360,280,66706,2,0,L|280:288,1,65,2|2,0:0|3:0,0:0:0:0:
229,340,67233,1,2,0:0:0:0:
124,206,67759,6,0,P|115:135|103:73,1,130,2|8,0:0|0:0,0:0:0:0:
169,24,68548,1,2,0:0:0:0:
251,42,68812,2,0,P|238:105|231:170,1,130,2|10,0:0|0:0,0:0:0:0:
294,226,69601,1,2,0:0:0:0:
362,176,69864,6,0,B|433:183|406:226|494:228,1,130,2|10,0:0|0:0,0:0:0:0:
508,148,70654,1,2,0:0:0:0:
448,87,70917,2,0,L|429:9,1,65,2|2,0:0|0:0,0:0:0:0:
349,8,71443,1,8,0:0:0:0:
