osu file format v14

[General]
AudioFilename: audio.mp3
AudioLeadIn: 0
PreviewTime: 163719
Countdown: 0
SampleSet: Soft
StackLeniency: 0.7
Mode: 0
LetterboxInBreaks: 0
WidescreenStoryboard: 0

[Editor]
DistanceSpacing: 1
BeatDivisor: 4
GridSize: 32
TimelineZoom: 1

[Metadata]
Title:Flamingo
TitleUnicode:Flamingo
Artist:Yonezu Kenshi
ArtistUnicode:米津玄師
Creator:A r M i N
Version:Yugu's Normal
Source:
Tags:pop japanese jpop Armin A_r_M_i_N Yugu Loneight l1106188 Firika フラミンゴ
BeatmapID:2228785
BeatmapSetID:1064501

[Difficulty]
HPDrainRate:4
CircleSize:3
OverallDifficulty:4
ApproachRate:5
SliderMultiplier:1.8
SliderTickRate:1

[Events]
//Background and Video events
0,0,"BG.jpg",0,0
//Break Periods
2,143688,145594
2,148162,149804
2,152109,154015
2,156583,158225
//Storyboard Layer 0 (Background)
//Storyboard Layer 1 (Fail)
//Storyboard Layer 2 (Pass)
//Storyboard Layer 3 (Foreground)
//Storyboard Layer 4 (Overlay)
//Storyboard Sound Samples

[TimingPoints]
331,526.315789473684,4,2,1,40,1,0
331,-100,4,2,1,40,0,0
8752,-100,4,2,1,60,0,0
9804,-100,4,2,1,60,0,0
10857,-100,4,2,1,60,0,0
11909,-100,4,2,1,60,0,0
12699,-100,4,2,1,70,0,0
12962,-100,4,2,1,60,0,0
14015,-100,4,2,1,60,0,0
15067,-100,4,2,1,60,0,0
15857,-100,4,2,1,60,0,0
16909,-100,4,2,1,60,0,0
17173,-100,4,2,1,60,0,0
18225,-100,4,2,1,60,0,0
19278,-100,4,2,1,60,0,0
20330,-100,4,2,1,60,0,0
21120,-100,4,2,1,70,0,0
21383,-100,4,2,1,60,0,0
22436,-100,4,2,1,60,0,0
23488,-100,4,2,1,60,0,0
25067,-100,4,2,1,40,0,0
25528,-100,4,2,1,5,0,0
25594,-100,4,2,1,50,0,0
25725,-100,4,2,1,70,0,0
32699,-100,4,2,1,70,0,0
32962,-100,4,2,1,70,0,0
40330,-100,4,2,1,70,0,0
41646,-100,4,2,1,40,0,0
42436,-100,4,2,1,80,0,1
42830,-100,4,2,1,5,0,1
42962,-100,4,2,1,80,0,1
43488,-100,4,2,1,80,0,1
44015,-100,4,2,1,80,0,1
46646,-100,4,2,1,80,0,1
47041,-100,4,2,1,5,0,1
47173,-100,4,2,1,80,0,1
47699,-100,4,2,1,80,0,1
48225,-100,4,2,1,80,0,1
50857,-100,4,2,1,80,0,1
51252,-100,4,2,1,5,0,1
51383,-100,4,2,1,80,0,1
51909,-100,4,2,1,80,0,1
52436,-100,4,2,1,80,0,1
63488,-100,4,2,1,40,0,0
71909,-100,4,2,1,60,0,0
72962,-100,4,2,1,60,0,0
74015,-100,4,2,1,60,0,0
75067,-100,4,2,1,60,0,0
75857,-100,4,2,1,70,0,0
76120,-100,4,2,1,60,0,0
77173,-100,4,2,1,60,0,0
78225,-100,4,2,1,60,0,0
79015,-100,4,2,1,60,0,0
80067,-100,4,2,1,60,0,0
80330,-100,4,2,1,60,0,0
81383,-100,4,2,1,60,0,0
82436,-100,4,2,1,60,0,0
83488,-100,4,2,1,60,0,0
84278,-100,4,2,1,70,0,0
84541,-100,4,2,1,60,0,0
85594,-100,4,2,1,60,0,0
86646,-100,4,2,1,60,0,0
88225,-100,4,2,1,40,0,0
88686,-100,4,2,1,5,0,0
88752,-100,4,2,1,50,0,0
88883,-100,4,2,1,70,0,0
95857,-100,4,2,1,70,0,0
96120,-100,4,2,1,70,0,0
103488,-100,4,2,1,70,0,0
104804,-100,4,2,1,40,0,0
105594,-100,4,2,1,80,0,1
105988,-100,4,2,1,5,0,1
106120,-100,4,2,1,80,0,1
106646,-100,4,2,1,80,0,1
107173,-100,4,2,1,80,0,1
109804,-100,4,2,1,80,0,1
110199,-100,4,2,1,5,0,1
110330,-100,4,2,1,80,0,1
110857,-100,4,2,1,80,0,1
111383,-100,4,2,1,80,0,1
114015,-100,4,2,1,80,0,1
114409,-100,4,2,1,5,0,1
114541,-100,4,2,1,80,0,1
115067,-100,4,2,1,80,0,1
115594,-100,4,2,1,80,0,1
124541,-100,4,2,1,80,0,1
125594,-100,4,2,1,80,0,0
126120,-100,4,2,1,40,0,0
126580,-100,4,2,1,5,0,0
126646,-100,4,2,1,40,0,0
128028,-100,4,2,1,10,0,0
128225,-100,4,2,1,40,0,0
128817,-100,4,2,1,10,0,0
129278,-100,4,2,1,40,0,0
130133,-100,4,2,1,10,0,0
130199,-100,4,2,1,40,0,0
130528,-100,4,2,1,10,0,0
130594,-100,4,2,1,40,0,0
132238,-100,4,2,1,10,0,0
132436,-100,4,2,1,40,0,0
133028,-100,4,2,1,10,0,0
133488,-100,4,2,1,40,0,0
134344,-100,4,2,1,10,0,0
134409,-100,4,2,1,40,0,0
136449,-100,4,2,1,10,0,0
136646,-100,4,2,1,40,0,0
137238,-100,4,2,1,10,0,0
137699,-100,4,2,1,40,0,0
138554,-100,4,2,1,10,0,0
138620,-100,4,2,1,40,0,0
138949,-100,4,2,1,10,0,0
139015,-100,4,2,1,40,0,0
140659,-100,4,2,1,10,0,0
140857,-100,4,2,1,40,0,0
141449,-100,4,2,1,10,0,0
141909,-100,4,2,1,40,0,0
142765,-100,4,2,1,10,0,0
142830,-100,4,2,1,40,0,0
148488,-100,4,2,1,30,0,0
148620,-100,4,2,1,35,0,0
148752,-100,4,2,1,40,0,0
149541,-100,4,2,1,30,0,0
149673,-100,4,2,1,35,0,0
149804,-100,4,2,1,40,0,0
156909,-100,4,2,1,30,0,0
157041,-100,4,2,1,35,0,0
157173,-100,4,2,1,40,0,0
157962,-100,4,2,1,30,0,0
158094,-100,4,2,1,35,0,0
158226,-100,4,2,1,40,0,0
164541,-100,4,2,1,80,0,1
164936,-100,4,2,1,5,0,1
165067,-100,4,2,1,80,0,1
165594,-100,4,2,1,80,0,1
166120,-100,4,2,1,80,0,1
168752,-100,4,2,1,80,0,1
169146,-100,4,2,1,5,0,1
169278,-100,4,2,1,80,0,1
169804,-100,4,2,1,80,0,1
170330,-100,4,2,1,80,0,1
172962,-100,4,2,1,80,0,1
173357,-100,4,2,1,5,0,1
173488,-100,4,2,1,80,0,1
174015,-100,4,2,1,80,0,1
174541,-100,4,2,1,80,0,1
177699,-100,4,2,1,80,0,1
185594,-100,4,2,1,60,0,0
189278,-100,4,2,1,50,0,0
189804,-100,4,2,1,40,0,0
193488,-100,4,2,1,40,0,0
194015,-100,4,2,1,5,0,0

[Colours]
Combo1 : 75,136,169
Combo2 : 226,122,135
Combo3 : 125,218,238

[HitObjects]
81,57,331,6,0,B|206:44|206:44|158:121,1,180,2|8,1:2|0:0,0:0:0:0:
127,165,1120,1,0,1:0:0:0:
127,165,1383,2,0,P|114:208|128:263,2,90,0|2|8,1:0|0:0|0:0,0:0:0:0:
267,277,2436,6,0,P|315:307|378:199,1,180,2|8,1:2|0:0,0:0:0:0:
494,85,3488,2,0,B|448:73|401:101|401:101|363:126|318:115,1,180,0|8,1:0|0:0,0:0:0:0:
151,56,4541,5,2,1:2:0:0:
193,235,5067,1,8,0:0:0:0:
15,267,5594,2,0,P|16:326|35:365,1,90,0|2,1:0|0:0,0:0:0:0:
112,383,6120,2,0,P|162:352|186:316,2,90,8|0|2,0:0|1:0|1:2,0:0:0:0:
92,203,7173,1,8,0:0:0:0:
92,203,7436,5,0,1:0:0:0:
92,203,7699,1,0,1:0:0:0:
412,38,8752,6,0,B|434:107|407:137|407:137|383:162|407:234,1,180,2|8,1:2|0:0,0:0:0:0:
426,300,9541,1,0,1:0:0:0:
426,300,9804,1,0,1:0:0:0:
242,101,10594,1,0,1:0:0:0:
242,101,10857,6,0,B|190:93|156:130|156:130|129:162|65:153,1,180,2|8,1:2|0:0,0:0:0:0:
38,235,11646,1,0,1:0:0:0:
38,235,11909,2,0,P|76:271|88:315,1,90,0|2,1:0|0:0,0:0:0:0:
169,343,12436,2,0,P|229:339|273:300,1,90,8|8,0:0|1:1,0:0:0:0:
342,332,12962,6,0,P|426:319|447:237,1,180,2|8,1:2|0:0,0:0:0:0:
482,150,13752,1,0,1:0:0:0:
482,150,14015,1,0,1:0:0:0:
229,53,14804,1,0,1:0:0:0:
229,53,15067,6,0,B|240:139|240:139|228:168|228:168|237:243,1,180,2|8,1:2|0:0,0:0:0:0:
197,311,15857,2,0,L|98:329,1,90,0|0,1:0|1:0,0:0:0:0:
31,278,16383,1,2,1:2:0:0:
80,202,16646,2,0,P|72:145|49:116,1,90,8|0,0:0|1:0,0:0:0:0:
76,32,17173,6,0,P|157:66|252:31,1,180,2|8,1:2|0:0,0:0:0:0:
330,54,17962,1,0,1:0:0:0:
330,54,18225,1,0,1:0:0:0:
441,299,19015,1,0,1:0:0:0:
441,299,19278,6,0,L|417:101,1,180,2|8,1:2|0:0,0:0:0:0:
332,143,20067,1,0,1:0:0:0:
332,143,20330,2,0,L|213:157,1,90,0|2,1:0|0:0,0:0:0:0:
167,203,20857,2,0,L|48:188,1,90,8|8,0:0|1:1,0:0:0:0:
7,248,21383,6,0,B|35:298|14:344|14:344|123:358,1,180,2|8,1:2|0:0,0:0:0:0:
182,366,22173,1,0,1:0:0:0:
182,366,22436,1,0,1:0:0:0:
372,226,23225,1,0,1:0:0:0:
372,226,23488,6,0,P|361:160|271:69,1,180,2|8,1:2|0:0,0:0:0:0:
207,118,24278,1,0,1:0:0:0:
207,118,24541,2,0,L|195:207,1,90,0|2,1:0|0:0,0:0:0:0:
228,291,25067,2,0,P|285:319|367:303,1,135,0|0,0:0|0:0,0:0:0:0:
395,328,25594,6,0,L|419:135,1,180,2|8,1:2|0:0,0:0:0:0:
482,86,26383,1,0,1:0:0:0:
482,86,26646,2,0,P|424:63|371:73,1,90,0|2,1:0|0:0,0:0:0:0:
220,99,27436,1,0,1:0:0:0:
220,99,27699,6,0,P|164:108|46:62,1,180,2|8,1:2|0:0,0:0:0:0:
8,145,28488,1,0,1:0:0:0:
8,145,28752,2,0,P|29:190|28:243,1,90,0|2,1:0|0:0,0:0:0:0:
115,259,29278,2,0,P|139:221|176:196,1,90,8|8,0:0|1:1,0:0:0:0:
266,201,29804,6,0,L|289:379,1,180,2|8,1:2|0:0,0:0:0:0:
374,350,30594,1,0,1:0:0:0:
374,350,30857,2,0,P|444:328|467:294,1,90,0|2,1:0|0:0,0:0:0:0:
488,141,31646,1,0,1:0:0:0:
488,141,31909,6,0,P|414:73|320:50,1,180,2|8,1:2|0:0,0:0:0:0:
255,85,32699,2,0,P|197:84|146:52,1,90,0|0,1:0|1:0,0:0:0:0:
97,15,33225,1,2,0:0:0:0:
54,94,33488,2,0,L|63:190,1,90,8|0,0:0|1:0,0:0:0:0:
14,259,34015,6,0,P|79:271|154:178,1,180,2|8,1:2|0:0,0:0:0:0:
239,219,34804,1,0,1:0:0:0:
239,219,35067,2,0,P|242:284|274:327,1,90,0|2,1:0|0:0,0:0:0:0:
430,336,35857,1,0,1:0:0:0:
430,336,36120,6,0,P|445:282|398:149,1,180,2|8,1:2|0:0,0:0:0:0:
450,84,36909,1,0,1:0:0:0:
450,84,37173,2,0,P|400:77|342:105,1,90,0|0,1:0|0:0,0:0:0:0:
283,131,37699,2,0,L|185:114,1,90,8|8,0:0|1:1,0:0:0:0:
112,152,38225,6,0,P|76:231|91:322,1,180,2|8,1:2|0:0,0:0:0:0:
173,355,39015,1,0,1:0:0:0:
258,327,39278,2,0,P|289:270|406:245,1,180,0|8,1:0|3:2,0:0:0:0:
476,205,40067,1,0,1:0:0:0:
432,126,40330,6,0,B|373:129|329:71|329:71|279:11|230:15|189:64|189:104|220:143|266:146,1,360,2|2,1:2|0:0,0:0:0:0:
312,209,41646,2,0,P|317:262|296:306,2,90,2|0|0,0:0|3:0|3:0,0:0:0:0:
229,245,42436,6,0,P|160:241|86:160,1,180,6|8,1:2|0:0,0:0:0:0:
173,0,43488,2,0,P|238:58|250:145,1,180,0|8,1:0|0:0,0:0:0:0:
291,321,44541,6,0,P|342:320|402:343,1,90,2|8,1:2|0:0,0:0:0:0:
460,293,45067,1,8,0:0:0:0:
460,293,45330,1,0,1:0:0:0:
425,209,45594,2,0,P|426:160|452:115,1,90,0|2,1:0|0:0,0:0:0:0:
412,39,46120,2,0,P|375:64|353:103,1,90,8|8,0:0|1:1,0:0:0:0:
266,126,46646,6,0,P|186:121|105:40,1,180,2|8,1:2|0:0,0:0:0:0:
1,199,47699,2,0,P|36:270|7:381,1,180,0|8,1:0|0:0,0:0:0:0:
197,381,48752,6,0,P|192:326|209:284,1,90,2|8,1:2|0:0,0:0:0:0:
277,243,49278,1,8,3:2:0:0:
277,243,49541,1,0,1:0:0:0:
227,167,49804,2,0,L|237:52,1,90,0|2,1:0|0:0,0:0:0:0:
304,20,50330,2,0,P|367:25|399:43,1,90,8|0,0:0|1:0,0:0:0:0:
458,95,50857,6,0,P|424:174|446:285,1,180,2|8,1:2|0:0,0:0:0:0:
283,359,51909,2,0,P|204:325|93:346,1,180,0|8,1:0|0:0,0:0:0:0:
11,188,52962,6,0,P|13:143|37:89,1,90,2|0,1:2|3:0,0:0:0:0:
107,56,53488,2,0,L|206:83,1,90,8|0,0:0|1:0,0:0:0:0:
281,103,54015,1,0,1:0:0:0:
299,281,54541,2,0,P|342:294|439:291,1,135,8|8,0:0|0:1,0:0:0:0:
463,260,55067,6,0,L|452:147,1,90,2|0,1:2|3:0,0:0:0:0:
448,79,55594,2,0,B|370:47|309:80|309:80|259:117,1,180,8|0,0:0|1:0,0:0:0:0:
202,147,56383,1,2,0:0:0:0:
202,147,56646,2,0,L|211:246,1,90,8|0,0:0|1:0,0:0:0:0:
186,323,57173,6,0,B|120:308|73:363|73:363|20:347,1,180,2|8,1:2|0:0,0:0:0:0:
3,259,57962,1,0,1:0:0:0:
8,169,58225,2,0,P|45:140|67:102,1,90,0|2,1:0|0:0,0:0:0:0:
148,64,58752,2,0,P|185:92|207:130,1,90,8|0,0:0|1:0,0:0:0:0:
198,219,59278,6,0,P|245:252|370:244,1,180,2|8,1:2|0:0,0:0:0:0:
400,167,60067,1,0,1:0:0:0:
400,167,60330,2,0,L|410:77,1,90,0|2,1:0|0:0,0:0:0:0:
495,107,60857,2,0,L|484:199,1,90,8|0,0:0|1:0,0:0:0:0:
500,284,61383,6,0,P|411:282|319:326,1,180,2|8,1:2|0:0,0:0:0:0:
241,328,62173,1,0,1:0:0:0:
216,241,62436,2,0,L|227:149,1,90,0|2,1:0|0:0,0:0:0:0:
311,121,62962,2,0,P|265:75|180:76,1,135,8|0,0:0|0:0,0:0:0:0:
162,96,63488,6,0,B|37:83|37:83|85:160,1,180,2|8,1:2|0:0,0:0:0:0:
116,204,64278,1,0,1:0:0:0:
116,204,64541,2,0,P|129:247|115:302,2,90,0|2|8,1:0|0:0|0:0,0:0:0:0:
248,326,65594,6,0,B|316:346|335:314|352:283|443:309,1,180,2|8,1:2|0:0,0:0:0:0:
491,138,66646,2,0,B|423:158|404:126|387:95|296:121,1,180,0|8,1:0|0:0,0:0:0:0:
147,54,67698,5,2,1:2:0:0:
189,233,68224,1,8,0:0:0:0:
11,265,68751,2,0,P|12:324|31:363,1,90,0|2,1:0|0:0,0:0:0:0:
108,381,69277,2,0,P|158:350|182:314,2,90,8|0|2,0:0|1:0|1:2,0:0:0:0:
284,343,70330,5,8,0:0:0:0:
284,343,71909,6,0,B|262:274|289:244|289:244|313:219|289:147,1,180,2|8,1:2|0:0,0:0:0:0:
327,86,72699,1,0,1:0:0:0:
327,86,72962,1,0,1:0:0:0:
475,302,73752,1,0,1:0:0:0:
475,302,74015,6,0,B|423:294|389:331|389:331|362:363|298:354,1,180,2|8,1:2|0:0,0:0:0:0:
225,329,74804,1,0,1:0:0:0:
225,329,75067,2,0,P|187:293|175:249,1,90,0|2,1:0|0:0,0:0:0:0:
85,259,75594,2,0,P|97:208|129:175,1,90,8|8,0:0|1:1,0:0:0:0:
90,96,76120,6,0,L|308:78,1,180,2|8,1:2|0:0,0:0:0:0:
346,127,76909,1,0,1:0:0:0:
346,127,77172,1,0,1:0:0:0:
215,363,77962,1,0,1:0:0:0:
215,363,78225,6,0,B|204:277|204:277|216:248|216:248|207:173,1,180,2|0,1:2|1:0,0:0:0:0:
150,118,79014,2,0,L|51:100,1,90,2|0,1:2|1:0,0:0:0:0:
20,182,79540,1,2,0:0:0:0:
68,257,79803,2,0,P|60:314|37:343,1,90,8|0,1:2|3:0,0:0:0:0:
120,382,80330,6,0,P|201:348|296:383,1,180,2|8,1:2|0:0,0:0:0:0:
367,336,81119,1,0,1:0:0:0:
367,336,81382,1,0,1:0:0:0:
119,226,82173,1,0,1:0:0:0:
119,226,82436,6,0,L|143:28,1,180,2|8,1:2|0:0,0:0:0:0:
229,60,83225,1,0,1:0:0:0:
229,60,83488,2,0,L|348:74,1,90,0|2,1:0|0:0,0:0:0:0:
375,140,84015,2,0,L|494:125,1,90,8|8,0:0|1:1,0:0:0:0:
492,214,84541,6,0,B|467:267|504:317|504:317|459:326|423:374,1,180,2|8,1:2|0:0,0:0:0:0:
357,378,85330,1,0,1:0:0:0:
357,378,85594,1,0,1:0:0:0:
114,261,86382,1,0,1:0:0:0:
114,261,86646,6,0,P|125:195|215:104,1,180,2|8,1:2|0:0,0:0:0:0:
288,112,87436,1,0,1:0:0:0:
288,112,87699,2,0,L|300:201,1,90,0|2,1:0|0:0,0:0:0:0:
338,282,88225,2,0,P|281:310|199:294,1,135,0|0,0:0|0:0,0:0:0:0:
191,260,88752,6,0,P|118:229|12:245,1,180,2|8,1:2|0:0,0:0:0:0:
3,152,89541,1,0,1:0:0:0:
3,152,89804,2,0,L|15:63,1,90,0|2,1:0|0:0,0:0:0:0:
96,24,90330,2,0,L|185:36,1,90,8|0,1:2|0:0,0:0:0:0:
262,82,90857,6,0,P|318:91|436:45,1,180,2|8,1:2|0:0,0:0:0:0:
478,125,91646,1,0,1:0:0:0:
478,125,91909,2,0,P|457:170|458:223,1,90,0|2,1:0|0:0,0:0:0:0:
371,239,92436,2,0,P|347:201|310:176,1,90,8|8,0:0|1:1,0:0:0:0:
220,181,92962,6,0,L|197:359,1,180,2|8,1:2|0:0,0:0:0:0:
106,363,93752,1,0,1:0:0:0:
106,363,94015,2,0,P|32:331|15:220,1,180,0|8,1:0|1:2,0:0:0:0:
176,178,95067,6,0,L|153:0,2,180,2|8|0,1:2|1:2|1:0,0:0:0:0:
262,153,96382,1,2,1:2:0:0:
349,131,96645,2,0,L|340:227,1,90,8|0,1:2|1:0,0:0:0:0:
295,298,97172,6,0,P|360:310|435:217,1,180,2|8,1:2|0:0,0:0:0:0:
443,144,97962,1,0,1:0:0:0:
443,144,98225,2,0,L|451:54,1,90,0|2,1:0|0:0,0:0:0:0:
272,31,99015,1,2,1:2:0:0:
272,31,99278,6,0,P|227:97|250:222,1,180,2|8,1:2|0:0,0:0:0:0:
273,273,100067,1,0,1:0:0:0:
273,273,100330,2,0,P|223:280|165:252,1,90,0|2,1:0|1:2,0:0:0:0:
103,304,100857,1,8,1:2:0:0:
81,216,101120,1,8,1:1:0:0:
7,163,101383,6,0,P|35:83|148:48,1,180,2|8,1:2|1:2,0:0:0:0:
198,82,102173,1,0,1:0:0:0:
280,45,102436,2,0,P|311:102|428:127,1,180,0|8,1:0|1:2,0:0:0:0:
451,213,103224,1,0,0:0:0:0:
461,302,103488,6,0,B|401:301|361:241|361:241|314:179|265:180|221:227|219:267|248:307|294:313,1,360,2|2,0:0|0:0,0:0:0:0:
206,365,104804,2,0,L|101:377,2,90,2|0|0,0:0|3:0|3:0,0:0:0:0:
277,309,105594,6,0,P|210:247|101:230,1,180,6|8,1:2|0:0,0:0:0:0:
4,94,106646,2,0,P|71:32|180:15,1,180,0|8,1:0|0:0,0:0:0:0:
306,111,107699,6,0,P|357:112|417:89,1,90,2|8,1:2|0:0,0:0:0:0:
463,43,108225,1,8,0:0:0:0:
463,43,108488,1,0,1:0:0:0:
492,128,108752,2,0,L|476:233,1,90,0|2,1:0|0:0,0:0:0:0:
408,272,109278,2,0,L|424:377,1,90,8|8,0:0|1:1,0:0:0:0:
331,363,109804,6,0,P|251:358|170:277,1,180,2|8,1:2|0:0,0:0:0:0:
19,209,110857,2,0,P|23:128|103:47,1,180,0|8,1:0|0:0,0:0:0:0:
258,15,111909,6,0,L|248:130,1,90,2|8,1:2|0:0,0:0:0:0:
256,194,112436,1,8,3:2:0:0:
256,194,112699,1,0,1:0:0:0:
172,229,112962,2,0,L|182:344,1,90,0|2,1:0|1:2,0:0:0:0:
249,376,113488,2,0,P|312:371|344:353,1,90,8|0,0:0|1:0,0:0:0:0:
425,364,114015,6,0,P|459:285|437:174,1,180,2|8,1:2|0:0,0:0:0:0:
488,18,115067,2,0,L|297:33,1,180,0|8,1:0|0:0,0:0:0:0:
224,191,116120,6,0,P|187:167|152:119,1,90,2|0,1:2|3:0,0:0:0:0:
78,90,116646,2,0,L|55:177,1,90,8|0,0:0|1:0,0:0:0:0:
29,263,117173,1,0,1:0:0:0:
185,352,117699,2,0,P|224:330|291:260,1,135,8|8,0:0|0:1,0:0:0:0:
328,250,118225,6,0,P|364:286|417:302,1,90,2|0,1:2|0:0,0:0:0:0:
471,244,118752,2,0,B|460:161|401:125|401:125|337:89,1,180,8|0,0:0|1:0,0:0:0:0:
298,50,119541,1,2,0:0:0:0:
298,50,119804,2,0,P|255:77|203:83,1,90,8|0,0:0|1:0,0:0:0:0:
140,36,120330,6,0,B|112:83|140:140|140:140|124:177|124:177|135:234,1,180,2|8,1:2|0:0,0:0:0:0:
72,277,121120,1,0,1:0:0:0:
151,318,121383,2,0,P|194:300|238:300,1,90,0|2,1:0|1:2,0:0:0:0:
307,354,121909,2,0,P|323:304|306:240,1,90,8|0,0:0|1:0,0:0:0:0:
376,198,122436,6,0,B|437:208|463:159|463:159|437:82,1,180,2|8,1:2|0:0,0:0:0:0:
356,49,123225,1,0,1:0:0:0:
356,49,123488,2,0,P|318:73|285:139,1,90,0|2,1:0|0:0,0:0:0:0:
211,148,124015,2,0,L|89:126,1,90,8|0,1:2|1:0,0:0:0:0:
52,188,124541,6,0,P|83:258|211:300,1,180,2|8,1:2|1:2,0:0:0:0:
247,352,125330,2,0,L|369:330,1,90,0|0,0:0|1:0,0:0:0:0:
475,222,126120,2,0,P|446:167|449:66,1,135,0|0,0:0|0:0,0:0:0:0:
461,54,126646,5,2,1:2:0:0:
300,135,127173,2,0,B|277:151|261:128|261:128|245:105|222:121|222:121|199:137|183:114|183:114|167:91|144:107|144:107|121:123|105:100|105:100|89:77|66:93,1,270,8|2,0:0|0:0,0:0:0:0:
11,162,128225,2,0,P|1:249|38:342,1,180,8|2,0:0|1:2,0:0:0:0:
209,368,129278,5,8,0:0:0:0:
320,226,129804,2,0,P|401:215|476:240,2,135,0|0|0,1:0|1:0|1:0,0:0:0:0:
252,166,130857,5,2,1:2:0:0:
98,72,131383,2,0,B|120:88|136:65|136:65|152:42|175:58|175:58|198:74|214:51|214:51|230:28|253:44|253:44|276:60|292:37|292:37|308:14|331:30,1,270,8|2,0:0|0:0,0:0:0:0:
416,55,132436,2,0,P|434:114|388:245,1,180,8|2,0:0|1:2,0:0:0:0:
261,335,133488,5,8,0:0:0:0:
141,200,134015,2,0,P|102:179|4:185,2,135,0|0|0,1:0|1:0|2:0,0:0:0:0:
204,136,135067,5,2,1:2:0:0:
382,112,135594,2,0,B|398:134|375:150|375:150|352:166|368:189|368:189|384:212|361:228|361:228|338:244|354:267|354:267|370:290|347:306|347:306|324:322|340:345,1,270,8|2,0:0|0:0,0:0:0:0:
255,373,136646,2,0,P|190:367|99:301,1,180,8|2,0:0|1:2,0:0:0:0:
154,129,137699,5,0,0:0:0:0:
332,151,138225,2,0,P|325:102|271:2,2,135,0|0|0,1:0|1:0|1:0,0:0:0:0:
325,241,139278,5,2,1:2:0:0:
150,282,139804,2,0,B|166:259|143:243|143:243|120:227|136:204|136:204|152:181|129:165|129:165|106:149|122:126|122:126|138:103|115:87|115:87|92:71|108:48,1,270,8|2,0:0|0:0,0:0:0:0:
185,28,140857,2,0,P|279:16|360:64,1,180,8|2,0:0|1:2,0:0:0:0:
472,188,141909,5,8,0:0:0:0:
302,248,142436,2,0,L|312:387,2,135,0|0|0,1:0|0:0|3:0,0:0:0:0:
242,180,143488,5,2,1:0:0:0:
242,180,147699,6,0,L|259:67,1,90,0|2,1:0|0:1,0:0:0:0:
242,180,151909,5,2,0:1:0:0:
242,180,156120,6,0,L|250:277,1,90,0|2,0:0|0:1,0:0:0:0:
242,180,160330,6,0,P|178:177|288:105,2,360,2|2|2,0:1|0:1|0:1,0:0:0:0:
397,340,163752,2,0,P|418:300|477:266,2,90,0|0|0,0:0|0:0|0:0,0:0:0:0:
307,340,164541,6,0,P|240:278|131:261,1,180,6|8,1:2|0:0,0:0:0:0:
86,92,165594,2,0,P|153:154|262:171,1,180,0|8,1:0|1:2,0:0:0:0:
352,34,166646,6,0,P|377:101|375:133,1,90,2|8,1:2|0:0,0:0:0:0:
329,195,167173,1,8,0:0:0:0:
329,195,167436,1,0,1:0:0:0:
264,258,167699,2,0,P|239:325|241:357,1,90,0|2,1:0|1:2,0:0:0:0:
319,382,168225,2,0,L|434:366,1,90,8|8,1:2|1:1,0:0:0:0:
470,304,168752,6,0,P|475:208|426:115,1,180,2|8,1:2|0:0,0:0:0:0:
292,31,169804,2,0,P|248:116|159:172,1,180,0|8,1:0|1:2,0:0:0:0:
2,182,170857,6,0,P|17:244|53:277,1,90,2|8,1:2|0:0,0:0:0:0:
75,342,171383,1,8,3:2:0:0:
75,342,171646,1,0,1:0:0:0:
154,300,171909,2,0,L|272:282,1,90,0|2,1:0|0:0,0:0:0:0:
322,330,172436,2,0,P|331:273|304:208,1,90,8|0,1:2|0:0,0:0:0:0:
408,210,172962,6,0,P|386:147|289:57,1,180,2|8,1:2|0:0,0:0:0:0:
128,82,174015,2,0,P|84:132|54:261,1,180,0|8,1:0|1:2,0:0:0:0:
185,362,175067,6,0,L|275:348,1,90,2|0,1:2|1:0,0:0:0:0:
363,334,175594,2,0,L|349:244,1,90,8|0,0:0|1:0,0:0:0:0:
333,156,176120,1,0,1:0:0:0:
212,22,176646,2,0,P|158:41|106:114,1,135,8|8,0:0|0:1,0:0:0:0:
67,114,177173,6,0,P|74:182|99:223,1,90,2|0,1:2|3:0,0:0:0:0:
43,281,177699,2,0,B|98:290|98:290|259:246,1,180,8|0,0:0|1:0,0:0:0:0:
304,234,178488,1,2,0:0:0:0:
304,234,178752,2,0,P|318:191|312:147,1,90,8|0,0:0|1:0,0:0:0:0:
330,58,179278,6,0,B|384:92|441:66|441:66|462:146,1,180,2|8,1:2|0:0,0:0:0:0:
492,209,180067,1,0,1:0:0:0:
430,274,180330,2,0,P|387:256|343:256,1,90,0|2,1:0|0:0,0:0:0:0:
267,299,180856,2,0,P|255:256|262:212,1,90,8|0,1:2|0:0,0:0:0:0:
190,157,181383,6,0,B|62:117|62:117|80:175,1,180,2|8,1:2|0:0,0:0:0:0:
104,246,182173,1,0,1:0:0:0:
104,246,182436,2,0,P|66:270|33:336,1,90,0|2,1:0|0:0,0:0:0:0:
103,371,182962,2,0,L|225:349,1,90,8|0,0:0|1:0,0:0:0:0:
281,360,183488,6,0,P|285:270|236:160,1,180,2|8,1:2|0:0,0:0:0:0:
287,102,184278,1,0,1:0:0:0:
375,88,184541,2,0,L|497:66,1,90,0|2,1:0|0:0,0:0:0:0:
489,158,185067,2,0,P|463:206|463:255,1,90,8|0,0:0|0:0,0:0:0:0:
491,325,185594,6,0,P|425:345|284:301,1,180,2|8,1:2|0:0,0:0:0:0:
257,257,186383,1,0,1:0:0:0:
257,257,186646,2,0,L|240:149,1,90,0|2,1:0|0:0,0:0:0:0:
304,102,187173,2,0,P|257:80|199:88,1,90,8|0,3:2|1:0,0:0:0:0:
143,32,187699,6,0,B|122:88|145:133|145:133|97:139|59:171,1,180,2|8,1:2|0:0,0:0:0:0:
25,234,188488,1,0,1:0:0:0:
109,265,188752,2,0,P|167:251|206:211,1,90,0|2,1:0|0:0,0:0:0:0:
273,265,189278,1,0,0:0:0:0:
441,201,189804,6,0,B|448:114|377:38,1,180,0|8,1:0|0:0,0:0:0:0:
288,55,190594,1,0,1:0:0:0:
288,55,190857,2,0,P|284:105|299:153,1,90,0|0,1:0|0:0,0:0:0:0:
343,218,191383,2,0,P|347:268|332:316,1,90,8|0,0:0|1:0,0:0:0:0:
246,309,191909,6,0,L|43:334,1,180,0|8,1:0|0:0,0:0:0:0:
29,248,192699,1,0,1:0:0:0:
83,176,192962,2,0,L|204:161,1,90,0|8,1:0|0:0,0:0:0:0:
248,116,193488,2,0,B|255:132|272:124|272:124|289:117|297:133|297:133|305:150|322:142|322:142|339:134|347:151|347:151|355:168|371:160|371:160|388:152|396:169,1,180,8|0,0:0|0:0,0:0:0:0:
