osu file format v14

[General]
AudioFilename: audio.mp3
AudioLeadIn: 0
PreviewTime: 163719
Countdown: 0
SampleSet: Soft
StackLeniency: 0.2
Mode: 0
LetterboxInBreaks: 0
WidescreenStoryboard: 0

[Editor]
DistanceSpacing: 0.4
BeatDivisor: 8
GridSize: 32
TimelineZoom: 3.499999

[Metadata]
Title:Flamingo
TitleUnicode:Flamingo
Artist:Yonezu Kenshi
ArtistUnicode:米津玄師
Creator:A r M i N
Version:Yugu's Fla
Source:
Tags:pop japanese jpop Armin A_r_M_i_N Yugu Loneight l1106188 Firika フラミンゴ
BeatmapID:2228784
BeatmapSetID:1064501

[Difficulty]
HPDrainRate:6
CircleSize:4.5
OverallDifficulty:8
ApproachRate:9
SliderMultiplier:3.1
SliderTickRate:1

[Events]
//Background and Video events
0,0,"BG.jpg",0,0
//Break Periods
//Storyboard Layer 0 (Background)
//Storyboard Layer 1 (Fail)
//Storyboard Layer 2 (Pass)
//Storyboard Layer 3 (Foreground)
//Storyboard Layer 4 (Overlay)
//Storyboard Sound Samples

[TimingPoints]
331,526.315789473684,4,2,1,40,1,0
331,-166.666666666667,4,2,1,40,0,0
8752,-125,4,2,1,60,0,0
9804,-166.666666666667,4,2,1,60,0,0
10857,-125,4,2,1,60,0,0
11909,-166.666666666667,4,2,1,60,0,0
12699,-166.666666666667,4,2,1,70,0,0
12962,-125,4,2,1,60,0,0
14015,-142.857142857143,4,2,1,60,0,0
15067,-166.666666666667,4,2,1,60,0,0
15857,-50,4,2,1,60,0,0
16909,-166.666666666667,4,2,1,60,0,0
17173,-125,4,2,1,60,0,0
18225,-166.666666666667,4,2,1,60,0,0
19278,-125,4,2,1,60,0,0
20330,-166.666666666667,4,2,1,60,0,0
21120,-166.666666666667,4,2,1,70,0,0
21383,-125,4,2,1,60,0,0
22436,-142.857142857143,4,2,1,60,0,0
23488,-166.666666666667,4,2,1,60,0,0
25067,-250,4,2,1,40,0,0
25528,-250,4,2,1,5,0,0
25594,-125,4,2,1,50,0,0
25725,-125,4,2,1,70,0,0
32699,-50,4,2,1,70,0,0
32962,-125,4,2,1,70,0,0
40330,-90.9090909090909,4,2,1,70,0,0
41646,-90.9090909090909,4,2,1,40,0,0
42436,-83.3333333333333,4,2,1,80,0,1
42830,-83.3333333333333,4,2,1,5,0,1
42962,-83.3333333333333,4,2,1,80,0,1
43488,-90.9090909090909,4,2,1,80,0,1
44015,-100,4,2,1,80,0,1
46646,-83.3333333333333,4,2,1,80,0,1
47041,-83.3333333333333,4,2,1,5,0,1
47173,-83.3333333333333,4,2,1,80,0,1
47699,-90.9090909090909,4,2,1,80,0,1
48225,-100,4,2,1,80,0,1
50857,-83.3333333333333,4,2,1,80,0,1
51252,-83.3333333333333,4,2,1,5,0,1
51383,-83.3333333333333,4,2,1,80,0,1
51909,-90.9090909090909,4,2,1,80,0,1
52436,-100,4,2,1,80,0,1
63488,-166.666666666667,4,2,1,40,0,0
71909,-125,4,2,1,60,0,0
72962,-166.666666666667,4,2,1,60,0,0
74015,-125,4,2,1,60,0,0
75067,-166.666666666667,4,2,1,60,0,0
75857,-166.666666666667,4,2,1,70,0,0
76120,-125,4,2,1,60,0,0
77173,-142.857142857143,4,2,1,60,0,0
78225,-166.666666666667,4,2,1,60,0,0
79015,-50,4,2,1,60,0,0
80067,-166.666666666667,4,2,1,60,0,0
80330,-125,4,2,1,60,0,0
81383,-166.666666666667,4,2,1,60,0,0
82436,-125,4,2,1,60,0,0
83488,-166.666666666667,4,2,1,60,0,0
84278,-166.666666666667,4,2,1,70,0,0
84541,-125,4,2,1,60,0,0
85594,-142.857142857143,4,2,1,60,0,0
86646,-166.666666666667,4,2,1,60,0,0
88225,-250,4,2,1,40,0,0
88686,-250,4,2,1,5,0,0
88752,-125,4,2,1,50,0,0
88883,-125,4,2,1,70,0,0
95857,-50,4,2,1,70,0,0
96120,-125,4,2,1,70,0,0
103488,-90.9090909090909,4,2,1,70,0,0
104804,-90.9090909090909,4,2,1,40,0,0
105594,-83.3333333333333,4,2,1,80,0,1
105988,-83.3333333333333,4,2,1,5,0,1
106120,-83.3333333333333,4,2,1,80,0,1
106646,-90.9090909090909,4,2,1,80,0,1
107173,-100,4,2,1,80,0,1
109804,-83.3333333333333,4,2,1,80,0,1
110199,-83.3333333333333,4,2,1,5,0,1
110330,-83.3333333333333,4,2,1,80,0,1
110857,-90.9090909090909,4,2,1,80,0,1
111383,-100,4,2,1,80,0,1
114015,-83.3333333333333,4,2,1,80,0,1
114409,-83.3333333333333,4,2,1,5,0,1
114541,-83.3333333333333,4,2,1,80,0,1
115067,-90.9090909090909,4,2,1,80,0,1
115594,-100,4,2,1,80,0,1
124541,-83.3333333333333,4,2,1,80,0,1
125594,-83.3333333333333,4,2,1,80,0,0
126120,-250,4,2,1,40,0,0
126580,-250,4,2,1,5,0,0
126646,-250,4,2,1,40,0,0
128028,-250,4,2,1,10,0,0
128225,-250,4,2,1,40,0,0
128817,-250,4,2,1,10,0,0
129278,-250,4,2,1,40,0,0
130133,-250,4,2,1,10,0,0
130199,-250,4,2,1,40,0,0
130528,-250,4,2,1,10,0,0
130594,-250,4,2,1,40,0,0
132238,-250,4,2,1,10,0,0
132436,-250,4,2,1,40,0,0
133028,-250,4,2,1,10,0,0
133488,-250,4,2,1,40,0,0
134344,-250,4,2,1,10,0,0
134409,-250,4,2,1,40,0,0
136449,-250,4,2,1,10,0,0
136646,-250,4,2,1,40,0,0
137238,-250,4,2,1,10,0,0
137699,-250,4,2,1,40,0,0
138554,-250,4,2,1,10,0,0
138620,-250,4,2,1,40,0,0
138949,-250,4,2,1,10,0,0
139015,-250,4,2,1,40,0,0
140659,-250,4,2,1,10,0,0
140857,-250,4,2,1,40,0,0
141449,-250,4,2,1,10,0,0
141909,-250,4,2,1,40,0,0
142765,-250,4,2,1,10,0,0
142830,-250,4,2,1,40,0,0
148488,-250,4,2,1,30,0,0
148620,-250,4,2,1,35,0,0
148752,-250,4,2,1,40,0,0
149541,-250,4,2,1,30,0,0
149673,-250,4,2,1,35,0,0
149804,-250,4,2,1,40,0,0
156909,-250,4,2,1,30,0,0
157041,-250,4,2,1,35,0,0
157173,-250,4,2,1,40,0,0
157962,-250,4,2,1,30,0,0
158094,-250,4,2,1,35,0,0
158226,-250,4,2,1,40,0,0
164541,-83.3333333333333,4,2,1,80,0,1
164936,-83.3333333333333,4,2,1,5,0,1
165067,-83.3333333333333,4,2,1,80,0,1
165594,-90.9090909090909,4,2,1,80,0,1
166120,-100,4,2,1,80,0,1
168752,-83.3333333333333,4,2,1,80,0,1
169146,-83.3333333333333,4,2,1,5,0,1
169278,-83.3333333333333,4,2,1,80,0,1
169804,-90.9090909090909,4,2,1,80,0,1
170330,-100,4,2,1,80,0,1
172962,-83.3333333333333,4,2,1,80,0,1
173357,-83.3333333333333,4,2,1,5,0,1
173488,-83.3333333333333,4,2,1,80,0,1
174015,-76.9230769230769,4,2,1,80,0,1
174541,-71.4285714285714,4,2,1,80,0,1
177567,-100,4,2,1,80,0,1
185594,-100,4,2,1,60,0,0
189278,-250,4,2,1,50,0,0
189804,-166.666666666667,4,2,1,40,0,0
193488,-250,4,2,1,40,0,0
194015,-250,4,2,1,5,0,0

[Colours]
Combo1 : 75,136,169
Combo2 : 226,122,135
Combo3 : 125,218,238

[HitObjects]
158,84,331,6,0,P|179:126|188:184,1,92.9999971618653,2|0,1:2|0:0,0:0:0:0:
106,301,857,1,8,0:0:0:0:
240,266,1120,1,0,1:0:0:0:
201,369,1383,2,0,P|208:317|234:272,1,92.9999971618653,0|2,1:0|0:0,0:0:0:0:
344,285,1909,1,8,0:0:0:0:
344,285,2173,1,0,1:0:0:0:
453,268,2436,6,0,P|407:287|345:284,1,92.9999971618653,2|0,1:2|0:0,0:0:0:0:
269,161,2962,1,8,0:0:0:0:
367,196,3225,2,0,P|398:185|424:160,1,46.4999985809327,0|0,1:0|3:0,0:0:0:0:
391,210,3488,2,0,P|412:184|422:150,1,46.4999985809327,0|0,1:0|3:0,0:0:0:0:
346,48,3752,1,2,0:0:0:0:
323,44,3883,1,0,1:0:0:0:
419,27,4015,2,0,L|481:17,2,46.4999985809327,8|2|0,0:0|0:0|1:0,0:0:0:0:
419,27,4541,6,0,P|414:76|387:117,1,92.9999971618653,2|0,1:2|0:0,0:0:0:0:
391,112,5067,2,0,P|396:161|423:202,1,92.9999971618653,8|0,0:0|1:0,0:0:0:0:
316,196,5594,1,0,1:0:0:0:
268,321,5857,1,2,0:0:0:0:
204,237,6120,2,0,P|241:263|262:304,1,92.9999971618653,8|0,0:0|1:0,0:0:0:0:
100,369,6646,6,0,P|94:300|129:241,1,139.499995742798,2|0,1:2|0:0,0:0:0:0:
51,307,7173,1,8,0:0:0:0:
177,319,7436,1,0,1:0:0:0:
177,319,7699,1,0,1:0:0:0:
129,186,8752,6,0,P|121:99|87:56,1,124,2|0,1:2|0:0,0:0:0:0:
23,137,9146,1,0,0:0:0:0:
23,137,9278,2,0,P|32:178|51:203,1,62,8|0,0:0|0:0,0:0:0:0:
101,70,9541,1,0,1:0:0:0:
221,150,9804,6,0,P|219:196|193:247,3,92.9999971618653,0|2|8|0,1:0|0:0|0:0|1:0,0:0:0:0:
325,304,10857,5,2,1:2:0:0:
325,304,10988,2,0,P|364:286|391:287,1,62,0|0,0:0|0:0,0:0:0:0:
388,186,11252,1,0,0:0:0:0:
388,186,11383,2,0,P|423:210|435:234,1,62,8|0,0:0|0:0,0:0:0:0:
423,352,11646,1,0,1:0:0:0:
489,172,11909,6,0,P|493:117|518:79,1,92.9999971618653,0|2,1:0|0:0,0:0:0:0:
511,85,12304,1,0,1:0:0:0:
400,49,12436,2,0,P|403:23|419:-8,1,46.4999985809327,8|2,0:0|0:0,0:0:0:0:
332,90,12699,1,8,1:1:0:0:
291,22,12830,1,8,0:1:0:0:
304,164,12962,5,2,1:2:0:0:
304,164,13094,2,0,P|292:197|271:215,1,62,0|0,0:0|0:0,0:0:0:0:
228,301,13357,1,0,0:0:0:0:
228,301,13489,2,0,P|205:274|200:246,1,62,8|0,0:0|0:0,0:0:0:0:
148,167,13752,1,0,1:0:0:0:
209,37,14015,5,0,1:0:0:0:
209,37,14146,2,0,P|221:78|214:110,1,54.2499983444214,0|2,0:0|0:0,0:0:0:0:
147,77,14365,1,0,3:0:0:0:
138,82,14452,1,0,3:0:0:0:
132,91,14541,2,0,P|121:115|120:142,1,54.2499983444214,8|0,3:2|0:0,0:0:0:0:
54,40,14804,1,0,1:0:0:0:
29,189,15067,5,2,1:2:0:0:
29,189,15199,2,0,P|59:205|85:208,1,46.4999985809327,0|0,0:0|0:0,0:0:0:0:
83,298,15462,1,0,0:0:0:0:
83,298,15594,2,0,P|111:280|127:259,1,46.4999985809327,8|0,0:0|0:0,0:0:0:0:
193,233,15857,6,2,B|221:247|207:261|207:261|207:233|236:233|265:247|250:261|250:261|250:233|279:233|308:247|293:261|293:261|293:233|322:233|351:247|337:261|337:261|337:233|365:233,1,310,0|0,1:0|1:0,0:0:0:0:
416,283,16252,1,0,3:0:0:0:
413,361,16383,5,2,1:2:0:0:
428,276,16515,1,2,0:0:0:0:
349,148,16646,5,8,0:0:0:0:
364,233,16778,1,2,0:0:0:0:
477,168,16909,6,0,L|416:161,1,46.4999985809327,0|0,1:0|3:0,0:0:0:0:
376,32,17173,6,0,P|368:119|334:162,1,124,2|0,1:2|0:0,0:0:0:0:
270,81,17567,1,0,0:0:0:0:
270,81,17699,2,0,P|279:40|298:15,1,62,8|0,0:0|0:0,0:0:0:0:
349,148,17962,1,0,1:0:0:0:
242,222,18225,6,0,P|225:279|231:336,3,92.9999971618653,0|2|8|0,1:0|0:0|0:0|1:0,0:0:0:0:
141,137,19278,5,2,1:2:0:0:
141,137,19409,2,0,P|103:132|67:111,1,62,0|0,0:0|0:0,0:0:0:0:
187,68,19673,1,0,0:0:0:0:
187,68,19804,2,0,P|156:44|135:8,1,62,8|0,0:0|0:0,0:0:0:0:
164,214,20067,1,0,1:0:0:0:
26,255,20330,6,0,P|26:329|54:369,1,92.9999971618653,0|2,1:0|0:0,0:0:0:0:
33,344,20725,1,0,1:0:0:0:
135,298,20857,2,0,P|124:324|121:359,1,46.4999985809327,8|0,0:0|0:0,0:0:0:0:
235,250,21120,1,8,1:1:0:0:
209,324,21252,1,8,0:1:0:0:
309,276,21383,5,2,1:2:0:0:
309,276,21515,2,0,P|313:246|303:208,1,62,0|0,0:0|0:0,0:0:0:0:
408,188,21778,1,0,0:0:0:0:
408,188,21910,2,0,P|384:169|346:159,1,62,8|0,0:0|0:0,0:0:0:0:
465,253,22173,1,0,1:0:0:0:
344,88,22436,5,0,1:0:0:0:
344,88,22567,2,0,P|365:71|405:66,1,54.2499983444214,0|2,0:0|0:0,0:0:0:0:
270,64,22786,1,0,3:0:0:0:
267,54,22874,1,0,3:0:0:0:
265,44,22962,2,0,L|212:37,1,54.2499983444214,8|0,3:2|0:0,0:0:0:0:
303,166,23225,1,0,1:0:0:0:
116,127,23488,5,2,1:2:0:0:
116,127,23620,2,0,P|130:162|130:198,1,46.4999985809327,0|0,0:0|0:0,0:0:0:0:
223,192,23883,1,0,0:0:0:0:
223,192,24015,2,0,P|199:221|168:239,1,46.4999985809327,8|0,0:0|0:0,0:0:0:0:
99,291,24278,6,0,L|39:281,1,46.4999985809327,0|0,1:0|3:0,0:0:0:0:
168,351,24541,1,0,1:0:0:0:
168,351,24673,2,0,L|228:341,1,46.4999985809327,0|2,3:0|0:0,0:0:0:0:
308,186,25067,6,2,P|354:186|363:243,1,108.5,0|0,0:0|0:0,0:0:0:0:
359,245,25594,2,2,P|345:269|345:324,1,62,2|0,1:2|0:0,0:0:0:0:
359,379,25857,1,0,0:0:0:0:
363,370,25988,1,0,0:0:0:0:
451,336,26120,6,0,P|465:312|465:257,2,62,8|0|0,0:0|0:0|1:0,0:0:0:0:
498,206,26515,1,0,0:0:0:0:
503,195,26646,2,0,P|489:170|441:143,1,62,0|0,1:0|0:0,0:0:0:0:
430,31,26909,2,0,P|416:55|415:110,1,62,2|0,0:0|0:0,0:0:0:0:
319,146,27173,5,8,0:0:0:0:
251,151,27304,1,0,0:0:0:0:
182,156,27436,1,0,1:0:0:0:
220,225,27567,1,0,0:0:0:0:
224,236,27699,6,0,P|226:266|219:296,1,62,2|0,1:2|0:0,0:0:0:0:
117,304,27962,2,0,P|114:334|121:364,1,62,0|0,0:0|0:0,0:0:0:0:
64,230,28225,1,8,0:0:0:0:
53,238,28357,2,0,P|35:263|26:292,1,62,0|0,0:0|1:0,0:0:0:0:
170,132,28620,5,0,0:0:0:0:
160,123,28752,2,0,L|79:117,1,62,0|0,1:0|0:0,0:0:0:0:
222,30,29015,1,2,0:0:0:0:
271,100,29146,2,0,L|265:181,1,62,0|8,1:0|0:0,0:0:0:0:
351,68,29409,2,0,L|345:149,1,62,0|8,0:0|1:1,0:0:0:0:
384,265,29672,1,8,0:1:0:0:
393,272,29804,6,0,P|399:308|390:350,1,62,2|0,1:2|0:0,0:0:0:0:
429,187,30067,2,0,P|452:215|465:256,1,62,0|0,0:0|0:0,0:0:0:0:
294,340,30330,2,0,P|293:278|319:222,1,124,8|0,0:0|1:0,0:0:0:0:
211,325,30725,1,0,0:0:0:0:
202,318,30857,6,0,P|189:289|185:259,1,62,0|0,1:0|0:0,0:0:0:0:
257,146,31120,2,0,P|253:176|240:204,1,62,2|0,0:0|0:0,0:0:0:0:
131,355,31383,2,0,P|45:365|-6:335,1,124,8|0,0:0|1:0,0:0:0:0:
46,190,31778,1,0,0:0:0:0:
57,186,31909,6,0,P|68:157|70:126,1,62,2|0,1:2|0:0,0:0:0:0:
168,97,32173,2,0,P|149:72|123:55,1,62,0|0,0:0|0:0,0:0:0:0:
257,66,32436,6,0,L|247:150,1,62,8|0,0:0|0:0,0:0:0:0:
348,50,32699,6,2,B|344:92|344:92|357:107|357:107|328:105|328:105|341:120|341:120|338:163,1,155,0|0,1:0|0:0,0:0:0:0:
418,235,32962,6,0,L|427:150,1,62,0|0,1:0|3:0,0:0:0:0:
488,49,33225,5,2,0:0:0:0:
498,122,33357,1,2,1:2:0:0:
418,235,33488,5,8,0:0:0:0:
428,308,33620,1,2,0:0:0:0:
338,164,33752,2,0,L|422:154,1,62,0|0,1:0|3:0,0:0:0:0:
346,343,34015,6,0,P|272:343|211:298,1,124,2|0,1:2|0:0,0:0:0:0:
229,318,34409,1,0,0:0:0:0:
99,344,34541,6,0,P|70:332|33:330,2,62,8|0|0,0:0|0:0|1:0,0:0:0:0:
168,258,34936,1,0,0:0:0:0:
170,245,35067,2,0,P|150:220|119:199,1,62,0|0,1:0|0:0,0:0:0:0:
263,135,35330,2,0,P|275:163|280:194,1,62,2|0,0:0|0:0,0:0:0:0:
157,137,35594,5,8,0:0:0:0:
162,70,35725,1,0,0:0:0:0:
167,2,35857,1,0,1:0:0:0:
91,31,35988,1,0,0:0:0:0:
79,33,36120,6,0,P|48:19|16:-10,1,62,2|0,1:2|0:0,0:0:0:0:
83,140,36383,2,0,P|49:143|6:134,1,62,0|0,0:0|0:0,0:0:0:0:
152,204,36646,5,8,0:0:0:0:
164,207,36778,1,0,0:0:0:0:
175,210,36909,2,0,P|212:206|245:184,1,62,0|0,1:0|0:0,0:0:0:0:
235,51,37173,5,0,1:0:0:0:
304,102,37304,2,0,P|314:141|303:179,1,62,0|0,0:0|0:0,0:0:0:0:
264,286,37567,2,0,P|294:264|311:228,1,62,0|8,1:0|0:0,0:0:0:0:
389,202,37830,1,2,0:0:0:0:
387,189,37962,1,8,1:1:0:0:
429,274,38094,1,8,0:1:0:0:
492,84,38225,6,0,P|492:145|471:203,1,124,2|0,1:2|0:0,0:0:0:0:
286,363,38752,2,0,P|285:301|306:243,1,124,8|0,0:0|1:0,0:0:0:0:
194,222,39146,1,0,0:0:0:0:
146,374,39278,2,0,P|125:315|86:268,1,124,0|2,1:0|0:0,0:0:0:0:
39,211,39629,5,0,3:0:0:0:
38,198,39716,1,0,3:0:0:0:
40,185,39804,2,0,P|96:219|81:274,1,124,8|0,3:2|1:0,0:0:0:0:
0,309,40199,1,0,0:0:0:0:
201,181,40330,6,2,B|176:213|185:249|185:249|156:202|172:141|208:90|334:123|420:204|210:271|185:354|237:420|505:490|322:251|529:356,1,682.000020812989,2|2,1:2|0:0,0:0:0:0:
479,260,41646,5,2,0:0:0:0:
483,243,41778,1,2,0:0:0:0:
402,218,41909,5,0,3:0:0:0:
417,199,42041,1,0,0:0:0:0:
347,143,42173,5,0,3:0:0:0:
377,130,42305,1,0,0:0:0:0:
228,37,42436,6,0,B|308:26|325:106|325:106|344:194|437:179,1,278.999991485596,6|0,1:2|0:0,0:0:0:0:
470,26,42962,2,0,B|450:146|524:84|508:224,1,185.999994323731,8|0,0:0|1:0,0:0:0:0:
329,247,43488,2,0,B|399:299|409:227|488:289,1,170.500005203247,0|2,1:0|0:0,0:0:0:0:
289,99,44015,2,0,B|285:180|229:176|226:256,1,155,8|0,0:0|1:0,0:0:0:0:
162,278,44409,1,0,3:0:0:0:
97,234,44541,5,2,1:2:0:0:
88,204,44673,1,0,3:0:0:0:
88,173,44804,1,8,0:0:0:0:
102,145,44936,1,0,3:0:0:0:
123,123,45067,5,8,0:0:0:0:
132,110,45132,1,0,0:0:0:0:
138,96,45198,1,0,0:0:0:0:
142,81,45264,1,0,0:0:0:0:
144,66,45330,6,0,L|50:46,1,77.5,0|0,1:0|0:0,0:0:0:0:
219,141,45594,2,0,B|264:136|278:89|278:89|293:38|363:23,3,155,0|2|8|8,1:0|0:0|0:0|1:1,0:0:0:0:
283,209,46515,1,8,3:1:0:0:
350,109,46646,6,0,B|432:134|398:231|398:231|366:323|469:357,1,278.999991485596,2|0,1:2|0:0,0:0:0:0:
231,281,47173,2,0,B|286:287|305:337|305:337|323:379|386:386,1,185.999994323731,8|0,0:0|1:0,0:0:0:0:
496,188,47699,2,0,B|490:289|437:234|432:356,1,170.500005203247,0|2,1:0|0:0,0:0:0:0:
209,75,48225,2,0,B|208:111|244:138|244:138|279:165|282:207,1,155,8|0,0:0|1:0,0:0:0:0:
284,72,48620,1,0,3:0:0:0:
347,27,48752,5,2,1:2:0:0:
377,25,48883,1,0,3:0:0:0:
407,32,49015,1,8,0:0:0:0:
434,47,49146,1,0,3:0:0:0:
456,70,49278,6,0,P|413:79|383:120,1,77.5,8|0,3:2|0:0,0:0:0:0:
283,209,49541,2,0,P|239:200|209:159,1,77.5,0|0,1:0|3:0,0:0:0:0:
61,49,49804,2,0,P|87:78|91:132,1,77.5,0|0,1:0|3:0,0:0:0:0:
151,178,50067,2,0,P|116:159|94:110,1,77.5,2|0,0:0|3:0,0:0:0:0:
156,74,50330,2,0,P|118:86|88:130,1,77.5,8|0,0:0|0:0,0:0:0:0:
53,187,50594,2,0,P|83:162|96:110,1,77.5,0|0,1:0|0:0,0:0:0:0:
226,207,50857,6,0,B|144:197|123:286|123:286|103:364|8:376,1,278.999991485596,2|0,1:2|0:0,0:0:0:0:
208,290,51383,2,0,B|254:316|296:297|296:297|341:275|386:300,1,185.999994323731,8|0,0:0|1:0,0:0:0:0:
420,83,51909,2,0,B|391:181|455:151|444:277,1,170.500005203247,0|2,1:0|0:0,0:0:0:0:
253,366,52436,2,0,B|297:365|319:334|319:334|342:300|385:299,1,155,8|0,0:0|1:0,0:0:0:0:
363,225,52830,1,0,3:0:0:0:
310,167,52962,5,2,1:2:0:0:
302,136,53094,1,0,3:0:0:0:
308,105,53225,2,0,P|320:71|314:23,1,77.5,0|0,3:0|0:0,0:0:0:0:
245,62,53488,1,8,0:0:0:0:
182,19,53620,2,0,P|170:53|176:101,1,77.5,2|0,0:3|1:0,0:0:0:0:
193,168,53883,5,0,0:0:0:0:
0,57,54015,2,0,B|15:94|55:99|55:99|101:106|119:148,1,155,0|2,1:0|0:0,0:0:0:0:
193,168,54409,1,0,1:0:0:0:
135,220,54541,5,8,0:0:0:0:
129,315,54673,2,0,P|119:278|126:241,1,77.5,2|0,0:0|1:0,0:0:0:0:
209,244,54936,1,8,0:1:0:0:
267,193,55067,5,2,1:2:0:0:
297,185,55199,1,0,3:0:0:0:
327,187,55330,2,0,P|317:163|319:100,1,77.5,0|0,3:0|0:0,0:0:0:0:
197,142,55594,2,0,P|200:116|233:62,3,77.5,8|0|0|0,0:0|0:0|1:0|0:0,0:0:0:0:
295,38,56120,5,0,1:0:0:0:
326,36,56252,1,0,0:0:0:0:
355,45,56383,2,0,P|392:51|452:19,1,77.5,2|0,0:0|0:0,0:0:0:0:
425,215,56646,2,0,P|450:127|508:88,1,155,8|0,0:0|1:0,0:0:0:0:
509,181,57041,6,0,L|503:264,1,77.5,0|2,0:0|1:2,0:0:0:0:
411,332,57304,1,0,0:0:0:0:
409,301,57435,2,0,L|403:218,1,77.5,0|0,0:0|0:0,0:0:0:0:
294,262,57699,2,0,P|300:213|331:164,1,77.5,8|0,0:0|0:0,0:0:0:0:
223,318,57962,1,0,1:0:0:0:
208,290,58094,1,0,3:0:0:0:
204,259,58225,5,0,1:0:0:0:
294,262,58357,1,0,3:0:0:0:
218,333,58488,5,2,0:0:0:0:
212,245,58620,1,2,1:2:0:0:
123,307,58752,1,8,0:0:0:0:
307,271,58883,1,2,0:0:0:0:
137,189,59015,2,0,P|125:151|134:84,1,77.5,0|0,1:0|0:0,0:0:0:0:
316,53,59278,6,0,B|301:99|259:105|259:105|207:113|181:180,2,155,2|0|8,1:2|0:0|0:0,0:0:0:0:
241,31,59936,1,0,0:0:0:0:
166,9,60067,2,0,P|152:47|155:100,1,77.5,0|0,1:0|0:0,0:0:0:0:
19,134,60330,2,0,B|34:180|76:186|76:186|128:194|154:261,1,155,0|2,1:0|0:0,0:0:0:0:
133,302,60725,1,0,0:0:0:0:
200,265,60857,5,8,0:0:0:0:
223,284,60988,1,0,0:0:0:0:
252,294,61120,1,0,1:0:0:0:
282,296,61252,1,0,0:0:0:0:
344,341,61383,6,0,P|361:304|395:278,2,77.5,2|0|0,1:2|0:0|0:0,0:0:0:0:
337,216,61777,1,0,0:0:0:0:
360,197,61909,2,0,P|400:193|440:209,1,77.5,8|0,0:0|0:0,0:0:0:0:
503,104,62173,5,0,1:0:0:0:
411,117,62304,1,0,0:0:0:0:
296,39,62436,1,0,1:0:0:0:
189,19,62567,1,0,0:0:0:0:
118,97,62699,5,2,0:0:0:0:
107,125,62830,1,0,0:0:0:0:
221,119,62962,5,8,0:0:0:0:
88,101,63094,1,0,0:0:0:0:
166,179,63225,1,0,0:0:0:0:
210,91,63357,1,0,0:0:0:0:
324,299,63488,5,2,1:2:0:0:
324,299,63752,1,0,0:0:0:0:
512,205,64015,1,8,0:0:0:0:
402,239,64278,1,0,1:0:0:0:
417,128,64541,2,0,P|391:186|400:237,1,92.9999971618653,0|2,1:0|0:0,0:0:0:0:
336,89,65067,1,8,0:0:0:0:
336,89,65330,1,0,1:0:0:0:
436,39,65594,6,0,P|390:42|350:66,1,92.9999971618653,2|0,1:2|0:0,0:0:0:0:
231,175,66120,1,8,0:0:0:0:
114,199,66383,2,0,P|83:188|57:163,1,46.4999985809327,0|0,1:0|3:0,0:0:0:0:
90,213,66646,2,0,P|69:187|59:153,1,46.4999985809327,0|0,1:0|3:0,0:0:0:0:
210,102,66909,1,2,0:0:0:0:
214,79,67041,1,0,1:0:0:0:
231,175,67173,2,0,L|241:237,2,46.4999985809327,8|2|0,0:0|0:0|1:0,0:0:0:0:
231,175,67699,6,0,P|281:192|345:170,1,92.9999971618653,2|0,1:2|0:0,0:0:0:0:
319,185,68225,2,0,P|369:168|433:190,1,92.9999971618653,8|0,0:0|1:0,0:0:0:0:
455,257,68752,1,0,1:0:0:0:
404,94,69015,1,2,0:0:0:0:
469,37,69278,2,0,P|488:78|485:124,1,92.9999971618653,8|0,0:0|1:0,0:0:0:0:
312,99,69804,6,0,P|341:36|401:2,1,139.499995742798,2|0,1:2|0:0,0:0:0:0:
301,21,70331,1,8,0:0:0:0:
98,128,71909,6,0,P|61:207|69:261,1,124,2|0,1:2|0:0,0:0:0:0:
164,222,72303,1,0,0:0:0:0:
164,222,72436,2,0,P|176:181|172:150,1,62,8|0,0:0|0:0,0:0:0:0:
63,241,72699,1,0,1:0:0:0:
0,112,72962,6,0,P|24:73|72:41,3,92.9999971618653,0|2|8|0,1:0|0:0|0:0|1:0,0:0:0:0:
235,98,74015,5,2,1:2:0:0:
235,98,74146,2,0,P|252:127|259:173,1,62,0|0,0:0|0:0,0:0:0:0:
358,155,74409,1,0,0:0:0:0:
358,155,74541,2,0,P|341:184|305:213,1,62,8|0,0:0|0:0,0:0:0:0:
185,191,74804,1,0,1:0:0:0:
353,278,75067,6,0,P|421:273|465:244,1,92.9999971618653,0|2,1:0|0:0,0:0:0:0:
442,262,75462,1,0,1:0:0:0:
307,344,75594,2,0,P|322:367|332:414,1,46.4999985809327,8|2,0:0|0:0,0:0:0:0:
250,249,75857,1,8,1:1:0:0:
231,325,75988,1,8,0:1:0:0:
185,191,76120,5,2,1:2:0:0:
185,191,76252,2,0,P|179:155|194:106,1,62,0|0,0:0|0:0,0:0:0:0:
73,107,76515,1,0,0:0:0:0:
73,107,76647,2,0,P|101:83|151:72,1,62,8|0,0:0|0:0,0:0:0:0:
252,88,76909,1,0,1:0:0:0:
385,214,77173,5,0,1:0:0:0:
385,214,77304,2,0,P|346:211|315:193,1,54.2499983444214,0|2,0:0|0:0,0:0:0:0:
370,141,77523,1,0,3:0:0:0:
368,130,77611,1,0,3:0:0:0:
366,119,77699,2,0,P|392:113|419:96,1,54.2499983444214,8|0,3:2|0:0,0:0:0:0:
303,22,77962,1,0,1:0:0:0:
183,130,78225,5,2,1:2:0:0:
183,130,78357,2,0,P|178:167|187:200,1,46.4999985809327,0|0,0:0|0:0,0:0:0:0:
91,203,78620,1,0,0:0:0:0:
91,203,78752,2,0,P|105:237|129:261,1,46.4999985809327,0|0,1:0|0:0,0:0:0:0:
146,324,79015,6,2,B|174:338|160:352|160:352|160:324|189:324|218:338|203:352|203:352|203:324|232:324|261:338|246:352|246:352|246:324|275:324|304:338|290:352|290:352|290:324|318:324,1,310,2|0,1:2|1:0,0:0:0:0:
381,367,79409,1,0,1:0:0:0:
369,374,79541,5,2,0:0:0:0:
319,302,79673,1,2,0:0:0:0:
454,216,79804,5,8,1:2:0:0:
492,296,79936,1,2,0:0:0:0:
364,224,80067,6,0,L|371:148,1,46.4999985809327,0|0,3:0|3:0,0:0:0:0:
506,54,80330,6,0,P|461:98|378:103,1,124,2|0,1:2|0:0,0:0:0:0:
319,11,80725,1,0,0:0:0:0:
319,11,80857,2,0,P|331:51|322:97,1,62,8|0,0:0|0:0,0:0:0:0:
254,102,81120,1,0,1:0:0:0:
101,84,81383,6,0,P|65:43|20:29,3,92.9999971618653,0|2|8|0,1:0|0:0|0:0|1:0,0:0:0:0:
57,227,82436,5,2,1:2:0:0:
57,227,82567,2,0,P|88:206|109:167,1,62,0|0,0:0|0:0,0:0:0:0:
143,302,82830,1,0,0:0:0:0:
143,302,82962,2,0,P|159:268|158:224,1,62,8|0,0:0|0:0,0:0:0:0:
241,219,83225,1,0,1:0:0:0:
461,272,83488,6,0,L|383:282,1,46.4999985809327,0|0,1:0|0:0,0:0:0:0:
328,341,83752,1,2,0:0:0:0:
328,341,83883,2,0,L|406:351,1,46.4999985809327,0|8,1:0|0:0,0:0:0:0:
441,196,84146,1,2,0:0:0:0:
441,196,84278,1,8,1:1:0:0:
365,216,84409,1,8,0:1:0:0:
421,120,84541,5,2,1:2:0:0:
421,120,84673,2,0,P|434:86|429:53,1,62,0|0,0:0|0:0,0:0:0:0:
345,140,84936,1,0,0:0:0:0:
345,140,85068,2,0,P|339:104|318:77,1,62,8|0,0:0|0:0,0:0:0:0:
269,240,85330,1,0,1:0:0:0:
233,32,85594,5,0,1:0:0:0:
233,32,85726,2,0,P|216:57|211:83,1,54.2499983444214,0|2,0:0|0:0,0:0:0:0:
158,133,85945,1,0,3:0:0:0:
147,130,86032,1,0,3:0:0:0:
136,127,86120,2,0,L|147:202,1,54.2499983444214,8|0,3:2|0:0,0:0:0:0:
81,76,86383,1,0,1:0:0:0:
45,291,86646,5,2,1:2:0:0:
45,291,86778,2,0,P|76:285|99:271,1,46.4999985809327,0|0,0:0|0:0,0:0:0:0:
152,361,87041,1,0,0:0:0:0:
152,361,87173,2,0,P|162:331|161:304,1,46.4999985809327,8|0,0:0|0:0,0:0:0:0:
83,196,87436,6,0,P|53:185|26:186,1,46.4999985809327,0|0,1:0|3:0,0:0:0:0:
166,230,87699,1,0,1:0:0:0:
166,230,87830,2,0,P|195:219|222:220,1,46.4999985809327,0|2,3:0|0:0,0:0:0:0:
473,174,88225,6,2,P|427:166|408:220,1,108.5,0|0,0:0|0:0,0:0:0:0:
412,223,88752,2,2,P|421:249|412:303,1,62,2|0,1:2|0:0,0:0:0:0:
389,355,89015,1,0,0:0:0:0:
386,345,89146,1,0,0:0:0:0:
302,307,89278,5,8,0:0:0:0:
290,302,89409,2,0,P|247:305|218:323,1,62,0|0,0:0|1:0,0:0:0:0:
200,225,89673,2,0,P|165:249|149:279,2,62,0|0|0,0:0|1:0|0:0,0:0:0:0:
83,203,90067,2,0,P|64:241|65:275,1,62,2|0,0:0|0:0,0:0:0:0:
154,142,90330,5,8,1:2:0:0:
149,74,90461,1,0,0:0:0:0:
144,5,90593,1,0,0:0:0:0:
215,34,90725,1,0,0:0:0:0:
224,26,90857,6,0,P|259:21|307:35,1,62,2|0,1:2|0:0,0:0:0:0:
296,142,91120,2,0,P|315:117|325:88,1,62,0|0,0:0|0:0,0:0:0:0:
436,133,91383,1,8,0:0:0:0:
436,119,91515,2,0,P|424:90|404:66,1,62,0|0,0:0|1:0,0:0:0:0:
381,210,91778,5,0,0:0:0:0:
381,222,91909,2,0,L|392:332,1,62,0|0,1:0|0:0,0:0:0:0:
455,326,92173,1,2,0:0:0:0:
306,284,92304,2,0,L|317:394,1,62,0|8,1:0|0:0,0:0:0:0:
205,269,92567,2,0,L|216:158,1,62,0|8,0:0|1:1,0:0:0:0:
100,125,92830,1,8,0:1:0:0:
91,115,92962,6,0,P|60:105|3:111,1,62,2|0,1:2|0:0,0:0:0:0:
165,53,93225,2,0,P|143:28|90:5,1,62,0|0,0:0|0:0,0:0:0:0:
49,182,93488,2,0,P|42:240|82:323,1,124,8|0,0:0|1:0,0:0:0:0:
141,340,93883,1,0,1:0:0:0:
149,330,94015,6,0,P|185:316|214:283,1,62,0|0,1:0|0:0,0:0:0:0:
288,358,94278,2,0,P|293:319|279:278,1,62,2|0,0:0|0:0,0:0:0:0:
375,159,94541,2,0,P|431:140|530:164,1,124,8|0,1:2|0:0,0:0:0:0:
321,86,94936,1,0,0:0:0:0:
318,73,95067,6,0,P|331:37|358:11,1,62,2|0,1:2|0:0,0:0:0:0:
250,139,95330,2,0,P|246:171|214:207,1,62,0|0,0:0|0:0,0:0:0:0:
167,78,95594,6,0,L|177:162,1,62,8|0,1:2|0:0,0:0:0:0:
76,62,95857,6,2,B|80:104|80:104|67:119|67:119|96:117|96:117|83:132|83:132|86:175,1,155,0|0,0:0|0:0,0:0:0:0:
6,247,96120,6,0,L|-3:162,1,62,0|0,1:0|3:0,0:0:0:0:
76,62,96383,5,2,1:2:0:0:
83,135,96515,1,2,0:0:0:0:
6,247,96646,5,8,1:2:0:0:
13,320,96778,1,2,0:0:0:0:
148,203,96909,6,0,L|233:194,1,62,0|0,1:0|3:0,0:0:0:0:
228,358,97173,6,0,P|233:295|285:246,1,124,2|0,1:2|0:0,0:0:0:0:
272,251,97567,1,0,0:0:0:0:
307,132,97699,2,0,P|323:155|336:204,2,62,8|0|0,0:0|0:0|1:0,0:0:0:0:
416,231,98094,1,0,0:0:0:0:
422,243,98225,2,0,P|424:270|411:319,1,62,0|0,1:0|0:0,0:0:0:0:
512,334,98488,2,0,P|500:358|464:394,1,62,2|0,0:0|0:0,0:0:0:0:
488,201,98752,5,8,0:0:0:0:
493,134,98883,1,2,0:0:0:0:
498,66,99015,1,2,1:2:0:0:
422,95,99146,1,0,0:0:0:0:
412,86,99278,6,0,P|385:84|332:109,1,62,2|0,1:2|0:0,0:0:0:0:
294,4,99541,2,0,P|278:26|273:84,1,62,0|0,0:0|0:0,0:0:0:0:
341,180,99804,5,8,0:0:0:0:
343,192,99936,1,0,0:0:0:0:
345,204,100067,6,0,P|343:246|321:286,1,62,0|0,1:0|0:0,0:0:0:0:
436,221,100330,1,0,1:0:0:0:
452,306,100462,2,0,P|429:341|390:365,1,62,0|2,1:0|1:2,0:0:0:0:
267,323,100725,2,0,P|247:285|246:239,1,62,0|8,0:0|1:2,0:0:0:0:
178,197,100988,1,2,0:0:0:0:
180,210,101120,1,8,1:1:0:0:
138,125,101252,1,8,0:1:0:0:
75,315,101383,6,0,P|75:254|96:196,1,124,2|0,1:2|0:0,0:0:0:0:
281,36,101909,2,0,P|282:98|261:156,1,124,8|0,1:2|1:0,0:0:0:0:
383,126,102304,1,0,1:0:0:0:
499,218,102436,2,0,P|437:219|381:245,1,124,0|2,1:0|0:0,0:0:0:0:
327,311,102787,5,0,3:0:0:0:
317,318,102874,1,0,3:0:0:0:
305,322,102962,2,0,P|316:275|387:246,1,124,8|0,1:2|0:0,0:0:0:0:
461,304,103357,1,0,0:0:0:0:
330,179,103488,6,2,B|190:146|256:357|74:257|5:228|29:145|239:78|153:-3|27:-35|-8:15|-24:76|5:123|5:123|-4:87|20:55,1,682.000020812989,2|2,0:0|0:0,0:0:0:0:
185,125,104804,5,2,0:0:0:0:
197,136,104936,1,2,0:0:0:0:
259,79,105067,5,0,3:0:0:0:
268,101,105199,1,0,0:0:0:0:
352,69,105330,5,0,3:0:0:0:
348,101,105462,1,0,0:0:0:0:
512,5,105594,6,0,P|440:89|414:297,1,278.999991485596,6|0,1:2|0:0,0:0:0:0:
267,213,106120,2,0,P|313:314|393:370,1,185.999994323731,8|0,0:0|1:0,0:0:0:0:
487,159,106646,2,0,P|447:233|434:317,1,170.500005203247,0|2,1:0|0:0,0:0:0:0:
223,325,107173,2,0,P|292:358|369:359,1,155,8|0,0:0|1:0,0:0:0:0:
333,200,107567,1,0,3:0:0:0:
302,318,107699,5,2,1:2:0:0:
352,208,107830,1,0,3:0:0:0:
322,320,107962,1,8,0:0:0:0:
392,279,108094,1,0,3:0:0:0:
282,249,108225,1,8,0:0:0:0:
266,245,108291,1,0,0:0:0:0:
250,244,108357,1,0,0:0:0:0:
234,246,108423,1,0,0:0:0:0:
220,252,108488,6,0,P|180:244|134:221,1,77.5,0|0,1:0|0:0,0:0:0:0:
78,26,108752,2,0,P|121:60|154:173,3,155,0|2|8|8,1:0|0:0|0:0|1:1,0:0:0:0:
47,260,109673,1,8,0:1:0:0:
224,213,109804,6,0,P|98:261|32:395,1,278.999991485596,2|0,1:2|0:0,0:0:0:0:
45,167,110330,2,0,P|14:244|27:365,1,185.999994323731,8|0,0:0|1:0,0:0:0:0:
271,345,110857,2,0,P|186:343|112:384,1,170.500005203247,0|2,1:0|0:0,0:0:0:0:
180,121,111383,2,0,P|123:194|104:279,1,155,8|0,0:0|1:0,0:0:0:0:
306,237,111778,1,0,3:0:0:0:
196,288,111909,5,2,1:2:0:0:
308,258,112041,1,0,3:0:0:0:
188,270,112173,1,8,0:0:0:0:
267,328,112305,1,0,3:0:0:0:
233,202,112436,6,0,P|249:158|293:124,1,77.5,8|0,3:2|0:0,0:0:0:0:
237,63,112699,2,0,P|281:54|333:75,1,77.5,0|0,1:0|3:0,0:0:0:0:
470,208,112962,2,0,P|423:215|372:194,1,77.5,0|0,1:0|3:0,0:0:0:0:
349,272,113225,2,0,P|319:237|311:182,1,77.5,2|0,1:2|3:0,0:0:0:0:
358,0,113488,2,0,P|388:35|395:90,1,77.5,8|0,0:0|0:0,0:0:0:0:
473,72,113752,2,0,P|456:115|412:149,1,77.5,0|0,1:0|0:0,0:0:0:0:
205,205,114015,6,0,P|101:164|28:21,1,278.999991485596,2|0,1:2|0:0,0:0:0:0:
29,203,114541,2,0,P|12:103|34:5,1,185.999994323731,8|0,0:0|1:0,0:0:0:0:
249,94,115067,2,0,P|166:80|106:21,1,170.500005203247,0|2,1:0|0:0,0:0:0:0:
205,205,115594,2,0,P|233:253|241:383,1,155,8|0,0:0|1:0,0:0:0:0:
234,369,115988,1,0,3:0:0:0:
158,329,116120,5,2,1:2:0:0:
321,366,116252,1,0,3:0:0:0:
148,310,116383,2,0,P|113:303|64:322,1,77.5,0|0,3:0|0:0,0:0:0:0:
105,183,116646,1,8,0:0:0:0:
32,213,116778,2,0,P|9:239|1:291,1,77.5,2|0,0:3|1:0,0:0:0:0:
164,235,117041,5,0,0:0:0:0:
188,20,117173,2,0,P|147:85|136:161,1,155,0|2,1:0|0:0,0:0:0:0:
164,235,117567,1,0,1:0:0:0:
284,192,117699,1,8,0:0:0:0:
333,251,117830,2,0,P|327:289|306:321,1,77.5,2|0,0:0|1:0,0:0:0:0:
284,192,118094,1,8,0:1:0:0:
235,327,118225,5,2,1:2:0:0:
244,356,118357,1,0,0:0:0:0:
108,314,118488,2,0,P|134:343|169:359,1,77.5,0|0,0:0|0:0,0:0:0:0:
43,219,118752,2,0,P|48:187|70:132,3,77.5,8|0|0|0,0:0|0:0|1:0|0:0,0:0:0:0:
172,99,119278,5,0,1:0:0:0:
202,97,119409,1,0,0:0:0:0:
229,83,119541,2,0,P|250:42|244:-12,1,77.5,2|0,0:0|0:0,0:0:0:0:
299,151,119804,2,0,P|335:82|419:59,1,155,8|0,0:0|1:0,0:0:0:0:
466,131,120199,6,0,P|433:150|395:152,1,77.5,0|2,0:0|1:2,0:0:0:0:
426,274,120462,1,0,0:0:0:0:
397,270,120594,2,0,P|363:251|343:218,1,77.5,0|0,0:0|0:0,0:0:0:0:
285,356,120857,2,0,L|275:279,1,77.5,8|0,0:0|0:0,0:0:0:0:
139,242,121120,1,0,1:0:0:0:
115,222,121252,1,0,3:0:0:0:
84,215,121383,5,0,1:0:0:0:
79,299,121515,1,0,3:0:0:0:
4,199,121646,5,2,1:2:0:0:
160,152,121778,1,2,1:2:0:0:
159,323,121909,5,8,0:0:0:0:
61,95,122041,1,2,1:2:0:0:
228,194,122173,2,0,L|214:297,1,77.5,0|0,1:0|0:0,0:0:0:0:
338,355,122436,6,0,P|426:335|488:261,2,155,2|0|8,1:2|0:0|0:0,0:0:0:0:
293,291,123094,1,0,0:0:0:0:
354,244,123225,2,0,P|371:213|370:158,1,77.5,0|0,1:0|0:0,0:0:0:0:
484,216,123488,1,0,1:0:0:0:
495,78,123620,2,0,P|460:94|433:122,1,77.5,0|2,0:0|0:0,0:0:0:0:
361,95,123883,1,0,0:0:0:0:
297,50,124015,5,8,1:2:0:0:
268,61,124146,1,0,1:0:0:0:
237,63,124278,1,0,1:0:0:0:
206,57,124409,1,0,1:0:0:0:
140,143,124541,6,0,P|109:60|27:4,3,185.999994323731,2|0|8|0,1:2|0:0|1:2|0:0,0:0:0:0:
63,158,125462,1,0,0:0:0:0:
114,217,125594,1,0,1:0:0:0:
99,293,126120,6,0,P|128:254|194:235,1,108.5,0|0,0:0|0:0,0:0:0:0:
250,350,126646,1,2,1:2:0:0:
349,130,127173,5,8,0:0:0:0:
418,170,127436,1,0,1:0:0:0:
496,152,127699,1,0,1:0:0:0:
389,44,127962,6,0,L|394:19,1,15.5,2|0,0:0|0:0,0:0:0:0:
275,199,128225,5,8,0:0:0:0:
204,175,128488,1,0,1:0:0:0:
298,21,128752,6,0,L|293:-4,1,15.5,2|0,1:2|0:0,0:0:0:0:
298,21,129278,5,8,0:0:0:0:
204,175,129541,2,0,L|211:208,1,31,0|0,1:0|3:0,0:0:0:0:
123,157,129804,2,0,L|130:190,1,31,0|0,1:0|3:0,0:0:0:0:
210,62,130067,6,0,L|215:37,1,15.5,2|0,0:0|0:0,0:0:0:0:
126,63,130199,1,0,1:0:0:0:
126,63,130330,1,8,0:0:0:0:
129,47,130462,6,0,L|124:22,1,15.5,2|0,0:0|0:0,0:0:0:0:
123,157,130594,1,0,1:0:0:0:
16,265,130857,1,2,1:2:0:0:
122,245,131120,5,0,0:0:0:0:
190,286,131383,1,8,0:0:0:0:
266,261,131646,1,0,1:0:0:0:
346,266,131909,1,0,1:0:0:0:
416,367,132173,6,0,L|411:392,1,15.5,2|0,0:0|0:0,0:0:0:0:
500,182,132436,5,8,0:0:0:0:
421,199,132699,1,0,1:0:0:0:
311,347,132962,6,0,L|316:372,1,15.5,2|0,1:2|0:0,0:0:0:0:
311,347,133488,5,8,0:0:0:0:
246,229,133752,2,0,L|253:171,1,31,0|0,1:0|3:0,0:0:0:0:
168,207,134015,2,0,L|175:149,1,31,0|0,1:0|3:0,0:0:0:0:
215,327,134278,6,0,L|210:352,1,15.5,2|0,0:0|0:0,0:0:0:0:
119,342,134409,1,0,1:0:0:0:
119,342,134541,1,8,0:0:0:0:
96,320,134673,1,2,0:0:0:0:
88,289,134804,2,0,L|91:271,3,10.3333333333333,0|0|0|0,2:0|3:0|3:0|3:0,0:0:0:0:
34,187,135067,1,2,1:2:0:0:
154,56,135330,5,0,0:0:0:0:
188,129,135594,1,8,0:0:0:0:
168,207,135857,1,0,1:0:0:0:
231,256,136120,1,0,1:0:0:0:
59,264,136383,6,0,L|39:271,1,15.5,2|0,0:0|0:0,0:0:0:0:
173,354,136646,5,8,0:0:0:0:
251,334,136909,1,0,1:0:0:0:
38,349,137173,6,0,L|18:342,1,15.5,2|0,1:2|0:0,0:0:0:0:
38,349,137699,5,0,0:0:0:0:
200,262,137962,2,0,L|250:252,1,31,0|0,1:0|3:0,0:0:0:0:
230,175,138225,2,0,L|280:185,1,31,0|0,1:0|3:0,0:0:0:0:
98,114,138488,6,0,L|78:121,1,15.5,2|0,0:0|0:0,0:0:0:0:
81,28,138620,1,0,1:0:0:0:
81,28,138752,1,8,0:0:0:0:
67,33,138883,6,0,L|47:26,1,15.5,2|0,0:0|0:0,0:0:0:0:
176,55,139015,1,0,1:0:0:0:
361,12,139278,1,2,1:2:0:0:
322,131,139541,5,0,0:0:0:0:
364,199,139804,1,8,0:0:0:0:
335,274,140067,1,0,1:0:0:0:
352,352,140330,1,0,1:0:0:0:
490,241,140594,6,0,L|510:248,1,15.5,2|0,0:0|0:0,0:0:0:0:
383,99,140857,1,8,0:0:0:0:
306,124,141120,1,0,1:0:0:0:
472,158,141383,6,0,L|492:151,1,15.5,2|0,1:2|0:0,0:0:0:0:
472,158,141909,5,8,0:0:0:0:
315,203,142173,2,0,L|282:198,1,31,0|0,1:0|3:0,0:0:0:0:
306,124,142436,2,0,L|273:119,1,31,0|0,1:0|3:0,0:0:0:0:
433,78,142699,6,0,L|453:85,1,15.5,2|0,1:2|0:0,0:0:0:0:
369,13,142830,1,0,0:0:0:0:
369,13,142962,1,8,0:0:0:0:
338,6,143094,1,2,0:0:0:0:
307,10,143225,2,0,L|294:21,3,10.3333333333333,0|0|0|0,3:0|3:0|3:0|3:0,0:0:0:0:
221,83,143488,6,0,B|186:89|161:75|161:75|137:61|105:59|98:71|98:71|91:83|108:110|133:124|133:124|157:138|156:170|129:188|104:173|104:173|80:159|48:157|41:170|41:170|34:182|51:209|76:223|76:223|88:230,1,434,2|0,1:0|1:0,0:0:0:0:
120,295,145594,2,0,B|85:309|52:296|52:296|104:351|172:280|237:346,1,248,2|0,1:0|1:0,0:0:0:0:
285,270,146909,2,0,P|307:310|312:349,2,62,2|8|2,0:1|0:0|1:0,0:0:0:0:
358,196,147699,5,0,1:0:0:0:
358,196,147962,2,0,P|406:186|448:144,1,93,2|0,0:1|0:0,0:0:0:0:
344,77,148488,5,2,1:1:0:0:
342,61,148620,1,2,0:1:0:0:
341,45,148752,2,0,P|382:56|322:111,1,155,2|0,1:1|0:0,0:0:0:0:
207,106,149541,5,2,1:1:0:0:
191,108,149673,1,2,0:1:0:0:
177,115,149804,2,0,B|246:118|261:188|261:188|279:258|350:263,1,248,2|0,1:1|1:0,0:0:0:0:
198,307,151120,2,0,P|182:324|172:346,1,31,2|0,0:1|1:0,0:0:0:0:
160,335,151383,2,0,P|175:308|199:289,1,62,8|0,0:0|1:0,0:0:0:0:
79,320,151909,6,0,B|120:192|21:175|21:175|81:235|178:189|178:189|197:140|168:102,1,434,2|0,0:1|0:0,0:0:0:0:
131,35,154015,2,0,P|132:99|302:151,1,248,2|0,0:1|0:0,0:0:0:0:
347,82,155330,2,0,P|368:45|392:30,2,62,2|8|2,0:1|0:0|0:1,0:0:0:0:
390,195,156120,5,0,0:0:0:0:
390,195,156383,2,0,P|401:236|394:275,1,62,2|8,0:1|0:0,0:0:0:0:
305,338,156909,5,2,0:1:0:0:
289,336,157041,1,2,0:1:0:0:
273,334,157173,2,0,P|318:308|350:364,1,124,2|8,0:1|0:0,0:0:0:0:
196,270,157962,5,2,0:1:0:0:
180,272,158094,1,2,0:1:0:0:
164,273,158225,2,0,P|234:138|114:260,1,496,2|2,0:1|0:1,0:0:0:0:
124,249,161383,5,2,0:1:0:0:
138,243,162436,5,2,0:1:0:0:
256,192,162567,12,0,164278,0:0:0:0:
317,99,164541,6,0,P|312:212|225:141,1,278.999991485596,6|0,1:2|0:0,0:0:0:0:
308,118,165067,2,0,P|304:193|246:146,1,185.999994323731,8|0,0:0|1:0,0:0:0:0:
408,145,165594,2,0,P|376:238|308:274,1,170.500005203247,0|2,1:0|0:0,0:0:0:0:
269,52,166120,2,0,P|204:91|183:164,1,155,8|0,1:2|3:0,0:0:0:0:
287,155,166515,1,0,3:0:0:0:
122,220,166646,5,2,1:2:0:0:
236,257,166778,1,0,3:0:0:0:
148,312,166909,1,8,0:0:0:0:
226,242,167041,1,0,3:0:0:0:
48,247,167173,6,0,P|46:212|67:163,1,77.5,8|0,0:0|0:0,0:0:0:0:
53,28,167436,1,0,1:0:0:0:
111,100,167567,1,0,0:0:0:0:
72,24,167699,2,0,P|106:49|115:93,1,77.5,0|0,1:0|0:0,0:0:0:0:
291,62,167962,2,0,P|254:71|230:101,1,77.5,2|0,1:2|0:0,0:0:0:0:
164,188,168225,5,8,1:2:0:0:
170,226,168357,1,0,0:0:0:0:
277,178,168488,5,8,1:1:0:0:
263,261,168620,1,8,0:1:0:0:
390,168,168752,6,0,P|458:257|346:259,1,278.999991485596,2|0,1:2|0:0,0:0:0:0:
393,186,169278,2,0,P|439:246|363:247,1,185.999994323731,8|0,0:0|1:0,0:0:0:0:
259,108,169804,2,0,P|304:50|231:49,1,170.500005203247,0|2,1:0|0:0,0:0:0:0:
151,275,170330,2,0,P|193:330|124:331,1,155,8|0,1:2|3:0,0:0:0:0:
66,288,170725,1,0,3:0:0:0:
80,129,170857,5,2,1:2:0:0:
151,275,170988,1,0,3:0:0:0:
200,155,171120,1,8,0:0:0:0:
145,258,171252,1,0,3:0:0:0:
6,170,171383,6,0,P|-3:129|24:68,1,77.5,8|0,3:2|3:0,0:0:0:0:
151,51,171646,1,0,1:0:0:0:
79,214,171778,1,0,3:0:0:0:
139,25,171909,2,0,L|150:111,1,77.5,0|0,1:0|3:0,0:0:0:0:
288,176,172173,2,0,L|299:90,1,77.5,2|0,0:0|0:0,0:0:0:0:
459,34,172436,5,8,1:2:0:0:
468,110,172567,1,0,0:0:0:0:
288,176,172699,5,0,0:0:0:0:
279,252,172830,1,0,0:0:0:0:
445,315,172962,6,0,P|440:201|353:272,1,278.999991485596,2|0,1:2|0:0,0:0:0:0:
435,299,173488,2,0,P|431:223|373:270,1,185.999994323731,8|0,0:0|1:0,0:0:0:0:
90,198,174015,2,0,P|150:316|244:355,1,201.499990776062,0|2,1:0|1:2,0:0:0:0:
233,85,174541,2,0,P|212:154|263:288,1,216.999993377686,8|0,1:2|1:0,0:0:0:0:
383,322,174936,1,0,3:0:0:0:
490,285,175067,6,0,P|453:273|383:312,1,108.499996688843,2|0,1:2|0:0,0:0:0:0:
338,215,175330,2,0,P|386:167|378:10,1,216.999993377686,0|8,1:0|0:0,0:0:0:0:
334,196,175725,1,2,0:3:0:0:
298,104,175857,2,0,P|254:58|190:40,1,108.499996688843,0|0,1:0|1:0,0:0:0:0:
59,100,176120,1,0,1:0:0:0:
73,75,176383,6,0,P|79:132|45:202,1,108.499996688843,2|0,0:0|1:0,0:0:0:0:
119,309,176646,1,8,0:0:0:0:
179,192,176778,1,2,0:0:0:0:
32,253,176909,1,0,1:0:0:0:
266,248,177041,1,8,0:1:0:0:
194,102,177173,5,2,1:2:0:0:
186,81,177304,1,0,3:0:0:0:
288,109,177436,5,0,3:0:0:0:
291,86,177567,2,0,B|320:51|320:51|306:88,1,77.5,0|8,3:0|0:0,0:0:0:0:
312,255,177830,2,0,B|267:247|267:247|376:228,1,155,0|0,3:0|3:0,0:0:0:0:
467,297,178225,1,0,1:0:0:0:
467,297,178357,2,0,P|478:344|472:382,1,77.5,0|2,0:0|0:0,0:0:0:0:
366,320,178620,5,0,0:0:0:0:
496,216,178752,1,8,0:0:0:0:
483,200,179015,5,0,1:0:0:0:
365,162,179146,2,0,P|354:115|360:77,1,77.5,0|2,0:0|1:2,0:0:0:0:
233,93,179409,1,0,0:0:0:0:
233,93,179541,2,0,P|246:46|271:16,1,77.5,0|0,0:0|0:0,0:0:0:0:
175,267,179804,2,0,B|158:304|109:309|109:309|57:316|38:365,1,155,8|0,0:0|1:0,0:0:0:0:
109,231,180199,1,0,3:0:0:0:
112,211,180330,5,0,1:0:0:0:
261,271,180462,1,0,3:0:0:0:
181,154,180594,5,2,0:0:0:0:
199,357,180725,1,2,1:2:0:0:
295,168,180857,5,8,1:2:0:0:
257,251,180988,2,0,P|266:206|304:155,1,77.5,2|0,0:0|0:0,0:0:0:0:
147,51,181252,1,0,0:0:0:0:
185,134,181383,6,0,P|176:89|138:38,1,77.5,2|0,1:2|0:0,0:0:0:0:
277,51,181646,5,0,0:0:0:0:
368,70,181778,1,0,0:0:0:0:
454,36,181909,2,0,P|468:75|468:115,1,77.5,8|0,0:0|0:0,0:0:0:0:
296,44,182173,5,0,1:0:0:0:
367,58,182305,1,0,0:0:0:0:
434,32,182436,2,0,P|448:71|448:111,1,77.5,0|0,1:0|0:0,0:0:0:0:
361,262,182699,2,0,P|346:301|347:341,1,77.5,2|0,0:0|0:0,0:0:0:0:
485,189,182962,2,0,B|407:211|407:153|314:179,1,155,8|0,0:0|1:0,0:0:0:0:
219,290,183357,1,0,0:0:0:0:
219,290,183488,6,0,P|225:331|246:365,1,77.5,2|0,1:2|0:0,0:0:0:0:
116,170,183752,1,0,0:0:0:0:
87,157,183883,1,0,0:0:0:0:
56,160,184015,2,0,P|117:204|142:290,1,155,8|0,0:0|1:0,0:0:0:0:
207,32,184541,6,0,P|190:66|191:115,1,77.5,0|0,1:0|0:0,0:0:0:0:
312,83,184804,2,0,P|280:103|256:146,1,77.5,2|0,0:0|0:0,0:0:0:0:
49,44,185067,1,8,0:0:0:0:
79,36,185199,1,2,0:0:0:0:
109,28,185594,6,0,B|127:74|86:99|86:99|44:123|59:174,1,155,2|0,1:2|0:0,0:0:0:0:
155,354,186120,1,8,0:0:0:0:
122,218,186383,2,0,P|109:259|63:305,1,77.5,0|0,1:0|0:0,0:0:0:0:
195,269,186646,6,0,P|266:320|341:322,1,155,0|2,1:0|0:0,0:0:0:0:
342,313,186997,1,0,3:0:0:0:
345,297,187085,1,0,3:0:0:0:
343,281,187173,1,8,3:2:0:0:
503,171,187436,2,0,P|469:149|426:142,1,77.5,0|0,1:0|0:0,0:0:0:0:
422,0,187699,6,0,B|433:49|394:78|394:78|353:106|366:153,2,155,2|0|8,1:2|0:0|0:0,0:0:0:0:
352,16,188357,1,0,0:0:0:0:
329,20,188488,2,0,L|248:6,1,77.5,0|0,1:0|0:0,0:0:0:0:
161,70,188752,2,0,L|147:146,1,77.5,0|0,1:0|0:0,0:0:0:0:
56,12,189015,1,2,0:0:0:0:
154,47,189146,1,0,0:0:0:0:
231,117,189278,6,0,L|212:223,1,93,0|0,0:0|0:0,0:0:0:0:
269,263,189804,5,0,1:0:0:0:
296,248,189936,1,0,0:0:0:0:
326,249,190067,1,0,0:0:0:0:
326,249,190199,1,0,0:0:0:0:
363,352,190330,5,8,0:0:0:0:
363,352,190462,2,0,P|369:330|384:312,1,46.4999985809327,0|0,0:0|1:0,0:0:0:0:
491,329,190725,2,0,P|474:312|465:291,1,46.4999985809327,0|0,0:0|1:0,0:0:0:0:
472,215,190988,5,0,0:0:0:0:
478,185,191120,1,0,0:0:0:0:
471,155,191252,1,0,0:0:0:0:
471,155,191383,1,8,0:0:0:0:
471,155,191515,6,0,L|406:163,1,46.4999985809327,0|0,0:0|1:0,0:0:0:0:
374,80,191778,2,0,L|348:140,1,46.4999985809327,0|0,0:0|1:0,0:0:0:0:
292,165,192041,1,0,0:0:0:0:
260,172,192173,1,0,0:0:0:0:
231,187,192304,1,0,0:0:0:0:
207,209,192436,1,8,0:0:0:0:
191,237,192567,1,0,0:0:0:0:
167,259,192699,5,0,1:0:0:0:
177,289,192830,1,0,0:0:0:0:
204,307,192962,5,0,1:0:0:0:
194,337,193093,1,0,0:0:0:0:
166,354,193225,5,8,0:0:0:0:
176,384,193356,1,0,1:0:0:0:
281,353,193488,6,0,B|312:343|339:363|339:363|366:383|398:373,1,124,8|0,0:0|0:0,0:0:0:0:
