osu file format v14

[General]
AudioFilename: audio.mp3
AudioLeadIn: 0
PreviewTime: 163719
Countdown: 0
SampleSet: Soft
StackLeniency: 0.2
Mode: 0
LetterboxInBreaks: 0
WidescreenStoryboard: 1

[Editor]
DistanceSpacing: 1.2
BeatDivisor: 8
GridSize: 4
TimelineZoom: 1

[Metadata]
Title:Flamingo
TitleUnicode:Flamingo
Artist:Yonezu Kenshi
ArtistUnicode:米津玄師
Creator:A r M i N
Version:Expert
Source:
Tags:pop japanese jpop Armin A_r_M_i_N Yugu Loneight l1106188 Firika フラミンゴ
BeatmapID:2228782
BeatmapSetID:1064501

[Difficulty]
HPDrainRate:5.5
CircleSize:4
OverallDifficulty:8
ApproachRate:9.1
SliderMultiplier:3.1
SliderTickRate:1

[Events]
//Background and Video events
0,0,"BG.jpg",0,0
//Break Periods
//Storyboard Layer 0 (Background)
//Storyboard Layer 1 (Fail)
//Storyboard Layer 2 (Pass)
//Storyboard Layer 3 (Foreground)
//Storyboard Layer 4 (Overlay)
//Storyboard Sound Samples

[TimingPoints]
331,526.315789473684,4,2,1,40,1,0
331,-166.666666666667,4,2,1,40,0,0
7962,-166.666666666667,4,2,1,10,0,0
8752,-125,4,2,1,60,0,0
12699,-125,4,2,1,70,0,0
12962,-125,4,2,1,60,0,0
21120,-125,4,2,1,70,0,0
21383,-125,4,2,1,60,0,0
25067,-250,4,2,1,40,0,0
25528,-250,4,2,1,5,0,0
25594,-66.6666666666667,4,2,1,50,0,0
25725,-66.6666666666667,4,2,1,70,0,0
25857,-100,4,2,1,70,0,0
41646,-100,4,2,1,40,0,0
42436,-66.6666666666667,4,2,1,80,0,1
42830,-66.6666666666667,4,2,1,5,0,1
42962,-83.3333333333333,4,2,1,80,0,1
43488,-71.4285714285714,4,2,1,80,0,1
44015,-90.9090909090909,4,2,1,80,0,1
44541,-83.3333333333333,4,2,1,80,0,1
46646,-66.6666666666667,4,2,1,80,0,1
47041,-66.6666666666667,4,2,1,5,0,1
47173,-83.3333333333333,4,2,1,80,0,1
47699,-71.4285714285714,4,2,1,80,0,1
48225,-90.9090909090909,4,2,1,80,0,1
48752,-83.3333333333333,4,2,1,80,0,1
50857,-66.6666666666667,4,2,1,80,0,1
51252,-66.6666666666667,4,2,1,5,0,1
51383,-83.3333333333333,4,2,1,80,0,1
51909,-71.4285714285714,4,2,1,80,0,1
52436,-90.9090909090909,4,2,1,80,0,1
52962,-83.3333333333333,4,2,1,80,0,1
63488,-166.666666666667,4,2,1,40,0,0
71909,-125,4,2,1,60,0,0
75857,-125,4,2,1,70,0,0
76120,-125,4,2,1,60,0,0
84278,-125,4,2,1,70,0,0
84541,-125,4,2,1,60,0,0
88225,-250,4,2,1,40,0,0
88686,-250,4,2,1,5,0,0
88752,-66.6666666666667,4,2,1,50,0,0
88883,-66.6666666666667,4,2,1,70,0,0
89015,-100,4,2,1,70,0,0
104804,-100,4,2,1,40,0,0
105594,-66.6666666666667,4,2,1,80,0,1
105988,-66.6666666666667,4,2,1,5,0,1
106120,-83.3333333333333,4,2,1,80,0,1
106646,-71.4285714285714,4,2,1,80,0,1
107173,-90.9090909090909,4,2,1,80,0,1
107699,-83.3333333333333,4,2,1,80,0,1
109804,-66.6666666666667,4,2,1,80,0,1
110199,-66.6666666666667,4,2,1,5,0,1
110330,-83.3333333333333,4,2,1,80,0,1
110857,-71.4285714285714,4,2,1,80,0,1
111383,-90.9090909090909,4,2,1,80,0,1
111909,-83.3333333333333,4,2,1,80,0,1
114015,-66.6666666666667,4,2,1,80,0,1
114409,-66.6666666666667,4,2,1,5,0,1
114541,-83.3333333333333,4,2,1,80,0,1
115067,-71.4285714285714,4,2,1,80,0,1
115594,-90.9090909090909,4,2,1,80,0,1
116120,-83.3333333333333,4,2,1,80,0,1
124541,-76.9230769230769,4,2,1,80,0,1
125002,-76.9230769230769,4,2,1,5,0,1
125067,-100,4,2,1,80,0,1
125528,-100,4,2,1,5,0,1
125594,-142.857142857143,4,2,1,80,0,0
125857,-142.857142857143,4,2,1,5,0,0
126120,-250,4,2,1,40,0,0
126580,-250,4,2,1,5,0,0
126646,-166.666666666667,4,2,1,40,0,0
128028,-166.666666666667,4,2,1,10,0,0
128225,-166.666666666667,4,2,1,40,0,0
129278,-166.666666666667,4,2,1,40,0,0
130133,-166.666666666667,4,2,1,10,0,0
130199,-166.666666666667,4,2,1,40,0,0
130528,-166.666666666667,4,2,1,10,0,0
130594,-166.666666666667,4,2,1,40,0,0
132436,-166.666666666667,4,2,1,40,0,0
133488,-166.666666666667,4,2,1,40,0,0
134409,-166.666666666667,4,2,1,40,0,0
136646,-166.666666666667,4,2,1,40,0,0
137699,-166.666666666667,4,2,1,40,0,0
138620,-166.666666666667,4,2,1,40,0,0
139015,-166.666666666667,4,2,1,40,0,0
140857,-166.666666666667,4,2,1,40,0,0
141909,-166.666666666667,4,2,1,40,0,0
142830,-166.666666666667,4,2,1,40,0,0
143488,-250.000000000001,4,2,1,40,0,0
148488,-250.000000000001,4,2,1,30,0,0
148620,-250.000000000001,4,2,1,35,0,0
148752,-250.000000000001,4,2,1,40,0,0
149541,-250.000000000001,4,2,1,30,0,0
149673,-250.000000000001,4,2,1,35,0,0
149804,-250.000000000001,4,2,1,40,0,0
156909,-250.000000000001,4,2,1,30,0,0
157041,-250.000000000001,4,2,1,35,0,0
157173,-250.000000000001,4,2,1,40,0,0
157962,-250.000000000001,4,2,1,30,0,0
158094,-250.000000000001,4,2,1,35,0,0
158226,-250.000000000001,4,2,1,40,0,0
161317,-250.000000000001,4,2,1,5,0,0
161383,-250.000000000001,4,2,1,40,0,0
162370,-250.000000000001,4,2,1,5,0,0
162436,-250.000000000001,4,2,1,40,0,0
163159,-250.000000000001,4,2,1,5,0,0
163225,-250.000000000001,4,2,1,40,0,0
163554,-250.000000000001,4,2,1,5,0,0
163620,-250.000000000001,4,2,1,40,0,0
163949,-250.000000000001,4,2,1,5,0,0
164015,-250.000000000001,4,2,1,40,0,0
164541,-66.6666666666667,4,2,1,80,0,1
164936,-66.6666666666667,4,2,1,5,0,1
165067,-83.3333333333333,4,2,1,80,0,1
165594,-71.4285714285714,4,2,1,80,0,1
166120,-90.9090909090909,4,2,1,80,0,1
166646,-83.3333333333333,4,2,1,80,0,1
168752,-66.6666666666667,4,2,1,80,0,1
169146,-66.6666666666667,4,2,1,5,0,1
169278,-83.3333333333333,4,2,1,80,0,1
169804,-71.4285714285714,4,2,1,80,0,1
170330,-62.5,4,2,1,80,0,1
170857,-76.9230769230769,4,2,1,80,0,1
171646,-71.4285714285714,4,2,1,80,0,1
172962,-66.6666666666667,4,2,1,80,0,1
173357,-66.6666666666667,4,2,1,5,0,1
173488,-83.3333333333333,4,2,1,80,0,1
174015,-50,4,2,1,80,0,1
174541,-55.5555555555556,4,2,1,80,0,1
175067,-71.4285714285714,4,2,1,80,0,1
177173,-83.3333333333333,4,2,1,80,0,1
185067,-100,4,2,1,80,0,0
185594,-100,4,2,1,60,0,0
189278,-166.666666666667,4,2,1,50,0,0
189804,-125,4,2,1,40,0,0
193488,-250,4,2,1,40,0,0
194015,-250,4,2,1,5,0,0

[Colours]
Combo1 : 75,136,169
Combo2 : 226,122,135
Combo3 : 125,218,238

[HitObjects]
11,109,331,6,0,B|105:82|91:166|186:139,1,185.999994323731,2|8,1:2|0:0,0:0:0:0:
349,47,1120,1,0,1:0:0:0:
234,59,1383,2,0,P|266:93|278:137,2,92.9999971618653,0|2|8,1:0|0:0|0:0,0:0:0:0:
234,220,2173,1,0,1:0:0:0:
408,226,2436,6,0,P|366:146|277:137,1,185.999994323731,2|8,1:2|0:0,0:0:0:0:
209,236,3225,1,0,1:0:0:0:
234,220,3357,2,0,L|244:266,1,46.4999985809327,0|0,3:0|1:0,0:0:0:0:
126,193,3620,2,0,L|116:239,1,46.4999985809327,0|2,3:0|0:0,0:0:0:0:
69,90,3883,1,0,1:0:0:0:
55,116,4015,2,0,P|97:104|145:92,1,92.9999971618653,8|0,0:0|1:0,0:0:0:0:
392,9,4541,6,0,B|348:57|348:57|392:169,1,185.999994323731,2|8,1:2|0:0,0:0:0:0:
460,344,5330,1,0,1:0:0:0:
383,273,5594,2,0,L|469:239,2,92.9999971618653,0|2|8,1:0|0:0|0:0,0:0:0:0:
483,147,6383,1,0,1:0:0:0:
296,172,6646,6,0,L|469:239,1,185.999994323731,2|8,1:2|0:0,0:0:0:0:
373,102,7436,1,0,1:0:0:0:
209,142,7699,2,0,P|205:189|226:233,1,92.9999971618653,0|0,1:0|0:0,0:0:0:0:
223,229,8752,5,2,1:2:0:0:
200,246,8883,2,0,P|269:251|307:287,1,124,0|0,0:0|0:0,0:0:0:0:
250,360,9278,2,0,P|219:354|193:338,1,62,8|0,0:0|0:0,0:0:0:0:
293,159,9541,1,0,1:0:0:0:
79,48,9804,6,0,L|106:169,1,124,0|2,1:0|0:0,0:0:0:0:
176,58,10199,2,0,L|203:179,1,124,0|0,0:0|0:0,0:0:0:0:
273,68,10594,1,0,1:0:0:0:
391,205,10857,5,2,1:2:0:0:
414,186,10988,2,0,L|293:159,1,124,0|0,0:0|0:0,0:0:0:0:
343,75,11383,2,0,L|403:88,1,62,8|0,0:0|0:0,0:0:0:0:
315,259,11646,1,0,1:0:0:0:
106,169,11909,6,0,P|163:207|178:258,1,124,0|2,1:0|0:0,0:0:0:0:
143,345,12304,1,0,1:0:0:0:
203,273,12436,2,0,L|263:259,1,62,8|2,0:0|0:0,0:0:0:0:
314,179,12699,1,8,1:1:0:0:
249,120,12830,1,8,0:1:0:0:
300,42,12962,5,2,1:2:0:0:
283,18,13094,2,0,L|404:45,1,124,0|0,0:0|0:0,0:0:0:0:
506,52,13488,2,0,P|490:78|485:109,1,62,8|0,0:0|0:0,0:0:0:0:
512,260,13752,1,0,1:0:0:0:
286,170,14015,5,0,1:0:0:0:
314,179,14146,2,0,B|330:239|330:239|314:299,1,124,0|0,0:0|0:0,0:0:0:0:
366,376,14541,2,0,L|426:362,1,62,8|0,3:2|0:0,0:0:0:0:
314,298,14804,1,0,1:0:0:0:
370,105,15067,5,2,1:2:0:0:
345,90,15199,2,0,P|276:95|238:131,1,124,0|0,0:0|0:0,0:0:0:0:
145,134,15594,2,0,P|150:164|166:190,1,62,8|0,0:0|0:0,0:0:0:0:
282,230,15857,2,0,L|275:260,3,31,0|0|0|0,1:0|0:0|0:0|0:0,0:0:0:0:
254,224,16120,6,0,L|240:284,1,62,0|0,1:0|3:0,0:0:0:0:
397,205,16383,1,2,1:2:0:0:
397,205,16515,1,2,0:0:0:0:
313,82,16646,2,0,L|327:143,1,62,8|2,0:0|0:0,0:0:0:0:
230,31,16909,2,0,L|216:91,1,62,0|0,1:0|3:0,0:0:0:0:
119,191,17173,5,2,1:2:0:0:
146,202,17304,2,0,L|119:81,1,124,0|0,0:0|0:0,0:0:0:0:
216,91,17699,2,0,L|229:151,1,62,8|0,0:0|0:0,0:0:0:0:
38,145,17962,1,0,1:0:0:0:
176,7,18225,6,0,P|247:3|294:41,1,124,0|2,1:0|0:0,0:0:0:0:
352,229,18620,2,0,P|315:180|318:120,1,124,0|0,0:0|0:0,0:0:0:0:
444,238,19015,1,0,1:0:0:0:
152,331,19278,5,2,1:2:0:0:
178,345,19409,2,0,P|231:316|256:261,1,124,0|0,0:0|0:0,0:0:0:0:
201,186,19804,2,0,P|179:207|167:236,1,62,8|0,0:0|0:0,0:0:0:0:
293,174,20067,1,0,1:0:0:0:
172,65,20330,6,0,L|200:185,1,124,0|2,1:0|0:0,0:0:0:0:
271,82,20725,1,0,1:0:0:0:
348,133,20857,2,0,L|362:193,1,62,8|0,0:0|0:0,0:0:0:0:
438,247,21120,1,8,1:1:0:0:
393,328,21252,1,8,0:1:0:0:
303,302,21383,5,2,1:2:0:0:
316,275,21515,2,0,P|267:238|207:241,1,124,0|0,0:0|0:0,0:0:0:0:
129,292,21909,2,0,L|114:231,1,62,8|0,0:0|0:0,0:0:0:0:
27,108,22173,1,0,1:0:0:0:
229,43,22436,5,0,1:0:0:0:
204,27,22567,2,0,B|220:87|220:87|204:147,1,124,0|0,0:0|0:0,0:0:0:0:
206,241,22962,2,0,P|236:236|262:220,1,62,8|0,3:2|0:0,0:0:0:0:
112,135,23225,1,0,1:0:0:0:
392,136,23488,5,2,1:2:0:0:
367,151,23620,2,0,L|338:271,1,124,0|0,0:0|0:0,0:0:0:0:
419,331,24015,2,0,L|434:271,1,62,8|0,0:0|0:0,0:0:0:0:
262,219,24278,1,0,1:0:0:0:
171,237,24409,2,0,P|140:231|114:215,1,62,0|0,3:0|1:0,0:0:0:0:
145,127,24673,2,0,P|175:132|201:148,1,62,0|2,3:0|0:0,0:0:0:0:
498,29,25067,6,0,L|392:53,1,108.5,0|0,0:0|0:0,0:0:0:0:
312,25,25594,6,0,P|348:72|347:135,1,116.250004434586,2|0,1:2|0:0,0:0:0:0:
201,148,25857,2,0,P|225:118|259:101,1,77.5,0|0,0:0|0:0,0:0:0:0:
283,191,26120,1,8,0:0:0:0:
206,242,26252,2,0,P|168:236|136:215,1,77.5,0|0,0:0|1:0,0:0:0:0:
283,191,26515,2,0,L|319:341,1,155,0|0,0:0|0:0,0:0:0:0:
400,281,26909,2,0,L|382:206,1,77.5,2|0,0:0|0:0,0:0:0:0:
450,32,27173,1,8,0:0:0:0:
384,98,27304,2,0,P|416:119|454:125,1,77.5,0|0,0:0|1:0,0:0:0:0:
361,8,27567,1,0,0:0:0:0:
294,73,27699,6,0,P|291:111|305:147,1,77.5,2|0,1:2|0:0,0:0:0:0:
382,206,27962,1,0,0:0:0:0:
295,175,28094,1,0,0:0:0:0:
218,226,28225,1,8,0:0:0:0:
215,319,28357,2,0,L|290:337,1,77.5,0|0,0:0|1:0,0:0:0:0:
181,140,28620,2,0,P|130:194|136:270,1,155,0|0,0:0|0:0,0:0:0:0:
215,319,29015,1,2,0:0:0:0:
297,275,29146,1,0,1:0:0:0:
376,323,29278,2,0,L|451:304,1,77.5,8|0,0:0|0:0,0:0:0:0:
297,275,29541,1,8,1:1:0:0:
294,368,29673,1,8,0:1:0:0:
377,229,29804,6,0,L|358:153,1,77.5,2|0,1:2|0:0,0:0:0:0:
292,89,30067,1,0,0:0:0:0:
220,149,30199,1,0,0:0:0:0:
154,85,30330,2,0,L|190:235,1,155,8|0,0:0|1:0,0:0:0:0:
138,313,30725,2,0,P|197:267|271:280,1,155,0|0,0:0|0:0,0:0:0:0:
351,330,31120,1,2,0:0:0:0:
432,286,31252,1,0,0:0:0:0:
437,192,31383,2,0,P|371:169|353:236,1,155,8|0,0:0|1:0,0:0:0:0:
432,286,31778,1,0,0:0:0:0:
359,143,31909,6,0,L|283:124,1,77.5,2|0,1:2|0:0,0:0:0:0:
194,102,32173,1,0,0:0:0:0:
104,80,32304,1,0,0:0:0:0:
14,58,32436,2,0,P|77:97|90:171,1,155,8|0,0:0|1:0,0:0:0:0:
26,239,32830,1,0,0:0:0:0:
115,263,32962,2,0,L|191:244,1,77.5,0|0,1:0|3:0,0:0:0:0:
342,317,33225,2,0,L|266:298,1,77.5,2|2,0:0|1:2,0:0:0:0:
428,280,33488,5,8,0:0:0:0:
435,309,33620,1,2,0:0:0:0:
361,195,33752,5,0,1:0:0:0:
354,224,33884,1,0,3:0:0:0:
381,103,34015,6,0,B|302:81|315:151|235:129,1,155,2|0,1:2|0:0,0:0:0:0:
159,76,34409,1,0,0:0:0:0:
77,118,34541,2,0,P|55:150|49:188,1,77.5,8|0,0:0|0:0,0:0:0:0:
159,76,34804,2,0,P|152:37|131:5,1,77.5,0|0,1:0|0:0,0:0:0:0:
143,184,35067,2,0,L|179:334,1,155,0|2,1:0|0:0,0:0:0:0:
261,277,35462,1,0,0:0:0:0:
340,327,35594,1,8,0:0:0:0:
410,266,35725,2,0,L|429:190,1,77.5,0|0,0:0|1:0,0:0:0:0:
497,127,35988,1,0,0:0:0:0:
410,99,36120,6,0,P|372:92|340:70,1,77.5,2|0,1:2|0:0,0:0:0:0:
279,3,36383,1,0,0:0:0:0:
193,40,36515,1,0,0:0:0:0:
203,133,36646,1,8,0:0:0:0:
295,153,36778,2,0,P|308:188|305:227,1,77.5,0|0,0:0|1:0,0:0:0:0:
251,303,37041,2,0,P|310:257|384:270,1,155,0|0,0:0|0:0,0:0:0:0:
439,345,37436,1,0,0:0:0:0:
477,259,37567,1,0,1:0:0:0:
420,184,37699,2,0,L|401:108,1,77.5,8|2,0:0|0:0,0:0:0:0:
384,270,37962,1,8,1:1:0:0:
477,259,38094,1,8,0:1:0:0:
328,195,38225,6,0,B|210:162|229:266|110:233,1,232.5,2|0,1:2|0:0,0:0:0:0:
46,159,38752,2,0,P|95:107|155:147,1,155,8|0,0:0|1:0,0:0:0:0:
109,233,39146,1,0,0:0:0:0:
160,311,39278,2,0,L|310:347,1,155,0|2,1:0|0:0,0:0:0:0:
442,211,39804,2,0,L|292:247,1,155,8|0,3:2|1:0,0:0:0:0:
223,184,40199,1,0,0:0:0:0:
268,102,40330,1,2,1:2:0:0:
256,192,40462,12,2,41383,0:0:0:0:
149,178,41646,5,2,0:0:0:0:
149,178,41778,1,2,0:0:0:0:
149,178,41909,2,0,P|90:132|16:145,1,155,0|0,3:0|3:0,0:0:0:0:
68,222,42304,1,0,0:0:0:0:
202,93,42436,6,0,B|252:44|321:62|341:130|341:130|360:197|429:216|480:167,1,348.750013303757,6|0,1:2|0:0,0:0:0:0:
256,170,42962,2,0,L|299:350,1,185.999994323731,8|0,0:0|1:0,0:0:0:0:
202,93,43488,6,0,P|168:74|67:251,1,325.499990066529,0|0,1:0|0:0,0:0:0:0:
256,170,44015,2,0,B|342:145|328:222|416:198,1,170.500005203247,8|0,0:0|1:0,0:0:0:0:
479,130,44409,1,0,3:0:0:0:
389,110,44541,6,0,L|432:290,1,185.999994323731,2|8,1:2|0:0,0:0:0:0:
192,231,45067,1,8,0:0:0:0:
200,209,45133,1,0,0:0:0:0:
215,191,45199,1,0,0:0:0:0:
234,178,45265,1,0,0:0:0:0:
255,170,45330,6,0,P|232:209|191:230,1,92.9999971618653,0|0,1:0|0:0,0:0:0:0:
311,95,45594,2,0,P|341:129|349:174,1,92.9999971618653,0|0,1:0|0:0,0:0:0:0:
220,84,45857,2,0,P|234:40|270:11,1,92.9999971618653,2|0,0:0|0:0,0:0:0:0:
132,115,46120,2,0,P|95:87|78:44,1,92.9999971618653,8|0,0:0|0:0,0:0:0:0:
134,208,46383,1,8,1:1:0:0:
65,270,46515,1,8,3:1:0:0:
264,332,46646,6,0,B|313:301|290:241|290:241|245:151|333:69|419:121,1,348.750013303757,2|0,1:2|0:0,0:0:0:0:
486,338,47173,2,0,B|392:304|472:237|376:204,1,185.999994323731,8|0,0:0|1:0,0:0:0:0:
76,287,47699,6,0,B|154:205|99:82|99:82|53:120|71:178,1,325.499990066529,0|0,1:0|0:0,0:0:0:0:
246,273,48225,2,0,P|311:278|377:189,1,170.500005203247,8|0,0:0|1:0,0:0:0:0:
345,116,48620,1,0,3:0:0:0:
285,188,48752,6,0,L|465:231,1,185.999994323731,2|8,1:2|0:0,0:0:0:0:
298,35,49278,1,8,3:2:0:0:
246,273,49541,2,0,L|155:294,1,92.9999971618653,0|0,1:0|3:0,0:0:0:0:
285,188,49804,2,0,L|375:209,1,92.9999971618653,0|0,1:0|3:0,0:0:0:0:
176,124,50067,5,2,0:0:0:0:
183,153,50199,1,0,3:0:0:0:
102,69,50330,5,8,0:0:0:0:
123,48,50462,1,0,0:0:0:0:
91,162,50594,5,0,1:0:0:0:
62,154,50726,1,0,0:0:0:0:
247,64,50857,6,0,B|271:24|327:44|343:96|295:148|295:148|239:212|295:264|295:264|319:264|335:244,1,348.750013303757,2|0,1:2|0:0,0:0:0:0:
176,124,51383,2,0,P|89:106|30:173,1,185.999994323731,8|0,0:0|1:0,0:0:0:0:
236,351,51909,6,0,B|410:404|334:195|510:250,1,325.499990066529,0|0,1:0|0:0,0:0:0:0:
284,266,52436,2,0,L|244:100,1,170.500005203247,8|0,0:0|1:0,0:0:0:0:
168,47,52830,1,0,3:0:0:0:
86,90,52962,6,0,P|42:74|12:39,1,92.9999971618653,2|0,1:2|3:0,0:0:0:0:
168,47,53225,2,0,P|170:131|91:184,1,185.999994323731,0|8,3:0|0:0,0:0:0:0:
15,235,53620,2,0,P|86:191|172:233,1,185.999994323731,2|0,0:3|0:0,0:0:0:0:
254,275,54015,2,0,P|180:234|173:139,1,185.999994323731,0|2,1:0|0:0,0:0:0:0:
251,89,54409,1,0,1:0:0:0:
334,130,54541,2,0,L|425:109,1,92.9999971618653,8|2,0:0|0:0,0:0:0:0:
251,89,54804,1,0,1:0:0:0:
257,182,54936,1,8,0:1:0:0:
323,31,55067,6,0,P|241:-3|168:47,1,185.999994323731,2|0,1:2|3:0,0:0:0:0:
172,140,55462,1,0,0:0:0:0:
257,182,55594,2,0,B|351:145|333:248|427:213,2,185.999994323731,8|0|0,0:0|1:0|1:0,0:0:0:0:
179,233,56252,6,0,L|200:324,1,92.9999971618653,0|2,0:0|0:0,0:0:0:0:
291,344,56515,1,0,0:0:0:0:
109,302,56646,2,0,L|18:281,1,92.9999971618653,8|0,0:0|0:0,0:0:0:0:
0,189,56909,1,0,1:0:0:0:
86,155,57041,2,0,L|107:64,1,92.9999971618653,0|2,0:0|1:2,0:0:0:0:
185,14,57304,1,0,0:0:0:0:
235,92,57436,2,0,P|273:116|319:119,1,92.9999971618653,0|0,0:0|0:0,0:0:0:0:
401,75,57699,2,0,P|325:122|324:211,1,185.999994323731,8|0,0:0|1:0,0:0:0:0:
404,262,58094,6,0,L|495:241,1,92.9999971618653,0|0,3:0|1:0,0:0:0:0:
322,306,58357,2,0,L|231:285,1,92.9999971618653,0|2,3:0|0:0,0:0:0:0:
376,382,58620,1,2,1:2:0:0:
325,212,58752,5,8,0:0:0:0:
332,183,58884,1,2,0:0:0:0:
231,285,59015,5,0,1:0:0:0:
224,256,59147,1,0,0:0:0:0:
138,367,59278,6,0,P|48:366|1:290,1,185.999994323731,2|0,1:2|0:0,0:0:0:0:
59,217,59673,1,0,0:0:0:0:
12,136,59804,1,8,0:0:0:0:
210,5,60067,1,0,1:0:0:0:
59,217,60330,1,0,1:0:0:0:
133,160,60462,6,0,L|224:181,1,92.9999971618653,0|2,0:0|0:0,0:0:0:0:
297,123,60725,1,0,0:0:0:0:
211,88,60857,2,0,P|232:188|251:282,1,185.999994323731,8|0,0:0|1:0,0:0:0:0:
317,334,61252,2,0,P|362:331|401:306,1,92.9999971618653,0|2,0:0|1:2,0:0:0:0:
439,220,61515,1,0,0:0:0:0:
372,156,61646,2,0,P|374:110|399:71,1,92.9999971618653,0|0,0:0|0:0,0:0:0:0:
483,30,61909,2,0,B|388:2|403:87|307:60,1,185.999994323731,8|0,0:0|1:0,0:0:0:0:
231,10,62304,1,0,0:0:0:0:
168,78,62436,5,0,1:0:0:0:
372,156,62699,1,2,0:0:0:0:
224,298,62962,1,8,0:0:0:0:
255,263,63094,1,0,0:0:0:0:
242,228,63225,1,0,0:0:0:0:
259,206,63357,1,0,0:0:0:0:
253,190,63488,6,0,B|159:163|173:247|78:220,1,185.999994323731,2|8,1:2|0:0,0:0:0:0:
187,93,64278,1,0,1:0:0:0:
222,279,64541,2,0,L|200:369,2,92.9999971618653,0|2|8,1:0|0:0|0:0,0:0:0:0:
78,220,65330,1,0,1:0:0:0:
253,190,65594,6,0,B|313:205|313:205|361:173|361:173|425:189,1,185.999994323731,2|8,1:2|0:0,0:0:0:0:
308,22,66383,1,0,1:0:0:0:
333,37,66515,2,0,L|343:83,1,46.4999985809327,0|0,3:0|1:0,0:0:0:0:
253,190,66778,2,0,L|263:144,1,46.4999985809327,0|2,3:0|0:0,0:0:0:0:
379,265,67041,1,0,1:0:0:0:
369,293,67173,2,0,P|323:304|279:316,1,92.9999971618653,8|0,0:0|1:0,0:0:0:0:
47,227,67699,6,0,P|135:213|194:281,1,185.999994323731,2|8,1:2|0:0,0:0:0:0:
108,115,68488,1,0,1:0:0:0:
284,54,68752,2,0,L|262:144,2,92.9999971618653,0|2|8,1:0|0:0|0:0,0:0:0:0:
176,179,69541,1,0,1:0:0:0:
328,234,69804,6,0,L|283:53,1,185.999994323731,2|8,1:2|0:0,0:0:0:0:
301,28,70462,1,0,0:0:0:0:
397,74,71909,5,2,1:2:0:0:
382,100,72041,2,0,P|335:60|275:59,1,124,0|0,0:0|0:0,0:0:0:0:
192,111,72436,2,0,L|177:50,1,62,8|0,0:0|0:0,0:0:0:0:
303,148,72699,1,0,1:0:0:0:
66,224,72962,2,0,L|96:104,1,124,0|2,1:0|0:0,0:0:0:0:
153,259,73357,2,0,L|182:138,1,124,0|0,0:0|0:0,0:0:0:0:
239,293,73752,1,0,1:0:0:0:
382,100,74015,5,2,1:2:0:0:
354,91,74146,2,0,P|393:137|394:197,1,124,0|0,0:0|0:0,0:0:0:0:
292,232,74541,2,0,L|307:171,1,62,8|0,0:0|0:0,0:0:0:0:
367,287,74804,1,0,1:0:0:0:
212,176,75067,2,0,B|149:159|158:213|95:196,1,124,0|2,1:0|0:0,0:0:0:0:
20,141,75462,1,0,1:0:0:0:
75,218,75594,2,0,L|60:279,1,62,8|2,0:0|0:0,0:0:0:0:
118,352,75857,1,8,1:1:0:0:
187,289,75988,1,8,0:1:0:0:
247,360,76120,5,2,1:2:0:0:
266,382,76252,2,0,L|386:352,1,124,0|0,0:0|0:0,0:0:0:0:
489,321,76646,2,0,L|474:382,1,62,8|0,0:0|0:0,0:0:0:0:
339,272,76909,1,0,1:0:0:0:
486,116,77173,1,0,1:0:0:0:
458,128,77304,2,0,L|429:249,1,124,0|0,0:0|0:0,0:0:0:0:
339,272,77699,2,0,L|278:257,1,62,8|0,3:2|0:0,0:0:0:0:
386,352,77962,1,0,1:0:0:0:
283,150,78225,5,2,1:2:0:0:
306,168,78357,2,0,P|245:169|199:208,1,124,0|0,0:0|0:0,0:0:0:0:
197,302,78752,2,0,L|212:363,1,62,8|0,1:2|0:0,0:0:0:0:
108,225,79015,2,0,L|77:217,3,31,2|0|0|0,1:2|0:0|0:0|0:0,0:0:0:0:
99,196,79278,2,0,L|113:135,1,62,0|0,1:0|1:0,0:0:0:0:
0,259,79541,1,2,0:0:0:0:
0,259,79673,1,2,0:0:0:0:
199,208,79804,2,0,L|259:193,1,62,8|2,1:2|0:0,0:0:0:0:
113,135,80067,2,0,L|52:120,1,62,0|0,3:0|3:0,0:0:0:0:
280,102,80330,5,2,1:2:0:0:
307,114,80462,2,0,P|346:160|347:220,1,124,0|0,0:0|0:0,0:0:0:0:
244,253,80857,2,0,L|259:192,1,62,8|0,0:0|0:0,0:0:0:0:
318,310,81120,1,0,1:0:0:0:
152,262,81383,2,0,L|181:141,1,124,0|2,1:0|0:0,0:0:0:0:
54,22,81778,2,0,P|52:83|89:132,1,124,0|0,0:0|0:0,0:0:0:0:
250,78,82173,1,0,1:0:0:0:
478,219,82436,5,2,1:2:0:0:
452,205,82567,2,0,B|404:244|404:244|346:221,1,124,0|0,0:0|0:0,0:0:0:0:
361,127,82962,2,0,B|385:107|385:107|414:119,1,62,8|0,0:0|0:0,0:0:0:0:
275,161,83225,1,0,1:0:0:0:
157,16,83488,2,0,L|186:137,1,124,0|2,1:0|0:0,0:0:0:0:
127,209,83883,1,0,1:0:0:0:
44,155,84015,2,0,L|29:215,1,62,8|2,0:0|0:0,0:0:0:0:
4,340,84278,1,8,1:1:0:0:
84,292,84409,1,8,0:1:0:0:
147,361,84541,5,2,1:2:0:0:
172,377,84673,2,0,B|235:394|226:340|289:357,1,124,0|0,0:0|0:0,0:0:0:0:
382,365,85067,2,0,L|367:305,1,62,8|0,0:0|0:0,0:0:0:0:
474,377,85330,1,0,1:0:0:0:
376,199,85594,1,0,1:0:0:0:
400,217,85725,2,0,P|339:215|290:252,1,124,0|0,0:0|0:0,0:0:0:0:
282,345,86120,2,0,L|342:330,1,62,8|0,3:2|0:0,0:0:0:0:
207,290,86383,1,0,1:0:0:0:
282,109,86646,5,2,1:2:0:0:
261,130,86778,2,0,L|290:251,1,124,0|0,0:0|0:0,0:0:0:0:
207,290,87173,2,0,L|192:230,1,62,8|0,0:0|0:0,0:0:0:0:
282,345,87436,1,0,1:0:0:0:
198,382,87567,2,0,L|138:367,1,62,0|0,3:0|1:0,0:0:0:0:
9,290,87830,2,0,L|69:305,1,62,0|2,3:0|0:0,0:0:0:0:
4,22,88225,6,0,P|45:55|57:107,1,108.5,0|0,0:0|0:0,0:0:0:0:
29,187,88752,6,0,P|76:151|139:152,1,116.250004434586,2|0,1:2|0:0,0:0:0:0:
152,298,89015,2,0,P|122:273|106:239,1,77.5,0|0,0:0|0:0,0:0:0:0:
196,216,89278,1,8,0:0:0:0:
245,295,89409,2,0,P|236:339|216:366,1,77.5,0|0,0:0|1:0,0:0:0:0:
196,216,89673,2,0,P|276:207|331:263,1,155,0|0,0:0|0:0,0:0:0:0:
405,304,90067,2,0,P|449:295|476:275,1,77.5,2|0,0:0|0:0,0:0:0:0:
512,101,90330,1,8,1:2:0:0:
426,136,90462,2,0,L|408:211,1,77.5,0|0,0:0|0:0,0:0:0:0:
344,93,90725,1,0,0:0:0:0:
261,136,90857,6,0,P|217:127|190:107,1,77.5,2|0,1:2|0:0,0:0:0:0:
149,25,91120,1,0,0:0:0:0:
99,105,91252,2,0,P|113:147|109:180,1,77.5,0|8,0:0|0:0,0:0:0:0:
154,260,91515,2,0,P|178:231|213:214,1,77.5,0|0,0:0|1:0,0:0:0:0:
61,259,91778,2,0,P|86:325|161:354,1,155,0|0,0:0|0:0,0:0:0:0:
237,304,92173,1,2,0:0:0:0:
321,343,92304,1,0,1:0:0:0:
375,266,92436,2,0,L|357:191,1,77.5,8|0,0:0|0:0,0:0:0:0:
413,351,92699,1,8,1:1:0:0:
321,343,92830,1,8,0:1:0:0:
467,276,92962,6,0,L|449:201,1,77.5,2|0,1:2|0:0,0:0:0:0:
411,115,93225,1,0,0:0:0:0:
357,190,93357,1,0,0:0:0:0:
282,136,93488,2,0,B|203:114|216:184|136:162,1,155,8|0,0:0|1:0,0:0:0:0:
55,117,93883,2,0,P|106:171|100:247,1,155,0|0,1:0|0:0,0:0:0:0:
39,317,94278,1,2,0:0:0:0:
118,270,94409,1,0,0:0:0:0:
188,330,94541,2,0,B|242:322|242:322|282:338|282:338|338:330,1,155,8|0,1:2|0:0,0:0:0:0:
402,262,94936,1,0,0:0:0:0:
295,166,95067,6,0,L|313:241,1,77.5,2|0,1:2|0:0,0:0:0:0:
390,169,95330,1,0,0:0:0:0:
345,87,95462,1,0,0:0:0:0:
253,83,95594,2,0,P|199:134|123:128,1,155,8|0,1:2|0:0,0:0:0:0:
74,49,95988,1,0,0:0:0:0:
30,131,96120,2,0,L|12:206,1,77.5,0|0,1:0|3:0,0:0:0:0:
111,327,96383,2,0,L|93:252,1,77.5,2|2,1:2|0:0,0:0:0:0:
229,361,96646,5,8,1:2:0:0:
200,354,96778,1,2,0:0:0:0:
304,271,96909,5,0,1:0:0:0:
333,264,97041,1,0,3:0:0:0:
213,191,97173,6,0,B|178:144|178:144|214:49,1,155,2|0,1:2|0:0,0:0:0:0:
291,5,97567,1,0,0:0:0:0:
355,71,97699,2,0,L|430:53,1,77.5,8|0,0:0|0:0,0:0:0:0:
372,171,97962,2,0,L|297:153,1,77.5,0|0,1:0|0:0,0:0:0:0:
397,260,98225,2,0,P|397:187|464:155,1,155,0|2,1:0|0:0,0:0:0:0:
490,246,98620,1,0,0:0:0:0:
457,333,98752,1,8,0:0:0:0:
365,349,98883,2,0,L|290:331,1,77.5,2|2,0:0|1:2,0:0:0:0:
103,343,99146,1,0,0:0:0:0:
188,380,99278,6,0,P|194:327|164:272,1,116.25,2|0,1:2|0:0,0:0:0:0:
123,252,99541,2,0,L|141:177,1,77.5,0|0,0:0|0:0,0:0:0:0:
48,52,99804,2,0,B|88:94|88:94|144:78,1,116.25,8|0,0:0|0:0,0:0:0:0:
188,64,100067,2,0,L|263:82,1,77.5,0|0,1:0|0:0,0:0:0:0:
351,40,100330,2,0,B|359:94|359:94|343:134|343:134|351:190,1,155,0|2,1:0|1:2,0:0:0:0:
417,255,100725,1,0,0:0:0:0:
327,282,100857,2,0,L|252:264,1,77.5,8|2,1:2|0:0,0:0:0:0:
396,346,101120,1,8,1:1:0:0:
417,255,101252,1,8,0:1:0:0:
307,373,101383,6,0,B|152:336|152:336|140:297|159:266,1,232.5,2|0,1:2|0:0,0:0:0:0:
203,184,101909,2,0,P|153:236|85:209,1,155,8|0,1:2|1:0,0:0:0:0:
130,128,102304,1,0,1:0:0:0:
56,71,102436,2,0,P|106:18|174:45,1,155,0|2,1:0|0:0,0:0:0:0:
251,263,102962,2,0,B|330:241|317:311|397:289,1,155,8|0,1:2|0:0,0:0:0:0:
464,223,103357,1,0,0:0:0:0:
424,139,103488,1,2,0:0:0:0:
256,192,103620,12,2,104541,0:0:0:0:
165,182,104804,5,2,0:0:0:0:
165,182,104936,1,2,0:0:0:0:
165,182,105067,2,0,L|128:332,1,155,0|0,3:0|3:0,0:0:0:0:
54,276,105462,1,0,0:0:0:0:
254,206,105594,6,0,B|384:155|359:297|490:247|490:247|515:195|467:146,1,348.750013303757,6|0,1:2|0:0,0:0:0:0:
337,25,106120,2,0,P|320:70|421:70,1,185.999994323731,8|0,0:0|1:0,0:0:0:0:
138,52,106646,6,0,B|61:133|104:260|104:260|117:203|164:181,1,325.499990066529,0|0,1:0|0:0,0:0:0:0:
299,337,107173,2,0,P|220:346|198:271,1,170.500005203247,8|0,0:0|1:0,0:0:0:0:
256,198,107567,1,0,3:0:0:0:
333,250,107699,6,0,B|426:222|411:306|507:280,1,185.999994323731,2|8,1:2|0:0,0:0:0:0:
270,117,108225,1,8,0:0:0:0:
275,94,108291,1,0,0:0:0:0:
280,71,108357,1,0,0:0:0:0:
286,49,108423,1,0,0:0:0:0:
272,21,108488,6,0,L|250:111,1,92.9999971618653,0|0,1:0|0:0,0:0:0:0:
347,141,108752,2,0,L|368:50,1,92.9999971618653,0|0,1:0|0:0,0:0:0:0:
178,170,109015,2,0,L|156:260,1,92.9999971618653,2|0,0:0|0:0,0:0:0:0:
254,291,109279,2,0,L|275:200,1,92.9999971618653,8|0,0:0|0:0,0:0:0:0:
182,351,109541,1,8,1:1:0:0:
268,383,109673,1,8,0:1:0:0:
156,260,109804,6,0,B|94:225|22:260|22:260|28:198|64:163|64:163|27:124|31:71,1,348.750013303757,2|0,1:2|0:0,0:0:0:0:
201,30,110330,2,0,B|248:61|248:61|178:53|124:89,1,185.999994323731,8|0,0:0|1:0,0:0:0:0:
339,246,110857,6,0,B|378:188|329:125|329:125|234:187|254:291,1,325.499990066529,0|0,1:0|0:0,0:0:0:0:
454,371,111383,2,0,P|488:307|416:298,1,170.500005203247,8|0,0:0|1:0,0:0:0:0:
333,339,111778,1,0,3:0:0:0:
253,290,111909,6,0,L|211:108,1,185.999994323731,2|8,1:2|0:0,0:0:0:0:
104,319,112436,1,8,3:2:0:0:
285,52,112699,6,0,L|375:74,1,92.9999971618653,0|0,1:0|3:0,0:0:0:0:
211,108,112962,2,0,L|121:86,1,92.9999971618653,0|0,1:0|3:0,0:0:0:0:
285,165,113225,5,2,1:2:0:0:
292,194,113357,1,0,3:0:0:0:
179,222,113488,5,8,0:0:0:0:
200,201,113620,1,0,0:0:0:0:
282,287,113752,5,0,1:0:0:0:
253,279,113884,1,0,0:0:0:0:
380,168,114015,6,0,B|422:350|422:350|503:302|466:201,1,348.750013303757,2|0,1:2|0:0,0:0:0:0:
381,23,114541,2,0,B|359:43|341:72|341:72|406:55|457:98,1,185.999994323731,8|0,0:0|1:0,0:0:0:0:
236,177,115067,6,0,B|182:179|152:145|152:145|115:171|115:171|84:138|31:140|31:140|83:166|89:224,1,325.499990066529,0|0,1:0|0:0,0:0:0:0:
13,365,115594,2,0,B|54:320|54:320|109:320|150:367,1,170.500005203247,8|0,0:0|1:0,0:0:0:0:
217,302,115988,1,0,3:0:0:0:
292,358,116120,6,0,P|337:355|377:331,1,92.9999971618653,2|0,1:2|3:0,0:0:0:0:
384,237,116383,2,0,P|382:321|461:374,1,185.999994323731,0|8,3:0|0:0,0:0:0:0:
377,331,116778,2,0,P|305:287|219:329,1,185.999994323731,2|0,0:3|0:0,0:0:0:0:
299,278,117173,2,0,P|372:237|379:142,1,185.999994323731,0|2,1:0|0:0,0:0:0:0:
298,96,117567,1,0,1:0:0:0:
378,48,117699,2,0,L|468:70,1,92.9999971618653,8|2,0:0|0:0,0:0:0:0:
298,96,117962,1,0,1:0:0:0:
297,1,118094,1,8,0:1:0:0:
379,142,118225,6,0,B|414:236|311:218|348:312,1,185.999994323731,2|0,1:2|0:0,0:0:0:0:
421,371,118620,1,0,0:0:0:0:
257,334,118752,2,0,B|163:299|181:402|87:365,2,185.999994323731,8|0|0,0:0|1:0|1:0,0:0:0:0:
348,312,119409,6,0,L|326:222,1,92.9999971618653,0|2,0:0|0:0,0:0:0:0:
373,140,119673,1,0,0:0:0:0:
280,140,119804,2,0,P|239:117|213:79,1,92.9999971618653,8|0,0:0|0:0,0:0:0:0:
325,221,120067,1,0,1:0:0:0:
373,140,120199,2,0,P|412:116|458:112,1,92.9999971618653,0|2,0:0|1:2,0:0:0:0:
280,140,120462,1,0,0:0:0:0:
325,221,120594,2,0,P|326:267|305:308,1,92.9999971618653,0|0,0:0|0:0,0:0:0:0:
214,331,120857,2,0,P|302:317|362:383,1,185.999994323731,8|0,0:0|1:0,0:0:0:0:
124,357,121252,6,0,P|122:310|143:269,1,92.9999971618653,0|0,3:0|1:0,0:0:0:0:
155,156,121515,2,0,P|115:179|69:183,1,92.9999971618653,0|2,3:0|1:2,0:0:0:0:
223,221,121778,1,2,1:2:0:0:
95,61,121909,5,8,0:0:0:0:
88,90,122041,1,2,1:2:0:0:
224,21,122173,5,0,1:0:0:0:
231,50,122305,1,0,0:0:0:0:
389,134,122436,6,0,B|333:124|333:124|310:254,1,185.999994323731,2|0,1:2|0:0,0:0:0:0:
350,337,122830,1,0,0:0:0:0:
440,313,122962,1,8,0:0:0:0:
223,221,123225,1,0,1:0:0:0:
457,70,123488,1,0,1:0:0:0:
389,134,123620,6,0,P|342:135|301:114,1,92.9999971618653,0|2,0:0|0:0,0:0:0:0:
260,32,123883,1,0,0:0:0:0:
167,44,124015,1,8,1:2:0:0:
150,137,124146,2,0,P|170:178|169:224,1,92.9999971618653,0|0,1:0|1:0,0:0:0:0:
101,289,124409,1,0,1:0:0:0:
266,204,124541,6,0,B|387:163|366:283|487:243|487:243|443:191|385:225,1,352.624983858109,2|0,1:2|0:0,0:0:0:0:
356,261,125067,6,0,B|407:234|412:179|367:131|367:131|350:91|385:68|415:71|431:100,1,271.25,8|0,1:2|0:0,0:0:0:0:
468,130,125594,6,0,P|466:79|506:36,1,108.499996688843,0|0,1:0|0:0,0:0:0:0:
72,46,126120,6,0,P|124:44|151:91,1,108.5,0|0,0:0|0:0,0:0:0:0:
133,129,126646,5,2,1:2:0:0:
245,226,126909,2,0,P|251:181|224:145,1,92.9999971618653,0|8,0:0|0:0,0:0:0:0:
137,312,127436,1,0,1:0:0:0:
336,250,127699,5,0,1:0:0:0:
133,129,127962,1,2,0:0:0:0:
336,250,128225,2,0,L|403:233,1,69.749997871399,8|0,0:0|0:0,0:0:0:0:
443,258,128488,1,0,1:0:0:0:
296,345,128752,5,2,1:2:0:0:
244,267,128883,1,0,0:0:0:0:
158,303,129015,2,0,P|113:291|80:259,2,92.9999971618653,0|8|0,0:0|0:0|1:0,0:0:0:0:
244,267,129673,1,0,3:0:0:0:
257,139,129804,6,0,L|234:48,1,92.9999971618653,0|2,1:0|0:0,0:0:0:0:
332,57,130199,2,0,L|343:102,2,46.4999985809327,0|8|2,1:0|0:0|0:0,0:0:0:0:
431,67,130594,2,0,L|419:21,1,46.4999985809327,0|0,1:0|0:0,0:0:0:0:
512,170,130857,5,2,1:2:0:0:
371,280,131120,1,0,0:0:0:0:
458,247,131252,1,0,0:0:0:0:
491,335,131383,1,8,0:0:0:0:
403,367,131515,2,0,P|359:373|312:352,1,92.9999971618653,0|0,0:0|0:0,0:0:0:0:
230,246,131909,6,0,L|213:313,2,69.749997871399,0|0|0,1:0|0:0|0:0,0:0:0:0:
174,170,132436,1,8,0:0:0:0:
250,115,132567,2,0,P|285:144|330:152,2,92.9999971618653,0|0|0,0:0|0:0|0:0,0:0:0:0:
398,88,133225,6,0,L|420:178,2,92.9999971618653,0|8|0,0:0|0:0|1:0,0:0:0:0:
340,13,133883,1,0,3:0:0:0:
250,115,134015,6,0,L|159:92,1,92.9999971618653,0|2,1:0|0:0,0:0:0:0:
168,190,134410,2,0,L|213:201,2,46.4999985809327,0|8|2,1:0|0:0|0:0,0:0:0:0:
178,289,134805,2,0,L|155:283,3,15.4999995269776,0|0|0|0,2:0|3:0|3:0|3:0,0:0:0:0:
320,342,135067,5,2,1:2:0:0:
418,186,135330,2,0,P|382:187|344:228,1,92.9999971618653,0|8,0:0|0:0,0:0:0:0:
496,295,135857,2,0,L|486:250,1,46.4999985809327,0|0,1:0|0:0,0:0:0:0:
361,103,136120,5,0,1:0:0:0:
255,264,136383,1,2,0:0:0:0:
105,70,136646,2,0,B|83:99|83:99|113:173,1,116.249996452332,8|0,0:0|0:0,0:0:0:0:
206,183,137107,6,0,L|320:153,1,116.249996452332,0|0,0:0|0:0,0:0:0:0:
381,83,137567,1,0,0:0:0:0:
446,151,137699,2,0,P|432:197|421:246,1,92.9999971618653,8|0,0:0|1:0,0:0:0:0:
481,315,138094,1,0,3:0:0:0:
302,363,138225,6,0,L|210:340,1,92.9999971618653,0|2,1:0|0:0,0:0:0:0:
264,258,138620,2,0,L|308:269,2,46.4999985809327,0|8|2,1:0|0:0|0:0,0:0:0:0:
320,175,139015,2,0,L|273:163,1,46.4999985809327,0|0,1:0|0:0,0:0:0:0:
422,71,139278,5,2,1:2:0:0:
274,163,139541,1,0,0:0:0:0:
181,163,139673,1,0,0:0:0:0:
152,74,139804,2,0,L|164:27,1,46.4999985809327,8|0,0:0|0:0,0:0:0:0:
67,120,140067,2,0,L|55:73,1,46.4999985809327,0|0,1:0|0:0,0:0:0:0:
181,163,140330,6,0,L|157:253,2,92.9999971618653,0|2|8,1:0|0:0|0:0,0:0:0:0:
255,104,140988,1,0,0:0:0:0:
336,151,141120,2,0,P|371:147|416:105,2,92.9999971618653,0|2|0,1:0|1:2|0:0,0:0:0:0:
255,104,141778,5,0,0:0:0:0:
181,163,141909,2,0,L|90:139,1,92.9999971618653,8|0,0:0|1:0,0:0:0:0:
15,195,142304,1,0,3:0:0:0:
78,323,142436,6,0,L|101:232,1,92.9999971618653,0|2,1:0|1:2,0:0:0:0:
187,269,142830,2,0,L|176:314,2,46.4999985809327,0|8|2,0:0|0:0|0:0,0:0:0:0:
272,319,143225,2,0,L|276:305,3,15.4999995269776,0|0|0|0,3:0|3:0|3:0|3:0,0:0:0:0:
432,180,143488,6,0,B|338:148|355:242|261:211,1,186,2|0,1:0|1:0,0:0:0:0:
218,126,144541,2,0,P|253:166|164:203,1,186,0|0,1:0|1:0,0:0:0:0:
72,211,145594,2,0,P|37:251|126:288,1,186,2|0,1:0|1:0,0:0:0:0:
165,204,146646,2,0,P|159:157|152:111,2,93,0|0|2,1:0|1:0|1:0,0:0:0:0:
249,285,147699,6,0,B|302:246|362:247|362:247|415:285,1,186,0|2,1:0|1:1,0:0:0:0:
444,307,148620,1,2,0:1:0:0:
479,294,148752,2,0,B|498:246|482:206|482:206|475:206|475:206|459:167|479:119,1,186,2|2,1:1|1:1,0:0:0:0:
500,90,149673,1,2,0:1:0:0:
480,58,149804,2,0,B|385:26|402:120|308:88,1,186,2|0,1:1|1:0,0:0:0:0:
240,23,150857,2,0,P|251:64|262:124,2,93,0|0|0,1:0|1:0|1:0,0:0:0:0:
112,85,151909,6,0,B|83:121|43:137|43:137|95:153|128:195|128:195|59:217|32:253|32:253|68:275|91:308,1,372,2|8,0:1|0:0,0:0:0:0:
333,265,154015,6,0,B|368:289|405:268|405:268|424:240|420:201|397:175|397:175|352:128|364:89|367:52|448:30|464:99,1,372,2|8,0:1|0:0,0:0:0:0:
497,163,155857,1,2,0:1:0:0:
298,32,156120,6,0,B|234:16|234:16|186:48|186:48|122:32,1,186,0|2,0:0|0:1,0:0:0:0:
91,47,157041,1,2,0:1:0:0:
68,76,157173,2,0,B|53:135|93:178|93:178|95:216|64:245,1,186,2|2,0:1|0:1,0:0:0:0:
30,262,158094,1,2,0:1:0:0:
14,295,158225,2,0,P|28:343|147:349,1,186,2|0,0:1|0:0,0:0:0:0:
209,280,159278,2,0,P|254:281|286:315,2,93,0|0|0,0:0|0:0|0:0,0:0:0:0:
80,163,160330,6,0,L|311:127,1,232.5,2|0,0:1|0:0,0:0:0:0:
321,113,161383,6,0,P|285:166|395:174,1,232.5,2|0,0:1|0:0,0:0:0:0:
390,156,162436,6,0,P|380:203|362:324,1,170.5,2|0,0:1|0:0,0:0:0:0:
370,341,163225,6,0,P|348:319|300:319,1,77.5,0|0,0:0|0:0,0:0:0:0:
289,328,163620,6,0,P|251:329|222:304,1,77.5,0|0,0:0|0:0,0:0:0:0:
223,286,164015,5,0,0:0:0:0:
131,146,164278,1,0,0:0:0:0:
353,30,164541,6,0,B|395:60|418:108|418:108|362:147|334:222|334:222|383:260|403:308,1,348.750013303757,6|0,1:2|0:0,0:0:0:0:
256,163,165067,2,0,P|204:153|146:260,1,185.999994323731,8|0,0:0|1:0,0:0:0:0:
68,43,165594,6,0,P|200:11|251:170,1,325.499990066529,0|0,1:0|0:0,0:0:0:0:
126,294,166120,2,0,B|211:268|197:345|285:321,1,170.500005203247,8|0,1:2|3:0,0:0:0:0:
353,255,166515,1,0,3:0:0:0:
420,321,166646,6,0,P|405:220|389:134,2,185.999994323731,2|8|8,1:2|0:0|0:0,0:0:0:0:
326,70,167436,6,0,P|366:47|414:47,1,92.9999971618653,0|0,1:0|0:0,0:0:0:0:
242,111,167699,2,0,P|232:65|247:20,1,92.9999971618653,0|0,1:0|0:0,0:0:0:0:
254,204,167962,2,0,P|208:199|171:173,1,92.9999971618653,2|0,1:2|0:0,0:0:0:0:
346,222,168225,2,0,P|327:264|290:291,1,92.9999971618653,8|0,1:2|0:0,0:0:0:0:
316,134,168488,1,8,1:1:0:0:
408,152,168620,1,8,0:1:0:0:
254,204,168752,6,0,B|101:129|151:330|-1:273|-1:273|18:250|49:246,1,348.750013303757,2|0,1:2|0:0,0:0:0:0:
204,284,169278,2,0,P|176:171|157:98,1,185.999994323731,8|0,0:0|1:0,0:0:0:0:
387,19,169804,6,0,B|443:35|480:88|480:88|428:121|365:109|365:109|320:125|300:167,1,325.499990066529,0|0,1:0|0:0,0:0:0:0:
225,368,170330,2,0,P|270:266|167:255,1,248,8|0,1:2|3:0,0:0:0:0:
112,328,170725,1,0,3:0:0:0:
76,242,170857,6,0,B|113:139|5:158|43:55,2,201.499990776062,2|8|8,1:2|0:0|3:2,0:0:0:0:
334,33,171646,6,0,P|382:35|415:83,1,108.499996688843,0|0,1:0|3:0,0:0:0:0:
243,213,171909,2,0,P|195:211|162:163,1,108.499996688843,0|0,1:0|3:0,0:0:0:0:
332,245,172173,5,2,0:0:0:0:
343,274,172304,1,0,0:0:0:0:
314,152,172436,5,8,1:2:0:0:
333,127,172567,1,0,0:0:0:0:
243,213,172699,5,0,0:0:0:0:
211,209,172830,1,0,0:0:0:0:
406,187,172962,6,0,B|453:231|453:301|453:301|350:261|343:379|236:298,1,348.750013303757,2|0,1:2|0:0,0:0:0:0:
133,156,173488,2,0,B|176:195|176:195|188:255|130:315,1,185.999994323731,8|0,0:0|1:0,0:0:0:0:
40,59,174015,6,0,B|271:-75|211:264|442:129,1,465,0|0,1:0|0:0,0:0:0:0:
292,10,174541,2,0,P|252:147|207:317,1,278.999991485596,8|0,1:2|1:0,0:0:0:0:
305,371,174936,1,0,3:0:0:0:
138,212,175067,6,0,P|85:204|37:228,1,108.499996688843,2|0,1:2|0:0,0:0:0:0:
86,1,175330,2,0,L|137:211,1,216.999993377686,0|8,1:0|0:0,0:0:0:0:
205,94,175725,2,0,L|153:304,1,216.999993377686,2|0,0:3|1:0,0:0:0:0:
109,92,176120,2,0,L|319:40,1,216.999993377686,0|2,1:0|0:0,0:0:0:0:
415,133,176515,5,0,1:0:0:0:
485,71,176646,2,0,P|457:143|448:181,1,108.499996688843,8|2,0:0|0:0,0:0:0:0:
510,337,176909,1,0,1:0:0:0:
446,267,177041,1,8,0:1:0:0:
309,332,177173,6,0,B|214:300|230:394|135:362,1,185.999994323731,2|0,1:2|3:0,0:0:0:0:
67,298,177567,2,0,P|90:256|101:200,1,92.9999971618653,0|8,3:0|0:0,0:0:0:0:
63,127,177830,1,0,3:0:0:0:
156,137,177962,2,0,P|201:126|241:103,1,92.9999971618653,0|0,0:0|3:0,0:0:0:0:
294,26,178225,1,0,1:0:0:0:
437,152,178357,6,0,L|411:257,1,92.9999971618653,0|2,0:0|0:0,0:0:0:0:
336,174,178620,1,0,0:0:0:0:
223,246,178752,2,0,L|248:351,1,92.9999971618653,8|0,0:0|0:0,0:0:0:0:
325,268,179015,1,0,1:0:0:0:
143,177,179146,2,0,L|117:282,1,92.9999971618653,0|2,0:0|1:2,0:0:0:0:
223,246,179409,1,0,0:0:0:0:
53,152,179541,2,0,L|31:242,1,92.9999971618653,0|0,0:0|0:0,0:0:0:0:
233,108,179804,6,0,L|52:151,1,185.999994323731,8|0,0:0|1:0,0:0:0:0:
143,177,180199,2,0,P|168:211|183:266,1,92.9999971618653,0|0,3:0|1:0,0:0:0:0:
255,347,180462,2,0,P|267:302|294:264,1,92.9999971618653,0|2,3:0|0:0,0:0:0:0:
378,223,180725,1,2,1:2:0:0:
233,108,180857,5,8,1:2:0:0:
240,137,180989,1,2,0:0:0:0:
377,59,181120,5,0,0:0:0:0:
370,88,181252,1,0,0:0:0:0:
232,5,181383,6,0,P|187:17|149:44,1,92.9999971618653,2|0,1:2|0:0,0:0:0:0:
64,181,181646,5,0,0:0:0:0:
146,139,181778,1,0,0:0:0:0:
180,227,181909,2,0,P|165:264|148:328,1,92.9999971618653,8|0,0:0|0:0,0:0:0:0:
354,199,182173,5,0,1:0:0:0:
272,241,182305,1,0,0:0:0:0:
238,153,182436,2,0,P|253:116|270:52,1,92.9999971618653,0|0,1:0|0:0,0:0:0:0:
427,126,182699,6,0,P|439:170|456:214,1,92.9999971618653,2|0,0:0|0:0,0:0:0:0:
350,52,182962,2,0,B|256:15|274:118|180:83,1,185.999994323731,8|0,0:0|1:0,0:0:0:0:
107,23,183357,6,0,P|89:66|77:111,1,92.9999971618653,0|2,0:0|1:2,0:0:0:0:
133,186,183620,1,0,0:0:0:0:
30,260,183752,2,0,P|47:303|59:348,1,92.9999971618653,0|0,0:0|0:0,0:0:0:0:
210,303,184015,2,0,L|29:259,1,185.999994323731,8|0,0:0|1:0,0:0:0:0:
88,178,184409,1,0,0:0:0:0:
32,97,184541,2,0,P|81:40|191:40,2,185.999994323731,0|2|8,1:0|0:0|0:0,0:0:0:0:
88,178,185199,6,0,L|163:196,1,77.5,2|0,0:0|0:0,0:0:0:0:
223,268,185462,1,0,0:0:0:0:
295,211,185594,2,0,P|283:158|259:100,1,116.25,2|0,1:2|0:0,0:0:0:0:
237,80,185857,2,0,L|161:98,1,77.5,0|0,0:0|0:0,0:0:0:0:
301,11,186120,5,8,0:0:0:0:
384,55,186252,2,0,P|372:90|361:136,1,77.5,0|0,0:0|1:0,0:0:0:0:
440,182,186515,1,0,0:0:0:0:
326,251,186646,2,0,B|266:237|275:284|215:270,1,116.25,0|0,1:0|0:0,0:0:0:0:
188,258,186909,2,0,P|205:308|212:337,1,77.5,2|0,0:0|0:0,0:0:0:0:
106,214,187173,5,8,3:2:0:0:
6,220,187304,2,0,P|23:165|37:125,1,77.5,0|0,0:0|1:0,0:0:0:0:
0,57,187567,1,0,0:0:0:0:
133,21,187699,2,0,P|169:70|221:69,1,116.25,2|0,1:2|0:0,0:0:0:0:
246,54,187962,2,0,P|226:91|217:129,1,77.5,0|0,0:0|0:0,0:0:0:0:
325,215,188225,5,8,0:0:0:0:
305,195,188357,1,0,0:0:0:0:
276,199,188488,2,0,P|291:233|302:280,1,77.5,0|0,1:0|0:0,0:0:0:0:
287,366,188752,2,0,P|340:290|408:311,1,155,0|2,1:0|0:0,0:0:0:0:
447,373,189146,1,0,0:0:0:0:
496,245,189278,5,0,0:0:0:0:
410,207,189409,2,0,P|394:250|391:297,1,92.9999971618653,0|0,0:0|0:0,0:0:0:0:
323,361,189804,6,0,L|262:375,1,62,0|0,1:0|0:0,0:0:0:0:
184,324,190067,1,0,0:0:0:0:
160,284,190198,1,0,0:0:0:0:
162,239,190330,1,8,0:0:0:0:
190,202,190461,1,0,0:0:0:0:
233,189,190594,2,0,P|250:162|258:133,1,62,0|0,1:0|0:0,0:0:0:0:
336,65,190857,6,0,P|344:94|361:121,1,62,0|0,1:0|0:0,0:0:0:0:
446,134,191120,2,0,L|486:124,2,41.3333333333333,0|0|0,0:0|0:0|0:0,0:0:0:0:
402,119,191383,1,8,0:0:0:0:
360,136,191515,1,0,0:0:0:0:
338,175,191646,2,0,L|352:235,1,62,0|0,1:0|0:0,0:0:0:0:
268,359,191909,6,0,L|283:299,1,62,0|0,1:0|0:0,0:0:0:0:
217,231,192173,1,0,0:0:0:0:
177,254,192304,1,0,0:0:0:0:
135,236,192436,1,8,0:0:0:0:
95,259,192567,1,0,0:0:0:0:
53,241,192699,2,0,P|64:273|71:306,1,62,0|0,1:0|0:0,0:0:0:0:
0,164,192962,6,0,P|6:133|17:104,1,62,0|0,1:0|0:0,0:0:0:0:
92,47,193225,1,8,0:0:0:0:
128,76,193357,1,0,1:0:0:0:
160,66,193488,6,0,P|175:127|187:187,1,124,8|0,0:0|0:0,0:0:0:0:
