osu file format v14

[General]
AudioFilename: audio.mp3
AudioLeadIn: 0
PreviewTime: 85893
Countdown: 0
SampleSet: Soft
StackLeniency: 0.7
Mode: 3
LetterboxInBreaks: 0
SpecialStyle: 0
WidescreenStoryboard: 0

[Editor]
DistanceSpacing: 0.8
BeatDivisor: 4
GridSize: 4
TimelineZoom: 1.800001

[Metadata]
Title:Sora no Kioku
TitleUnicode:Sora no Kioku
Artist:Yonekura Chihiro
ArtistUnicode:Yonekura Chihiro
Creator:Damaree
Version:Unforgettable Memories // 7K
Source:9-nine-そらいろそらうたそらのおと
Tags:9 -nine- sorairo sorauta soranooto episode 2 sora niimi vn eroge palette izumi tsubasa sekai project
BeatmapID:2151679
BeatmapSetID:1028030

[Difficulty]
HPDrainRate:8
CircleSize:7
OverallDifficulty:8
ApproachRate:5
SliderMultiplier:1.4
SliderTickRate:1

[Events]
//Background and Video events
0,0,"9ep2BG.jpg",0,0
//Break Periods
//Storyboard Layer 0 (Background)
//Storyboard Layer 1 (Fail)
//Storyboard Layer 2 (Pass)
//Storyboard Layer 3 (Foreground)
//Storyboard Layer 4 (Overlay)
//Storyboard Sound Samples

[TimingPoints]
1881,468.75,4,2,0,0,1,0
1881,-111.111111111111,4,2,0,0,0,0
18756,413.793103448276,4,2,0,0,1,0
18756,-100,4,2,0,0,0,0
71721,-125,4,2,0,0,0,0
84962,-111.111111111111,4,2,0,0,0,0
86618,-100,4,2,0,0,0,1
99756,-100,4,2,0,0,0,0
99859,-100,4,2,0,0,0,1
114756,-100,4,2,0,0,0,0
127997,-142.045454545455,4,2,0,0,0,0
134618,-100,4,2,0,0,0,0
156135,-100,4,2,0,0,0,1
169376,-100,4,2,0,0,0,0
197514,-125,4,2,0,0,0,0
204135,-111.111111111111,4,2,0,0,0,0
210756,-100,4,2,0,0,0,1
227307,-100,4,2,0,0,0,0

[HitObjects]
256,192,1412,128,0,1881:0:0:0:0:
402,192,1881,128,0,2818:0:0:0:0:
36,192,1881,128,0,2584:0:0:0:0:
109,192,1881,1,0,0:0:0:0:
182,192,2115,1,0,0:0:0:0:
329,192,2349,1,0,0:0:0:0:
182,192,2584,128,0,2818:0:0:0:0:
329,192,2818,128,0,3052:0:0:0:0:
475,192,3052,128,0,3287:0:0:0:0:
109,192,3287,128,0,3756:0:0:0:0:
256,192,3287,128,0,3521:0:0:0:0:
182,192,3521,128,0,3756:0:0:0:0:
329,192,3756,128,0,4459:0:0:0:0:
36,192,3756,128,0,4341:0:0:0:0:
402,192,3990,1,0,0:0:0:0:
109,192,4224,1,0,0:0:0:0:
402,192,4459,128,0,4693:0:0:0:0:
182,192,4459,128,0,4693:0:0:0:0:
475,192,4693,128,0,4927:0:0:0:0:
256,192,4693,128,0,4927:0:0:0:0:
109,192,4927,128,0,5162:0:0:0:0:
182,192,5162,128,0,5396:0:0:0:0:
402,192,5162,128,0,5396:0:0:0:0:
329,192,5396,128,0,5631:0:0:0:0:
36,192,5631,128,0,6568:0:0:0:0:
256,192,5631,128,0,5865:0:0:0:0:
182,192,6099,128,0,6568:0:0:0:0:
402,192,6568,128,0,6802:0:0:0:0:
256,192,6802,128,0,7271:0:0:0:0:
475,192,6802,128,0,7037:0:0:0:0:
329,192,7037,128,0,7271:0:0:0:0:
109,192,7271,128,0,7506:0:0:0:0:
402,192,7506,128,0,8091:0:0:0:0:
182,192,7506,128,0,8209:0:0:0:0:
109,192,7974,128,0,8443:0:0:0:0:
329,192,8209,128,0,8443:0:0:0:0:
256,192,8443,128,0,8677:0:0:0:0:
475,192,8443,128,0,8677:0:0:0:0:
402,192,8677,128,0,8912:0:0:0:0:
36,192,8912,128,0,9146:0:0:0:0:
182,192,8912,128,0,9381:0:0:0:0:
475,192,9146,128,0,9381:0:0:0:0:
329,192,9381,128,0,9849:0:0:0:0:
109,192,9615,128,0,10552:0:0:0:0:
256,192,9849,128,0,10318:0:0:0:0:
182,192,10318,128,0,10552:0:0:0:0:
402,192,10552,128,0,11021:0:0:0:0:
36,192,10552,128,0,10904:0:0:0:0:
329,192,11021,128,0,11256:0:0:0:0:
109,192,11021,128,0,11256:0:0:0:0:
256,192,11256,128,0,11490:0:0:0:0:
402,192,11256,128,0,11959:0:0:0:0:
182,192,11490,128,0,11724:0:0:0:0:
109,192,11724,128,0,11959:0:0:0:0:
475,192,11959,128,0,12193:0:0:0:0:
329,192,11959,128,0,12193:0:0:0:0:
36,192,12193,128,0,12427:0:0:0:0:
182,192,12193,128,0,12427:0:0:0:0:
256,192,12427,128,0,12662:0:0:0:0:
109,192,12662,128,0,13131:0:0:0:0:
402,192,13131,128,0,13599:0:0:0:0:
36,192,13365,128,0,13599:0:0:0:0:
182,192,13599,128,0,13834:0:0:0:0:
256,192,13599,128,0,14068:0:0:0:0:
329,192,13834,128,0,14068:0:0:0:0:
475,192,14068,128,0,14302:0:0:0:0:
36,192,14068,128,0,14302:0:0:0:0:
109,192,14302,128,0,14537:0:0:0:0:
402,192,14302,128,0,14537:0:0:0:0:
256,192,14537,128,0,14771:0:0:0:0:
182,192,14537,128,0,14771:0:0:0:0:
402,192,14771,128,0,15006:0:0:0:0:
109,192,14771,128,0,15006:0:0:0:0:
36,192,15006,128,0,18756:0:0:0:0:
475,192,15006,128,0,15240:0:0:0:0:
329,192,15006,128,0,16412:0:0:0:0:
256,192,15240,128,0,15474:0:0:0:0:
109,192,15474,128,0,15709:0:0:0:0:
402,192,15709,128,0,15943:0:0:0:0:
256,192,15943,128,0,16177:0:0:0:0:
109,192,16177,128,0,16412:0:0:0:0:
475,192,16412,128,0,16646:0:0:0:0:
329,192,16646,128,0,16881:0:0:0:0:
475,192,16881,128,0,18756:0:0:0:0:
182,192,16881,128,0,17115:0:0:0:0:
402,192,17115,128,0,17349:0:0:0:0:
256,192,17349,128,0,17584:0:0:0:0:
109,192,17584,128,0,17818:0:0:0:0:
182,192,17818,128,0,17935:0:0:0:0:
256,192,17935,128,0,18052:0:0:0:0:
329,192,18052,128,0,18170:0:0:0:0:
402,192,18170,128,0,18287:0:0:0:0:
109,192,18170,128,0,18287:0:0:0:0:
182,192,18287,128,0,18404:0:0:0:0:
256,192,18404,128,0,18521:0:0:0:0:
329,192,18521,128,0,18638:0:0:0:0:
402,192,18638,128,0,18756:0:0:0:0:
109,192,18756,1,0,0:0:0:0:
182,192,18756,1,0,0:0:0:0:
256,192,18756,1,0,0:0:0:0:
329,192,18756,1,0,0:0:0:0:
182,192,18962,128,0,19066:0:0:0:0:
109,192,18962,128,0,19066:0:0:0:0:
475,192,19169,128,0,19273:0:0:0:0:
402,192,19169,128,0,19273:0:0:0:0:
36,192,19376,128,0,19480:0:0:0:0:
109,192,19376,128,0,19480:0:0:0:0:
182,192,19583,128,0,19687:0:0:0:0:
256,192,19583,128,0,19687:0:0:0:0:
402,192,19790,128,0,19893:0:0:0:0:
475,192,19790,128,0,19893:0:0:0:0:
182,192,19997,128,0,20100:0:0:0:0:
109,192,19997,128,0,20100:0:0:0:0:
36,192,19997,1,0,0:0:0:0:
256,192,20100,1,0,0:0:0:0:
402,192,20204,128,0,20307:0:0:0:0:
329,192,20204,128,0,20307:0:0:0:0:
475,192,20204,1,0,0:0:0:0:
256,192,20307,1,0,0:0:0:0:
36,192,20411,128,0,20514:0:0:0:0:
109,192,20411,128,0,20514:0:0:0:0:
182,192,20411,1,0,0:0:0:0:
329,192,20514,1,0,0:0:0:0:
402,192,20618,128,0,20721:0:0:0:0:
475,192,20618,128,0,20721:0:0:0:0:
182,192,20618,1,0,0:0:0:0:
36,192,20618,1,0,0:0:0:0:
182,192,20824,128,0,20928:0:0:0:0:
256,192,20824,128,0,20928:0:0:0:0:
36,192,21031,128,0,21135:0:0:0:0:
109,192,21031,128,0,21135:0:0:0:0:
329,192,21238,128,0,21342:0:0:0:0:
402,192,21238,128,0,21342:0:0:0:0:
109,192,21445,128,0,21549:0:0:0:0:
182,192,21445,128,0,21549:0:0:0:0:
475,192,21652,128,0,21756:0:0:0:0:
402,192,21652,128,0,21756:0:0:0:0:
329,192,21652,1,0,0:0:0:0:
36,192,21756,1,0,0:0:0:0:
256,192,21859,128,0,21962:0:0:0:0:
329,192,21859,128,0,21962:0:0:0:0:
182,192,21859,1,0,0:0:0:0:
475,192,21962,1,0,0:0:0:0:
36,192,22066,128,0,22169:0:0:0:0:
109,192,22066,128,0,22169:0:0:0:0:
182,192,22066,1,0,0:0:0:0:
256,192,22169,1,0,0:0:0:0:
329,192,22273,128,0,22376:0:0:0:0:
402,192,22273,128,0,22376:0:0:0:0:
475,192,22273,1,0,0:0:0:0:
36,192,22376,1,0,0:0:0:0:
182,192,22480,128,0,22583:0:0:0:0:
256,192,22480,128,0,22583:0:0:0:0:
402,192,22687,128,0,22790:0:0:0:0:
475,192,22687,128,0,22790:0:0:0:0:
109,192,22893,128,0,22997:0:0:0:0:
182,192,22893,128,0,22997:0:0:0:0:
329,192,23100,128,0,23204:0:0:0:0:
402,192,23100,128,0,23204:0:0:0:0:
256,192,23100,1,0,0:0:0:0:
182,192,23204,1,0,0:0:0:0:
36,192,23307,128,0,23411:0:0:0:0:
109,192,23307,128,0,23411:0:0:0:0:
475,192,23307,1,0,0:0:0:0:
256,192,23411,1,0,0:0:0:0:
402,192,23514,128,0,23618:0:0:0:0:
475,192,23514,128,0,23618:0:0:0:0:
36,192,23514,1,0,0:0:0:0:
182,192,23618,1,0,0:0:0:0:
256,192,23721,128,0,23824:0:0:0:0:
329,192,23721,128,0,23824:0:0:0:0:
402,192,23721,1,0,0:0:0:0:
182,192,23824,1,0,0:0:0:0:
36,192,23928,128,0,24031:0:0:0:0:
109,192,23928,128,0,24031:0:0:0:0:
475,192,23928,1,0,0:0:0:0:
256,192,24031,1,0,0:0:0:0:
329,192,24135,128,0,24238:0:0:0:0:
402,192,24135,128,0,24238:0:0:0:0:
182,192,24135,1,0,0:0:0:0:
36,192,24238,1,0,0:0:0:0:
182,192,24342,128,0,24445:0:0:0:0:
256,192,24342,128,0,24445:0:0:0:0:
475,192,24342,1,0,0:0:0:0:
329,192,24445,1,0,0:0:0:0:
402,192,24549,128,0,24652:0:0:0:0:
475,192,24549,128,0,24652:0:0:0:0:
36,192,24756,128,0,24859:0:0:0:0:
109,192,24756,128,0,24859:0:0:0:0:
182,192,24756,1,0,0:0:0:0:
256,192,24962,128,0,25066:0:0:0:0:
329,192,24962,128,0,25066:0:0:0:0:
475,192,24962,1,0,0:0:0:0:
402,192,24962,1,0,0:0:0:0:
36,192,24962,1,0,0:0:0:0:
109,192,25169,128,0,25273:0:0:0:0:
182,192,25169,128,0,25273:0:0:0:0:
402,192,25376,128,0,25480:0:0:0:0:
475,192,25376,128,0,25480:0:0:0:0:
329,192,25376,128,0,25583:0:0:0:0:
182,192,25583,128,0,25687:0:0:0:0:
256,192,25583,128,0,25687:0:0:0:0:
36,192,25790,128,0,25893:0:0:0:0:
109,192,25790,128,0,25893:0:0:0:0:
475,192,25790,128,0,25997:0:0:0:0:
329,192,25997,128,0,26100:0:0:0:0:
402,192,25997,128,0,26100:0:0:0:0:
109,192,26204,128,0,26307:0:0:0:0:
182,192,26204,128,0,26307:0:0:0:0:
402,192,26411,128,0,26514:0:0:0:0:
475,192,26411,128,0,26514:0:0:0:0:
182,192,26618,128,0,26721:0:0:0:0:
256,192,26618,128,0,26721:0:0:0:0:
36,192,26824,128,0,26928:0:0:0:0:
109,192,26824,128,0,26928:0:0:0:0:
329,192,27031,128,0,27135:0:0:0:0:
402,192,27031,128,0,27135:0:0:0:0:
256,192,27238,128,0,27342:0:0:0:0:
182,192,27238,128,0,27342:0:0:0:0:
475,192,27445,128,0,27549:0:0:0:0:
402,192,27445,128,0,27549:0:0:0:0:
36,192,27445,128,0,27859:0:0:0:0:
109,192,27652,128,0,27756:0:0:0:0:
182,192,27652,128,0,27756:0:0:0:0:
329,192,27859,128,0,27962:0:0:0:0:
402,192,27859,128,0,27962:0:0:0:0:
36,192,28066,128,0,28169:0:0:0:0:
109,192,28066,128,0,28169:0:0:0:0:
182,192,28066,128,0,28687:0:0:0:0:
256,192,28273,128,0,28376:0:0:0:0:
329,192,28273,128,0,28376:0:0:0:0:
475,192,28480,128,0,28583:0:0:0:0:
402,192,28480,128,0,28583:0:0:0:0:
109,192,28687,128,0,28790:0:0:0:0:
36,192,28687,128,0,28790:0:0:0:0:
329,192,28687,1,0,0:0:0:0:
256,192,28790,1,0,0:0:0:0:
329,192,28893,128,0,28997:0:0:0:0:
402,192,28893,128,0,28997:0:0:0:0:
475,192,28893,1,0,0:0:0:0:
182,192,28997,1,0,0:0:0:0:
36,192,29100,128,0,29204:0:0:0:0:
109,192,29100,128,0,29204:0:0:0:0:
256,192,29100,1,0,0:0:0:0:
475,192,29204,1,0,0:0:0:0:
256,192,29307,128,0,29411:0:0:0:0:
329,192,29307,128,0,29411:0:0:0:0:
182,192,29307,1,0,0:0:0:0:
36,192,29411,1,0,0:0:0:0:
402,192,29514,128,0,29618:0:0:0:0:
475,192,29514,128,0,29618:0:0:0:0:
109,192,29514,1,0,0:0:0:0:
256,192,29618,1,0,0:0:0:0:
109,192,29721,128,0,29824:0:0:0:0:
182,192,29721,128,0,29824:0:0:0:0:
329,192,29721,1,0,0:0:0:0:
475,192,29824,1,0,0:0:0:0:
329,192,29928,128,0,30031:0:0:0:0:
402,192,29928,128,0,30031:0:0:0:0:
36,192,29928,1,0,0:0:0:0:
256,192,30031,1,0,0:0:0:0:
36,192,30135,128,0,30238:0:0:0:0:
109,192,30135,128,0,30238:0:0:0:0:
182,192,30135,1,0,0:0:0:0:
329,192,30238,1,0,0:0:0:0:
182,192,30342,128,0,30445:0:0:0:0:
256,192,30342,128,0,30445:0:0:0:0:
402,192,30342,1,0,0:0:0:0:
109,192,30445,1,0,0:0:0:0:
36,192,30445,1,0,0:0:0:0:
475,192,30549,128,0,30652:0:0:0:0:
402,192,30549,128,0,30652:0:0:0:0:
329,192,30549,1,0,0:0:0:0:
182,192,30756,128,0,30859:0:0:0:0:
109,192,30756,128,0,30859:0:0:0:0:
36,192,30756,1,0,0:0:0:0:
402,192,30962,128,0,31066:0:0:0:0:
329,192,30962,128,0,31066:0:0:0:0:
475,192,31066,1,0,0:0:0:0:
256,192,31066,1,0,0:0:0:0:
36,192,31169,128,0,31273:0:0:0:0:
109,192,31169,1,0,0:0:0:0:
182,192,31169,1,0,0:0:0:0:
256,192,31273,1,0,0:0:0:0:
329,192,31273,1,0,0:0:0:0:
182,192,31376,128,0,31480:0:0:0:0:
402,192,31376,1,0,0:0:0:0:
475,192,31376,1,0,0:0:0:0:
109,192,31480,1,0,0:0:0:0:
36,192,31480,1,0,0:0:0:0:
329,192,31583,128,0,31687:0:0:0:0:
256,192,31583,1,0,0:0:0:0:
182,192,31583,1,0,0:0:0:0:
402,192,31687,1,0,0:0:0:0:
109,192,31687,1,0,0:0:0:0:
475,192,31790,128,0,31893:0:0:0:0:
36,192,31790,1,0,0:0:0:0:
256,192,31790,1,0,0:0:0:0:
182,192,31893,1,0,0:0:0:0:
402,192,31893,1,0,0:0:0:0:
329,192,31997,1,0,0:0:0:0:
256,192,31997,1,0,0:0:0:0:
109,192,31997,1,0,0:0:0:0:
36,192,31997,1,0,0:0:0:0:
475,192,31997,1,0,0:0:0:0:
182,192,32204,1,0,0:0:0:0:
402,192,32204,1,0,0:0:0:0:
256,192,32411,1,0,0:0:0:0:
329,192,32411,1,0,0:0:0:0:
109,192,32411,1,0,0:0:0:0:
36,192,32618,128,0,33031:0:0:0:0:
402,192,32618,1,0,0:0:0:0:
256,192,32721,1,0,0:0:0:0:
182,192,32721,1,0,0:0:0:0:
109,192,32824,1,0,0:0:0:0:
329,192,32824,1,0,0:0:0:0:
475,192,33031,128,0,33445:0:0:0:0:
402,192,33031,1,0,0:0:0:0:
182,192,33238,1,0,0:0:0:0:
256,192,33238,1,0,0:0:0:0:
36,192,33238,1,0,0:0:0:0:
402,192,33445,1,0,0:0:0:0:
329,192,33445,1,0,0:0:0:0:
109,192,33549,1,0,0:0:0:0:
182,192,33652,1,0,0:0:0:0:
256,192,33652,1,0,0:0:0:0:
475,192,33859,1,0,0:0:0:0:
329,192,33859,1,0,0:0:0:0:
402,192,33962,1,0,0:0:0:0:
36,192,33962,1,0,0:0:0:0:
182,192,34066,1,0,0:0:0:0:
256,192,34066,1,0,0:0:0:0:
475,192,34066,1,0,0:0:0:0:
109,192,34273,128,0,34687:0:0:0:0:
329,192,34273,1,0,0:0:0:0:
256,192,34376,1,0,0:0:0:0:
182,192,34376,1,0,0:0:0:0:
36,192,34480,1,0,0:0:0:0:
475,192,34480,1,0,0:0:0:0:
402,192,34687,128,0,35100:0:0:0:0:
329,192,34687,1,0,0:0:0:0:
256,192,34893,1,0,0:0:0:0:
182,192,34893,1,0,0:0:0:0:
36,192,34893,1,0,0:0:0:0:
109,192,35100,1,0,0:0:0:0:
182,192,35100,1,0,0:0:0:0:
256,192,35204,1,0,0:0:0:0:
329,192,35204,1,0,0:0:0:0:
402,192,35307,1,0,0:0:0:0:
475,192,35307,1,0,0:0:0:0:
36,192,35307,1,0,0:0:0:0:
109,192,35307,1,0,0:0:0:0:
182,192,35307,1,0,0:0:0:0:
329,192,35514,1,0,0:0:0:0:
256,192,35514,1,0,0:0:0:0:
109,192,35721,1,0,0:0:0:0:
36,192,35721,1,0,0:0:0:0:
475,192,35721,1,0,0:0:0:0:
182,192,35928,128,0,36342:0:0:0:0:
329,192,35928,1,0,0:0:0:0:
402,192,36031,1,0,0:0:0:0:
475,192,36135,1,0,0:0:0:0:
256,192,36135,1,0,0:0:0:0:
329,192,36342,128,0,36756:0:0:0:0:
109,192,36342,1,0,0:0:0:0:
256,192,36549,1,0,0:0:0:0:
36,192,36549,1,0,0:0:0:0:
475,192,36549,1,0,0:0:0:0:
109,192,36756,1,0,0:0:0:0:
182,192,36756,1,0,0:0:0:0:
256,192,36859,1,0,0:0:0:0:
329,192,36859,1,0,0:0:0:0:
402,192,36962,1,0,0:0:0:0:
475,192,36962,1,0,0:0:0:0:
182,192,37169,1,0,0:0:0:0:
109,192,37169,1,0,0:0:0:0:
256,192,37273,128,0,37583:0:0:0:0:
329,192,37273,1,0,0:0:0:0:
402,192,37376,1,0,0:0:0:0:
475,192,37376,1,0,0:0:0:0:
36,192,37376,1,0,0:0:0:0:
36,192,37583,128,0,37997:0:0:0:0:
182,192,37583,1,0,0:0:0:0:
402,192,37790,1,0,0:0:0:0:
329,192,37790,1,0,0:0:0:0:
256,192,37893,1,0,0:0:0:0:
109,192,37893,1,0,0:0:0:0:
475,192,37997,128,0,38411:0:0:0:0:
182,192,37997,1,0,0:0:0:0:
402,192,38100,1,0,0:0:0:0:
329,192,38100,1,0,0:0:0:0:
109,192,38204,1,0,0:0:0:0:
36,192,38204,1,0,0:0:0:0:
182,192,38307,1,0,0:0:0:0:
256,192,38307,1,0,0:0:0:0:
329,192,38411,1,0,0:0:0:0:
402,192,38411,1,0,0:0:0:0:
256,192,38514,1,0,0:0:0:0:
36,192,38514,1,0,0:0:0:0:
109,192,38618,1,0,0:0:0:0:
182,192,38618,1,0,0:0:0:0:
475,192,38618,1,0,0:0:0:0:
402,192,38618,1,0,0:0:0:0:
329,192,38618,1,0,0:0:0:0:
256,192,38824,1,0,0:0:0:0:
36,192,38824,1,0,0:0:0:0:
182,192,39031,1,0,0:0:0:0:
402,192,39031,1,0,0:0:0:0:
329,192,39031,1,0,0:0:0:0:
475,192,39238,128,0,39652:0:0:0:0:
109,192,39238,1,0,0:0:0:0:
329,192,39445,1,0,0:0:0:0:
402,192,39445,1,0,0:0:0:0:
36,192,39652,128,0,40066:0:0:0:0:
182,192,39652,1,0,0:0:0:0:
329,192,39859,1,0,0:0:0:0:
402,192,39859,1,0,0:0:0:0:
109,192,39859,1,0,0:0:0:0:
256,192,40066,1,0,0:0:0:0:
475,192,40066,1,0,0:0:0:0:
329,192,40273,1,0,0:0:0:0:
182,192,40273,1,0,0:0:0:0:
36,192,40480,1,0,0:0:0:0:
256,192,40480,1,0,0:0:0:0:
475,192,40687,1,0,0:0:0:0:
402,192,40687,1,0,0:0:0:0:
109,192,40687,1,0,0:0:0:0:
402,192,40893,128,0,41307:0:0:0:0:
256,192,40893,1,0,0:0:0:0:
182,192,40997,1,0,0:0:0:0:
109,192,40997,1,0,0:0:0:0:
36,192,41100,1,0,0:0:0:0:
329,192,41100,1,0,0:0:0:0:
475,192,41204,1,0,0:0:0:0:
256,192,41204,1,0,0:0:0:0:
109,192,41307,128,0,41721:0:0:0:0:
182,192,41307,1,0,0:0:0:0:
329,192,41411,1,0,0:0:0:0:
402,192,41411,1,0,0:0:0:0:
475,192,41514,1,0,0:0:0:0:
256,192,41514,1,0,0:0:0:0:
36,192,41514,1,0,0:0:0:0:
475,192,41721,1,0,0:0:0:0:
402,192,41721,1,0,0:0:0:0:
329,192,41824,1,0,0:0:0:0:
256,192,41824,1,0,0:0:0:0:
182,192,41928,1,0,0:0:0:0:
36,192,41928,1,0,0:0:0:0:
109,192,41928,1,0,0:0:0:0:
402,192,41928,1,0,0:0:0:0:
475,192,41928,1,0,0:0:0:0:
329,192,42135,1,0,0:0:0:0:
182,192,42135,1,0,0:0:0:0:
256,192,42342,1,0,0:0:0:0:
36,192,42342,1,0,0:0:0:0:
475,192,42342,1,0,0:0:0:0:
329,192,42549,128,0,42962:0:0:0:0:
109,192,42549,1,0,0:0:0:0:
402,192,42756,1,0,0:0:0:0:
475,192,42756,1,0,0:0:0:0:
109,192,42859,1,0,0:0:0:0:
36,192,42859,1,0,0:0:0:0:
182,192,42962,128,0,43376:0:0:0:0:
256,192,42962,1,0,0:0:0:0:
475,192,43169,1,0,0:0:0:0:
402,192,43169,1,0,0:0:0:0:
329,192,43273,1,0,0:0:0:0:
256,192,43273,1,0,0:0:0:0:
109,192,43376,1,0,0:0:0:0:
36,192,43376,1,0,0:0:0:0:
256,192,43480,1,0,0:0:0:0:
402,192,43480,1,0,0:0:0:0:
182,192,43583,1,0,0:0:0:0:
109,192,43583,1,0,0:0:0:0:
329,192,43583,1,0,0:0:0:0:
475,192,43583,1,0,0:0:0:0:
36,192,43583,1,0,0:0:0:0:
402,192,43790,1,0,0:0:0:0:
475,192,43790,1,0,0:0:0:0:
256,192,43893,128,0,44204:0:0:0:0:
182,192,43893,1,0,0:0:0:0:
109,192,43997,1,0,0:0:0:0:
36,192,43997,1,0,0:0:0:0:
329,192,44100,1,0,0:0:0:0:
402,192,44100,1,0,0:0:0:0:
475,192,44204,128,0,44618:0:0:0:0:
182,192,44204,1,0,0:0:0:0:
109,192,44307,1,0,0:0:0:0:
36,192,44307,1,0,0:0:0:0:
402,192,44411,1,0,0:0:0:0:
329,192,44411,1,0,0:0:0:0:
256,192,44514,1,0,0:0:0:0:
182,192,44514,1,0,0:0:0:0:
36,192,44618,128,0,45031:0:0:0:0:
109,192,44618,1,0,0:0:0:0:
329,192,44721,1,0,0:0:0:0:
402,192,44721,1,0,0:0:0:0:
475,192,44824,1,0,0:0:0:0:
182,192,44824,1,0,0:0:0:0:
256,192,44928,1,0,0:0:0:0:
329,192,44928,1,0,0:0:0:0:
402,192,45031,1,0,0:0:0:0:
475,192,45031,1,0,0:0:0:0:
109,192,45135,1,0,0:0:0:0:
182,192,45135,1,0,0:0:0:0:
329,192,45238,1,0,0:0:0:0:
402,192,45238,1,0,0:0:0:0:
36,192,45238,1,0,0:0:0:0:
256,192,45238,1,0,0:0:0:0:
475,192,45238,128,0,46480:0:0:0:0:
109,192,45445,128,0,45549:0:0:0:0:
182,192,45445,1,0,0:0:0:0:
256,192,45652,128,0,45756:0:0:0:0:
329,192,45652,1,0,0:0:0:0:
402,192,45859,128,0,45962:0:0:0:0:
109,192,45859,1,0,0:0:0:0:
36,192,46066,128,0,46169:0:0:0:0:
329,192,46066,1,0,0:0:0:0:
182,192,46273,128,0,46376:0:0:0:0:
109,192,46273,1,0,0:0:0:0:
329,192,46480,128,0,46583:0:0:0:0:
402,192,46480,128,0,46583:0:0:0:0:
109,192,46687,128,0,46790:0:0:0:0:
36,192,46687,128,0,46790:0:0:0:0:
256,192,46893,128,0,48135:0:0:0:0:
475,192,46893,128,0,46997:0:0:0:0:
182,192,46893,1,0,0:0:0:0:
329,192,47100,128,0,47204:0:0:0:0:
109,192,47100,1,0,0:0:0:0:
36,192,47307,128,0,47411:0:0:0:0:
402,192,47307,1,0,0:0:0:0:
182,192,47514,128,0,47618:0:0:0:0:
475,192,47514,1,0,0:0:0:0:
402,192,47721,128,0,47824:0:0:0:0:
109,192,47721,1,0,0:0:0:0:
475,192,47928,128,0,48031:0:0:0:0:
36,192,47928,1,0,0:0:0:0:
182,192,48135,128,0,48238:0:0:0:0:
402,192,48135,128,0,48238:0:0:0:0:
329,192,48342,128,0,48445:0:0:0:0:
475,192,48342,128,0,48445:0:0:0:0:
36,192,48549,128,0,49790:0:0:0:0:
109,192,48549,128,0,48652:0:0:0:0:
256,192,48549,1,0,0:0:0:0:
182,192,48756,128,0,48859:0:0:0:0:
329,192,48756,1,0,0:0:0:0:
402,192,48962,128,0,49066:0:0:0:0:
109,192,48962,1,0,0:0:0:0:
329,192,49169,128,0,49273:0:0:0:0:
475,192,49169,1,0,0:0:0:0:
109,192,49376,128,0,49480:0:0:0:0:
256,192,49376,1,0,0:0:0:0:
475,192,49583,128,0,49687:0:0:0:0:
402,192,49583,1,0,0:0:0:0:
256,192,49790,128,0,49893:0:0:0:0:
182,192,49790,128,0,49893:0:0:0:0:
402,192,49997,128,0,50100:0:0:0:0:
329,192,49997,128,0,50100:0:0:0:0:
109,192,50204,128,0,50307:0:0:0:0:
36,192,50204,128,0,50307:0:0:0:0:
475,192,50411,128,0,50514:0:0:0:0:
402,192,50411,128,0,50514:0:0:0:0:
329,192,50411,1,0,0:0:0:0:
36,192,50514,1,0,0:0:0:0:
109,192,50618,128,0,50721:0:0:0:0:
182,192,50618,128,0,50721:0:0:0:0:
256,192,50618,1,0,0:0:0:0:
402,192,50824,128,0,50928:0:0:0:0:
329,192,50824,128,0,50928:0:0:0:0:
475,192,50824,1,0,0:0:0:0:
256,192,50928,1,0,0:0:0:0:
36,192,51031,128,0,51135:0:0:0:0:
109,192,51031,128,0,51135:0:0:0:0:
182,192,51031,1,0,0:0:0:0:
475,192,51238,128,0,51342:0:0:0:0:
402,192,51238,128,0,51342:0:0:0:0:
182,192,51445,128,0,51549:0:0:0:0:
256,192,51445,128,0,51549:0:0:0:0:
36,192,51445,1,0,0:0:0:0:
109,192,51549,1,0,0:0:0:0:
475,192,51549,1,0,0:0:0:0:
329,192,51652,128,0,51756:0:0:0:0:
402,192,51652,128,0,51756:0:0:0:0:
256,192,51652,1,0,0:0:0:0:
109,192,51756,1,0,0:0:0:0:
36,192,51756,1,0,0:0:0:0:
182,192,51859,1,0,0:0:0:0:
256,192,51859,1,0,0:0:0:0:
475,192,51859,1,0,0:0:0:0:
402,192,51859,1,0,0:0:0:0:
329,192,51859,1,0,0:0:0:0:
36,192,52066,128,0,52687:0:0:0:0:
182,192,52066,128,0,52273:0:0:0:0:
256,192,52273,128,0,52480:0:0:0:0:
475,192,52273,1,0,0:0:0:0:
329,192,52480,128,0,52687:0:0:0:0:
402,192,52480,1,0,0:0:0:0:
182,192,52687,1,0,0:0:0:0:
109,192,52687,1,0,0:0:0:0:
475,192,52893,128,0,53721:0:0:0:0:
256,192,52893,128,0,53100:0:0:0:0:
182,192,53100,128,0,53307:0:0:0:0:
36,192,53100,1,0,0:0:0:0:
109,192,53307,128,0,53928:0:0:0:0:
402,192,53307,1,0,0:0:0:0:
182,192,53514,1,0,0:0:0:0:
36,192,53514,1,0,0:0:0:0:
256,192,53721,128,0,54342:0:0:0:0:
402,192,53721,128,0,53928:0:0:0:0:
329,192,53928,128,0,54135:0:0:0:0:
36,192,53928,1,0,0:0:0:0:
182,192,54135,128,0,54342:0:0:0:0:
475,192,54135,1,0,0:0:0:0:
402,192,54342,1,0,0:0:0:0:
109,192,54342,1,0,0:0:0:0:
36,192,54549,128,0,55376:0:0:0:0:
329,192,54549,128,0,54756:0:0:0:0:
182,192,54756,128,0,54962:0:0:0:0:
256,192,54756,1,0,0:0:0:0:
329,192,54859,1,0,0:0:0:0:
402,192,54962,128,0,55583:0:0:0:0:
109,192,54962,1,0,0:0:0:0:
256,192,55066,1,0,0:0:0:0:
329,192,55169,1,0,0:0:0:0:
182,192,55169,1,0,0:0:0:0:
475,192,55376,128,0,55997:0:0:0:0:
256,192,55376,128,0,55583:0:0:0:0:
36,192,55480,1,0,0:0:0:0:
182,192,55583,128,0,55790:0:0:0:0:
109,192,55583,1,0,0:0:0:0:
109,192,55790,128,0,55997:0:0:0:0:
329,192,55790,1,0,0:0:0:0:
402,192,55997,1,0,0:0:0:0:
36,192,55997,1,0,0:0:0:0:
329,192,56204,128,0,56824:0:0:0:0:
182,192,56204,128,0,56411:0:0:0:0:
36,192,56411,128,0,56618:0:0:0:0:
109,192,56411,1,0,0:0:0:0:
402,192,56514,1,0,0:0:0:0:
256,192,56618,128,0,56824:0:0:0:0:
182,192,56618,1,0,0:0:0:0:
402,192,56721,1,0,0:0:0:0:
36,192,56824,128,0,58480:0:0:0:0:
475,192,56824,128,0,58480:0:0:0:0:
109,192,56824,1,0,0:0:0:0:
182,192,56824,1,0,0:0:0:0:
256,192,56928,1,0,0:0:0:0:
329,192,56928,1,0,0:0:0:0:
182,192,57031,1,0,0:0:0:0:
109,192,57031,1,0,0:0:0:0:
402,192,57135,1,0,0:0:0:0:
329,192,57135,1,0,0:0:0:0:
182,192,57238,1,0,0:0:0:0:
109,192,57238,1,0,0:0:0:0:
256,192,57342,1,0,0:0:0:0:
329,192,57342,1,0,0:0:0:0:
402,192,57445,1,0,0:0:0:0:
109,192,57445,1,0,0:0:0:0:
182,192,57549,1,0,0:0:0:0:
256,192,57549,1,0,0:0:0:0:
329,192,57652,1,0,0:0:0:0:
402,192,57652,1,0,0:0:0:0:
182,192,57756,1,0,0:0:0:0:
109,192,57756,1,0,0:0:0:0:
402,192,57859,1,0,0:0:0:0:
329,192,57859,1,0,0:0:0:0:
256,192,57962,1,0,0:0:0:0:
182,192,57962,1,0,0:0:0:0:
109,192,58066,1,0,0:0:0:0:
402,192,58066,1,0,0:0:0:0:
329,192,58169,1,0,0:0:0:0:
256,192,58169,1,0,0:0:0:0:
109,192,58273,1,0,0:0:0:0:
182,192,58273,1,0,0:0:0:0:
402,192,58376,1,0,0:0:0:0:
329,192,58376,1,0,0:0:0:0:
256,192,58480,1,0,0:0:0:0:
182,192,58480,1,0,0:0:0:0:
402,192,58480,1,0,0:0:0:0:
109,192,58480,128,0,60962:0:0:0:0:
329,192,58687,128,0,58893:0:0:0:0:
402,192,58687,1,0,0:0:0:0:
256,192,58893,128,0,59100:0:0:0:0:
36,192,58893,1,0,0:0:0:0:
475,192,58893,1,0,0:0:0:0:
402,192,58997,1,0,0:0:0:0:
182,192,59100,128,0,59307:0:0:0:0:
329,192,59100,1,0,0:0:0:0:
402,192,59204,1,0,0:0:0:0:
475,192,59307,128,0,59514:0:0:0:0:
256,192,59307,1,0,0:0:0:0:
329,192,59411,1,0,0:0:0:0:
36,192,59514,128,0,59721:0:0:0:0:
402,192,59514,1,0,0:0:0:0:
182,192,59618,1,0,0:0:0:0:
256,192,59721,1,0,0:0:0:0:
402,192,59721,1,0,0:0:0:0:
475,192,59721,1,0,0:0:0:0:
329,192,59824,1,0,0:0:0:0:
256,192,59928,128,0,60135:0:0:0:0:
182,192,59928,1,0,0:0:0:0:
475,192,60031,1,0,0:0:0:0:
329,192,60135,1,0,0:0:0:0:
36,192,60135,1,0,0:0:0:0:
182,192,60238,1,0,0:0:0:0:
402,192,60342,128,0,60549:0:0:0:0:
256,192,60342,1,0,0:0:0:0:
329,192,60445,1,0,0:0:0:0:
475,192,60549,1,0,0:0:0:0:
256,192,60549,1,0,0:0:0:0:
36,192,60549,1,0,0:0:0:0:
182,192,60652,1,0,0:0:0:0:
475,192,60756,128,0,60962:0:0:0:0:
329,192,60756,1,0,0:0:0:0:
256,192,60859,1,0,0:0:0:0:
402,192,60962,128,0,61583:0:0:0:0:
182,192,60962,1,0,0:0:0:0:
36,192,61066,1,0,0:0:0:0:
182,192,61169,128,0,61376:0:0:0:0:
256,192,61169,1,0,0:0:0:0:
329,192,61273,1,0,0:0:0:0:
36,192,61376,128,0,61583:0:0:0:0:
475,192,61376,1,0,0:0:0:0:
109,192,61376,1,0,0:0:0:0:
329,192,61480,1,0,0:0:0:0:
256,192,61583,128,0,61790:0:0:0:0:
182,192,61583,1,0,0:0:0:0:
109,192,61687,1,0,0:0:0:0:
36,192,61687,1,0,0:0:0:0:
475,192,61790,128,0,62618:0:0:0:0:
329,192,61790,1,0,0:0:0:0:
402,192,61790,1,0,0:0:0:0:
182,192,61790,1,0,0:0:0:0:
36,192,61893,1,0,0:0:0:0:
109,192,61997,128,0,62204:0:0:0:0:
182,192,61997,1,0,0:0:0:0:
256,192,62100,1,0,0:0:0:0:
182,192,62204,128,0,62411:0:0:0:0:
402,192,62204,1,0,0:0:0:0:
329,192,62204,1,0,0:0:0:0:
36,192,62307,1,0,0:0:0:0:
256,192,62411,128,0,62618:0:0:0:0:
109,192,62411,1,0,0:0:0:0:
329,192,62514,1,0,0:0:0:0:
402,192,62618,1,0,0:0:0:0:
182,192,62618,1,0,0:0:0:0:
109,192,62721,1,0,0:0:0:0:
36,192,62824,128,0,63238:0:0:0:0:
402,192,62824,128,0,63031:0:0:0:0:
329,192,62824,1,0,0:0:0:0:
256,192,62928,1,0,0:0:0:0:
182,192,63031,128,0,63238:0:0:0:0:
329,192,63031,1,0,0:0:0:0:
475,192,63031,1,0,0:0:0:0:
256,192,63135,1,0,0:0:0:0:
109,192,63238,128,0,63652:0:0:0:0:
402,192,63238,1,0,0:0:0:0:
329,192,63342,1,0,0:0:0:0:
256,192,63445,1,0,0:0:0:0:
182,192,63445,1,0,0:0:0:0:
36,192,63549,1,0,0:0:0:0:
475,192,63652,128,0,63859:0:0:0:0:
402,192,63652,1,0,0:0:0:0:
256,192,63756,1,0,0:0:0:0:
182,192,63756,1,0,0:0:0:0:
329,192,63859,128,0,63962:0:0:0:0:
36,192,63859,1,0,0:0:0:0:
109,192,63859,1,0,0:0:0:0:
256,192,63962,128,0,64066:0:0:0:0:
475,192,63962,1,0,0:0:0:0:
182,192,64066,128,0,64169:0:0:0:0:
402,192,64066,128,0,64273:0:0:0:0:
109,192,64169,128,0,64273:0:0:0:0:
329,192,64169,1,0,0:0:0:0:
36,192,64273,128,0,64893:0:0:0:0:
256,192,64273,1,0,0:0:0:0:
182,192,64376,1,0,0:0:0:0:
329,192,64480,128,0,64687:0:0:0:0:
109,192,64480,1,0,0:0:0:0:
256,192,64583,1,0,0:0:0:0:
475,192,64687,1,0,0:0:0:0:
402,192,64687,1,0,0:0:0:0:
182,192,64687,1,0,0:0:0:0:
109,192,64790,1,0,0:0:0:0:
256,192,64790,1,0,0:0:0:0:
182,192,64893,128,0,65100:0:0:0:0:
329,192,64893,1,0,0:0:0:0:
402,192,64893,1,0,0:0:0:0:
475,192,64997,1,0,0:0:0:0:
109,192,64997,1,0,0:0:0:0:
36,192,65100,1,0,0:0:0:0:
256,192,65100,1,0,0:0:0:0:
329,192,65100,1,0,0:0:0:0:
402,192,65100,1,0,0:0:0:0:
109,192,65204,1,0,0:0:0:0:
402,192,65307,128,0,65514:0:0:0:0:
256,192,65307,1,0,0:0:0:0:
475,192,65411,1,0,0:0:0:0:
182,192,65514,128,0,65618:0:0:0:0:
36,192,65514,128,0,65721:0:0:0:0:
329,192,65514,1,0,0:0:0:0:
256,192,65618,128,0,65721:0:0:0:0:
329,192,65721,128,0,65824:0:0:0:0:
109,192,65721,128,0,65928:0:0:0:0:
402,192,65824,128,0,65928:0:0:0:0:
256,192,65824,1,0,0:0:0:0:
475,192,65928,128,0,66549:0:0:0:0:
182,192,65928,128,0,66135:0:0:0:0:
36,192,65928,1,0,0:0:0:0:
256,192,66031,1,0,0:0:0:0:
329,192,66135,128,0,66342:0:0:0:0:
109,192,66135,1,0,0:0:0:0:
256,192,66238,1,0,0:0:0:0:
402,192,66342,1,0,0:0:0:0:
36,192,66342,1,0,0:0:0:0:
182,192,66342,1,0,0:0:0:0:
256,192,66445,1,0,0:0:0:0:
109,192,66549,128,0,66756:0:0:0:0:
329,192,66549,1,0,0:0:0:0:
402,192,66652,1,0,0:0:0:0:
475,192,66652,1,0,0:0:0:0:
182,192,66756,1,0,0:0:0:0:
36,192,66756,1,0,0:0:0:0:
329,192,66859,1,0,0:0:0:0:
256,192,66962,128,0,67169:0:0:0:0:
402,192,66962,1,0,0:0:0:0:
329,192,67066,1,0,0:0:0:0:
36,192,67169,128,0,67273:0:0:0:0:
109,192,67169,1,0,0:0:0:0:
182,192,67273,128,0,67376:0:0:0:0:
256,192,67273,1,0,0:0:0:0:
329,192,67376,128,0,67480:0:0:0:0:
402,192,67376,1,0,0:0:0:0:
475,192,67480,128,0,67583:0:0:0:0:
36,192,67480,1,0,0:0:0:0:
256,192,67583,128,0,68204:0:0:0:0:
109,192,67583,1,0,0:0:0:0:
182,192,67687,1,0,0:0:0:0:
402,192,67790,128,0,67997:0:0:0:0:
329,192,67790,1,0,0:0:0:0:
475,192,67893,1,0,0:0:0:0:
109,192,67997,128,0,68204:0:0:0:0:
182,192,67997,1,0,0:0:0:0:
329,192,67997,1,0,0:0:0:0:
475,192,68100,1,0,0:0:0:0:
402,192,68100,1,0,0:0:0:0:
36,192,68204,128,0,68411:0:0:0:0:
329,192,68204,1,0,0:0:0:0:
182,192,68204,1,0,0:0:0:0:
402,192,68307,1,0,0:0:0:0:
475,192,68307,1,0,0:0:0:0:
109,192,68411,1,0,0:0:0:0:
182,192,68411,1,0,0:0:0:0:
256,192,68411,1,0,0:0:0:0:
329,192,68411,1,0,0:0:0:0:
36,192,68514,1,0,0:0:0:0:
182,192,68618,128,0,68824:0:0:0:0:
329,192,68618,1,0,0:0:0:0:
256,192,68721,1,0,0:0:0:0:
109,192,68824,128,0,69238:0:0:0:0:
402,192,68824,128,0,69031:0:0:0:0:
329,192,68824,1,0,0:0:0:0:
36,192,68928,1,0,0:0:0:0:
475,192,69031,128,0,69238:0:0:0:0:
182,192,69031,1,0,0:0:0:0:
402,192,69135,1,0,0:0:0:0:
329,192,69238,128,0,70066:0:0:0:0:
256,192,69238,1,0,0:0:0:0:
182,192,69342,1,0,0:0:0:0:
256,192,69445,128,0,69652:0:0:0:0:
36,192,69445,1,0,0:0:0:0:
402,192,69549,1,0,0:0:0:0:
109,192,69652,128,0,69859:0:0:0:0:
475,192,69652,1,0,0:0:0:0:
182,192,69652,1,0,0:0:0:0:
402,192,69756,1,0,0:0:0:0:
36,192,69859,128,0,70066:0:0:0:0:
256,192,69859,1,0,0:0:0:0:
182,192,69962,1,0,0:0:0:0:
475,192,70066,1,0,0:0:0:0:
402,192,70066,1,0,0:0:0:0:
256,192,70066,1,0,0:0:0:0:
109,192,70066,128,0,70480:0:0:0:0:
36,192,70169,1,0,0:0:0:0:
256,192,70273,128,0,70480:0:0:0:0:
329,192,70273,1,0,0:0:0:0:
475,192,70376,1,0,0:0:0:0:
402,192,70480,128,0,70893:0:0:0:0:
36,192,70480,1,0,0:0:0:0:
182,192,70480,1,0,0:0:0:0:
329,192,70687,128,0,70893:0:0:0:0:
256,192,70687,1,0,0:0:0:0:
36,192,70893,128,0,71307:0:0:0:0:
109,192,70893,1,0,0:0:0:0:
109,192,71100,128,0,71307:0:0:0:0:
329,192,71100,1,0,0:0:0:0:
475,192,71307,128,0,71721:0:0:0:0:
256,192,71307,128,0,71514:0:0:0:0:
182,192,71307,1,0,0:0:0:0:
402,192,71514,128,0,71721:0:0:0:0:
329,192,71514,1,0,0:0:0:0:
36,192,71721,128,0,72135:0:0:0:0:
109,192,71721,1,0,0:0:0:0:
182,192,71721,1,0,0:0:0:0:
329,192,71928,1,0,0:0:0:0:
475,192,71928,128,0,72342:0:0:0:0:
109,192,72135,1,0,0:0:0:0:
182,192,72342,128,0,72549:0:0:0:0:
36,192,72342,128,0,72962:0:0:0:0:
402,192,72549,128,0,72756:0:0:0:0:
329,192,72756,128,0,72962:0:0:0:0:
256,192,72756,1,0,0:0:0:0:
109,192,72962,128,0,73169:0:0:0:0:
402,192,73066,1,0,0:0:0:0:
256,192,73169,128,0,73376:0:0:0:0:
36,192,73376,128,0,73893:0:0:0:0:
402,192,73376,128,0,73790:0:0:0:0:
109,192,73480,1,0,0:0:0:0:
182,192,73583,1,0,0:0:0:0:
256,192,73687,1,0,0:0:0:0:
475,192,73790,128,0,74204:0:0:0:0:
329,192,73790,1,0,0:0:0:0:
36,192,73997,128,0,74204:0:0:0:0:
109,192,74100,1,0,0:0:0:0:
256,192,74204,128,0,74411:0:0:0:0:
329,192,74204,1,0,0:0:0:0:
182,192,74307,1,0,0:0:0:0:
109,192,74411,1,0,0:0:0:0:
36,192,74411,1,0,0:0:0:0:
329,192,74514,1,0,0:0:0:0:
475,192,74618,128,0,74824:0:0:0:0:
402,192,74618,1,0,0:0:0:0:
402,192,74824,128,0,75031:0:0:0:0:
329,192,75031,128,0,75445:0:0:0:0:
182,192,75031,1,0,0:0:0:0:
109,192,75135,1,0,0:0:0:0:
36,192,75238,1,0,0:0:0:0:
256,192,75342,1,0,0:0:0:0:
109,192,75445,128,0,75859:0:0:0:0:
475,192,75445,1,0,0:0:0:0:
402,192,75549,1,0,0:0:0:0:
329,192,75652,1,0,0:0:0:0:
256,192,75756,1,0,0:0:0:0:
182,192,75859,128,0,76066:0:0:0:0:
475,192,75859,128,0,76273:0:0:0:0:
36,192,75859,1,0,0:0:0:0:
402,192,75962,1,0,0:0:0:0:
256,192,76066,128,0,76273:0:0:0:0:
109,192,76066,1,0,0:0:0:0:
329,192,76273,128,0,76480:0:0:0:0:
36,192,76273,128,0,76480:0:0:0:0:
402,192,76480,128,0,76687:0:0:0:0:
109,192,76480,128,0,76687:0:0:0:0:
475,192,76687,128,0,77307:0:0:0:0:
182,192,76687,128,0,77100:0:0:0:0:
256,192,76687,1,0,0:0:0:0:
109,192,76790,1,0,0:0:0:0:
36,192,76893,1,0,0:0:0:0:
256,192,76997,1,0,0:0:0:0:
402,192,77100,128,0,77514:0:0:0:0:
329,192,77100,1,0,0:0:0:0:
109,192,77204,1,0,0:0:0:0:
256,192,77307,128,0,77514:0:0:0:0:
182,192,77307,1,0,0:0:0:0:
329,192,77411,1,0,0:0:0:0:
36,192,77514,128,0,77721:0:0:0:0:
182,192,77514,128,0,77928:0:0:0:0:
475,192,77618,1,0,0:0:0:0:
329,192,77721,128,0,78962:0:0:0:0:
109,192,77721,1,0,0:0:0:0:
256,192,77824,1,0,0:0:0:0:
36,192,77824,1,0,0:0:0:0:
402,192,77928,128,0,78342:0:0:0:0:
475,192,77928,1,0,0:0:0:0:
109,192,77928,1,0,0:0:0:0:
182,192,78031,1,0,0:0:0:0:
256,192,78135,1,0,0:0:0:0:
36,192,78135,1,0,0:0:0:0:
182,192,78238,1,0,0:0:0:0:
109,192,78342,128,0,78756:0:0:0:0:
475,192,78342,1,0,0:0:0:0:
182,192,78549,1,0,0:0:0:0:
402,192,78652,1,0,0:0:0:0:
256,192,78756,128,0,79169:0:0:0:0:
36,192,78756,128,0,79169:0:0:0:0:
475,192,78756,1,0,0:0:0:0:
182,192,78859,1,0,0:0:0:0:
109,192,78962,1,0,0:0:0:0:
402,192,79169,128,0,79376:0:0:0:0:
182,192,79169,128,0,79583:0:0:0:0:
329,192,79169,1,0,0:0:0:0:
475,192,79376,128,0,79583:0:0:0:0:
36,192,79376,1,0,0:0:0:0:
256,192,79480,1,0,0:0:0:0:
109,192,79583,128,0,79790:0:0:0:0:
329,192,79583,128,0,79997:0:0:0:0:
402,192,79583,1,0,0:0:0:0:
36,192,79790,128,0,79997:0:0:0:0:
402,192,79997,128,0,80411:0:0:0:0:
256,192,79997,128,0,80411:0:0:0:0:
182,192,79997,1,0,0:0:0:0:
109,192,80411,128,0,80824:0:0:0:0:
475,192,80411,128,0,80824:0:0:0:0:
329,192,80618,1,0,0:0:0:0:
256,192,80824,128,0,81031:0:0:0:0:
36,192,80824,128,0,81238:0:0:0:0:
182,192,80824,1,0,0:0:0:0:
329,192,81031,1,0,0:0:0:0:
475,192,81238,128,0,81652:0:0:0:0:
182,192,81238,128,0,81652:0:0:0:0:
329,192,81652,128,0,82066:0:0:0:0:
402,192,81652,1,0,0:0:0:0:
182,192,82066,128,0,82480:0:0:0:0:
36,192,82480,128,0,82893:0:0:0:0:
256,192,82480,1,0,0:0:0:0:
109,192,82687,1,0,0:0:0:0:
402,192,82893,128,0,83307:0:0:0:0:
329,192,83100,1,0,0:0:0:0:
256,192,83307,128,0,83928:0:0:0:0:
182,192,83307,1,0,0:0:0:0:
329,192,83721,1,0,0:0:0:0:
402,192,83721,1,0,0:0:0:0:
109,192,83928,128,0,84135:0:0:0:0:
475,192,83928,1,0,0:0:0:0:
36,192,84135,128,0,85376:0:0:0:0:
182,192,84135,1,0,0:0:0:0:
402,192,84135,128,0,84549:0:0:0:0:
256,192,84549,128,0,84962:0:0:0:0:
329,192,84549,1,0,0:0:0:0:
109,192,84962,128,0,85376:0:0:0:0:
182,192,84962,1,0,0:0:0:0:
475,192,85376,128,0,85790:0:0:0:0:
402,192,85376,128,0,85480:0:0:0:0:
329,192,85480,128,0,85583:0:0:0:0:
182,192,85583,128,0,85687:0:0:0:0:
109,192,85687,128,0,85790:0:0:0:0:
256,192,85790,128,0,86204:0:0:0:0:
329,192,85790,128,0,85893:0:0:0:0:
402,192,85893,128,0,85997:0:0:0:0:
109,192,85997,128,0,86100:0:0:0:0:
182,192,86100,128,0,86204:0:0:0:0:
36,192,86204,128,0,86618:0:0:0:0:
475,192,86204,128,0,86307:0:0:0:0:
402,192,86307,128,0,86411:0:0:0:0:
329,192,86411,128,0,86514:0:0:0:0:
256,192,86514,128,0,86618:0:0:0:0:
109,192,86618,128,0,87445:0:0:0:0:
182,192,86618,1,0,0:0:0:0:
329,192,86618,1,0,0:0:0:0:
402,192,86618,1,0,0:0:0:0:
475,192,86618,1,0,0:0:0:0:
402,192,86824,128,0,87031:0:0:0:0:
256,192,86824,1,0,0:0:0:0:
475,192,87031,128,0,87238:0:0:0:0:
36,192,87031,1,0,0:0:0:0:
182,192,87031,1,0,0:0:0:0:
182,192,87238,128,0,87652:0:0:0:0:
329,192,87238,1,0,0:0:0:0:
256,192,87445,128,0,88273:0:0:0:0:
402,192,87445,1,0,0:0:0:0:
475,192,87445,1,0,0:0:0:0:
36,192,87652,128,0,87859:0:0:0:0:
329,192,87652,1,0,0:0:0:0:
329,192,87859,128,0,88066:0:0:0:0:
109,192,87859,1,0,0:0:0:0:
182,192,87859,1,0,0:0:0:0:
475,192,88066,128,0,88273:0:0:0:0:
36,192,88066,1,0,0:0:0:0:
402,192,88273,128,0,89100:0:0:0:0:
182,192,88273,1,0,0:0:0:0:
329,192,88273,1,0,0:0:0:0:
109,192,88480,128,0,88687:0:0:0:0:
475,192,88480,1,0,0:0:0:0:
182,192,88687,128,0,88893:0:0:0:0:
329,192,88687,1,0,0:0:0:0:
36,192,88687,1,0,0:0:0:0:
256,192,88893,128,0,89307:0:0:0:0:
475,192,88893,1,0,0:0:0:0:
36,192,89100,128,0,89928:0:0:0:0:
109,192,89100,1,0,0:0:0:0:
182,192,89100,1,0,0:0:0:0:
329,192,89307,128,0,89514:0:0:0:0:
402,192,89307,1,0,0:0:0:0:
475,192,89514,128,0,89721:0:0:0:0:
182,192,89514,1,0,0:0:0:0:
109,192,89514,1,0,0:0:0:0:
256,192,89721,128,0,89928:0:0:0:0:
402,192,89721,1,0,0:0:0:0:
109,192,89928,128,0,90135:0:0:0:0:
329,192,89928,1,0,0:0:0:0:
475,192,89928,1,0,0:0:0:0:
329,192,90135,128,0,90342:0:0:0:0:
256,192,90135,1,0,0:0:0:0:
402,192,90342,128,0,90756:0:0:0:0:
182,192,90342,128,0,90549:0:0:0:0:
109,192,90342,1,0,0:0:0:0:
36,192,90549,128,0,90756:0:0:0:0:
329,192,90549,1,0,0:0:0:0:
256,192,90756,128,0,91169:0:0:0:0:
182,192,90756,128,0,90962:0:0:0:0:
109,192,90756,1,0,0:0:0:0:
402,192,90962,128,0,91169:0:0:0:0:
329,192,90962,1,0,0:0:0:0:
109,192,91169,128,0,91583:0:0:0:0:
475,192,91169,128,0,91376:0:0:0:0:
182,192,91169,1,0,0:0:0:0:
36,192,91376,128,0,91790:0:0:0:0:
329,192,91376,1,0,0:0:0:0:
475,192,91583,128,0,91687:0:0:0:0:
256,192,91583,1,0,0:0:0:0:
402,192,91687,128,0,91790:0:0:0:0:
182,192,91687,1,0,0:0:0:0:
329,192,91790,128,0,91893:0:0:0:0:
109,192,91790,1,0,0:0:0:0:
256,192,91893,128,0,91997:0:0:0:0:
36,192,91893,1,0,0:0:0:0:
475,192,91997,128,0,92618:0:0:0:0:
402,192,91997,1,0,0:0:0:0:
182,192,91997,1,0,0:0:0:0:
182,192,92204,128,0,92618:0:0:0:0:
109,192,92204,1,0,0:0:0:0:
256,192,92411,1,0,0:0:0:0:
402,192,92411,1,0,0:0:0:0:
36,192,92618,128,0,93238:0:0:0:0:
329,192,92618,128,0,92824:0:0:0:0:
475,192,92824,128,0,93031:0:0:0:0:
109,192,92824,1,0,0:0:0:0:
182,192,92824,1,0,0:0:0:0:
402,192,93031,128,0,93238:0:0:0:0:
329,192,93031,1,0,0:0:0:0:
109,192,93238,128,0,93342:0:0:0:0:
256,192,93238,1,0,0:0:0:0:
182,192,93342,128,0,93445:0:0:0:0:
329,192,93342,1,0,0:0:0:0:
256,192,93445,128,0,93549:0:0:0:0:
475,192,93445,128,0,93652:0:0:0:0:
402,192,93445,1,0,0:0:0:0:
329,192,93549,128,0,93652:0:0:0:0:
182,192,93549,1,0,0:0:0:0:
36,192,93652,128,0,94480:0:0:0:0:
109,192,93652,128,0,93859:0:0:0:0:
256,192,93652,1,0,0:0:0:0:
256,192,93859,128,0,94066:0:0:0:0:
402,192,93859,1,0,0:0:0:0:
329,192,93962,1,0,0:0:0:0:
182,192,94066,1,0,0:0:0:0:
109,192,94066,1,0,0:0:0:0:
329,192,94273,128,0,94480:0:0:0:0:
402,192,94273,1,0,0:0:0:0:
475,192,94480,128,0,94893:0:0:0:0:
182,192,94480,128,0,94687:0:0:0:0:
256,192,94480,1,0,0:0:0:0:
36,192,94687,128,0,94893:0:0:0:0:
109,192,94687,1,0,0:0:0:0:
256,192,94893,128,0,95514:0:0:0:0:
402,192,94893,1,0,0:0:0:0:
329,192,94893,1,0,0:0:0:0:
109,192,95100,128,0,95307:0:0:0:0:
182,192,95100,1,0,0:0:0:0:
402,192,95307,128,0,95514:0:0:0:0:
329,192,95307,1,0,0:0:0:0:
36,192,95307,1,0,0:0:0:0:
475,192,95514,128,0,95721:0:0:0:0:
182,192,95514,1,0,0:0:0:0:
109,192,95721,128,0,96549:0:0:0:0:
402,192,95721,1,0,0:0:0:0:
36,192,95721,1,0,0:0:0:0:
329,192,95928,128,0,96135:0:0:0:0:
182,192,95928,1,0,0:0:0:0:
256,192,96135,128,0,96342:0:0:0:0:
402,192,96135,1,0,0:0:0:0:
475,192,96135,1,0,0:0:0:0:
36,192,96342,128,0,96549:0:0:0:0:
182,192,96342,1,0,0:0:0:0:
182,192,96549,128,0,96652:0:0:0:0:
475,192,96549,128,0,96756:0:0:0:0:
329,192,96549,1,0,0:0:0:0:
256,192,96652,128,0,96756:0:0:0:0:
402,192,96652,1,0,0:0:0:0:
329,192,96756,128,0,96859:0:0:0:0:
109,192,96756,128,0,96962:0:0:0:0:
36,192,96756,1,0,0:0:0:0:
402,192,96859,128,0,96962:0:0:0:0:
256,192,96859,1,0,0:0:0:0:
475,192,96962,128,0,97376:0:0:0:0:
182,192,96962,128,0,97169:0:0:0:0:
329,192,96962,1,0,0:0:0:0:
402,192,97169,128,0,97583:0:0:0:0:
36,192,97169,1,0,0:0:0:0:
256,192,97376,128,0,97480:0:0:0:0:
109,192,97376,1,0,0:0:0:0:
182,192,97480,128,0,97583:0:0:0:0:
36,192,97480,1,0,0:0:0:0:
109,192,97583,128,0,97687:0:0:0:0:
475,192,97583,128,0,97790:0:0:0:0:
329,192,97583,1,0,0:0:0:0:
36,192,97687,128,0,97790:0:0:0:0:
402,192,97687,1,0,0:0:0:0:
329,192,97790,128,0,98204:0:0:0:0:
256,192,97790,128,0,97997:0:0:0:0:
182,192,97790,1,0,0:0:0:0:
402,192,97997,128,0,98204:0:0:0:0:
109,192,97997,1,0,0:0:0:0:
36,192,98204,128,0,98618:0:0:0:0:
109,192,98204,128,0,98307:0:0:0:0:
256,192,98204,1,0,0:0:0:0:
182,192,98307,128,0,98411:0:0:0:0:
329,192,98307,1,0,0:0:0:0:
256,192,98411,128,0,98514:0:0:0:0:
402,192,98411,1,0,0:0:0:0:
329,192,98514,128,0,98618:0:0:0:0:
109,192,98514,1,0,0:0:0:0:
475,192,98618,128,0,99031:0:0:0:0:
402,192,98618,128,0,98721:0:0:0:0:
182,192,98618,1,0,0:0:0:0:
329,192,98721,128,0,98824:0:0:0:0:
109,192,98721,1,0,0:0:0:0:
256,192,98824,128,0,98928:0:0:0:0:
36,192,98824,1,0,0:0:0:0:
182,192,98928,128,0,99031:0:0:0:0:
402,192,98928,1,0,0:0:0:0:
36,192,99031,128,0,99445:0:0:0:0:
109,192,99031,128,0,99135:0:0:0:0:
329,192,99031,1,0,0:0:0:0:
182,192,99135,128,0,99238:0:0:0:0:
402,192,99135,1,0,0:0:0:0:
256,192,99238,128,0,99342:0:0:0:0:
475,192,99238,1,0,0:0:0:0:
329,192,99342,128,0,99445:0:0:0:0:
109,192,99342,1,0,0:0:0:0:
475,192,99445,128,0,99859:0:0:0:0:
402,192,99445,128,0,99549:0:0:0:0:
182,192,99445,1,0,0:0:0:0:
329,192,99549,128,0,99652:0:0:0:0:
109,192,99549,1,0,0:0:0:0:
256,192,99652,128,0,99756:0:0:0:0:
36,192,99652,1,0,0:0:0:0:
182,192,99756,128,0,99859:0:0:0:0:
402,192,99756,1,0,0:0:0:0:
109,192,99859,1,0,0:0:0:0:
36,192,99859,1,0,0:0:0:0:
329,192,99859,1,0,0:0:0:0:
256,192,99859,1,0,0:0:0:0:
402,192,99962,1,0,0:0:0:0:
182,192,99962,1,0,0:0:0:0:
475,192,100066,1,0,0:0:0:0:
329,192,100066,1,0,0:0:0:0:
109,192,100066,1,0,0:0:0:0:
256,192,100169,1,0,0:0:0:0:
36,192,100169,1,0,0:0:0:0:
109,192,100273,1,0,0:0:0:0:
182,192,100273,1,0,0:0:0:0:
402,192,100273,1,0,0:0:0:0:
475,192,100273,1,0,0:0:0:0:
329,192,100376,1,0,0:0:0:0:
256,192,100376,1,0,0:0:0:0:
402,192,100480,1,0,0:0:0:0:
36,192,100480,1,0,0:0:0:0:
182,192,100480,1,0,0:0:0:0:
109,192,100583,1,0,0:0:0:0:
256,192,100583,1,0,0:0:0:0:
182,192,100687,1,0,0:0:0:0:
36,192,100687,1,0,0:0:0:0:
329,192,100687,1,0,0:0:0:0:
475,192,100687,1,0,0:0:0:0:
402,192,100790,1,0,0:0:0:0:
256,192,100790,1,0,0:0:0:0:
182,192,100893,1,0,0:0:0:0:
109,192,100893,1,0,0:0:0:0:
475,192,100893,1,0,0:0:0:0:
36,192,100997,1,0,0:0:0:0:
329,192,100997,1,0,0:0:0:0:
402,192,101100,1,0,0:0:0:0:
475,192,101100,1,0,0:0:0:0:
256,192,101100,1,0,0:0:0:0:
182,192,101100,1,0,0:0:0:0:
109,192,101204,1,0,0:0:0:0:
329,192,101204,1,0,0:0:0:0:
402,192,101307,1,0,0:0:0:0:
475,192,101307,1,0,0:0:0:0:
182,192,101307,1,0,0:0:0:0:
329,192,101411,1,0,0:0:0:0:
256,192,101411,1,0,0:0:0:0:
36,192,101514,1,0,0:0:0:0:
109,192,101514,1,0,0:0:0:0:
402,192,101514,1,0,0:0:0:0:
475,192,101514,1,0,0:0:0:0:
182,192,101618,1,0,0:0:0:0:
329,192,101618,1,0,0:0:0:0:
256,192,101721,1,0,0:0:0:0:
109,192,101721,1,0,0:0:0:0:
36,192,101721,1,0,0:0:0:0:
402,192,101824,1,0,0:0:0:0:
182,192,101824,1,0,0:0:0:0:
475,192,101928,1,0,0:0:0:0:
329,192,101928,1,0,0:0:0:0:
36,192,101928,1,0,0:0:0:0:
109,192,101928,1,0,0:0:0:0:
256,192,102031,1,0,0:0:0:0:
182,192,102031,1,0,0:0:0:0:
402,192,102135,1,0,0:0:0:0:
475,192,102135,1,0,0:0:0:0:
109,192,102135,1,0,0:0:0:0:
36,192,102238,1,0,0:0:0:0:
256,192,102238,1,0,0:0:0:0:
329,192,102342,1,0,0:0:0:0:
402,192,102342,1,0,0:0:0:0:
182,192,102342,1,0,0:0:0:0:
109,192,102342,1,0,0:0:0:0:
475,192,102445,1,0,0:0:0:0:
256,192,102445,1,0,0:0:0:0:
36,192,102549,1,0,0:0:0:0:
182,192,102549,1,0,0:0:0:0:
402,192,102549,1,0,0:0:0:0:
329,192,102652,1,0,0:0:0:0:
109,192,102652,1,0,0:0:0:0:
402,192,102756,1,0,0:0:0:0:
475,192,102756,1,0,0:0:0:0:
256,192,102756,1,0,0:0:0:0:
36,192,102756,1,0,0:0:0:0:
182,192,102859,1,0,0:0:0:0:
329,192,102859,1,0,0:0:0:0:
475,192,102962,1,0,0:0:0:0:
109,192,102962,1,0,0:0:0:0:
36,192,102962,1,0,0:0:0:0:
402,192,103066,1,0,0:0:0:0:
329,192,103066,1,0,0:0:0:0:
256,192,103169,1,0,0:0:0:0:
182,192,103169,1,0,0:0:0:0:
36,192,103169,1,0,0:0:0:0:
475,192,103169,1,0,0:0:0:0:
109,192,103273,1,0,0:0:0:0:
329,192,103273,1,0,0:0:0:0:
402,192,103376,1,0,0:0:0:0:
256,192,103376,1,0,0:0:0:0:
36,192,103376,1,0,0:0:0:0:
475,192,103480,1,0,0:0:0:0:
182,192,103480,1,0,0:0:0:0:
329,192,103583,1,0,0:0:0:0:
402,192,103583,1,0,0:0:0:0:
109,192,103583,1,0,0:0:0:0:
36,192,103583,1,0,0:0:0:0:
256,192,103687,1,0,0:0:0:0:
475,192,103687,1,0,0:0:0:0:
182,192,103790,1,0,0:0:0:0:
402,192,103790,1,0,0:0:0:0:
36,192,103790,1,0,0:0:0:0:
109,192,103893,1,0,0:0:0:0:
329,192,103893,1,0,0:0:0:0:
402,192,103997,1,0,0:0:0:0:
475,192,103997,1,0,0:0:0:0:
36,192,103997,1,0,0:0:0:0:
182,192,103997,1,0,0:0:0:0:
256,192,104100,1,0,0:0:0:0:
329,192,104100,1,0,0:0:0:0:
109,192,104204,1,0,0:0:0:0:
182,192,104204,1,0,0:0:0:0:
475,192,104204,1,0,0:0:0:0:
402,192,104307,1,0,0:0:0:0:
329,192,104307,1,0,0:0:0:0:
109,192,104411,1,0,0:0:0:0:
36,192,104411,1,0,0:0:0:0:
256,192,104411,1,0,0:0:0:0:
475,192,104411,1,0,0:0:0:0:
182,192,104514,1,0,0:0:0:0:
329,192,104514,1,0,0:0:0:0:
36,192,104618,1,0,0:0:0:0:
402,192,104618,1,0,0:0:0:0:
256,192,104618,1,0,0:0:0:0:
109,192,104721,1,0,0:0:0:0:
475,192,104721,1,0,0:0:0:0:
402,192,104824,1,0,0:0:0:0:
329,192,104824,1,0,0:0:0:0:
182,192,104824,1,0,0:0:0:0:
36,192,104824,1,0,0:0:0:0:
256,192,104928,1,0,0:0:0:0:
109,192,104928,1,0,0:0:0:0:
475,192,105031,1,0,0:0:0:0:
329,192,105031,1,0,0:0:0:0:
36,192,105031,1,0,0:0:0:0:
182,192,105135,1,0,0:0:0:0:
256,192,105135,1,0,0:0:0:0:
402,192,105238,1,0,0:0:0:0:
475,192,105238,1,0,0:0:0:0:
109,192,105238,1,0,0:0:0:0:
36,192,105238,1,0,0:0:0:0:
329,192,105342,1,0,0:0:0:0:
256,192,105342,1,0,0:0:0:0:
182,192,105445,1,0,0:0:0:0:
36,192,105445,1,0,0:0:0:0:
475,192,105445,1,0,0:0:0:0:
402,192,105549,1,0,0:0:0:0:
256,192,105549,1,0,0:0:0:0:
182,192,105652,1,0,0:0:0:0:
109,192,105652,1,0,0:0:0:0:
329,192,105652,1,0,0:0:0:0:
475,192,105652,1,0,0:0:0:0:
36,192,105756,1,0,0:0:0:0:
402,192,105756,1,0,0:0:0:0:
256,192,105859,1,0,0:0:0:0:
329,192,105859,1,0,0:0:0:0:
475,192,105859,1,0,0:0:0:0:
109,192,105962,1,0,0:0:0:0:
182,192,105962,1,0,0:0:0:0:
402,192,106066,1,0,0:0:0:0:
475,192,106066,1,0,0:0:0:0:
36,192,106066,1,0,0:0:0:0:
256,192,106066,1,0,0:0:0:0:
329,192,106169,1,0,0:0:0:0:
109,192,106169,1,0,0:0:0:0:
182,192,106273,1,0,0:0:0:0:
402,192,106273,1,0,0:0:0:0:
36,192,106273,1,0,0:0:0:0:
475,192,106376,1,0,0:0:0:0:
329,192,106376,1,0,0:0:0:0:
256,192,106480,1,0,0:0:0:0:
182,192,106480,1,0,0:0:0:0:
109,192,106480,1,0,0:0:0:0:
402,192,106480,1,0,0:0:0:0:
36,192,106583,1,0,0:0:0:0:
329,192,106583,1,0,0:0:0:0:
256,192,106687,1,0,0:0:0:0:
182,192,106687,1,0,0:0:0:0:
475,192,106687,1,0,0:0:0:0:
402,192,106790,1,0,0:0:0:0:
329,192,106790,1,0,0:0:0:0:
109,192,106893,1,0,0:0:0:0:
36,192,106893,1,0,0:0:0:0:
182,192,106893,1,0,0:0:0:0:
329,192,106997,1,0,0:0:0:0:
475,192,106997,1,0,0:0:0:0:
402,192,107100,1,0,0:0:0:0:
256,192,107100,1,0,0:0:0:0:
182,192,107100,1,0,0:0:0:0:
36,192,107204,1,0,0:0:0:0:
329,192,107204,1,0,0:0:0:0:
475,192,107307,1,0,0:0:0:0:
402,192,107307,1,0,0:0:0:0:
109,192,107307,1,0,0:0:0:0:
256,192,107411,1,0,0:0:0:0:
182,192,107411,1,0,0:0:0:0:
329,192,107514,1,0,0:0:0:0:
475,192,107514,1,0,0:0:0:0:
36,192,107514,1,0,0:0:0:0:
109,192,107618,1,0,0:0:0:0:
256,192,107618,1,0,0:0:0:0:
182,192,107721,1,0,0:0:0:0:
329,192,107721,1,0,0:0:0:0:
402,192,107721,1,0,0:0:0:0:
475,192,107824,1,0,0:0:0:0:
36,192,107824,1,0,0:0:0:0:
109,192,107928,1,0,0:0:0:0:
256,192,107928,1,0,0:0:0:0:
402,192,107928,1,0,0:0:0:0:
329,192,108031,1,0,0:0:0:0:
182,192,108031,1,0,0:0:0:0:
36,192,108135,1,0,0:0:0:0:
475,192,108135,1,0,0:0:0:0:
402,192,108135,1,0,0:0:0:0:
256,192,108238,1,0,0:0:0:0:
109,192,108238,1,0,0:0:0:0:
402,192,108342,1,0,0:0:0:0:
329,192,108342,1,0,0:0:0:0:
182,192,108342,1,0,0:0:0:0:
475,192,108445,1,0,0:0:0:0:
36,192,108445,1,0,0:0:0:0:
182,192,108549,1,0,0:0:0:0:
256,192,108549,1,0,0:0:0:0:
402,192,108549,1,0,0:0:0:0:
109,192,108652,1,0,0:0:0:0:
329,192,108652,1,0,0:0:0:0:
475,192,108756,1,0,0:0:0:0:
402,192,108756,1,0,0:0:0:0:
182,192,108756,1,0,0:0:0:0:
36,192,108859,1,0,0:0:0:0:
256,192,108859,1,0,0:0:0:0:
329,192,108962,1,0,0:0:0:0:
402,192,108962,1,0,0:0:0:0:
109,192,108962,1,0,0:0:0:0:
475,192,109066,1,0,0:0:0:0:
256,192,109066,1,0,0:0:0:0:
182,192,109169,1,0,0:0:0:0:
36,192,109169,1,0,0:0:0:0:
402,192,109169,1,0,0:0:0:0:
256,192,109273,1,0,0:0:0:0:
109,192,109273,1,0,0:0:0:0:
329,192,109376,1,0,0:0:0:0:
475,192,109376,1,0,0:0:0:0:
182,192,109376,1,0,0:0:0:0:
36,192,109480,1,0,0:0:0:0:
402,192,109480,1,0,0:0:0:0:
256,192,109583,1,0,0:0:0:0:
109,192,109583,1,0,0:0:0:0:
475,192,109583,1,0,0:0:0:0:
402,192,109687,1,0,0:0:0:0:
329,192,109687,1,0,0:0:0:0:
182,192,109790,1,0,0:0:0:0:
109,192,109790,1,0,0:0:0:0:
36,192,109790,1,0,0:0:0:0:
256,192,109893,1,0,0:0:0:0:
475,192,109893,1,0,0:0:0:0:
402,192,109997,1,0,0:0:0:0:
329,192,109997,1,0,0:0:0:0:
182,192,109997,1,0,0:0:0:0:
475,192,110100,1,0,0:0:0:0:
36,192,110100,1,0,0:0:0:0:
109,192,110204,1,0,0:0:0:0:
256,192,110204,1,0,0:0:0:0:
402,192,110204,1,0,0:0:0:0:
182,192,110307,1,0,0:0:0:0:
36,192,110307,1,0,0:0:0:0:
475,192,110411,1,0,0:0:0:0:
329,192,110411,1,0,0:0:0:0:
109,192,110411,1,0,0:0:0:0:
402,192,110514,1,0,0:0:0:0:
256,192,110514,1,0,0:0:0:0:
182,192,110618,1,0,0:0:0:0:
109,192,110618,1,0,0:0:0:0:
475,192,110618,1,0,0:0:0:0:
36,192,110721,1,0,0:0:0:0:
329,192,110721,1,0,0:0:0:0:
475,192,110824,1,0,0:0:0:0:
402,192,110824,1,0,0:0:0:0:
256,192,110824,1,0,0:0:0:0:
109,192,110928,1,0,0:0:0:0:
329,192,110928,1,0,0:0:0:0:
182,192,111031,1,0,0:0:0:0:
256,192,111031,1,0,0:0:0:0:
475,192,111031,1,0,0:0:0:0:
36,192,111135,1,0,0:0:0:0:
329,192,111135,1,0,0:0:0:0:
402,192,111238,1,0,0:0:0:0:
475,192,111238,1,0,0:0:0:0:
109,192,111238,1,0,0:0:0:0:
256,192,111342,1,0,0:0:0:0:
182,192,111342,1,0,0:0:0:0:
329,192,111445,1,0,0:0:0:0:
36,192,111445,128,0,111859:0:0:0:0:
109,192,111445,128,0,111549:0:0:0:0:
475,192,111445,1,0,0:0:0:0:
182,192,111549,128,0,111652:0:0:0:0:
402,192,111549,1,0,0:0:0:0:
256,192,111652,128,0,111756:0:0:0:0:
475,192,111652,1,0,0:0:0:0:
329,192,111756,128,0,111859:0:0:0:0:
109,192,111756,1,0,0:0:0:0:
475,192,111859,128,0,112273:0:0:0:0:
402,192,111859,128,0,111962:0:0:0:0:
182,192,111859,1,0,0:0:0:0:
329,192,111962,128,0,112066:0:0:0:0:
109,192,111962,1,0,0:0:0:0:
256,192,112066,128,0,112169:0:0:0:0:
36,192,112066,1,0,0:0:0:0:
182,192,112169,128,0,112273:0:0:0:0:
402,192,112169,1,0,0:0:0:0:
36,192,112273,128,0,112687:0:0:0:0:
109,192,112273,128,0,112376:0:0:0:0:
329,192,112273,1,0,0:0:0:0:
182,192,112376,128,0,112480:0:0:0:0:
402,192,112376,1,0,0:0:0:0:
256,192,112480,128,0,112583:0:0:0:0:
475,192,112480,1,0,0:0:0:0:
329,192,112583,128,0,112687:0:0:0:0:
109,192,112583,1,0,0:0:0:0:
475,192,112687,128,0,113100:0:0:0:0:
402,192,112687,128,0,112790:0:0:0:0:
182,192,112687,1,0,0:0:0:0:
329,192,112790,128,0,112893:0:0:0:0:
109,192,112790,1,0,0:0:0:0:
256,192,112893,128,0,112997:0:0:0:0:
36,192,112893,1,0,0:0:0:0:
182,192,112997,128,0,113100:0:0:0:0:
402,192,112997,1,0,0:0:0:0:
109,192,113100,1,0,0:0:0:0:
36,192,113100,128,0,114756:0:0:0:0:
329,192,113100,1,0,0:0:0:0:
256,192,113100,1,0,0:0:0:0:
475,192,113514,128,0,114756:0:0:0:0:
402,192,113514,1,0,0:0:0:0:
109,192,113514,1,0,0:0:0:0:
182,192,113928,128,0,114756:0:0:0:0:
256,192,113928,1,0,0:0:0:0:
329,192,113928,1,0,0:0:0:0:
329,192,114342,128,0,114756:0:0:0:0:
402,192,114342,1,0,0:0:0:0:
256,192,114756,1,0,0:0:0:0:
109,192,114756,1,0,0:0:0:0:
402,192,114756,1,0,0:0:0:0:
109,192,115169,1,0,0:0:0:0:
402,192,115169,1,0,0:0:0:0:
36,192,115583,1,0,0:0:0:0:
109,192,115583,1,0,0:0:0:0:
109,192,115790,1,0,0:0:0:0:
36,192,115790,1,0,0:0:0:0:
182,192,115997,1,0,0:0:0:0:
36,192,116100,1,0,0:0:0:0:
182,192,116204,1,0,0:0:0:0:
36,192,116307,1,0,0:0:0:0:
402,192,116411,1,0,0:0:0:0:
475,192,116411,1,0,0:0:0:0:
475,192,116618,1,0,0:0:0:0:
402,192,116618,1,0,0:0:0:0:
329,192,116824,1,0,0:0:0:0:
475,192,116928,1,0,0:0:0:0:
329,192,117031,1,0,0:0:0:0:
475,192,117135,1,0,0:0:0:0:
109,192,117238,1,0,0:0:0:0:
36,192,117238,1,0,0:0:0:0:
109,192,117445,1,0,0:0:0:0:
36,192,117445,1,0,0:0:0:0:
182,192,117652,1,0,0:0:0:0:
36,192,117756,1,0,0:0:0:0:
182,192,117859,1,0,0:0:0:0:
36,192,117962,1,0,0:0:0:0:
475,192,118066,1,0,0:0:0:0:
402,192,118066,1,0,0:0:0:0:
402,192,118273,1,0,0:0:0:0:
475,192,118273,1,0,0:0:0:0:
329,192,118480,1,0,0:0:0:0:
475,192,118583,1,0,0:0:0:0:
329,192,118687,1,0,0:0:0:0:
475,192,118790,1,0,0:0:0:0:
109,192,118893,1,0,0:0:0:0:
36,192,118893,1,0,0:0:0:0:
36,192,119100,1,0,0:0:0:0:
109,192,119100,1,0,0:0:0:0:
182,192,119307,1,0,0:0:0:0:
36,192,119411,1,0,0:0:0:0:
182,192,119514,1,0,0:0:0:0:
36,192,119618,1,0,0:0:0:0:
475,192,119721,1,0,0:0:0:0:
402,192,119721,1,0,0:0:0:0:
402,192,119928,1,0,0:0:0:0:
475,192,119928,1,0,0:0:0:0:
329,192,120135,1,0,0:0:0:0:
475,192,120238,1,0,0:0:0:0:
329,192,120342,1,0,0:0:0:0:
475,192,120445,1,0,0:0:0:0:
109,192,120549,1,0,0:0:0:0:
36,192,120549,1,0,0:0:0:0:
402,192,120756,1,0,0:0:0:0:
475,192,120756,1,0,0:0:0:0:
36,192,120962,128,0,121066:0:0:0:0:
109,192,121066,128,0,121169:0:0:0:0:
402,192,121169,128,0,121273:0:0:0:0:
475,192,121273,128,0,121376:0:0:0:0:
36,192,121376,1,0,0:0:0:0:
109,192,121376,1,0,0:0:0:0:
402,192,121376,1,0,0:0:0:0:
256,192,121376,128,0,122204:0:0:0:0:
182,192,121583,1,0,0:0:0:0:
475,192,121583,1,0,0:0:0:0:
329,192,121790,1,0,0:0:0:0:
402,192,121790,128,0,122100:0:0:0:0:
109,192,122204,128,0,123031:0:0:0:0:
182,192,122204,1,0,0:0:0:0:
36,192,122204,128,0,123031:0:0:0:0:
475,192,122411,1,0,0:0:0:0:
402,192,122514,1,0,0:0:0:0:
329,192,122514,1,0,0:0:0:0:
402,192,123031,1,0,0:0:0:0:
475,192,123031,128,0,123859:0:0:0:0:
329,192,123238,1,0,0:0:0:0:
256,192,123238,1,0,0:0:0:0:
182,192,123445,1,0,0:0:0:0:
109,192,123445,128,0,123756:0:0:0:0:
402,192,123859,128,0,124687:0:0:0:0:
329,192,123859,1,0,0:0:0:0:
256,192,123859,128,0,124687:0:0:0:0:
109,192,124066,1,0,0:0:0:0:
182,192,124169,1,0,0:0:0:0:
329,192,124169,1,0,0:0:0:0:
329,192,124583,1,0,0:0:0:0:
36,192,124687,1,0,0:0:0:0:
109,192,124687,128,0,125514:0:0:0:0:
182,192,124687,1,0,0:0:0:0:
402,192,124893,1,0,0:0:0:0:
182,192,124997,1,0,0:0:0:0:
36,192,124997,1,0,0:0:0:0:
256,192,125100,128,0,125307:0:0:0:0:
329,192,125100,1,0,0:0:0:0:
36,192,125307,1,0,0:0:0:0:
256,192,125514,128,0,127997:0:0:0:0:
475,192,125514,1,0,0:0:0:0:
402,192,125514,128,0,126342:0:0:0:0:
182,192,125824,1,0,0:0:0:0:
109,192,125824,1,0,0:0:0:0:
36,192,126342,128,0,127997:0:0:0:0:
475,192,126342,1,0,0:0:0:0:
182,192,126342,128,0,126652:0:0:0:0:
329,192,126342,128,0,127066:0:0:0:0:
475,192,126652,1,0,0:0:0:0:
109,192,126652,1,0,0:0:0:0:
182,192,126756,128,0,127480:0:0:0:0:
475,192,127169,128,0,127997:0:0:0:0:
329,192,127169,128,0,127893:0:0:0:0:
109,192,127169,1,0,0:0:0:0:
402,192,127480,1,0,0:0:0:0:
109,192,127480,1,0,0:0:0:0:
182,192,127583,128,0,127997:0:0:0:0:
402,192,127997,128,0,129652:0:0:0:0:
109,192,127997,128,0,128618:0:0:0:0:
329,192,127997,1,0,0:0:0:0:
256,192,128618,128,0,128824:0:0:0:0:
475,192,128824,128,0,129031:0:0:0:0:
36,192,129031,128,0,129238:0:0:0:0:
256,192,129445,128,0,129859:0:0:0:0:
109,192,129652,128,0,131307:0:0:0:0:
36,192,129859,128,0,130066:0:0:0:0:
402,192,130273,128,0,130480:0:0:0:0:
182,192,130687,128,0,130893:0:0:0:0:
256,192,130893,128,0,131100:0:0:0:0:
402,192,131100,128,0,131721:0:0:0:0:
329,192,131307,128,0,132962:0:0:0:0:
36,192,131514,128,0,131721:0:0:0:0:
109,192,131721,128,0,131928:0:0:0:0:
256,192,131928,128,0,132135:0:0:0:0:
475,192,132342,128,0,132549:0:0:0:0:
256,192,132549,128,0,132756:0:0:0:0:
36,192,132756,128,0,132962:0:0:0:0:
182,192,132962,128,0,134618:0:0:0:0:
109,192,133169,128,0,133583:0:0:0:0:
329,192,133583,128,0,133997:0:0:0:0:
475,192,133997,128,0,134204:0:0:0:0:
256,192,134204,128,0,134411:0:0:0:0:
36,192,134411,128,0,134618:0:0:0:0:
402,192,134618,1,0,0:0:0:0:
475,192,134618,1,0,0:0:0:0:
109,192,134618,1,0,0:0:0:0:
256,192,134824,1,0,0:0:0:0:
36,192,134824,1,0,0:0:0:0:
109,192,134928,1,0,0:0:0:0:
182,192,134928,1,0,0:0:0:0:
329,192,135031,1,0,0:0:0:0:
402,192,135031,1,0,0:0:0:0:
256,192,135135,1,0,0:0:0:0:
182,192,135135,1,0,0:0:0:0:
402,192,135238,1,0,0:0:0:0:
475,192,135238,1,0,0:0:0:0:
36,192,135445,1,0,0:0:0:0:
182,192,135445,1,0,0:0:0:0:
329,192,135549,1,0,0:0:0:0:
109,192,135549,1,0,0:0:0:0:
256,192,135652,1,0,0:0:0:0:
182,192,135652,1,0,0:0:0:0:
329,192,135756,1,0,0:0:0:0:
475,192,135756,1,0,0:0:0:0:
182,192,135859,1,0,0:0:0:0:
256,192,135859,1,0,0:0:0:0:
402,192,135962,1,0,0:0:0:0:
36,192,135962,1,0,0:0:0:0:
109,192,136066,1,0,0:0:0:0:
182,192,136066,1,0,0:0:0:0:
329,192,136169,1,0,0:0:0:0:
256,192,136169,1,0,0:0:0:0:
402,192,136273,1,0,0:0:0:0:
475,192,136273,1,0,0:0:0:0:
256,192,136480,1,0,0:0:0:0:
36,192,136480,1,0,0:0:0:0:
475,192,136687,1,0,0:0:0:0:
402,192,136687,1,0,0:0:0:0:
329,192,136790,1,0,0:0:0:0:
109,192,136790,1,0,0:0:0:0:
182,192,136893,1,0,0:0:0:0:
256,192,136893,1,0,0:0:0:0:
109,192,137100,1,0,0:0:0:0:
36,192,137100,1,0,0:0:0:0:
329,192,137204,1,0,0:0:0:0:
182,192,137204,1,0,0:0:0:0:
475,192,137307,1,0,0:0:0:0:
402,192,137307,1,0,0:0:0:0:
256,192,137411,1,0,0:0:0:0:
182,192,137411,1,0,0:0:0:0:
109,192,137514,1,0,0:0:0:0:
36,192,137514,1,0,0:0:0:0:
402,192,137721,1,0,0:0:0:0:
329,192,137721,1,0,0:0:0:0:
182,192,137824,1,0,0:0:0:0:
109,192,137824,1,0,0:0:0:0:
256,192,137928,1,0,0:0:0:0:
402,192,137928,1,0,0:0:0:0:
475,192,138135,1,0,0:0:0:0:
36,192,138135,1,0,0:0:0:0:
109,192,138342,1,0,0:0:0:0:
329,192,138342,1,0,0:0:0:0:
182,192,138445,1,0,0:0:0:0:
256,192,138445,1,0,0:0:0:0:
329,192,138549,1,0,0:0:0:0:
402,192,138549,1,0,0:0:0:0:
36,192,138756,1,0,0:0:0:0:
475,192,138756,1,0,0:0:0:0:
256,192,138962,1,0,0:0:0:0:
182,192,138962,1,0,0:0:0:0:
402,192,139169,1,0,0:0:0:0:
475,192,139169,1,0,0:0:0:0:
329,192,139273,1,0,0:0:0:0:
109,192,139273,1,0,0:0:0:0:
182,192,139376,1,0,0:0:0:0:
256,192,139376,1,0,0:0:0:0:
36,192,139480,1,0,0:0:0:0:
329,192,139480,1,0,0:0:0:0:
109,192,139583,1,0,0:0:0:0:
182,192,139583,1,0,0:0:0:0:
402,192,139790,1,0,0:0:0:0:
475,192,139790,1,0,0:0:0:0:
329,192,139893,1,0,0:0:0:0:
109,192,139893,1,0,0:0:0:0:
182,192,139997,1,0,0:0:0:0:
256,192,139997,1,0,0:0:0:0:
109,192,140204,1,0,0:0:0:0:
36,192,140204,1,0,0:0:0:0:
475,192,140411,128,0,141238:0:0:0:0:
256,192,140411,128,0,141238:0:0:0:0:
109,192,140618,128,0,140824:0:0:0:0:
182,192,140824,128,0,141031:0:0:0:0:
329,192,141031,128,0,141238:0:0:0:0:
36,192,141238,128,0,142066:0:0:0:0:
109,192,141238,1,0,0:0:0:0:
402,192,141238,128,0,141652:0:0:0:0:
182,192,141238,1,0,0:0:0:0:
109,192,141652,1,0,0:0:0:0:
329,192,141859,128,0,142066:0:0:0:0:
256,192,142066,128,0,142893:0:0:0:0:
475,192,142066,128,0,142273:0:0:0:0:
182,192,142273,128,0,142480:0:0:0:0:
36,192,142480,128,0,142687:0:0:0:0:
329,192,142480,1,0,0:0:0:0:
109,192,142687,128,0,142893:0:0:0:0:
182,192,142687,1,0,0:0:0:0:
475,192,142893,128,0,143721:0:0:0:0:
329,192,142893,128,0,143514:0:0:0:0:
402,192,142893,1,0,0:0:0:0:
36,192,143307,1,0,0:0:0:0:
109,192,143307,1,0,0:0:0:0:
182,192,143514,128,0,143721:0:0:0:0:
329,192,143721,128,0,143824:0:0:0:0:
402,192,143721,128,0,143824:0:0:0:0:
36,192,143721,128,0,143928:0:0:0:0:
256,192,143721,1,0,0:0:0:0:
109,192,143928,128,0,144031:0:0:0:0:
182,192,143928,128,0,144031:0:0:0:0:
256,192,143928,1,0,0:0:0:0:
36,192,144135,128,0,144238:0:0:0:0:
475,192,144135,128,0,144238:0:0:0:0:
402,192,144135,128,0,144342:0:0:0:0:
329,192,144135,1,0,0:0:0:0:
329,192,144342,128,0,144445:0:0:0:0:
256,192,144342,128,0,144445:0:0:0:0:
182,192,144342,128,0,144549:0:0:0:0:
109,192,144549,128,0,145376:0:0:0:0:
475,192,144549,128,0,144962:0:0:0:0:
329,192,144962,128,0,145376:0:0:0:0:
36,192,144962,1,0,0:0:0:0:
402,192,145169,1,0,0:0:0:0:
475,192,145169,1,0,0:0:0:0:
256,192,145376,128,0,146204:0:0:0:0:
182,192,145376,128,0,145583:0:0:0:0:
402,192,145376,1,0,0:0:0:0:
36,192,145583,128,0,145790:0:0:0:0:
109,192,145790,128,0,145997:0:0:0:0:
402,192,145790,1,0,0:0:0:0:
475,192,145997,128,0,146204:0:0:0:0:
182,192,145997,1,0,0:0:0:0:
402,192,146204,128,0,147031:0:0:0:0:
329,192,146204,128,0,146618:0:0:0:0:
182,192,146618,128,0,146824:0:0:0:0:
36,192,146618,1,0,0:0:0:0:
256,192,146824,128,0,147031:0:0:0:0:
329,192,146824,1,0,0:0:0:0:
36,192,147031,128,0,147135:0:0:0:0:
109,192,147031,128,0,147135:0:0:0:0:
182,192,147031,1,0,0:0:0:0:
475,192,147238,128,0,147342:0:0:0:0:
402,192,147238,128,0,147342:0:0:0:0:
329,192,147238,1,0,0:0:0:0:
182,192,147445,128,0,147549:0:0:0:0:
256,192,147445,128,0,147549:0:0:0:0:
36,192,147445,128,0,147859:0:0:0:0:
329,192,147652,128,0,147756:0:0:0:0:
402,192,147652,128,0,147756:0:0:0:0:
109,192,147652,1,0,0:0:0:0:
475,192,147859,128,0,148687:0:0:0:0:
109,192,147859,128,0,148273:0:0:0:0:
256,192,147859,1,0,0:0:0:0:
182,192,147859,1,0,0:0:0:0:
402,192,147859,1,0,0:0:0:0:
329,192,148273,128,0,148687:0:0:0:0:
36,192,148273,1,0,0:0:0:0:
182,192,148480,1,0,0:0:0:0:
109,192,148480,1,0,0:0:0:0:
256,192,148687,128,0,149514:0:0:0:0:
402,192,148687,128,0,148893:0:0:0:0:
36,192,148687,1,0,0:0:0:0:
109,192,148893,128,0,149100:0:0:0:0:
329,192,149100,128,0,149307:0:0:0:0:
475,192,149100,1,0,0:0:0:0:
182,192,149307,128,0,149514:0:0:0:0:
402,192,149307,1,0,0:0:0:0:
36,192,149514,128,0,150342:0:0:0:0:
475,192,149514,128,0,149928:0:0:0:0:
109,192,149514,1,0,0:0:0:0:
109,192,149928,128,0,150342:0:0:0:0:
329,192,149928,1,0,0:0:0:0:
402,192,150342,128,0,150549:0:0:0:0:
182,192,150342,1,0,0:0:0:0:
256,192,150342,1,0,0:0:0:0:
475,192,150549,1,0,0:0:0:0:
36,192,150549,1,0,0:0:0:0:
256,192,150756,128,0,151169:0:0:0:0:
475,192,151169,128,0,151997:0:0:0:0:
109,192,151169,128,0,151583:0:0:0:0:
329,192,151169,1,0,0:0:0:0:
329,192,151583,128,0,151997:0:0:0:0:
182,192,151583,1,0,0:0:0:0:
256,192,151790,1,0,0:0:0:0:
36,192,151790,1,0,0:0:0:0:
36,192,151997,128,0,152411:0:0:0:0:
182,192,151997,1,0,0:0:0:0:
402,192,151997,1,0,0:0:0:0:
182,192,152411,128,0,152824:0:0:0:0:
256,192,152411,1,0,0:0:0:0:
475,192,152618,1,0,0:0:0:0:
329,192,152618,1,0,0:0:0:0:
36,192,152824,128,0,153652:0:0:0:0:
402,192,152824,128,0,153445:0:0:0:0:
256,192,153031,1,0,0:0:0:0:
109,192,153031,1,0,0:0:0:0:
109,192,153238,1,0,0:0:0:0:
182,192,153238,1,0,0:0:0:0:
329,192,153238,1,0,0:0:0:0:
475,192,153445,128,0,153652:0:0:0:0:
256,192,153652,128,0,154893:0:0:0:0:
109,192,153859,1,0,0:0:0:0:
402,192,153859,1,0,0:0:0:0:
475,192,154480,128,0,156135:0:0:0:0:
36,192,154480,1,0,0:0:0:0:
36,192,155307,128,0,156135:0:0:0:0:
109,192,155307,1,0,0:0:0:0:
402,192,155721,128,0,155824:0:0:0:0:
329,192,155824,128,0,155928:0:0:0:0:
182,192,155928,128,0,156031:0:0:0:0:
109,192,156031,128,0,156135:0:0:0:0:
402,192,156135,128,0,156962:0:0:0:0:
256,192,156135,1,0,0:0:0:0:
182,192,156135,1,0,0:0:0:0:
329,192,156135,1,0,0:0:0:0:
109,192,156342,128,0,156549:0:0:0:0:
256,192,156342,1,0,0:0:0:0:
36,192,156549,128,0,156756:0:0:0:0:
329,192,156549,1,0,0:0:0:0:
475,192,156549,1,0,0:0:0:0:
182,192,156756,1,0,0:0:0:0:
329,192,156756,128,0,156962:0:0:0:0:
36,192,156962,1,0,0:0:0:0:
256,192,156962,128,0,157790:0:0:0:0:
109,192,156962,1,0,0:0:0:0:
475,192,157169,128,0,157376:0:0:0:0:
182,192,157169,1,0,0:0:0:0:
402,192,157376,1,0,0:0:0:0:
329,192,157376,1,0,0:0:0:0:
182,192,157376,128,0,157583:0:0:0:0:
36,192,157583,128,0,157790:0:0:0:0:
475,192,157583,1,0,0:0:0:0:
182,192,157790,1,0,0:0:0:0:
109,192,157790,128,0,158618:0:0:0:0:
329,192,157790,1,0,0:0:0:0:
402,192,157997,128,0,158204:0:0:0:0:
36,192,157997,1,0,0:0:0:0:
329,192,158204,128,0,158411:0:0:0:0:
475,192,158204,1,0,0:0:0:0:
182,192,158204,1,0,0:0:0:0:
36,192,158411,1,0,0:0:0:0:
256,192,158411,128,0,158824:0:0:0:0:
475,192,158618,128,0,159445:0:0:0:0:
329,192,158618,1,0,0:0:0:0:
402,192,158618,1,0,0:0:0:0:
109,192,158824,1,0,0:0:0:0:
182,192,158824,128,0,159031:0:0:0:0:
402,192,159031,1,0,0:0:0:0:
36,192,159031,128,0,159238:0:0:0:0:
329,192,159031,1,0,0:0:0:0:
109,192,159238,1,0,0:0:0:0:
256,192,159238,128,0,159445:0:0:0:0:
36,192,159445,1,0,0:0:0:0:
182,192,159445,1,0,0:0:0:0:
256,192,159652,1,0,0:0:0:0:
182,192,159652,128,0,159859:0:0:0:0:
402,192,159859,1,0,0:0:0:0:
109,192,159859,128,0,160273:0:0:0:0:
329,192,159859,128,0,160066:0:0:0:0:
182,192,160066,1,0,0:0:0:0:
475,192,160066,128,0,160273:0:0:0:0:
402,192,160273,1,0,0:0:0:0:
256,192,160273,128,0,160687:0:0:0:0:
329,192,160273,128,0,160480:0:0:0:0:
109,192,160480,128,0,160687:0:0:0:0:
182,192,160480,1,0,0:0:0:0:
329,192,160687,1,0,0:0:0:0:
402,192,160687,128,0,161100:0:0:0:0:
36,192,160687,128,0,160893:0:0:0:0:
475,192,160893,128,0,161307:0:0:0:0:
182,192,160893,1,0,0:0:0:0:
36,192,161100,128,0,161204:0:0:0:0:
256,192,161100,1,0,0:0:0:0:
329,192,161204,1,0,0:0:0:0:
109,192,161204,128,0,161307:0:0:0:0:
182,192,161307,128,0,161411:0:0:0:0:
402,192,161307,1,0,0:0:0:0:
256,192,161411,128,0,161514:0:0:0:0:
475,192,161411,1,0,0:0:0:0:
109,192,161514,1,0,0:0:0:0:
329,192,161514,1,0,0:0:0:0:
36,192,161514,128,0,162135:0:0:0:0:
329,192,161721,128,0,162135:0:0:0:0:
402,192,161721,1,0,0:0:0:0:
256,192,161928,1,0,0:0:0:0:
109,192,161928,1,0,0:0:0:0:
182,192,162135,128,0,162342:0:0:0:0:
475,192,162135,128,0,162756:0:0:0:0:
36,192,162342,128,0,162549:0:0:0:0:
329,192,162342,1,0,0:0:0:0:
402,192,162342,1,0,0:0:0:0:
109,192,162549,128,0,162756:0:0:0:0:
182,192,162549,1,0,0:0:0:0:
256,192,162756,1,0,0:0:0:0:
402,192,162756,128,0,162859:0:0:0:0:
182,192,162859,1,0,0:0:0:0:
329,192,162859,128,0,162962:0:0:0:0:
109,192,162962,1,0,0:0:0:0:
256,192,162962,128,0,163066:0:0:0:0:
36,192,162962,128,0,163169:0:0:0:0:
182,192,163066,128,0,163169:0:0:0:0:
329,192,163066,1,0,0:0:0:0:
475,192,163169,128,0,163997:0:0:0:0:
256,192,163169,1,0,0:0:0:0:
402,192,163169,128,0,163376:0:0:0:0:
109,192,163376,1,0,0:0:0:0:
256,192,163376,128,0,163583:0:0:0:0:
182,192,163480,1,0,0:0:0:0:
402,192,163583,1,0,0:0:0:0:
329,192,163583,1,0,0:0:0:0:
182,192,163790,128,0,163997:0:0:0:0:
109,192,163790,1,0,0:0:0:0:
36,192,163997,128,0,164411:0:0:0:0:
256,192,163997,1,0,0:0:0:0:
329,192,163997,128,0,164204:0:0:0:0:
475,192,164204,128,0,164411:0:0:0:0:
402,192,164204,1,0,0:0:0:0:
182,192,164411,1,0,0:0:0:0:
256,192,164411,128,0,165031:0:0:0:0:
109,192,164411,1,0,0:0:0:0:
402,192,164618,128,0,164824:0:0:0:0:
329,192,164618,1,0,0:0:0:0:
109,192,164824,128,0,165031:0:0:0:0:
475,192,164824,1,0,0:0:0:0:
182,192,164824,1,0,0:0:0:0:
329,192,165031,1,0,0:0:0:0:
36,192,165031,128,0,165445:0:0:0:0:
402,192,165238,128,0,166066:0:0:0:0:
475,192,165238,1,0,0:0:0:0:
109,192,165238,1,0,0:0:0:0:
329,192,165445,1,0,0:0:0:0:
182,192,165445,128,0,165652:0:0:0:0:
36,192,165652,1,0,0:0:0:0:
256,192,165652,128,0,165859:0:0:0:0:
109,192,165652,1,0,0:0:0:0:
329,192,165859,1,0,0:0:0:0:
475,192,165859,128,0,166066:0:0:0:0:
182,192,166066,1,0,0:0:0:0:
329,192,166066,128,0,166169:0:0:0:0:
36,192,166066,128,0,166273:0:0:0:0:
109,192,166169,1,0,0:0:0:0:
256,192,166169,128,0,166273:0:0:0:0:
475,192,166273,1,0,0:0:0:0:
182,192,166273,128,0,166376:0:0:0:0:
402,192,166273,128,0,166480:0:0:0:0:
256,192,166376,1,0,0:0:0:0:
109,192,166376,128,0,166480:0:0:0:0:
182,192,166480,1,0,0:0:0:0:
36,192,166480,128,0,166893:0:0:0:0:
329,192,166480,128,0,166687:0:0:0:0:
475,192,166687,1,0,0:0:0:0:
109,192,166687,128,0,167100:0:0:0:0:
256,192,166893,128,0,166997:0:0:0:0:
402,192,166893,1,0,0:0:0:0:
475,192,166997,1,0,0:0:0:0:
329,192,166997,128,0,167100:0:0:0:0:
182,192,167100,1,0,0:0:0:0:
402,192,167100,128,0,167204:0:0:0:0:
36,192,167100,128,0,167307:0:0:0:0:
475,192,167204,128,0,167307:0:0:0:0:
109,192,167204,1,0,0:0:0:0:
182,192,167307,128,0,167721:0:0:0:0:
329,192,167307,1,0,0:0:0:0:
256,192,167307,128,0,167514:0:0:0:0:
109,192,167514,128,0,167721:0:0:0:0:
402,192,167514,1,0,0:0:0:0:
475,192,167721,128,0,168135:0:0:0:0:
256,192,167721,1,0,0:0:0:0:
402,192,167721,128,0,167824:0:0:0:0:
182,192,167824,1,0,0:0:0:0:
329,192,167824,128,0,167928:0:0:0:0:
109,192,167928,1,0,0:0:0:0:
256,192,167928,128,0,168031:0:0:0:0:
182,192,168031,128,0,168135:0:0:0:0:
402,192,168031,1,0,0:0:0:0:
36,192,168135,128,0,168549:0:0:0:0:
329,192,168135,1,0,0:0:0:0:
109,192,168135,128,0,168238:0:0:0:0:
402,192,168238,1,0,0:0:0:0:
182,192,168238,128,0,168342:0:0:0:0:
256,192,168342,128,0,168445:0:0:0:0:
475,192,168342,1,0,0:0:0:0:
109,192,168445,1,0,0:0:0:0:
329,192,168445,128,0,168549:0:0:0:0:
402,192,168549,128,0,168652:0:0:0:0:
182,192,168549,1,0,0:0:0:0:
475,192,168549,128,0,168962:0:0:0:0:
329,192,168652,128,0,168756:0:0:0:0:
109,192,168652,1,0,0:0:0:0:
36,192,168756,1,0,0:0:0:0:
256,192,168756,128,0,168859:0:0:0:0:
182,192,168859,128,0,168962:0:0:0:0:
402,192,168859,1,0,0:0:0:0:
329,192,168962,1,0,0:0:0:0:
36,192,168962,128,0,169376:0:0:0:0:
109,192,168962,128,0,169066:0:0:0:0:
182,192,169066,128,0,169169:0:0:0:0:
402,192,169066,1,0,0:0:0:0:
475,192,169169,1,0,0:0:0:0:
256,192,169169,128,0,169273:0:0:0:0:
329,192,169273,128,0,169376:0:0:0:0:
109,192,169273,1,0,0:0:0:0:
256,192,169376,1,0,0:0:0:0:
402,192,169376,1,0,0:0:0:0:
182,192,169376,1,0,0:0:0:0:
475,192,169376,128,0,171031:0:0:0:0:
109,192,169480,1,0,0:0:0:0:
182,192,169583,1,0,0:0:0:0:
256,192,169687,1,0,0:0:0:0:
329,192,169790,1,0,0:0:0:0:
256,192,169893,1,0,0:0:0:0:
182,192,169997,1,0,0:0:0:0:
109,192,170100,1,0,0:0:0:0:
36,192,170204,1,0,0:0:0:0:
109,192,170307,1,0,0:0:0:0:
182,192,170411,1,0,0:0:0:0:
256,192,170514,1,0,0:0:0:0:
329,192,170618,1,0,0:0:0:0:
256,192,170721,1,0,0:0:0:0:
182,192,170824,1,0,0:0:0:0:
109,192,170928,1,0,0:0:0:0:
329,192,171031,128,0,171859:0:0:0:0:
36,192,171031,1,0,0:0:0:0:
402,192,171031,1,0,0:0:0:0:
256,192,171031,1,0,0:0:0:0:
182,192,171031,1,0,0:0:0:0:
109,192,171135,1,0,0:0:0:0:
182,192,171238,1,0,0:0:0:0:
256,192,171342,1,0,0:0:0:0:
402,192,171445,1,0,0:0:0:0:
256,192,171549,1,0,0:0:0:0:
182,192,171652,1,0,0:0:0:0:
109,192,171756,1,0,0:0:0:0:
182,192,171859,128,0,172687:0:0:0:0:
36,192,171859,1,0,0:0:0:0:
475,192,171859,1,0,0:0:0:0:
402,192,171859,1,0,0:0:0:0:
256,192,171859,1,0,0:0:0:0:
109,192,171962,1,0,0:0:0:0:
256,192,172066,1,0,0:0:0:0:
329,192,172169,1,0,0:0:0:0:
402,192,172273,1,0,0:0:0:0:
329,192,172376,1,0,0:0:0:0:
256,192,172480,1,0,0:0:0:0:
109,192,172583,1,0,0:0:0:0:
36,192,172687,128,0,174342:0:0:0:0:
256,192,172687,1,0,0:0:0:0:
329,192,172687,1,0,0:0:0:0:
475,192,172687,1,0,0:0:0:0:
402,192,172687,1,0,0:0:0:0:
182,192,172790,1,0,0:0:0:0:
256,192,172893,1,0,0:0:0:0:
329,192,172997,1,0,0:0:0:0:
402,192,173100,1,0,0:0:0:0:
329,192,173204,1,0,0:0:0:0:
256,192,173307,1,0,0:0:0:0:
182,192,173411,1,0,0:0:0:0:
109,192,173514,1,0,0:0:0:0:
475,192,173514,1,0,0:0:0:0:
402,192,173514,1,0,0:0:0:0:
329,192,173514,1,0,0:0:0:0:
182,192,173618,1,0,0:0:0:0:
256,192,173721,1,0,0:0:0:0:
329,192,173824,1,0,0:0:0:0:
402,192,173928,1,0,0:0:0:0:
182,192,173928,1,0,0:0:0:0:
109,192,173928,1,0,0:0:0:0:
475,192,173928,1,0,0:0:0:0:
329,192,174031,1,0,0:0:0:0:
256,192,174135,1,0,0:0:0:0:
182,192,174238,1,0,0:0:0:0:
256,192,174342,128,0,175997:0:0:0:0:
109,192,174342,1,0,0:0:0:0:
182,192,174445,1,0,0:0:0:0:
329,192,174549,1,0,0:0:0:0:
402,192,174652,1,0,0:0:0:0:
475,192,174756,1,0,0:0:0:0:
36,192,174756,1,0,0:0:0:0:
109,192,174756,1,0,0:0:0:0:
182,192,174756,1,0,0:0:0:0:
402,192,174859,1,0,0:0:0:0:
329,192,174962,1,0,0:0:0:0:
182,192,175066,1,0,0:0:0:0:
109,192,175169,1,0,0:0:0:0:
182,192,175273,1,0,0:0:0:0:
329,192,175376,1,0,0:0:0:0:
402,192,175480,1,0,0:0:0:0:
475,192,175583,1,0,0:0:0:0:
402,192,175687,1,0,0:0:0:0:
329,192,175790,1,0,0:0:0:0:
182,192,175893,1,0,0:0:0:0:
475,192,175997,128,0,177652:0:0:0:0:
109,192,175997,1,0,0:0:0:0:
36,192,175997,128,0,176100:0:0:0:0:
182,192,176100,1,0,0:0:0:0:
256,192,176204,1,0,0:0:0:0:
329,192,176307,1,0,0:0:0:0:
402,192,176411,1,0,0:0:0:0:
182,192,176411,128,0,176514:0:0:0:0:
36,192,176411,1,0,0:0:0:0:
109,192,176411,1,0,0:0:0:0:
329,192,176514,1,0,0:0:0:0:
256,192,176618,1,0,0:0:0:0:
182,192,176721,1,0,0:0:0:0:
109,192,176824,1,0,0:0:0:0:
329,192,176824,128,0,176928:0:0:0:0:
402,192,176824,1,0,0:0:0:0:
36,192,176824,1,0,0:0:0:0:
182,192,176928,1,0,0:0:0:0:
256,192,177031,1,0,0:0:0:0:
329,192,177135,1,0,0:0:0:0:
402,192,177238,1,0,0:0:0:0:
36,192,177238,128,0,177342:0:0:0:0:
329,192,177342,1,0,0:0:0:0:
256,192,177445,1,0,0:0:0:0:
182,192,177549,1,0,0:0:0:0:
329,192,177652,128,0,179307:0:0:0:0:
109,192,177652,1,0,0:0:0:0:
402,192,177652,128,0,177756:0:0:0:0:
36,192,177652,1,0,0:0:0:0:
182,192,177756,1,0,0:0:0:0:
256,192,177859,1,0,0:0:0:0:
402,192,177962,1,0,0:0:0:0:
475,192,178066,1,0,0:0:0:0:
109,192,178066,128,0,178169:0:0:0:0:
402,192,178169,1,0,0:0:0:0:
256,192,178273,1,0,0:0:0:0:
182,192,178376,1,0,0:0:0:0:
109,192,178480,1,0,0:0:0:0:
36,192,178480,128,0,178583:0:0:0:0:
182,192,178583,1,0,0:0:0:0:
256,192,178687,1,0,0:0:0:0:
402,192,178790,1,0,0:0:0:0:
475,192,178893,1,0,0:0:0:0:
182,192,178893,128,0,178997:0:0:0:0:
402,192,178997,1,0,0:0:0:0:
256,192,179100,1,0,0:0:0:0:
109,192,179204,1,0,0:0:0:0:
182,192,179307,128,0,180962:0:0:0:0:
36,192,179307,1,0,0:0:0:0:
402,192,179307,128,0,179411:0:0:0:0:
475,192,179307,1,0,0:0:0:0:
109,192,179411,1,0,0:0:0:0:
256,192,179514,1,0,0:0:0:0:
329,192,179618,1,0,0:0:0:0:
402,192,179721,1,0,0:0:0:0:
475,192,179721,128,0,179824:0:0:0:0:
36,192,179721,1,0,0:0:0:0:
109,192,179721,1,0,0:0:0:0:
329,192,179824,1,0,0:0:0:0:
256,192,179928,1,0,0:0:0:0:
109,192,180031,1,0,0:0:0:0:
36,192,180135,1,0,0:0:0:0:
402,192,180135,128,0,180238:0:0:0:0:
109,192,180238,1,0,0:0:0:0:
256,192,180342,1,0,0:0:0:0:
329,192,180445,1,0,0:0:0:0:
402,192,180549,1,0,0:0:0:0:
109,192,180549,128,0,180652:0:0:0:0:
475,192,180549,1,0,0:0:0:0:
36,192,180549,1,0,0:0:0:0:
329,192,180652,1,0,0:0:0:0:
256,192,180756,1,0,0:0:0:0:
109,192,180859,1,0,0:0:0:0:
36,192,180962,128,0,182618:0:0:0:0:
475,192,180962,128,0,181066:0:0:0:0:
402,192,180962,1,0,0:0:0:0:
256,192,181066,1,0,0:0:0:0:
329,192,181169,1,0,0:0:0:0:
402,192,181273,1,0,0:0:0:0:
475,192,181376,1,0,0:0:0:0:
109,192,181376,128,0,181480:0:0:0:0:
329,192,181480,1,0,0:0:0:0:
256,192,181583,1,0,0:0:0:0:
182,192,181687,1,0,0:0:0:0:
109,192,181790,1,0,0:0:0:0:
402,192,181790,128,0,181893:0:0:0:0:
256,192,181893,1,0,0:0:0:0:
329,192,181997,1,0,0:0:0:0:
402,192,182100,1,0,0:0:0:0:
475,192,182204,1,0,0:0:0:0:
109,192,182204,128,0,182307:0:0:0:0:
329,192,182307,1,0,0:0:0:0:
256,192,182411,1,0,0:0:0:0:
182,192,182514,1,0,0:0:0:0:
256,192,182618,128,0,183445:0:0:0:0:
109,192,182618,1,0,0:0:0:0:
475,192,182618,1,0,0:0:0:0:
182,192,183238,128,0,183445:0:0:0:0:
36,192,183445,128,0,183549:0:0:0:0:
109,192,183445,128,0,183549:0:0:0:0:
329,192,183445,128,0,183652:0:0:0:0:
402,192,183652,128,0,183756:0:0:0:0:
475,192,183652,128,0,183756:0:0:0:0:
256,192,183652,128,0,183859:0:0:0:0:
109,192,183859,128,0,183962:0:0:0:0:
182,192,183859,128,0,183962:0:0:0:0:
36,192,183859,128,0,184066:0:0:0:0:
329,192,184066,128,0,184169:0:0:0:0:
402,192,184066,128,0,184169:0:0:0:0:
475,192,184066,128,0,184273:0:0:0:0:
256,192,184273,128,0,185100:0:0:0:0:
109,192,184273,128,0,184687:0:0:0:0:
36,192,184273,1,0,0:0:0:0:
402,192,184687,1,0,0:0:0:0:
182,192,184687,1,0,0:0:0:0:
182,192,184893,128,0,185721:0:0:0:0:
36,192,184893,1,0,0:0:0:0:
402,192,185100,128,0,185204:0:0:0:0:
329,192,185100,128,0,185204:0:0:0:0:
36,192,185307,128,0,185411:0:0:0:0:
109,192,185307,128,0,185411:0:0:0:0:
475,192,185514,128,0,185618:0:0:0:0:
402,192,185514,128,0,185618:0:0:0:0:
256,192,185721,128,0,185824:0:0:0:0:
329,192,185721,128,0,185824:0:0:0:0:
402,192,185721,1,0,0:0:0:0:
36,192,185721,1,0,0:0:0:0:
109,192,185928,128,0,186756:0:0:0:0:
182,192,185928,1,0,0:0:0:0:
475,192,185928,1,0,0:0:0:0:
402,192,186135,1,0,0:0:0:0:
329,192,186342,1,0,0:0:0:0:
256,192,186342,1,0,0:0:0:0:
36,192,186549,128,0,186756:0:0:0:0:
402,192,186756,128,0,186859:0:0:0:0:
475,192,186756,128,0,186859:0:0:0:0:
329,192,186756,128,0,186962:0:0:0:0:
182,192,186962,128,0,187066:0:0:0:0:
256,192,186962,128,0,187066:0:0:0:0:
475,192,186962,128,0,187169:0:0:0:0:
36,192,187169,128,0,187273:0:0:0:0:
109,192,187169,128,0,187273:0:0:0:0:
182,192,187169,128,0,187376:0:0:0:0:
329,192,187376,128,0,187480:0:0:0:0:
402,192,187376,128,0,187480:0:0:0:0:
475,192,187376,128,0,187583:0:0:0:0:
256,192,187583,128,0,187997:0:0:0:0:
36,192,187583,128,0,187997:0:0:0:0:
182,192,187997,128,0,188411:0:0:0:0:
475,192,187997,1,0,0:0:0:0:
329,192,188411,128,0,188824:0:0:0:0:
256,192,188411,1,0,0:0:0:0:
475,192,188824,128,0,189238:0:0:0:0:
182,192,188824,1,0,0:0:0:0:
329,192,189031,128,0,190066:0:0:0:0:
36,192,189031,1,0,0:0:0:0:
109,192,189031,1,0,0:0:0:0:
256,192,189031,1,0,0:0:0:0:
402,192,189238,1,0,0:0:0:0:
182,192,189238,1,0,0:0:0:0:
36,192,189652,1,0,0:0:0:0:
109,192,189652,1,0,0:0:0:0:
402,192,189859,128,0,190066:0:0:0:0:
109,192,190066,128,0,190169:0:0:0:0:
182,192,190066,128,0,190169:0:0:0:0:
256,192,190066,128,0,190273:0:0:0:0:
329,192,190273,128,0,190376:0:0:0:0:
402,192,190273,128,0,190376:0:0:0:0:
475,192,190273,128,0,190480:0:0:0:0:
36,192,190480,128,0,190583:0:0:0:0:
109,192,190480,128,0,190583:0:0:0:0:
182,192,190480,128,0,190687:0:0:0:0:
402,192,190687,128,0,190790:0:0:0:0:
475,192,190687,128,0,190790:0:0:0:0:
256,192,190687,128,0,190893:0:0:0:0:
182,192,190893,128,0,191721:0:0:0:0:
329,192,190893,128,0,191514:0:0:0:0:
475,192,191307,1,0,0:0:0:0:
402,192,191307,1,0,0:0:0:0:
36,192,191514,128,0,191721:0:0:0:0:
256,192,191721,128,0,191824:0:0:0:0:
329,192,191721,128,0,191824:0:0:0:0:
402,192,191928,128,0,192031:0:0:0:0:
475,192,191928,128,0,192031:0:0:0:0:
109,192,192135,128,0,192238:0:0:0:0:
182,192,192135,128,0,192238:0:0:0:0:
256,192,192135,128,0,192549:0:0:0:0:
329,192,192342,128,0,192445:0:0:0:0:
402,192,192342,128,0,192445:0:0:0:0:
36,192,192549,128,0,193376:0:0:0:0:
475,192,192549,128,0,193169:0:0:0:0:
109,192,192549,1,0,0:0:0:0:
182,192,192549,1,0,0:0:0:0:
256,192,192962,1,0,0:0:0:0:
109,192,192962,1,0,0:0:0:0:
329,192,193169,128,0,193376:0:0:0:0:
182,192,193376,128,0,193480:0:0:0:0:
256,192,193376,128,0,193480:0:0:0:0:
475,192,193376,1,0,0:0:0:0:
329,192,193583,128,0,193687:0:0:0:0:
402,192,193583,128,0,193687:0:0:0:0:
36,192,193583,128,0,193997:0:0:0:0:
109,192,193790,128,0,193893:0:0:0:0:
182,192,193790,128,0,193893:0:0:0:0:
402,192,193997,128,0,194100:0:0:0:0:
475,192,193997,128,0,194100:0:0:0:0:
329,192,193997,128,0,194204:0:0:0:0:
256,192,194204,128,0,195031:0:0:0:0:
109,192,194204,128,0,194618:0:0:0:0:
182,192,194204,1,0,0:0:0:0:
36,192,194411,1,0,0:0:0:0:
402,192,194411,1,0,0:0:0:0:
475,192,194618,128,0,195031:0:0:0:0:
182,192,194618,1,0,0:0:0:0:
329,192,194824,1,0,0:0:0:0:
109,192,194824,1,0,0:0:0:0:
182,192,195031,128,0,195445:0:0:0:0:
36,192,195031,1,0,0:0:0:0:
329,192,195238,1,0,0:0:0:0:
475,192,195238,1,0,0:0:0:0:
402,192,195445,128,0,195859:0:0:0:0:
256,192,195445,1,0,0:0:0:0:
36,192,195652,128,0,195756:0:0:0:0:
109,192,195756,128,0,195859:0:0:0:0:
182,192,195859,128,0,195962:0:0:0:0:
475,192,196273,128,0,196376:0:0:0:0:
402,192,196376,128,0,196480:0:0:0:0:
329,192,196480,128,0,196583:0:0:0:0:
182,192,196583,128,0,196687:0:0:0:0:
109,192,196687,128,0,196790:0:0:0:0:
256,192,196687,128,0,197514:0:0:0:0:
36,192,196790,128,0,196893:0:0:0:0:
475,192,196893,128,0,196997:0:0:0:0:
402,192,196997,128,0,197100:0:0:0:0:
329,192,197100,128,0,197204:0:0:0:0:
182,192,197204,128,0,197307:0:0:0:0:
109,192,197307,128,0,197411:0:0:0:0:
36,192,197411,128,0,197514:0:0:0:0:
475,192,197514,128,0,199169:0:0:0:0:
329,192,197514,1,0,0:0:0:0:
402,192,197514,1,0,0:0:0:0:
182,192,197514,1,0,0:0:0:0:
402,192,197721,128,0,197928:0:0:0:0:
329,192,197928,128,0,198135:0:0:0:0:
109,192,198135,128,0,198342:0:0:0:0:
256,192,198549,128,0,198756:0:0:0:0:
329,192,198756,128,0,198962:0:0:0:0:
402,192,198962,128,0,199169:0:0:0:0:
182,192,199169,128,0,200824:0:0:0:0:
36,192,199376,128,0,199583:0:0:0:0:
109,192,199583,128,0,199790:0:0:0:0:
256,192,199790,128,0,200204:0:0:0:0:
402,192,200204,128,0,200411:0:0:0:0:
329,192,200411,128,0,200618:0:0:0:0:
256,192,200618,128,0,200824:0:0:0:0:
329,192,200824,128,0,202480:0:0:0:0:
475,192,201031,128,0,201238:0:0:0:0:
109,192,201238,128,0,201445:0:0:0:0:
256,192,201445,128,0,201652:0:0:0:0:
402,192,201652,128,0,201859:0:0:0:0:
182,192,201859,128,0,202066:0:0:0:0:
109,192,202066,128,0,202273:0:0:0:0:
256,192,202273,128,0,202687:0:0:0:0:
36,192,202480,128,0,204135:0:0:0:0:
475,192,203100,128,0,203514:0:0:0:0:
329,192,203514,128,0,203721:0:0:0:0:
182,192,203721,128,0,203928:0:0:0:0:
402,192,203928,128,0,204135:0:0:0:0:
109,192,204135,1,0,0:0:0:0:
256,192,204135,1,0,0:0:0:0:
475,192,204135,1,0,0:0:0:0:
182,192,204342,128,0,204549:0:0:0:0:
36,192,204445,1,0,0:0:0:0:
329,192,204549,128,0,204756:0:0:0:0:
109,192,204549,1,0,0:0:0:0:
475,192,204756,128,0,204962:0:0:0:0:
256,192,204756,1,0,0:0:0:0:
182,192,204962,1,0,0:0:0:0:
36,192,204962,1,0,0:0:0:0:
329,192,205066,1,0,0:0:0:0:
109,192,205169,128,0,205376:0:0:0:0:
402,192,205169,1,0,0:0:0:0:
182,192,205376,128,0,205583:0:0:0:0:
475,192,205376,1,0,0:0:0:0:
329,192,205583,128,0,205790:0:0:0:0:
256,192,205583,1,0,0:0:0:0:
109,192,205790,1,0,0:0:0:0:
36,192,205790,1,0,0:0:0:0:
475,192,205790,1,0,0:0:0:0:
402,192,205790,1,0,0:0:0:0:
402,192,205997,128,0,206204:0:0:0:0:
256,192,206204,128,0,206411:0:0:0:0:
109,192,206411,128,0,206824:0:0:0:0:
182,192,206618,1,0,0:0:0:0:
329,192,206618,1,0,0:0:0:0:
475,192,206824,128,0,207031:0:0:0:0:
329,192,207031,128,0,207238:0:0:0:0:
182,192,207031,1,0,0:0:0:0:
36,192,207238,128,0,207445:0:0:0:0:
182,192,207445,128,0,207652:0:0:0:0:
402,192,207445,1,0,0:0:0:0:
256,192,207549,1,0,0:0:0:0:
329,192,207652,128,0,207859:0:0:0:0:
109,192,207652,1,0,0:0:0:0:
36,192,207756,1,0,0:0:0:0:
475,192,207859,128,0,208066:0:0:0:0:
402,192,207859,1,0,0:0:0:0:
182,192,207962,1,0,0:0:0:0:
256,192,208066,128,0,208480:0:0:0:0:
109,192,208066,1,0,0:0:0:0:
329,192,208273,1,0,0:0:0:0:
402,192,208273,1,0,0:0:0:0:
475,192,208480,128,0,208687:0:0:0:0:
402,192,208480,1,0,0:0:0:0:
256,192,208687,128,0,208893:0:0:0:0:
182,192,208687,1,0,0:0:0:0:
36,192,208893,128,0,209100:0:0:0:0:
109,192,208893,1,0,0:0:0:0:
402,192,209100,128,0,209204:0:0:0:0:
475,192,209100,128,0,209514:0:0:0:0:
256,192,209100,1,0,0:0:0:0:
329,192,209204,128,0,209307:0:0:0:0:
182,192,209204,1,0,0:0:0:0:
256,192,209307,128,0,209411:0:0:0:0:
109,192,209307,1,0,0:0:0:0:
182,192,209411,128,0,209514:0:0:0:0:
402,192,209411,1,0,0:0:0:0:
36,192,209514,128,0,209928:0:0:0:0:
109,192,209514,128,0,209618:0:0:0:0:
329,192,209514,1,0,0:0:0:0:
182,192,209618,128,0,209721:0:0:0:0:
402,192,209618,1,0,0:0:0:0:
256,192,209721,128,0,209824:0:0:0:0:
475,192,209721,1,0,0:0:0:0:
109,192,209824,1,0,0:0:0:0:
329,192,209824,128,0,209928:0:0:0:0:
475,192,209928,128,0,210342:0:0:0:0:
182,192,209928,1,0,0:0:0:0:
402,192,209928,128,0,210031:0:0:0:0:
329,192,210031,128,0,210135:0:0:0:0:
109,192,210031,1,0,0:0:0:0:
36,192,210135,1,0,0:0:0:0:
256,192,210135,128,0,210238:0:0:0:0:
402,192,210238,1,0,0:0:0:0:
182,192,210238,128,0,210342:0:0:0:0:
109,192,210342,128,0,210445:0:0:0:0:
329,192,210342,1,0,0:0:0:0:
36,192,210342,128,0,210756:0:0:0:0:
182,192,210445,128,0,210549:0:0:0:0:
402,192,210445,1,0,0:0:0:0:
475,192,210549,1,0,0:0:0:0:
256,192,210549,128,0,210652:0:0:0:0:
109,192,210652,1,0,0:0:0:0:
329,192,210652,128,0,210756:0:0:0:0:
182,192,210756,1,0,0:0:0:0:
256,192,210756,1,0,0:0:0:0:
475,192,210756,1,0,0:0:0:0:
402,192,210756,1,0,0:0:0:0:
329,192,210859,1,0,0:0:0:0:
109,192,210859,1,0,0:0:0:0:
36,192,210962,1,0,0:0:0:0:
182,192,210962,1,0,0:0:0:0:
402,192,210962,1,0,0:0:0:0:
475,192,211066,1,0,0:0:0:0:
256,192,211066,1,0,0:0:0:0:
329,192,211169,1,0,0:0:0:0:
402,192,211169,1,0,0:0:0:0:
36,192,211169,1,0,0:0:0:0:
109,192,211169,1,0,0:0:0:0:
182,192,211273,1,0,0:0:0:0:
256,192,211273,1,0,0:0:0:0:
109,192,211376,1,0,0:0:0:0:
329,192,211376,1,0,0:0:0:0:
475,192,211376,1,0,0:0:0:0:
256,192,211480,1,0,0:0:0:0:
402,192,211480,1,0,0:0:0:0:
182,192,211583,1,0,0:0:0:0:
36,192,211583,1,0,0:0:0:0:
475,192,211583,1,0,0:0:0:0:
329,192,211583,1,0,0:0:0:0:
109,192,211687,1,0,0:0:0:0:
256,192,211687,1,0,0:0:0:0:
402,192,211790,1,0,0:0:0:0:
329,192,211790,1,0,0:0:0:0:
36,192,211790,1,0,0:0:0:0:
475,192,211893,1,0,0:0:0:0:
182,192,211893,1,0,0:0:0:0:
256,192,211997,1,0,0:0:0:0:
329,192,211997,1,0,0:0:0:0:
109,192,211997,1,0,0:0:0:0:
36,192,211997,1,0,0:0:0:0:
402,192,212100,1,0,0:0:0:0:
182,192,212100,1,0,0:0:0:0:
36,192,212204,1,0,0:0:0:0:
109,192,212204,1,0,0:0:0:0:
329,192,212204,1,0,0:0:0:0:
182,192,212307,1,0,0:0:0:0:
256,192,212307,1,0,0:0:0:0:
109,192,212411,1,0,0:0:0:0:
36,192,212411,1,0,0:0:0:0:
475,192,212411,1,0,0:0:0:0:
402,192,212411,1,0,0:0:0:0:
329,192,212514,1,0,0:0:0:0:
182,192,212514,1,0,0:0:0:0:
475,192,212618,1,0,0:0:0:0:
256,192,212618,1,0,0:0:0:0:
402,192,212618,1,0,0:0:0:0:
109,192,212721,1,0,0:0:0:0:
329,192,212721,1,0,0:0:0:0:
475,192,212824,1,0,0:0:0:0:
402,192,212824,1,0,0:0:0:0:
182,192,212824,1,0,0:0:0:0:
36,192,212824,1,0,0:0:0:0:
256,192,212928,1,0,0:0:0:0:
329,192,212928,1,0,0:0:0:0:
36,192,213031,1,0,0:0:0:0:
109,192,213031,1,0,0:0:0:0:
402,192,213031,1,0,0:0:0:0:
475,192,213135,1,0,0:0:0:0:
256,192,213135,1,0,0:0:0:0:
109,192,213238,1,0,0:0:0:0:
329,192,213238,1,0,0:0:0:0:
402,192,213238,1,0,0:0:0:0:
182,192,213238,1,0,0:0:0:0:
256,192,213342,1,0,0:0:0:0:
36,192,213342,1,0,0:0:0:0:
109,192,213445,1,0,0:0:0:0:
475,192,213445,1,0,0:0:0:0:
329,192,213445,1,0,0:0:0:0:
182,192,213549,1,0,0:0:0:0:
402,192,213549,1,0,0:0:0:0:
256,192,213652,1,0,0:0:0:0:
109,192,213652,1,0,0:0:0:0:
36,192,213652,1,0,0:0:0:0:
475,192,213652,1,0,0:0:0:0:
182,192,213756,1,0,0:0:0:0:
329,192,213756,1,0,0:0:0:0:
475,192,213859,1,0,0:0:0:0:
36,192,213859,1,0,0:0:0:0:
402,192,213859,1,0,0:0:0:0:
109,192,213962,1,0,0:0:0:0:
182,192,213962,1,0,0:0:0:0:
256,192,214066,1,0,0:0:0:0:
475,192,214066,1,0,0:0:0:0:
36,192,214066,1,0,0:0:0:0:
329,192,214066,1,0,0:0:0:0:
182,192,214169,1,0,0:0:0:0:
402,192,214169,1,0,0:0:0:0:
475,192,214273,1,0,0:0:0:0:
109,192,214273,1,0,0:0:0:0:
256,192,214273,1,0,0:0:0:0:
36,192,214376,1,0,0:0:0:0:
329,192,214376,1,0,0:0:0:0:
475,192,214480,1,0,0:0:0:0:
182,192,214480,1,0,0:0:0:0:
109,192,214480,1,0,0:0:0:0:
402,192,214480,1,0,0:0:0:0:
36,192,214583,1,0,0:0:0:0:
256,192,214583,1,0,0:0:0:0:
329,192,214687,1,0,0:0:0:0:
475,192,214687,1,0,0:0:0:0:
109,192,214687,1,0,0:0:0:0:
182,192,214790,1,0,0:0:0:0:
402,192,214790,1,0,0:0:0:0:
109,192,214893,1,0,0:0:0:0:
36,192,214893,1,0,0:0:0:0:
329,192,214893,1,0,0:0:0:0:
475,192,214893,1,0,0:0:0:0:
182,192,214997,1,0,0:0:0:0:
256,192,214997,1,0,0:0:0:0:
402,192,215100,1,0,0:0:0:0:
329,192,215100,1,0,0:0:0:0:
36,192,215100,1,0,0:0:0:0:
182,192,215204,1,0,0:0:0:0:
109,192,215204,1,0,0:0:0:0:
402,192,215307,1,0,0:0:0:0:
475,192,215307,1,0,0:0:0:0:
36,192,215307,1,0,0:0:0:0:
256,192,215307,1,0,0:0:0:0:
182,192,215411,1,0,0:0:0:0:
329,192,215411,1,0,0:0:0:0:
475,192,215514,1,0,0:0:0:0:
256,192,215514,1,0,0:0:0:0:
109,192,215514,1,0,0:0:0:0:
402,192,215618,1,0,0:0:0:0:
36,192,215618,1,0,0:0:0:0:
182,192,215721,1,0,0:0:0:0:
329,192,215721,1,0,0:0:0:0:
475,192,215721,1,0,0:0:0:0:
109,192,215721,1,0,0:0:0:0:
402,192,215824,1,0,0:0:0:0:
256,192,215824,1,0,0:0:0:0:
36,192,215928,1,0,0:0:0:0:
182,192,215928,1,0,0:0:0:0:
475,192,215928,1,0,0:0:0:0:
329,192,216031,1,0,0:0:0:0:
256,192,216031,1,0,0:0:0:0:
109,192,216135,1,0,0:0:0:0:
36,192,216135,1,0,0:0:0:0:
402,192,216135,1,0,0:0:0:0:
475,192,216135,1,0,0:0:0:0:
256,192,216238,1,0,0:0:0:0:
182,192,216238,1,0,0:0:0:0:
475,192,216342,1,0,0:0:0:0:
36,192,216342,1,0,0:0:0:0:
329,192,216342,1,0,0:0:0:0:
109,192,216445,1,0,0:0:0:0:
256,192,216445,1,0,0:0:0:0:
402,192,216549,1,0,0:0:0:0:
182,192,216549,1,0,0:0:0:0:
36,192,216549,1,0,0:0:0:0:
329,192,216549,1,0,0:0:0:0:
109,192,216652,1,0,0:0:0:0:
475,192,216652,1,0,0:0:0:0:
256,192,216756,1,0,0:0:0:0:
182,192,216756,1,0,0:0:0:0:
36,192,216756,1,0,0:0:0:0:
329,192,216859,1,0,0:0:0:0:
402,192,216859,1,0,0:0:0:0:
475,192,216962,1,0,0:0:0:0:
256,192,216962,1,0,0:0:0:0:
36,192,216962,1,0,0:0:0:0:
109,192,216962,1,0,0:0:0:0:
402,192,217066,1,0,0:0:0:0:
182,192,217066,1,0,0:0:0:0:
109,192,217169,1,0,0:0:0:0:
475,192,217169,1,0,0:0:0:0:
329,192,217169,1,0,0:0:0:0:
182,192,217273,1,0,0:0:0:0:
36,192,217273,1,0,0:0:0:0:
402,192,217376,1,0,0:0:0:0:
256,192,217376,1,0,0:0:0:0:
329,192,217376,1,0,0:0:0:0:
109,192,217376,1,0,0:0:0:0:
475,192,217480,1,0,0:0:0:0:
182,192,217480,1,0,0:0:0:0:
256,192,217583,1,0,0:0:0:0:
329,192,217583,1,0,0:0:0:0:
36,192,217583,1,0,0:0:0:0:
109,192,217687,1,0,0:0:0:0:
182,192,217687,1,0,0:0:0:0:
329,192,217790,1,0,0:0:0:0:
402,192,217790,1,0,0:0:0:0:
475,192,217790,1,0,0:0:0:0:
182,192,217893,1,0,0:0:0:0:
36,192,217893,1,0,0:0:0:0:
109,192,217997,1,0,0:0:0:0:
256,192,217997,1,0,0:0:0:0:
329,192,217997,1,0,0:0:0:0:
475,192,218100,1,0,0:0:0:0:
182,192,218100,1,0,0:0:0:0:
402,192,218204,1,0,0:0:0:0:
36,192,218204,1,0,0:0:0:0:
109,192,218204,1,0,0:0:0:0:
256,192,218307,1,0,0:0:0:0:
329,192,218307,1,0,0:0:0:0:
182,192,218411,1,0,0:0:0:0:
475,192,218411,1,0,0:0:0:0:
36,192,218411,1,0,0:0:0:0:
402,192,218514,1,0,0:0:0:0:
256,192,218514,1,0,0:0:0:0:
182,192,218618,1,0,0:0:0:0:
109,192,218618,1,0,0:0:0:0:
329,192,218618,1,0,0:0:0:0:
475,192,218721,1,0,0:0:0:0:
36,192,218721,1,0,0:0:0:0:
109,192,218824,1,0,0:0:0:0:
402,192,218824,1,0,0:0:0:0:
256,192,218824,1,0,0:0:0:0:
329,192,218928,1,0,0:0:0:0:
182,192,218928,1,0,0:0:0:0:
109,192,219031,1,0,0:0:0:0:
475,192,219031,1,0,0:0:0:0:
36,192,219031,1,0,0:0:0:0:
402,192,219135,1,0,0:0:0:0:
256,192,219135,1,0,0:0:0:0:
182,192,219238,1,0,0:0:0:0:
109,192,219238,1,0,0:0:0:0:
329,192,219238,1,0,0:0:0:0:
475,192,219342,1,0,0:0:0:0:
36,192,219342,1,0,0:0:0:0:
329,192,219445,1,0,0:0:0:0:
256,192,219445,1,0,0:0:0:0:
109,192,219445,1,0,0:0:0:0:
182,192,219549,1,0,0:0:0:0:
402,192,219549,1,0,0:0:0:0:
109,192,219652,1,0,0:0:0:0:
36,192,219652,1,0,0:0:0:0:
329,192,219652,1,0,0:0:0:0:
475,192,219756,1,0,0:0:0:0:
256,192,219756,1,0,0:0:0:0:
182,192,219859,1,0,0:0:0:0:
109,192,219859,1,0,0:0:0:0:
402,192,219859,1,0,0:0:0:0:
36,192,219962,1,0,0:0:0:0:
256,192,219962,1,0,0:0:0:0:
475,192,220066,1,0,0:0:0:0:
109,192,220066,1,0,0:0:0:0:
329,192,220066,1,0,0:0:0:0:
402,192,220169,1,0,0:0:0:0:
256,192,220169,1,0,0:0:0:0:
182,192,220273,1,0,0:0:0:0:
329,192,220273,1,0,0:0:0:0:
36,192,220273,1,0,0:0:0:0:
475,192,220376,1,0,0:0:0:0:
109,192,220376,1,0,0:0:0:0:
256,192,220480,1,0,0:0:0:0:
36,192,220480,1,0,0:0:0:0:
402,192,220480,1,0,0:0:0:0:
109,192,220583,1,0,0:0:0:0:
182,192,220583,1,0,0:0:0:0:
402,192,220687,1,0,0:0:0:0:
475,192,220687,1,0,0:0:0:0:
329,192,220687,1,0,0:0:0:0:
36,192,220687,128,0,220790:0:0:0:0:
256,192,220790,128,0,220893:0:0:0:0:
182,192,220790,1,0,0:0:0:0:
109,192,220893,128,0,220997:0:0:0:0:
402,192,220893,1,0,0:0:0:0:
329,192,220997,128,0,221100:0:0:0:0:
36,192,220997,1,0,0:0:0:0:
182,192,221100,128,0,221204:0:0:0:0:
256,192,221100,1,0,0:0:0:0:
402,192,221204,128,0,221307:0:0:0:0:
256,192,221307,128,0,221411:0:0:0:0:
329,192,221307,1,0,0:0:0:0:
475,192,221411,128,0,221514:0:0:0:0:
402,192,221411,1,0,0:0:0:0:
36,192,221514,1,0,0:0:0:0:
109,192,221514,1,0,0:0:0:0:
329,192,221514,1,0,0:0:0:0:
402,192,221618,1,0,0:0:0:0:
182,192,221721,1,0,0:0:0:0:
256,192,221721,1,0,0:0:0:0:
36,192,221928,1,0,0:0:0:0:
329,192,221928,1,0,0:0:0:0:
256,192,221928,1,0,0:0:0:0:
109,192,222135,1,0,0:0:0:0:
402,192,222135,1,0,0:0:0:0:
475,192,222342,128,0,222756:0:0:0:0:
402,192,222342,128,0,222445:0:0:0:0:
36,192,222342,1,0,0:0:0:0:
256,192,222342,1,0,0:0:0:0:
109,192,222445,1,0,0:0:0:0:
329,192,222445,128,0,222549:0:0:0:0:
182,192,222445,1,0,0:0:0:0:
36,192,222549,1,0,0:0:0:0:
256,192,222549,128,0,222652:0:0:0:0:
109,192,222549,1,0,0:0:0:0:
182,192,222652,128,0,222756:0:0:0:0:
402,192,222652,1,0,0:0:0:0:
329,192,222652,1,0,0:0:0:0:
109,192,222756,128,0,222859:0:0:0:0:
36,192,222756,128,0,223169:0:0:0:0:
256,192,222756,1,0,0:0:0:0:
182,192,222859,128,0,222962:0:0:0:0:
329,192,222859,1,0,0:0:0:0:
402,192,222859,1,0,0:0:0:0:
256,192,222962,128,0,223066:0:0:0:0:
402,192,222962,1,0,0:0:0:0:
475,192,222962,1,0,0:0:0:0:
329,192,223066,128,0,223169:0:0:0:0:
182,192,223066,1,0,0:0:0:0:
109,192,223066,1,0,0:0:0:0:
475,192,223169,128,0,223583:0:0:0:0:
402,192,223169,128,0,223273:0:0:0:0:
256,192,223169,1,0,0:0:0:0:
329,192,223273,128,0,223376:0:0:0:0:
109,192,223273,1,0,0:0:0:0:
182,192,223273,1,0,0:0:0:0:
36,192,223376,1,0,0:0:0:0:
256,192,223376,128,0,223480:0:0:0:0:
109,192,223376,1,0,0:0:0:0:
182,192,223480,128,0,223583:0:0:0:0:
402,192,223480,1,0,0:0:0:0:
329,192,223480,1,0,0:0:0:0:
109,192,223583,128,0,223687:0:0:0:0:
36,192,223583,128,0,223997:0:0:0:0:
256,192,223583,1,0,0:0:0:0:
182,192,223687,128,0,223790:0:0:0:0:
402,192,223687,1,0,0:0:0:0:
329,192,223687,1,0,0:0:0:0:
475,192,223790,1,0,0:0:0:0:
256,192,223790,128,0,223893:0:0:0:0:
402,192,223790,1,0,0:0:0:0:
329,192,223893,128,0,223997:0:0:0:0:
109,192,223893,1,0,0:0:0:0:
182,192,223893,1,0,0:0:0:0:
256,192,223997,1,0,0:0:0:0:
475,192,223997,128,0,224411:0:0:0:0:
402,192,223997,128,0,224204:0:0:0:0:
109,192,223997,1,0,0:0:0:0:
256,192,224204,128,0,224411:0:0:0:0:
36,192,224204,1,0,0:0:0:0:
182,192,224307,1,0,0:0:0:0:
329,192,224307,1,0,0:0:0:0:
109,192,224411,128,0,224618:0:0:0:0:
402,192,224411,1,0,0:0:0:0:
36,192,224618,128,0,225031:0:0:0:0:
475,192,224618,128,0,224824:0:0:0:0:
182,192,224618,1,0,0:0:0:0:
329,192,224618,1,0,0:0:0:0:
109,192,224721,1,0,0:0:0:0:
256,192,224721,1,0,0:0:0:0:
329,192,224824,128,0,225031:0:0:0:0:
402,192,224824,1,0,0:0:0:0:
256,192,224928,1,0,0:0:0:0:
475,192,224928,1,0,0:0:0:0:
182,192,225031,128,0,225238:0:0:0:0:
109,192,225031,1,0,0:0:0:0:
402,192,225031,1,0,0:0:0:0:
402,192,225238,128,0,225652:0:0:0:0:
36,192,225238,128,0,225445:0:0:0:0:
256,192,225238,1,0,0:0:0:0:
109,192,225342,1,0,0:0:0:0:
182,192,225342,1,0,0:0:0:0:
475,192,225445,128,0,225652:0:0:0:0:
329,192,225445,1,0,0:0:0:0:
182,192,225549,1,0,0:0:0:0:
109,192,225549,1,0,0:0:0:0:
256,192,225652,128,0,225859:0:0:0:0:
36,192,225652,1,0,0:0:0:0:
329,192,225756,1,0,0:0:0:0:
402,192,225756,1,0,0:0:0:0:
109,192,225859,128,0,226273:0:0:0:0:
36,192,225859,128,0,226066:0:0:0:0:
475,192,225859,1,0,0:0:0:0:
182,192,225859,1,0,0:0:0:0:
256,192,225962,1,0,0:0:0:0:
402,192,225962,1,0,0:0:0:0:
329,192,226066,128,0,226273:0:0:0:0:
475,192,226066,1,0,0:0:0:0:
182,192,226066,1,0,0:0:0:0:
402,192,226169,1,0,0:0:0:0:
36,192,226169,1,0,0:0:0:0:
182,192,226273,128,0,226480:0:0:0:0:
475,192,226273,1,0,0:0:0:0:
256,192,226273,1,0,0:0:0:0:
109,192,226376,1,0,0:0:0:0:
36,192,226376,1,0,0:0:0:0:
475,192,226480,128,0,226790:0:0:0:0:
402,192,226480,128,0,226790:0:0:0:0:
329,192,226480,128,0,226790:0:0:0:0:
256,192,226480,1,0,0:0:0:0:
36,192,226893,128,0,227204:0:0:0:0:
109,192,226893,128,0,227204:0:0:0:0:
182,192,226893,128,0,227204:0:0:0:0:
256,192,226893,1,0,0:0:0:0:
475,192,227307,128,0,230618:0:0:0:0:
402,192,227307,128,0,230411:0:0:0:0:
329,192,227307,128,0,228962:0:0:0:0:
256,192,227307,1,0,0:0:0:0:
36,192,227307,1,0,0:0:0:0:
36,192,228962,128,0,229066:0:0:0:0:
109,192,229066,128,0,229169:0:0:0:0:
182,192,229169,128,0,229273:0:0:0:0:
256,192,229273,128,0,229376:0:0:0:0:
329,192,229376,128,0,230204:0:0:0:0:
