osu file format v14

[General]
AudioFilename: audio.mp3
AudioLeadIn: 0
PreviewTime: 64666
Countdown: 0
SampleSet: Soft
StackLeniency: 0.7
Mode: 3
LetterboxInBreaks: 0
SpecialStyle: 0
WidescreenStoryboard: 1

[Editor]
DistanceSpacing: 0.8
BeatDivisor: 3
GridSize: 32
TimelineZoom: 1.6

[Metadata]
Title:Smiling-Swinging!! (Game Ver.)
TitleUnicode:Smiling-Swinging!! (Game Ver.)
Artist:Yonekura Chihiro
ArtistUnicode:米倉千尋
Creator:Syrion-
Version:Normal
Source:喫茶ステラと死神の蝶
Tags:Famishin 井ノ原智 Inohara Yoshihiko Angel Note 春風まゆき Harukaze Mayuki syadow- albionshallah Randelman4ik katagiri k_a_t_a_g_i_r_i eroge visual novel vn opening op j-pop jpop pop japanese video game version jazz female vocal cafe café coffee butterfly stella to shinigami no chou Café Stella and the Reaper's Butterflies yuzusoft ゆずソフト
BeatmapID:3614582
BeatmapSetID:1749944

[Difficulty]
HPDrainRate:7.5
CircleSize:7
OverallDifficulty:7.3
ApproachRate:5
SliderMultiplier:1.4
SliderTickRate:1

[Events]
//Background and Video events
0,0,"Natsumeaaaaa.jpg",0,0
Video,0,"yuzusofto desu.mp4"
//Break Periods
//Storyboard Layer 0 (Background)
//Storyboard Layer 1 (Fail)
//Storyboard Layer 2 (Pass)
//Storyboard Layer 3 (Foreground)
//Storyboard Layer 4 (Overlay)
//Storyboard Sound Samples

[TimingPoints]
16,300,4,2,1,60,1,0
64666,-100,4,2,1,60,0,1
84016,-100,4,2,1,60,0,0

[HitObjects]
256,192,1016,128,0,2416:0:0:0:0:
109,192,2416,1,2,0:0:0:0:
402,192,2416,1,4,0:0:0:0:
182,192,2616,1,0,0:0:0:0:
36,192,2716,1,0,0:0:0:0:
256,192,2916,1,0,0:0:0:0:
109,192,3016,1,0,0:0:0:0:
329,192,3216,1,0,0:0:0:0:
182,192,3316,1,0,0:0:0:0:
402,192,3516,1,0,0:0:0:0:
256,192,3816,1,0,0:0:0:0:
36,192,3916,1,0,0:0:0:0:
329,192,4116,1,0,0:0:0:0:
109,192,4216,1,0,0:0:0:0:
402,192,4416,1,0,0:0:0:0:
182,192,4516,1,0,0:0:0:0:
475,192,4716,1,0,0:0:0:0:
182,192,5016,1,0,0:0:0:0:
36,192,5116,1,0,0:0:0:0:
256,192,5316,1,8,0:0:0:0:
109,192,5416,1,0,0:0:0:0:
329,192,5616,1,0,0:0:0:0:
182,192,5716,1,0,0:0:0:0:
256,192,6016,1,2,0:0:0:0:
402,192,6016,1,0,0:0:0:0:
256,192,6316,1,2,0:0:0:0:
402,192,6316,128,0,7216:0:0:0:0:
36,192,6616,1,0,0:0:0:0:
182,192,6816,128,8,7216:0:0:0:0:
109,192,7216,1,2,0:0:0:0:
475,192,7216,1,4,0:0:0:0:
256,192,7516,1,2,0:0:0:0:
475,192,7716,1,0,0:0:0:0:
36,192,7816,1,0,0:0:0:0:
182,192,7816,128,0,8116:0:0:0:0:
329,192,8116,1,2,0:0:0:0:
182,192,8316,128,2,8716:0:0:0:0:
402,192,8716,1,0,0:0:0:25:clap01.wav
109,192,9016,128,2,9216:0:0:0:0:
256,192,9216,1,8,0:0:0:0:
402,192,9316,1,0,0:0:0:25:clap01.wav
475,192,9316,1,0,0:0:0:0:
182,192,9516,1,2,0:0:0:0:
36,192,9616,128,0,9916:0:0:0:0:
329,192,9916,128,2,10116:0:0:0:0:
402,192,9916,1,0,0:0:0:25:clap01.wav
182,192,10216,128,2,10416:0:0:0:0:
256,192,10216,1,0,0:0:0:0:
36,192,10516,128,0,10716:0:0:0:25:clap01.wav
109,192,10516,1,0,0:0:0:0:
329,192,10716,128,8,11416:0:0:0:0:
475,192,10716,1,0,0:0:0:0:
109,192,11116,1,2,0:0:0:0:
36,192,11416,1,2,0:0:0:0:
36,192,11716,128,8,11916:0:0:0:0:
256,192,11916,128,0,12616:0:0:0:0:
402,192,12316,1,8,0:0:0:0:
109,192,12616,1,2,0:0:0:0:
109,192,12916,128,0,13116:0:0:0:25:clap01.wav
329,192,13116,128,2,13816:0:0:0:0:
109,192,13516,1,0,0:0:0:25:clap01.wav
182,192,13816,1,2,0:0:0:0:
36,192,14116,1,0,0:0:0:25:clap01.wav
182,192,14116,128,0,14316:0:0:0:0:
402,192,14316,128,2,14716:0:0:0:0:
475,192,14316,1,0,0:0:0:0:
256,192,14716,1,0,0:0:0:25:clap01.wav
256,192,15016,128,2,15216:0:0:0:0:
402,192,15316,1,0,0:0:0:25:clap01.wav
36,192,15516,128,8,16516:0:0:0:0:
182,192,15516,1,0,0:0:0:0:
329,192,15916,1,10,0:0:0:0:
475,192,15916,1,4,0:0:0:0:
182,192,16116,1,8,0:0:0:0:
402,192,16516,1,8,0:0:0:0:
475,192,16516,1,0,0:0:0:0:
329,192,16616,1,0,0:0:0:0:
256,192,16716,1,0,0:0:0:0:
109,192,16816,128,4,17116:0:0:0:0:
182,192,16816,1,2,0:0:0:0:
329,192,17116,1,0,0:0:0:25:clap01.wav
182,192,17416,128,0,17716:0:0:0:0:
402,192,17416,1,0,0:0:0:0:
36,192,17716,1,2,0:0:0:0:
256,192,17916,128,2,18216:0:0:0:0:
256,192,18316,1,2,0:0:0:0:
402,192,18616,128,0,18916:0:0:0:0:
329,192,19016,1,0,0:0:0:0:
182,192,19116,128,2,19516:0:0:0:0:
36,192,19516,128,2,19716:0:0:0:0:
475,192,19516,1,0,0:0:0:25:clap01.wav
109,192,19816,128,0,20016:0:0:0:0:
402,192,19816,1,0,0:0:0:0:
182,192,20116,128,2,20316:0:0:0:0:
329,192,20116,1,0,0:0:0:25:clap01.wav
256,192,20316,1,8,0:0:0:0:
475,192,20316,128,0,21016:0:0:0:0:
109,192,20716,1,2,0:0:0:0:
329,192,21016,1,0,0:0:0:0:
329,192,21316,128,8,21516:0:0:0:0:
182,192,21516,1,0,0:0:0:0:
36,192,21616,1,2,0:0:0:0:
475,192,21616,1,4,0:0:0:0:
256,192,21916,1,0,0:0:0:25:clap01.wav
329,192,21916,128,0,22116:0:0:0:0:
36,192,22216,1,2,0:0:0:0:
182,192,22316,1,0,0:0:0:0:
329,192,22416,1,0,0:0:0:0:
475,192,22516,128,0,22716:0:0:0:25:clap01.wav
256,192,22716,1,0,0:0:0:0:
36,192,22816,1,2,0:0:0:0:
109,192,22816,128,0,23416:0:0:0:0:
402,192,23116,1,0,0:0:0:25:clap01.wav
182,192,23416,128,2,23716:0:0:0:0:
329,192,23416,1,0,0:0:0:0:
402,192,23716,1,0,0:0:0:25:clap01.wav
329,192,23816,1,0,0:0:0:0:
256,192,23916,1,8,0:0:0:0:
182,192,24016,1,2,0:0:0:0:
402,192,24216,1,8,0:0:0:0:
475,192,24216,1,0,0:0:0:0:
36,192,24316,1,0,0:0:0:25:clap01.wav
256,192,24516,1,2,0:0:0:0:
109,192,24616,1,8,0:0:0:0:
402,192,24616,1,0,0:0:0:0:
329,192,24816,1,8,0:0:0:0:
182,192,24916,1,0,0:0:0:25:clap01.wav
256,192,25116,1,8,0:0:0:0:
402,192,25116,1,0,0:0:0:0:
475,192,25416,1,2,0:0:0:0:
36,192,25516,1,8,0:0:0:0:
182,192,25516,1,0,0:0:0:0:
329,192,25716,1,8,0:0:0:0:
182,192,25816,1,2,0:0:0:0:
402,192,26016,1,0,0:0:0:70:Hat Open.wav
475,192,26016,1,0,0:0:0:0:
36,192,26116,1,0,0:0:0:25:clap01.wav
109,192,26216,1,8,0:0:0:0:
182,192,26316,1,8,0:0:0:0:
329,192,26416,128,0,26916:0:0:0:25:clap01.wav
182,192,26716,128,0,26916:0:0:0:0:
36,192,26916,1,8,0:0:0:0:
109,192,27016,1,2,0:0:0:0:
402,192,27116,1,8,0:0:0:0:
329,192,27216,1,8,0:0:0:0:
256,192,27316,128,8,27616:0:0:0:0:
109,192,27616,1,2,0:0:0:0:
402,192,27616,1,0,0:0:0:30:Hat Open2.wav
109,192,27916,128,2,28516:0:0:0:0:
402,192,27916,128,4,28516:0:0:0:0:
256,192,28716,1,8,0:0:0:0:
402,192,28816,1,2,0:0:0:0:
182,192,29016,1,0,0:0:0:0:
329,192,29116,1,8,0:0:0:0:
475,192,29116,1,0,0:0:0:0:
109,192,29316,128,0,29616:0:0:0:0:
329,192,29616,1,0,0:0:0:0:
182,192,29716,1,2,0:0:0:0:
329,192,29916,128,2,30216:0:0:0:0:
475,192,29916,1,0,0:0:0:0:
256,192,30216,1,8,0:0:0:0:
36,192,30316,128,2,30616:0:0:0:0:
182,192,30616,128,2,30916:0:0:0:0:
402,192,30916,1,8,0:0:0:0:
329,192,31016,1,8,0:0:0:0:
256,192,31116,1,8,0:0:0:0:
182,192,31216,1,2,0:0:0:0:
402,192,31416,1,0,0:0:0:0:
36,192,31516,1,2,0:0:0:0:
109,192,31516,1,0,0:0:0:15:ride02.wav
329,192,31716,128,0,32016:0:0:0:0:
402,192,32016,1,0,0:0:0:0:
475,192,32016,1,0,0:0:0:0:
182,192,32116,1,2,0:0:0:0:
36,192,32316,128,8,32716:0:0:0:0:
256,192,32316,1,2,0:0:0:0:
475,192,32716,128,2,33016:0:0:0:0:
329,192,33016,128,2,33316:0:0:0:0:
36,192,33316,1,8,0:0:0:0:
109,192,33416,1,8,0:0:0:0:
182,192,33516,1,2,0:0:0:0:
256,192,33616,1,2,0:0:0:0:
402,192,33816,1,0,0:0:0:0:
109,192,33916,1,8,0:0:0:0:
256,192,33916,1,2,0:0:0:0:
36,192,34116,128,0,34416:0:0:0:0:
182,192,34416,1,0,0:0:0:0:
329,192,34516,1,2,0:0:0:0:
256,192,34716,128,2,35116:0:0:0:0:
475,192,34716,1,0,0:0:0:40:Hat Open.wav
402,192,35116,128,2,35416:0:0:0:0:
109,192,35416,128,2,35716:0:0:0:0:
475,192,35716,1,8,0:0:0:0:
402,192,35816,1,8,0:0:0:0:
329,192,35916,1,8,0:0:0:0:
36,192,36016,1,2,0:0:0:0:
256,192,36016,128,0,36316:0:0:0:0:
329,192,36316,1,0,0:0:0:15:ride02.wav
182,192,36616,128,2,36816:0:0:0:0:
182,192,36916,1,2,0:0:0:0:
329,192,37116,1,8,0:0:0:0:
402,192,37116,1,0,0:0:0:40:Hat Open2.wav
109,192,37516,128,2,38116:0:0:0:0:
475,192,37516,1,0,0:0:0:50:Hat Open2.wav
329,192,37716,1,8,0:0:0:0:
182,192,38116,1,8,0:0:0:0:
256,192,38216,1,8,0:0:0:0:
329,192,38316,1,2,0:0:0:0:
36,192,38416,1,2,0:0:0:0:
475,192,38416,1,0,0:0:0:0:
256,192,38616,1,0,0:0:0:0:
109,192,38716,1,8,0:0:0:0:
402,192,38716,1,0,0:0:0:0:
329,192,38916,128,0,39116:0:0:0:0:
36,192,39216,1,0,0:0:0:0:
182,192,39316,1,0,0:0:0:15:ride02.wav
329,192,39516,128,0,39816:0:0:0:40:Hat Open.wav
256,192,39816,1,8,0:0:0:0:
475,192,39816,1,0,0:0:0:0:
36,192,39916,128,8,40216:0:0:0:0:
182,192,40216,128,2,40516:0:0:0:0:
475,192,40516,1,8,0:0:0:0:
329,192,40616,1,8,0:0:0:0:
182,192,40716,1,8,0:0:0:0:
36,192,40816,1,2,0:0:0:0:
402,192,41016,1,0,0:0:0:0:
109,192,41116,1,2,0:0:0:0:
182,192,41116,1,0,0:0:0:15:ride02.wav
256,192,41316,128,0,41516:0:0:0:0:
402,192,41616,1,0,0:0:0:0:
475,192,41616,1,0,0:0:0:0:
182,192,41716,1,2,0:0:0:0:
109,192,41916,128,8,42216:0:0:0:0:
329,192,41916,1,4,0:0:0:0:
475,192,42316,128,2,42616:0:0:0:0:
329,192,42616,128,2,42916:0:0:0:0:
36,192,42916,1,8,0:0:0:0:
182,192,43016,1,8,0:0:0:0:
329,192,43116,1,2,0:0:0:0:
475,192,43216,1,2,0:0:0:0:
329,192,43416,1,0,0:0:0:0:
109,192,43516,1,10,0:0:0:0:
182,192,43516,1,0,0:0:0:15:ride02.wav
402,192,43716,128,0,44016:0:0:0:0:
256,192,44016,1,0,0:0:0:0:
109,192,44116,1,0,0:0:0:40:Hat Open.wav
329,192,44316,128,2,44716:0:0:0:0:
475,192,44316,1,0,0:0:0:35:Hat Open2.wav
256,192,44716,128,2,45016:0:0:0:0:
182,192,45016,128,2,45316:0:0:0:0:
402,192,45316,1,8,0:0:0:0:
329,192,45416,1,8,0:0:0:0:
256,192,45516,1,8,0:0:0:0:
36,192,45616,128,2,46516:0:0:0:0:
109,192,45616,1,4,0:0:0:0:
475,192,45916,1,0,0:0:0:15:ride02.wav
256,192,46216,1,0,0:0:0:15:ride02.wav
182,192,46516,1,2,0:0:0:0:
329,192,46516,1,0,0:0:0:15:ride02.wav
109,192,46716,1,8,0:0:0:0:
402,192,46716,1,0,0:0:0:50:Hat Open2.wav
256,192,46816,1,0,0:0:0:0:
256,192,47116,128,2,47716:0:0:0:0:
475,192,47116,1,0,0:0:0:50:Hat Open.wav
36,192,47316,1,8,0:0:0:0:
475,192,47716,1,8,0:0:0:0:
402,192,47816,1,8,0:0:0:0:
329,192,47916,1,2,0:0:0:0:
36,192,48016,128,2,48316:0:0:0:0:
182,192,48016,1,0,0:0:0:40:Hat Open.wav
402,192,48516,1,8,0:0:0:0:
256,192,48616,1,8,0:0:0:0:
329,192,48616,1,0,0:0:0:0:
109,192,48816,1,2,0:0:0:0:
256,192,49016,1,8,0:0:0:0:
329,192,49116,1,2,0:0:0:0:
36,192,49216,128,2,49816:0:0:0:0:
402,192,49216,1,4,0:0:0:0:
329,192,49516,1,0,0:0:0:40:Hat Open.wav
256,192,49716,1,8,0:0:0:0:
109,192,49816,1,8,0:0:0:0:
475,192,49816,1,0,0:0:0:40:Hat Open.wav
402,192,50016,1,8,0:0:0:0:
329,192,50116,1,8,0:0:0:0:
109,192,50216,1,0,0:0:0:0:
182,192,50316,1,8,0:0:0:0:
256,192,50416,1,2,0:0:0:0:
402,192,50416,1,0,0:0:0:50:Hat Open2.wav
329,192,50916,1,8,0:0:0:0:
182,192,51016,1,8,0:0:0:0:
329,192,51116,1,2,0:0:0:0:
109,192,51216,1,2,0:0:0:0:
402,192,51316,1,2,0:0:0:0:
182,192,51516,1,10,0:0:0:0:
402,192,51616,128,2,51816:0:0:0:0:
475,192,51616,1,0,0:0:0:0:
256,192,51816,1,2,0:0:0:0:
36,192,51916,1,0,0:0:0:0:
109,192,52016,1,8,0:0:0:0:
182,192,52116,1,8,0:0:0:0:
256,192,52216,128,0,52516:0:0:0:25:clap01.wav
329,192,52216,1,0,0:0:0:0:
475,192,52516,1,8,0:0:0:0:
402,192,52616,1,8,0:0:0:0:
329,192,52716,1,2,0:0:0:0:
109,192,52816,1,2,0:0:0:0:
256,192,52816,1,0,0:0:0:50:Hat Open2.wav
256,192,53316,1,8,0:0:0:0:
36,192,53416,1,8,0:0:0:0:
109,192,53416,1,0,0:0:0:25:clap01.wav
329,192,53616,1,2,0:0:0:0:
475,192,53716,1,2,0:0:0:0:
36,192,53916,1,2,0:0:0:0:
182,192,54016,1,10,0:0:0:0:
329,192,54016,128,0,54316:0:0:0:40:Hat Open.wav
256,192,54316,1,0,0:0:0:40:Hat Open.wav
475,192,54516,1,8,0:0:0:0:
256,192,54616,128,10,54816:0:0:0:0:
329,192,54616,1,0,0:0:0:25:clap01.wav
182,192,54816,1,2,0:0:0:0:
109,192,54916,1,8,0:0:0:0:
36,192,55016,1,8,0:0:0:0:
256,192,55116,1,8,0:0:0:0:
402,192,55216,1,2,0:0:0:0:
475,192,55216,128,0,56316:0:0:0:50:Hat Open.wav
36,192,55716,1,8,0:0:0:0:
36,192,56316,1,6,0:0:0:0:
109,192,56416,1,2,0:0:0:0:
182,192,56516,1,8,0:0:0:0:
402,192,56616,1,8,0:0:0:0:
329,192,56716,1,8,0:0:0:0:
475,192,56916,1,8,0:0:0:0:
36,192,57016,128,0,57316:0:0:0:25:clap01.wav
182,192,57016,1,0,0:0:0:0:
329,192,57316,1,8,0:0:0:0:
402,192,57416,1,8,0:0:0:0:
182,192,57516,1,2,0:0:0:0:
256,192,57616,128,2,58116:0:0:0:0:
329,192,57616,1,4,0:0:0:0:
475,192,57916,1,0,0:0:0:25:clap01.wav
36,192,58116,128,2,59716:0:0:0:0:
182,192,58116,1,4,0:0:0:0:
402,192,58516,128,8,58816:0:0:0:0:
256,192,58816,1,2,0:0:0:0:
475,192,59116,1,0,0:0:0:25:clap01.wav
329,192,59316,1,2,0:0:0:0:
475,192,59716,1,2,0:0:0:0:
402,192,59816,1,8,0:0:0:0:
329,192,59916,1,8,0:0:0:0:
182,192,60016,128,2,60516:0:0:0:0:
36,192,60316,1,0,0:0:0:25:clap01.wav
329,192,60516,1,2,0:0:0:0:
475,192,60516,128,0,62416:0:0:0:0:
36,192,60916,1,8,0:0:0:0:
256,192,61216,1,2,0:0:0:0:
109,192,61516,1,0,0:0:0:25:clap01.wav
329,192,61816,128,0,62116:0:0:0:0:
109,192,62116,128,8,62416:0:0:0:0:
256,192,62416,1,2,0:0:0:0:
182,192,63016,128,0,63616:0:0:0:0:
329,192,63616,128,0,64216:0:0:0:0:
475,192,64216,128,0,64716:0:0:0:0:
36,192,64716,1,2,0:0:0:0:
256,192,64716,128,4,65116:0:0:0:0:
182,192,65116,1,2,0:0:0:0:
329,192,65316,1,0,0:0:0:0:
182,192,65516,1,0,0:0:0:0:
329,192,65716,128,2,66316:0:0:0:0:
109,192,65916,1,2,0:0:0:0:
36,192,66316,128,2,66616:0:0:0:0:
182,192,66616,128,2,66916:0:0:0:0:
329,192,66616,1,0,0:0:0:0:
402,192,66916,1,2,0:0:0:0:
475,192,66916,1,0,0:0:0:25:clap01.wav
109,192,67116,1,2,0:0:0:0:
329,192,67116,128,0,67516:0:0:0:0:
109,192,67516,128,2,67816:0:0:0:0:
256,192,67816,128,2,68116:0:0:0:0:
402,192,68116,128,2,68716:0:0:0:0:
36,192,68316,1,8,0:0:0:0:
36,192,68716,128,2,68916:0:0:0:0:
475,192,68916,1,8,0:0:0:0:
182,192,69016,1,0,0:0:0:0:
256,192,69116,1,0,0:0:0:0:
329,192,69216,1,0,0:0:0:0:
402,192,69316,1,8,0:0:0:0:
475,192,69316,1,0,0:0:0:25:clap01.wav
182,192,69516,128,2,69916:0:0:0:0:
36,192,69916,1,8,0:0:0:0:
256,192,69916,1,0,0:0:0:25:clap01.wav
402,192,70116,128,0,70416:0:0:0:0:
109,192,70416,1,0,0:0:0:0:
256,192,70516,128,2,71016:0:0:0:0:
475,192,70716,1,2,0:0:0:0:
329,192,71016,1,8,0:0:0:0:
475,192,71016,1,0,0:0:0:0:
36,192,71116,128,2,71416:0:0:0:0:
256,192,71416,128,2,71716:0:0:0:0:
36,192,71716,1,2,0:0:0:0:
109,192,71816,1,8,0:0:0:0:
182,192,71916,1,2,0:0:0:0:
402,192,71916,128,0,72316:0:0:0:0:
36,192,72316,1,2,0:0:0:0:
182,192,72616,1,0,0:0:0:0:
329,192,72816,1,0,0:0:0:0:
36,192,73116,1,8,0:0:0:0:
475,192,73116,1,2,0:0:0:0:
182,192,73416,1,2,0:0:0:0:
256,192,73516,128,2,73816:0:0:0:0:
329,192,73816,128,0,74116:0:0:0:0:
109,192,74116,1,0,0:0:0:25:clap01.wav
182,192,74216,1,0,0:0:0:0:
256,192,74316,1,4,0:0:0:0:
475,192,74316,128,2,74716:0:0:0:0:
182,192,74716,1,2,0:0:0:0:
36,192,74916,1,0,0:0:0:0:
402,192,75166,1,0,0:0:0:0:
182,192,75316,128,0,75916:0:0:0:25:clap01.wav
475,192,75516,1,8,0:0:0:0:
329,192,75916,128,2,76216:0:0:0:0:
475,192,76216,128,2,76516:0:0:0:0:
402,192,76516,1,2,0:0:0:0:
329,192,76616,1,2,0:0:0:0:
109,192,76716,128,2,76916:0:0:0:0:
256,192,76716,1,0,0:0:0:0:
109,192,77116,128,2,77416:0:0:0:0:
329,192,77416,128,2,77716:0:0:0:0:
402,192,77716,128,2,78316:0:0:0:0:
36,192,77916,1,8,0:0:0:0:
182,192,78316,1,2,0:0:0:0:
329,192,78516,1,2,0:0:0:0:
109,192,78816,1,2,0:0:0:0:
475,192,79016,1,8,0:0:0:0:
402,192,79116,1,8,0:0:0:0:
256,192,79216,128,2,79516:0:0:0:0:
329,192,79216,1,0,0:0:0:50:Hat Open.wav
36,192,79516,1,0,0:0:0:25:clap01.wav
182,192,79516,1,0,0:0:0:0:
402,192,79716,128,2,80016:0:0:0:0:
109,192,80016,1,8,0:0:0:0:
256,192,80116,1,8,0:0:0:0:
475,192,80116,1,0,0:0:0:25:clap01.wav
36,192,80316,128,2,80616:0:0:0:0:
329,192,80316,1,0,0:0:0:0:
109,192,80616,1,8,0:0:0:0:
182,192,80616,1,0,0:0:0:0:
402,192,80716,1,0,0:0:0:25:clap01.wav
256,192,80916,1,2,0:0:0:0:
36,192,81016,1,2,0:0:0:0:
182,192,81116,1,8,0:0:0:0:
329,192,81216,1,8,0:0:0:0:
475,192,81316,1,8,0:0:0:0:
36,192,81516,128,2,82116:0:0:0:0:
182,192,81516,1,0,0:0:0:50:Hat Open.wav
402,192,81916,1,8,0:0:0:0:
182,192,82116,128,2,82416:0:0:0:0:
329,192,82416,1,8,0:0:0:0:
109,192,82516,1,8,0:0:0:0:
402,192,82516,1,0,0:0:0:25:clap01.wav
256,192,82716,128,2,83116:0:0:0:0:
475,192,83016,1,0,0:0:0:0:
329,192,83116,1,0,0:0:0:25:clap01.wav
36,192,83316,1,8,0:0:0:0:
182,192,83416,1,0,0:0:0:0:
475,192,83616,1,2,0:0:0:0:
329,192,83716,1,8,0:0:0:0:
36,192,83816,1,8,0:0:0:0:
182,192,83916,1,8,0:0:0:0:
329,192,84016,1,2,0:0:0:0:
475,192,84016,1,0,0:0:0:50:Hat Open2.wav
329,192,84816,1,2,0:0:0:0:
182,192,84916,128,8,85216:0:0:0:0:
475,192,84916,1,0,0:0:0:0:
36,192,85216,1,8,0:0:0:0:
256,192,85216,128,0,85516:0:0:0:0:
329,192,85516,128,0,85716:0:0:0:0:
36,192,85716,1,8,0:0:0:0:
182,192,85816,1,2,0:0:0:0:
475,192,85916,1,8,0:0:0:0:
329,192,86016,1,8,0:0:0:0:
182,192,86116,128,2,86316:0:0:0:0:
36,192,86316,128,2,87716:0:0:0:0:
475,192,86316,128,4,87716:0:0:0:0:
402,192,87716,128,0,88216:0:0:0:0:
329,192,88216,128,0,88816:0:0:0:0:
182,192,88516,128,0,88816:0:0:0:0:
36,192,88816,1,0,0:0:0:0:
