osu file format v14

[General]
AudioFilename: audio.mp3
AudioLeadIn: 0
PreviewTime: 62925
Countdown: 0
SampleSet: Soft
StackLeniency: 0.5
Mode: 0
LetterboxInBreaks: 0
WidescreenStoryboard: 1

[Editor]
DistanceSpacing: 0.7
BeatDivisor: 3
GridSize: 32
TimelineZoom: 1.1

[Metadata]
Title:Smiling-Swinging!! (Game Ver.)
TitleUnicode:Smiling-Swinging!! (Game Ver.)
Artist:Yonekura Chihiro
ArtistUnicode:米倉千尋
Creator:Mimari
Version:Mayu's Hard!!
Source:喫茶ステラと死神の蝶
Tags:eroge japanese pop jpop visual novel vn video game cafe café coffee butterfly stella to shinigami no chou yuzusoft ゆずソフト jazz opening op cami shizuku- shikibe mayu kazato asa asuka_- AngelNote Angel Note 井ノ原智 Inohara Satoru Satoshi Famishin 春風まゆき Mayuki Harukaze j-pop
BeatmapID:3075340
BeatmapSetID:1500781

[Difficulty]
HPDrainRate:4
CircleSize:3.5
OverallDifficulty:6
ApproachRate:8
SliderMultiplier:1.44
SliderTickRate:1

[Events]
//Background and Video events
0,0,"3bg.jpg",0,0
//Break Periods
//Storyboard Layer 0 (Background)
//Storyboard Layer 1 (Fail)
//Storyboard Layer 2 (Pass)
//Storyboard Layer 3 (Foreground)
//Storyboard Layer 4 (Overlay)
//Storyboard Sound Samples

[TimingPoints]
20,300,4,2,1,50,1,0
2320,-100,4,2,1,5,0,0
2420,-100,4,2,1,50,0,0
4820,-100,4,2,1,55,0,0
6020,-100,4,2,1,60,0,0
6220,-100,4,2,1,5,0,0
6320,-100,4,2,1,60,0,0
6620,-100,4,2,1,50,0,0
7220,-100,4,2,1,70,0,0
7520,-100,4,2,1,50,0,0
7820,-100,4,2,1,50,0,0
26420,-100,4,2,1,40,0,0
27020,-100,4,2,1,40,0,0
27620,-100,4,2,1,60,0,0
28520,-100,4,2,1,5,0,0
28720,-100,4,2,1,50,0,0
28820,-100,4,2,1,50,0,0
31020,-100,4,2,1,30,0,0
31120,-100,4,2,1,50,0,0
35820,-100,4,2,1,30,0,0
35920,-100,4,2,1,50,0,0
40620,-100,4,2,1,30,0,0
40720,-100,4,2,1,50,0,0
45420,-100,4,2,1,30,0,0
45520,-100,4,2,1,50,0,0
48020,-100,4,2,1,60,0,0
48520,-100,4,2,1,55,0,0
50420,-100,4,2,1,60,0,0
50920,-100,4,2,1,55,0,0
55220,-100,4,2,1,50,0,0
57320,-100,4,2,1,50,0,0
57620,-100,4,2,1,55,0,0
58520,-100,4,2,1,55,0,0
58820,-100,4,2,1,55,0,0
59720,-100,4,2,1,55,0,0
60020,-100,4,2,1,60,0,0
60920,-100,4,2,1,60,0,0
61220,-100,4,2,1,60,0,0
61820,-100,4,2,1,60,0,0
63020,-100,4,2,1,30,0,0
63520,-100,4,2,1,5,0,0
63620,-100,4,2,1,35,0,0
64120,-100,4,2,1,5,0,0
64220,-100,4,2,1,40,0,0
64520,-100,4,2,1,50,0,0
64720,-100,4,2,1,70,0,1
76320,-100,4,2,1,5,0,1
76520,-100,4,2,1,70,0,1
80320,-100,4,2,1,60,0,1
81520,-100,4,2,1,70,0,1
82720,-100,4,2,1,60,0,1
83920,-100,4,2,1,60,0,1
84020,-100,4,2,1,60,0,0
86320,-100,4,2,1,75,0,0
88720,-100,4,2,1,45,0,0

[Colours]
Combo1 : 250,237,146
Combo2 : 242,175,172
Combo3 : 215,201,200
Combo4 : 243,188,238

[HitObjects]
314,310,2420,6,0,P|372:348|442:335,1,144,4|2,3:1|0:0,0:0:0:0:
437,243,2920,1,2,1:2:0:0:
437,243,3020,2,0,L|460:150,1,96,2|2,0:0|0:2,0:0:0:0:
475,103,3320,1,2,0:0:0:0:
404,37,3520,1,2,3:2:0:0:
404,37,3620,6,0,B|351:47|351:47|327:80|327:80|278:89,1,144,2|2,3:2|0:0,0:0:0:0:
231,173,4120,1,2,1:2:0:0:
230,173,4220,2,0,P|213:216|221:263,1,96,2|2,0:0|0:2,0:0:0:0:
209,310,4520,2,0,L|116:330,1,96,2|2,0:0|0:0,0:0:0:0:
75,356,4820,5,2,3:2:0:0:
28,272,5020,1,2,0:0:0:0:
27,271,5120,2,0,P|11:227|20:181,1,96,2|2,0:0|1:2,0:0:0:0:
9,133,5420,2,0,P|53:149|99:140,1,96,2|2,0:0|0:0,0:0:0:0:
135,109,5720,1,2,1:2:0:0:
211,166,5920,1,2,0:0:0:0:
211,166,6020,2,0,L|227:67,1,96,6|0,1:2|0:0,0:0:0:0:
236,24,6320,6,0,P|295:60|365:48,1,144,6|2,3:2|0:3,0:0:0:0:
440,110,6820,1,0,1:0:0:0:
440,110,6920,2,0,B|420:154|420:154|432:199,1,96,0|0,1:0|0:0,0:0:0:0:
467,229,7220,6,2,B|386:214|416:272|331:252,1,144,4|8,3:1|0:0,0:1:0:0:
262,319,7720,1,2,0:0:0:0:
262,319,7820,2,0,P|209:272|140:282,1,144,2|8,0:0|0:0,0:0:0:0:
62,337,8320,6,0,B|94:289|94:289|80:203,1,144,2|0,0:0|1:0,0:0:0:0:
71,156,8720,1,10,0:0:0:0:
165,172,8920,1,0,0:0:0:0:
165,172,9020,2,0,B|250:159|250:159|259:129|289:119,1,144,2|8,0:0|0:0,0:0:0:0:
384,153,9520,1,2,3:2:0:0:
384,153,9620,6,0,P|424:94|416:24,2,144,0|10|2,0:0|0:0|0:0,0:0:0:0:
418,243,10420,1,2,0:0:0:0:
418,243,10520,1,10,0:0:0:0:
373,327,10720,6,0,P|315:286|246:297,1,144,2|0,1:2|0:0,0:0:0:0:
213,332,11120,1,8,0:0:0:0:
149,267,11320,1,0,1:0:0:0:
149,267,11420,2,0,L|166:172,1,96,2|0,0:0|0:0,0:0:0:0:
177,125,11720,1,10,0:0:0:0:
133,39,11920,6,0,P|62:37|7:80,1,144,2|0,3:2|0:0,0:0:0:0:
17,127,12320,1,8,0:0:0:0:
63,211,12520,1,0,0:0:0:0:
63,211,12620,2,0,L|45:305,1,96,2|0,3:2|0:2,0:2:0:0:
38,352,12920,1,10,0:0:0:0:
149,267,13120,6,0,B|200:256|200:256|239:274|239:274|286:263,1,144,2|0,3:2|1:0,0:0:0:0:
333,253,13520,1,8,0:2:0:0:
291,166,13720,1,0,0:0:0:0:
291,166,13820,2,0,P|287:119|309:77,1,96,2|0,3:2|3:0,0:0:0:0:
352,58,14120,1,10,0:2:0:0:
446,75,14320,6,0,P|437:146|428:217,1,144,2|0,3:2|3:0,0:0:0:0:
454,258,14720,2,0,P|451:304|417:337,1,96,10|0,0:0|0:0,0:0:0:0:
370,322,15020,2,0,B|284:310|321:365|234:352,1,144,2|10,0:0|0:0,0:0:0:0:
158,295,15520,6,0,P|134:228|155:160,1,144,2|0,1:2|0:0,0:0:0:0:
189,126,15920,1,4,3:1:0:0:
249,200,16120,2,0,P|316:221|383:197,1,144,0|0,1:0|0:0,0:0:0:0:
428,212,16520,2,0,L|440:116,1,96,2|0,3:2|3:0,0:0:0:0:
464,75,16820,6,0,B|367:95|367:95|347:85|327:74,1,144,4|8,3:1|0:0,0:0:0:0:
243,26,17320,1,0,0:0:0:0:
243,26,17420,2,0,P|197:39|150:50,1,96,2|0,3:2|0:0,0:0:0:0:
104,35,17720,1,8,0:0:0:0:
28,94,17920,2,0,B|10:184|61:150|41:233,1,144,2|0,3:2|1:0,0:0:0:0:
29,278,18320,2,0,P|75:273|117:295,1,96,10|0,0:0|0:0,0:0:0:0:
144,335,18620,5,2,0:2:0:0:
204,260,18820,1,0,3:0:0:0:
204,260,18920,1,8,0:2:0:0:
162,173,19120,6,0,P|145:104|185:46,1,144,2|0,1:2|0:0,0:0:0:0:
227,70,19520,2,0,L|322:52,1,96,10|0,0:0|0:0,0:0:0:0:
357,21,19820,2,0,P|393:51|440:57,1,96,2|0,0:0|0:0,0:0:0:0:
484,37,20120,1,10,0:0:0:0:
504,130,20320,6,0,B|489:185|489:185|502:219|502:219|489:268,1,144,2|0,1:2|0:0,0:0:0:0:
495,315,20720,2,0,P|451:332|407:315,1,96,8|0,0:2|1:0,0:0:0:0:
382,274,21020,1,2,0:2:0:0:
286,287,21220,1,0,0:0:0:0:
286,287,21320,1,10,0:0:0:0:
218,218,21520,6,0,P|228:147|240:76,1,144,2|0,0:0|0:0,0:0:0:0:
219,31,21920,2,0,P|173:21|128:36,1,96,10|0,0:0|0:0,0:0:0:0:
92,68,22220,1,2,3:2:0:0:
77,65,22320,1,2,0:0:0:0:
61,62,22420,1,2,0:0:0:0:
45,59,22520,1,10,0:0:0:0:
13,149,22720,1,0,3:0:0:0:
13,149,22820,6,0,B|4:230|4:230|24:259|58:253,1,144,6|8,3:2|0:2,0:0:0:0:
121,325,23320,1,0,3:0:0:0:
121,325,23420,2,0,B|192:305|191:361|260:338,1,144,2|8,1:2|0:0,0:0:0:0:
339,284,23920,1,2,1:2:0:0:
339,284,24020,5,2,3:2:0:0:
266,221,24220,2,0,P|239:155|258:87,1,144,2|0,1:2|3:0,0:0:0:0:
237,43,24620,2,0,L|331:59,1,96,2|0,1:2|1:0,0:0:0:0:
376,41,24920,1,8,3:2:0:0:
461,84,25120,6,0,B|445:139|445:139|459:178|459:178|445:222,1,144,2|0,1:2|3:0,0:0:0:0:
468,263,25520,2,0,P|459:309|423:339,1,96,2|0,1:2|1:0,0:0:0:0:
376,352,25820,1,0,3:2:0:0:
300,292,26020,2,0,L|274:150,1,144,4|0,1:0|1:0,0:0:0:0:
294,106,26420,6,0,P|223:112|165:72,1,144,2|2,1:2|0:0,0:0:0:0:
69,71,26920,1,0,1:0:0:0:
69,71,27020,2,0,L|59:24,2,48,2|0|0,3:2|1:2|1:2,0:0:0:0:
80,117,27320,1,2,1:2:0:0:
141,190,27520,1,4,0:3:0:0:
141,190,27620,6,0,L|128:285,1,96,6|0,1:2|0:0,0:0:0:0:
108,329,27920,2,0,B|266:367|218:232|373:266,1,288,6|0,1:2|0:0,0:0:0:0:
507,320,28820,6,0,P|516:273|506:226,1,96,4|0,3:1|0:0,0:0:0:0:
477,188,29120,1,10,1:2:0:0:
499,94,29320,2,0,P|430:105|372:65,1,144,2|2,0:0|0:0,0:0:0:0:
348,23,29720,1,10,0:2:0:0:
283,94,29920,2,0,B|268:147|268:147|282:188|282:188|270:232,1,144,6|0,1:2|1:0,0:0:0:0:
254,278,30320,2,0,B|330:263|330:263|352:288|387:296,2,144,10|2|10,0:0|0:0|1:2,0:0:0:0:
132,357,31220,6,0,P|86:367|43:349,1,96,2|0,3:2|0:0,0:0:0:0:
19,307,31520,1,10,0:0:0:0:
60,220,31720,2,0,L|40:77,1,144,2|2,0:0|0:0,0:0:0:0:
31,30,32120,1,10,0:2:0:0:
125,45,32320,2,0,B|194:30|194:30|236:48|225:89,1,144,6|0,1:2|0:0,0:0:0:0:
201,129,32720,2,0,P|213:196|277:220,2,144,10|2|10,0:0|0:0|1:2,0:0:0:0:
323,51,33620,6,0,L|417:67,1,96,2|0,3:2|0:0,0:0:0:0:
461,47,33920,1,10,1:2:0:0:
507,130,34120,2,0,P|518:198|474:253,1,144,2|2,0:0|0:0,0:0:0:0:
429,267,34520,1,10,0:0:0:0:
365,339,34720,2,0,P|304:305|234:315,1,144,6|0,3:2|1:0,0:0:0:0:
192,339,35120,2,0,L|177:244,1,96,10|0,0:2|0:0,0:0:0:0:
167,197,35420,2,0,P|212:209|258:197,1,96,2|0,0:0|3:0,0:0:0:0:
294,165,35720,2,0,P|317:168|339:179,2,48,10|0|0,1:2|1:0|1:0,0:0:0:0:
307,118,36020,5,2,0:0:0:0:
259,34,36220,2,0,L|399:9,1,144,2|0,0:0|0:0,0:0:0:0:
446,22,36620,1,2,0:0:0:0:
477,112,36820,1,0,0:0:0:0:
476,112,36920,2,0,P|455:154|461:201,1,96,10|6,0:0|1:2,0:0:0:0:
461,201,37520,6,0,B|302:237|356:99|197:133,1,288,2|0,0:0|1:0,0:0:0:0:
57,96,38420,6,0,P|48:143|58:190,1,96,2|0,0:0|0:0,0:0:0:0:
86,228,38720,1,8,1:2:0:0:
51,317,38920,2,0,B|105:336|147:303|147:303|158:323|177:331,1,144
224,321,39320,1,8,0:2:0:0:
279,242,39520,1,0,0:0:0:0:
279,242,39620,2,0,P|272:194|265:147,1,96,2|0,0:0|1:0,0:0:0:0:
260,99,39920,2,0,B|227:76|184:84|184:84|162:109|127:106,2,144,10|2|10,0:0|0:0|1:2,0:0:0:0:
341,47,40720,1,0,1:0:0:0:
341,47,40820,6,0,P|382:70|430:74,1,96,2|0,0:2|0:0,0:0:0:0:
475,58,41120,1,10,0:0:0:0:
504,149,41320,2,0,L|484:292,1,144,2|2,0:0|0:0,0:0:0:0:
475,339,41720,1,8,0:0:0:0:
382,366,41920,2,0,P|313:363|269:309,1,144,6|0,1:2|0:0,0:0:0:0:
222,297,42320,2,0,B|166:307|166:307|142:332|142:332|91:344,2,144,10|2|8,0:0|0:0|1:2,0:0:0:0:
345,223,43220,6,0,P|359:177|353:130,1,96,2|2,3:2|0:0,0:0:0:0:
335,87,43520,1,8,1:2:0:0:
243,118,43720,2,0,P|173:126|112:89,1,144,2|2,0:0|0:0,0:0:0:0:
86,49,44120,1,10,0:0:0:0:
18,116,44320,2,0,L|36:258,1,144,6|0,3:2|1:0,0:0:0:0:
22,303,44720,2,0,P|67:291|113:303,1,96,10|0,0:0|0:0,0:0:0:0:
150,335,45020,2,0,L|245:322,1,96,2|0,0:0|3:0,0:0:0:0:
292,313,45320,2,0,P|308:329|319:351,2,48,2|0|0,1:2|1:0|1:0,0:0:0:0:
328,281,45620,6,0,P|462:291|515:167,1,288,2|2,3:2|0:0,0:0:0:0:
467,84,46420,1,0,0:0:0:0:
467,84,46520,2,0,L|373:66,1,96,2|6,0:0|1:2,0:0:0:0:
372,65,47120,6,0,B|319:55|295:12|295:12|207:88|259:182,1,288,2|0,0:0|1:0,0:0:0:0:
328,281,48020,5,6,3:1:0:0:
128,352,48520,5,0,1:0:0:0:
127,352,48620,2,0,P|82:338|52:301,1,96,2|4,1:2|0:3,0:0:0:0:
40,254,48920,1,0,0:0:0:0:
79,166,49120,1,2,3:2:0:0:
79,166,49220,2,0,L|50:24,2,144,6|0|2,3:1|0:0|1:1,0:0:0:0:
174,173,50020,1,0,3:0:0:0:
174,173,50120,2,0,L|183:125,2,48,2|0|0,1:2|0:0|1:0,0:0:0:0:
161,219,50420,5,6,3:1:0:0:
352,363,50920,1,0,0:0:0:0:
352,363,51020,2,0,B|389:340|389:340|440:349,1,96,2|4,1:2|0:3,0:0:0:0:
487,361,51320,1,2,3:2:0:0:
458,269,51520,1,0,1:0:0:0:
458,269,51620,2,0,B|457:234|441:214|441:214|434:164|467:136,1,144,6|0,3:1|0:0,0:0:0:0:
434,46,52120,1,0,1:0:0:0:
433,46,52220,2,0,P|388:60|342:50,1,96,2|0,3:1|0:0,0:0:0:0:
301,75,52520,2,0,L|315:121,2,48,2|0|0,1:2|1:0|1:0,0:0:0:0:
254,60,52820,5,6,3:1:0:0:
213,296,53320,1,0,1:0:0:0:
213,296,53420,2,0,P|166:302|122:282,1,96,2|4,1:2|0:3,0:0:0:0:
104,238,53720,1,4,0:3:0:0:
122,143,53920,1,2,3:2:0:0:
122,143,54020,2,0,P|130:73|91:14,1,144,6|0,1:1|0:0,0:0:0:0:
0,42,54520,1,0,1:0:0:0:
0,42,54620,2,0,P|-8:111|30:170,1,144,2|2,1:1|1:2,0:0:0:0:
104,238,55120,5,0,1:0:0:0:
104,238,55220,2,0,L|246:209,1,144,6|2,3:1|0:2,0:0:0:0:
335,240,55720,1,0,1:0:0:0:
335,239,55820,2,0,P|355:197|359:149,1,96,10|0,0:2|0:0,0:0:0:0:
337,106,56120,1,2,0:0:0:0:
413,48,56320,6,0,P|452:107|462:178,1,144,6|2,1:2|0:0,0:0:0:0:
462,178,56720,1,4,0:3:0:0:
492,269,56920,1,0,1:0:0:0:
492,269,57020,2,0,L|399:292,1,96,2|0,1:2|0:0,0:0:0:0:
366,329,57320,2,0,P|319:337|275:319,1,96,2|0,1:2|0:0,0:0:0:0:
250,278,57620,6,0,L|276:136,1,144,6|0,3:2|0:0,0:0:0:0:
225,54,58120,2,0,B|191:28|152:41|152:41|128:70|92:63,1,144,6|0,3:2|0:0,0:0:0:0:
49,42,58520,1,0,1:0:0:0:
19,183,58820,2,0,P|47:221|57:267,1,96,2|0,3:2|0:0,0:0:0:0:
47,315,59120,1,8,0:2:0:0:
132,359,59320,2,0,B|199:330|205:392|270:358,1,144,6|0,3:2|0:0,0:0:0:0:
305,325,59720,1,2,0:0:0:0:
247,248,59920,1,0,1:0:0:0:
247,248,60020,6,0,B|224:200|233:150|233:150|259:115,1,144,6|0,3:1|0:0,0:0:0:0:
319,38,60520,2,0,P|377:77|447:67,1,144,6|0,3:1|1:0,0:0:0:0:
485,38,60920,1,0,1:0:0:0:
440,174,61220,2,0,L|469:314,1,144,2|8,3:2|0:0,0:0:0:0:
398,379,61720,1,2,3:2:0:0:
380,363,61820,1,0,0:0:0:0:
358,354,61920,1,0,1:0:0:0:
334,353,62020,1,0,1:0:0:0:
311,359,62120,6,0,B|264:374|264:374|284:281,1,144,8|0,0:3|3:3,0:0:0:0:
283,281,64220,2,0,L|264:139,1,144,2|2,0:0|0:0,0:0:0:0:
338,78,64720,6,0,B|223:106|267:27|156:48,1,192,6|10,3:2|1:2,0:0:0:0:
68,86,65320,1,2,0:2:0:0:
68,86,65420,2,0,P|52:130|55:178,1,96,0|2,0:0|0:0,0:0:0:0:
39,224,65720,6,0,P|108:211|168:248,1,144,10|0,0:0|0:0,0:0:0:0:
243,307,66220,1,0,1:0:0:0:
243,307,66320,2,0,L|336:287,1,96,10|0,0:0|0:0,0:0:0:0:
381,305,66620,2,0,P|425:252|417:182,1,144,2|10,3:2|0:0,0:0:0:0:
476,107,67120,6,0,L|334:133,1,144,6|0,3:2|3:0,0:0:0:0:
288,118,67520,1,10,0:0:0:0:
237,199,67720,1,0,0:0:0:0:
237,199,67820,2,0,P|252:243|243:290,1,96,2|0,0:0|0:0,0:0:0:0:
211,326,68120,1,10,0:0:0:0:
119,358,68320,2,0,P|51:342|12:284,1,144,4|0,1:2|0:0,0:0:0:0:
16,258,68720,1,10,0:0:0:0:
56,150,68920,1,0,1:0:0:0:
52,126,69020,1,2,0:0:0:0:
48,102,69120,1,2,0:0:0:0:
44,78,69220,1,2,0:0:0:0:
40,55,69320,1,10,0:0:0:0:
135,66,69520,6,0,B|196:54|250:45|250:45|290:68|277:108,1,192,2|10,0:0|0:0,0:0:0:0:
216,182,70120,1,2,0:0:0:0:
216,182,70220,2,0,P|205:228|217:274,1,96,0|2,0:0|0:0,0:0:0:0:
242,315,70520,1,10,0:0:0:0:
335,294,70720,6,0,B|387:283|387:283|426:303|426:303|471:290,1,144,6|0,3:2|1:0,0:0:0:0:
471,291,71120,1,10,0:0:0:0:
431,203,71320,1,0,0:0:0:0:
431,203,71420,2,0,P|422:156|434:110,1,96,2|0,3:2|0:0,0:0:0:0:
465,73,71720,1,10,1:2:0:0:
392,8,71920,6,0,P|338:51|269:41,1,144,0|0,1:0|0:0,0:0:0:0:
224,23,72320,1,10,0:0:0:0:
236,118,72520,1,0,0:0:0:0:
236,118,72620,2,0,L|218:213,1,96,2|2,0:0|0:0,0:0:0:0:
246,251,72920,1,0,0:0:0:0:
217,342,73120,6,0,P|150:360|88:326,1,144,6|0,1:0|0:0,0:0:0:0:
66,282,73520,1,10,0:0:0:0:
88,188,73720,1,0,1:0:0:0:
107,173,73820,1,2,3:2:0:0:
129,163,73920,1,0,0:0:0:0:
153,162,74020,1,0,0:0:0:0:
177,167,74120,1,10,0:0:0:0:
246,251,74320,6,0,B|319:238|319:238|359:262|359:262|429:249,1,192,6|10,3:1|0:0,0:0:0:0:
492,177,74920,1,2,0:0:0:0:
492,177,75020,2,0,P|498:129|482:85,1,96,2|0,0:1|0:0,0:0:0:0:
446,53,75320,1,8,0:0:0:0:
361,97,75520,6,0,P|291:107|231:71,1,144,2|0,1:0|1:0,0:0:0:0:
199,33,75920,1,8,0:0:0:0:
146,113,76120,1,0,0:0:0:0:
146,113,76220,2,0,B|118:162|118:162|137:247,1,144,2|10,3:2|0:2,0:0:0:0:
209,311,76720,1,2,3:2:0:0:
209,311,76820,6,0,P|277:293|342:322,2,144,0|10|2,0:0|0:0|0:0,0:0:0:0:
128,363,77620,1,0,0:0:0:0:
128,363,77720,1,10,0:0:0:0:
39,325,77920,6,0,L|3:136,1,192,2|10,1:2|0:0,0:0:0:0:
37,46,78520,2,0,P|102:73|171:58,1,144,2|2,3:2|3:2,0:0:0:0:
211,24,78920,1,0,0:0:0:0:
216,40,79020,1,0,1:0:0:0:
225,59,79120,1,0,1:0:0:0:
231,73,79220,6,0,L|209:215,1,144,6|10,3:2|0:0,0:0:0:0:
232,298,79720,2,0,B|311:285|287:342|367:325,1,144,2|0,3:2|1:0,0:0:0:0:
408,291,80120,1,0,1:0:0:0:
450,195,80320,6,0,P|443:124|395:72,1,144,6|0,3:2|1:0,0:0:0:0:
340,79,80720,1,2,0:0:0:0:
243,117,80920,1,2,3:2:0:0:
248,141,81020,1,2,1:2:0:0:
253,164,81120,1,0,1:0:0:0:
257,188,81220,1,2,1:2:0:0:
262,211,81320,1,2,1:2:0:0:
283,304,81520,6,0,B|184:290|214:367|103:347,1,192,6|8,3:2|1:2,0:0:0:0:
22,293,82120,1,6,3:2:0:0:
22,293,82220,2,0,P|6:248|13:201,1,96,0|0,0:0|1:0,0:0:0:0:
39,159,82520,1,2,1:2:0:0:
15,65,82720,5,6,3:2:0:0:
15,65,82820,2,0,P|82:46|147:75,1,144,0|2,1:0|1:2,0:0:0:0:
214,143,83320,1,2,1:2:0:0:
214,143,83420,2,0,L|197:237,1,96,2|8,0:2|0:3,0:0:0:0:
226,274,83720,2,0,L|217:321,2,48,10|0|2,1:2|1:0|1:2,0:0:0:0:
242,362,84020,1,4,3:2:0:0:
242,362,84820,5,0,3:0:0:0:
285,342,84920,2,0,P|331:334|375:351,1,96,2|0,1:2|0:0,0:0:0:0:
416,377,85220,1,2,1:2:0:0:
480,305,85420,1,0,3:0:0:0:
480,305,85520,2,0,L|463:210,1,96,2|0,0:0|1:0,0:0:0:0:
483,167,85820,2,0,P|437:175|393:157,1,96,2|0,3:2|1:0,0:0:0:0:
364,118,86120,1,2,3:2:0:0:
313,40,86320,5,6,1:2:0:0:
256,192,86420,12,2,88720,0:0:0:0:
