osu file format v14

[General]
AudioFilename: audio.mp3
AudioLeadIn: 0
PreviewTime: 61865
Countdown: 0
SampleSet: Soft
StackLeniency: 0.7
Mode: 0
LetterboxInBreaks: 0
WidescreenStoryboard: 1

[Editor]
DistanceSpacing: 1
BeatDivisor: 2
GridSize: 8
TimelineZoom: 1

[Metadata]
Title:ReAliZe
TitleUnicode:ReAliZe
Artist:Yonekura Chihiro
ArtistUnicode:米倉千尋
Creator:HeTo
Version:Kaguya_Sama's Hard
Source:9-nine-ここのつここのかここのいろ
Tags:ぱれっと Palette kokonotsu kokonoka kokonoiro Japanese Eroge Visual Novel Video Game Opening Theme Episode 1 和泉つばす Izumi Tsubasu pop j-pop jpop kaguya_sama einess ujimatsu chiya 九條都 miyako kujou kujo
BeatmapID:3089275
BeatmapSetID:1255009

[Difficulty]
HPDrainRate:5
CircleSize:4
OverallDifficulty:6
ApproachRate:7.5
SliderMultiplier:1.5
SliderTickRate:1

[Events]
//Background and Video events
0,0,"p.jpg",0,0
//Break Periods
//Storyboard Layer 0 (Background)
//Storyboard Layer 1 (Fail)
//Storyboard Layer 2 (Pass)
//Storyboard Layer 3 (Foreground)
//Storyboard Layer 4 (Overlay)
//Storyboard Sound Samples

[TimingPoints]
1454,382.165605095541,4,2,2,30,1,0
1454,-100,4,2,2,30,0,0
2027,-100,4,2,2,30,0,0
2600,387.096774193548,4,2,2,30,1,0
2600,-100,4,2,2,30,0,0
3195,410.958904109589,4,2,2,30,1,0
4222,504.201680672269,4,2,2,30,1,0
4222,-100,4,2,2,30,0,0
5733,361.44578313253,4,2,2,30,1,0
5733,-100,4,2,2,30,0,0
6277,387.096774193548,4,2,2,30,1,0
6277,-100,4,2,2,30,0,0
6857,402.684563758389,4,2,2,30,1,0
6857,-100,4,2,2,30,0,0
7460,377.358490566038,4,2,2,30,1,0
7460,-100,4,2,2,30,0,0
8214,377.358490566038,4,2,2,30,1,0
8214,-100,4,2,2,30,0,0
11044,-100,4,2,2,5,0,0
11543,387.096774193548,4,2,2,50,1,0
11543,-111.111111111111,4,2,2,50,0,0
15026,-111.111111111111,4,2,2,55,0,0
15801,-100,4,2,2,55,0,0
16672,-100,4,2,2,5,0,0
16768,-111.111111111111,4,2,2,55,0,0
16865,-111.111111111111,4,2,2,5,0,0
16962,-125,4,2,2,55,0,0
18123,-125,4,2,2,10,0,0
18510,-125,4,2,2,35,0,0
18704,-111.111111111111,4,2,2,35,0,0
18897,-111.111111111111,4,2,2,55,0,0
19188,-111.111111111111,4,2,2,5,0,0
19284,-111.111111111111,4,2,2,50,0,0
19575,-111.111111111111,4,2,2,5,0,0
19672,-111.111111111111,4,2,2,50,0,0
22672,-111.111111111111,4,2,2,5,0,0
22768,-111.111111111111,4,2,2,50,0,0
28575,-111.111111111111,4,2,2,60,0,0
28865,-111.111111111111,4,2,2,5,0,0
28962,-111.111111111111,4,2,2,60,0,0
29736,-111.111111111111,4,2,2,60,0,0
30317,-111.111111111111,4,2,2,50,0,0
30897,-111.111111111111,4,2,2,60,0,0
31672,-111.111111111111,4,2,2,55,0,0
39413,-100,4,2,2,55,0,0
44349,-100,4,2,2,5,0,0
44446,-100,4,2,2,60,0,0
52671,-100,4,2,2,5,0,0
52768,-100,4,2,2,60,0,0
57994,-100,4,2,2,60,0,0
59833,-100,4,2,2,5,0,0
59930,-100,4,2,2,60,0,0
60026,-100,4,2,2,5,0,0
60123,-100,4,2,2,60,0,0
60704,-100,4,2,2,60,0,0
61768,-100,4,2,2,5,0,0
61865,387.096774193548,4,2,2,70,1,1
61865,-90.9090909090909,4,2,2,70,0,1
62155,-90.9090909090909,4,2,2,5,0,1
62252,-90.9090909090909,4,2,2,70,0,1
65252,-90.9090909090909,4,2,2,5,0,1
65348,-90.9090909090909,4,2,2,70,0,1
65445,-90.9090909090909,4,2,2,5,0,1
65542,-90.9090909090909,4,2,2,70,0,1
69703,-90.9090909090909,4,2,2,5,0,1
69800,-90.9090909090909,4,2,2,70,0,1
74542,-90.9090909090909,4,2,2,5,0,1
74639,-90.9090909090909,4,2,2,70,0,1
77639,-90.9090909090909,4,2,2,5,0,1
77735,-90.9090909090909,4,2,2,70,0,1
82090,-90.9090909090909,4,2,2,5,0,1
82187,-90.9090909090909,4,2,2,70,0,1
82284,-90.9090909090909,4,2,2,5,0,1
82381,-90.9090909090909,4,2,2,70,0,1
82477,-90.9090909090909,4,2,2,5,0,1
82574,-90.9090909090909,4,2,2,70,0,1
82961,-100,4,2,2,70,0,0
83542,-100,4,2,2,50,0,0
83833,-100,4,2,2,5,0,0
83929,-100,4,2,2,50,0,0
85090,-100,4,2,2,50,0,0
88187,-138.888888888889,4,2,2,50,0,0
88574,-138.888888888889,4,2,2,50,0,0
88961,-138.888888888889,4,2,2,50,0,0
89348,-138.888888888889,4,2,2,50,0,0
89735,-138.888888888889,4,2,2,35,0,0
90123,-138.888888888889,4,2,2,35,0,0
90510,-138.888888888889,4,2,2,35,0,0
90897,-138.888888888889,4,2,2,35,0,0
91284,-138.888888888889,4,2,2,25,0,0
91671,-138.888888888889,4,2,2,25,0,0
92058,-138.888888888889,4,2,2,15,0,0
92832,-138.888888888889,4,2,2,5,0,0

[Colours]
Combo1 : 198,184,252
Combo2 : 252,160,240
Combo3 : 192,192,192
Combo4 : 111,253,203

[HitObjects]
64,221,1454,5,2,0:0:0:0:
138,193,2027,1,2,0:0:0:0:
166,267,2600,1,2,0:0:0:0:
92,295,3195,1,2,0:0:0:0:
92,295,4222,5,2,0:0:0:0:
448,221,5733,5,2,0:0:0:0:
374,193,6277,1,2,0:0:0:0:
346,267,6857,1,2,0:0:0:0:
420,295,7460,1,2,0:0:0:0:
420,295,8214,5,2,0:0:0:0:
256,192,8308,12,0,11043,0:0:0:0:
296,184,11543,6,0,L|290:269,2,67.4999979400635,6|2|2,1:2|0:0|1:2,0:0:0:0:
368,147,12123,2,0,L|363:72,2,67.4999979400635,2|2|2,0:0|1:2|0:0,0:0:0:0:
420,209,12704,2,0,L|415:293,1,67.4999979400635,2|2,1:2|0:0,0:0:0:0:
348,327,13091,6,0,B|299:343|299:343|194:314,1,134.999995880127,2|2,1:2|1:2,0:0:0:0:
175,252,13672,1,2,0:0:0:0:
109,299,13865,2,0,P|74:311|18:299,2,67.4999979400635,2|2|2,1:2|0:0|1:2,0:0:0:0:
5,242,14446,6,0,P|15:163|21:88,1,134.999995880127,2|2,0:0|0:0,0:0:0:0:
73,47,15026,2,0,B|130:30|163:70|163:70|193:106|258:94|258:94,1,202.499993820191,2|8,1:2|0:0,0:0:0:0:
351,62,15801,6,0,B|343:131|343:131|350:140|350:140|342:218,1,150,6|2,1:2|0:0,0:0:0:0:
256,252,16381,2,0,B|248:183|248:183|255:174|255:174|247:105,1,150,6|2,1:2|0:0,0:0:0:0:
177,43,16962,6,0,B|169:93|115:131|115:131|47:170|-27:125|5:28|84:11|130:75|115:131|115:131|83:177|115:224,1,480,6|0,1:2|0:0,0:0:0:0:
192,181,18897,1,2,0:1:0:0:
131,304,19284,6,0,P|88:296|47:263,1,67.4999979400635,6|0,1:2|0:0,0:0:0:0:
21,226,19672,2,0,L|46:72,1,134.999995880127,2|2,1:2|1:2,0:0:0:0:
106,54,20252,2,0,P|134:59|190:80,1,67.4999979400635,2|0,0:0|1:2,0:0:0:0:
214,151,20639,6,0,B|308:168|276:107|356:127,1,134.999995880127,2|2,0:0|0:0,0:0:0:0:
395,174,21220,2,0,L|383:260,1,67.4999979400635,2|2,1:2|0:0,0:0:0:0:
385,315,21607,1,0,1:2:0:0:
318,277,21801,2,0,P|251:267|226:273,1,67.4999979400635,2|0,0:0|1:2,0:0:0:0:
189,306,22188,1,2,0:0:0:0:
128,237,22381,5,0,1:2:0:0:
84,378,22768,2,0,L|89:304,1,67.4999979400635,2|0,1:2|0:0,0:0:0:0:
14,311,23155,1,2,1:2:0:0:
52,247,23349,2,0,L|63:149,1,67.4999979400635,2|0,0:0|1:2,0:0:0:0:
0,106,23736,6,0,B|29:131|29:131|154:119,1,134.999995880127,2|2,0:0|0:0,0:0:0:0:
172,64,24317,2,0,P|230:42|266:40,1,67.4999979400635,2|2,1:2|0:0,0:0:0:0:
326,12,24704,1,2,1:2:0:0:
326,12,24801,1,2,0:0:0:0:
326,12,24897,2,0,L|318:98,1,67.4999979400635,2|2,0:0|1:2,0:0:0:0:
373,131,25284,1,2,0:0:0:0:
446,117,25478,6,0,P|489:131|505:158,1,67.4999979400635,0|2,1:2|0:0,0:0:0:0:
447,199,25865,2,0,B|418:276|470:267|432:358,1,134.999995880127,2|2,1:2|1:2,0:0:0:0:
368,346,26446,2,0,P|323:344|288:342,1,67.4999979400635,2|0,0:0|1:2,0:0:0:0:
232,302,26833,6,0,P|224:264|318:205,1,134.999995880127,2|0,0:0|0:0,0:0:0:0:
344,246,27413,1,2,1:2:0:0:
374,178,27607,2,0,B|365:113|365:113|361:110|361:110|349:21,1,134.999995880127,2|2,0:0|0:0,0:0:0:0:
413,2,28188,2,0,L|503:9,1,67.4999979400635,0|2,1:2|0:0,0:0:0:0:
446,81,28575,5,6,1:2:0:0:
456,94,28962,5,0,1:2:0:0:
361,70,29155,1,2,1:2:0:0:
365,85,29542,5,2,0:0:0:0:
271,108,29736,2,0,B|230:84|184:100|184:100|165:89|165:89|114:111|53:81,1,202.499993820191,6|2,1:2|0:0,0:0:0:0:
36,153,30510,2,0,P|40:201|42:252,1,67.4999979400635,2|2,0:0|0:0,0:0:0:0:
21,292,30897,6,0,P|61:280|113:281,1,67.4999979400635,2|0,0:0|0:0,0:0:0:0:
162,315,31284,1,8,0:0:0:0:
162,315,31381,1,8,0:0:0:0:
162,315,31478,2,0,L|161:357,1,33.7499989700318,8|8,0:0|0:0,0:0:0:0:
196,360,31672,6,0,B|274:353,1,67.4999979400635,6|0,1:2|0:0,0:0:0:0:
336,336,32059,2,0,P|404:365|462:310,1,134.999995880127,2|2,1:2|1:2,0:0:0:0:
441,260,32639,2,0,P|438:221|444:163,1,67.4999979400635,2|0,0:0|1:2,0:0:0:0:
498,118,33026,6,0,B|437:150|437:150|348:136,1,134.999995880127,2|2,0:0|0:0,0:0:0:0:
345,69,33607,2,0,P|318:34|280:21,1,67.4999979400635,2|2,1:2|0:0,0:0:0:0:
224,39,33994,1,0,1:2:0:0:
272,96,34188,2,0,P|275:145|262:181,1,67.4999979400635,2|2,0:0|1:2,0:0:0:0:
215,212,34575,1,2,0:0:0:0:
143,146,34768,5,2,1:2:0:0:
2,195,35155,2,0,L|11:271,1,67.4999979400635,2|0,1:2|0:0,0:0:0:0:
84,266,35542,1,2,1:2:0:0:
74,339,35736,2,0,P|119:352|150:362,1,67.4999979400635,2|2,0:0|1:2,0:0:0:0:
227,352,36123,6,0,B|287:346|287:346|323:365|323:365|383:358,1,134.999995880127,2|2,0:0|0:0,0:0:0:0:
431,364,36704,2,0,P|450:322|458:295,1,67.4999979400635,2|2,1:2|0:0,0:0:0:0:
479,230,37091,1,0,1:2:0:0:
500,146,37284,1,2,0:0:0:0:
501,138,37381,1,2,0:0:0:0:
503,131,37478,2,0,P|431:149|411:152,1,67.4999979400635,2|2,1:2|0:0,0:0:0:0:
376,190,37865,6,0,P|375:126|290:111,1,134.999995880127,2|0,1:2|1:2,0:0:0:0:
168,109,38639,2,0,B|129:93|95:115|95:115|69:83|14:86,1,134.999995880127,0|2,1:2|1:2,0:0:0:0:
35,161,39220,1,2,0:0:0:0:
134,181,39413,6,0,B|132:232|102:254|102:254|98:299|127:333,1,150,6|2,1:2|1:2,0:0:0:0:
188,359,39994,1,2,0:0:0:0:
249,303,40188,2,0,P|303:288|348:298,1,75,0|0,1:2|0:0,0:0:0:0:
392,330,40575,2,0,P|429:329|464:316,1,75,0|2,1:2|0:0,0:0:0:0:
510,247,40962,6,0,L|502:163,1,75,2|2,1:2|0:0,0:0:0:0:
430,134,41349,1,2,1:2:0:0:
430,134,41542,1,2,0:0:0:0:
496,88,41736,2,0,P|457:62|418:58,1,75,2|2,1:2|0:0,0:0:0:0:
357,97,42123,2,0,P|327:119|290:127,1,75,2|2,1:2|0:0,0:0:0:0:
216,43,42510,6,0,B|246:76|246:76|226:199,1,150,2|2,1:2|1:2,0:0:0:0:
238,262,43091,1,2,0:0:0:0:
152,185,43284,2,0,P|108:168|43:175,1,112.5,2|2,1:2|0:0,0:0:0:0:
24,189,43671,2,0,L|33:271,1,75,0|2,1:2|0:1,0:0:0:0:
0,362,44059,6,0,B|71:349|71:349|78:336|78:336|158:324,1,150,2|2,1:2|1:2,0:0:0:0:
213,288,44639,1,0,0:0:0:0:
265,351,44833,2,0,B|368:365,1,75,2|2,1:2|0:1,0:0:0:0:
360,283,45220,1,2,1:2:0:0:
442,280,45413,1,2,0:1:0:0:
491,341,45607,6,0,P|484:291|485:172,1,150,2|2,1:2|1:2,0:0:0:0:
507,112,46188,2,0,P|470:106|434:117,1,75,2|0,0:0|1:2,0:0:0:0:
389,49,46574,1,0,0:0:0:0:
315,87,46768,2,0,P|293:123|310:169,1,75,2|2,1:2|0:0,0:0:0:0:
318,233,47155,1,2,1:2:0:0:
327,245,47542,6,0,L|339:335,1,75,2|0,1:2|0:0,0:0:0:0:
265,361,47930,2,0,P|206:353|166:359,1,75,2|0,1:2|0:0,0:0:0:0:
125,303,48317,2,0,P|117:244|123:204,1,75,2|0,1:2|0:0,0:0:0:0:
106,124,48704,6,0,B|173:133|173:133|180:139|180:139|274:151,1,150,2|2,1:2|1:2,0:0:0:0:
334,156,49284,1,2,0:0:0:0:
416,146,49478,2,0,P|401:206|392:228,1,75,0|0,1:2|0:0,0:0:0:0:
323,267,49865,2,0,P|338:327|347:349,1,75,2|2,1:2|0:0,0:0:0:0:
379,358,50155,1,2,0:0:0:0:
417,373,50252,6,0,P|474:356|493:287,2,112.5,2|2|2,1:2|0:0|0:1,0:0:0:0:
342,339,51026,1,0,1:2:0:0:
267,375,51220,2,0,P|226:353|172:346,1,75,2|6,0:1|1:2,0:0:0:0:
120,320,51607,1,0,0:0:0:0:
235,272,51801,6,0,P|253:209|263:119,1,150,6|0,1:2|1:2,0:0:0:0:
226,51,52381,1,2,0:0:0:0:
184,123,52575,2,0,B|145:135|89:123,1,75,0|2,1:2|0:0,0:0:0:0:
29,106,52962,2,0,L|16:14,1,75,2|2,1:2|0:0,0:0:0:0:
0,183,53349,6,0,P|25:232|107:200,1,150,2|2,1:2|1:2,0:0:0:0:
109,126,53930,1,2,0:0:0:0:
176,173,54123,2,0,L|253:182,1,75,0|2,1:2|0:0,0:0:0:0:
369,116,54510,1,2,1:2:0:0:
286,106,54704,1,2,0:0:0:0:
330,185,54897,6,0,P|351:244|381:331,1,150,2|0,1:2|1:2,0:0:0:0:
313,376,55478,2,0,B|222:365|284:326|155:309,1,150,2|0,0:0|0:0,0:0:0:0:
103,340,56059,2,0,P|99:291|122:258,1,75,2|0,1:2|0:0,0:0:0:0:
92,188,56446,6,0,B|126:163|126:163|109:279,1,150,2|0,1:2|1:2,0:0:0:0:
190,250,57026,2,0,B|204:154|204:154|202:117|165:92,1,150,2|0,0:0|0:0,0:0:0:0:
103,84,57607,1,2,1:2:0:0:
127,163,57801,1,2,0:0:0:0:
249,143,57994,6,0,L|332:153,1,75,6|0,1:2|1:2,0:0:0:0:
380,97,58381,1,14,0:0:0:0:
428,205,58575,1,8,0:0:0:0:
428,205,58672,1,8,0:0:0:0:
428,205,58768,6,0,L|345:215,1,75,8|8,0:0|0:3,0:0:0:0:
297,274,59155,1,4,0:3:0:0:
312,143,59349,1,6,1:2:0:0:
300,154,59736,6,0,P|243:160|216:160,1,75,10|10,0:0|0:0,0:0:0:0:
147,131,60123,1,14,0:0:0:0:
137,146,60510,5,0,0:0:0:0:
82,208,60704,2,0,P|177:218|81:89,1,375,2|0,0:0|0:0,0:0:0:0:
23,149,61865,6,0,P|-1:203|46:288,1,165.000005035401,6|0,1:2|1:2,0:0:0:0:
136,285,62445,1,2,0:1:0:0:
187,359,62639,2,0,B|229:366|267:339,1,82.5000025177003,0|2,1:2|0:1,0:0:0:0:
329,275,63026,1,10,0:0:0:0:
346,361,63219,6,0,P|360:288|423:223,1,165.000005035401,2|2,0:0|0:1,0:0:0:0:
443,135,63800,1,2,1:2:0:0:
356,162,63994,2,0,P|285:186|197:164,1,165.000005035401,2|2,0:1|0:1,0:0:0:0:
175,79,64574,1,10,0:0:0:0:
278,33,64768,6,0,B|303:61|303:61|281:188,1,165.000005035401,2|0,0:0|0:0,0:0:0:0:
218,252,65348,1,2,1:2:0:0:
142,201,65542,2,0,P|107:183|64:187,1,82.5000025177003,2|0,0:1|1:2,0:0:0:0:
0,251,65929,1,2,0:1:0:0:
86,278,66123,1,10,0:0:0:0:
1,378,66316,6,0,B|71:368|71:368|96:376|96:376|170:364,1,165.000005035401,2|2,0:1|0:1,0:0:0:0:
252,383,66897,1,2,1:2:0:0:
286,299,67090,2,0,P|288:259|295:209,1,82.5000025177003,2|2,0:0|1:2,0:0:0:0:
376,300,67477,2,0,P|381:340|383:382,1,82.5000025177003,2|10,0:0|0:0,0:0:0:0:
455,256,67865,1,2,0:1:0:0:
512,157,68058,6,0,P|454:172|371:118,1,165.000005035401,6|2,1:2|1:2,0:0:0:0:
409,35,68639,1,2,0:1:0:0:
325,1,68832,2,0,L|243:16,1,82.5000025177003,2|2,1:2|0:1,0:0:0:0:
206,98,69219,1,10,0:0:0:0:
151,25,69413,6,0,P|175:71|133:170,1,165.000005035401,2|2,0:1|0:1,0:0:0:0:
86,246,69994,1,0,1:2:0:0:
176,244,70187,2,0,P|229:241|259:248,1,82.5000025177003,2|0,0:1|1:2,0:0:0:0:
336,293,70574,1,2,0:1:0:0:
369,208,70768,1,10,0:0:0:0:
466,243,70961,6,0,B|494:269|494:269|480:133,1,165.000005035401,2|2,0:1|0:1,0:0:0:0:
511,68,71542,2,0,B|422:46|458:105|349:81,1,165.000005035401,2|2,1:2|1:2,0:0:0:0:
287,17,72123,1,2,0:1:0:0:
266,105,72316,1,10,0:0:0:0:
170,56,72510,6,0,B|120:38|120:38|9:72,1,165.000005035401,2|2,0:1|0:1,0:0:0:0:
14,161,73090,2,0,L|22:245,1,82.5000025177003,2|2,1:2|0:1,0:0:0:0:
69,332,73477,1,0,1:2:0:0:
69,332,73574,1,8,0:0:0:0:
69,332,73671,1,8,0:0:0:0:
111,248,73864,2,0,L|105:207,3,41.2500012588501,8|8|8|8,0:0|0:0|0:0|0:0,0:0:0:0:
127,166,74252,6,0,P|189:145|282:196,1,165.000005035401,6|10,1:2|0:0,0:0:0:0:
336,252,74832,2,0,P|418:266|431:275,1,82.5000025177003,2|0,0:1|1:2,0:0:0:0:
474,340,75219,1,2,0:1:0:0:
474,340,75413,1,8,0:0:0:0:
502,234,75606,6,0,P|493:182|473:69,1,165.000005035401,2|2,0:1|0:1,0:0:0:0:
408,8,76187,1,10,0:0:0:0:
393,97,76381,2,0,B|290:86|369:53|239:36,1,165.000005035401,2|2,0:1|0:1,0:0:0:0:
165,79,76961,1,10,0:0:0:0:
95,20,77155,1,2,0:1:0:0:
55,140,77348,6,0,B|91:176|91:176|203:164,1,165.000005035401,2|10,1:2|0:0,0:0:0:0:
292,187,77929,2,0,P|289:229|285:272,1,82.5000025177003,2|0,0:1|1:2,0:0:0:0:
280,360,78316,2,0,P|315:370|364:375,1,82.5000025177003,2|10,0:1|0:0,0:0:0:0:
455,378,78703,6,0,P|466:309|501:217,1,165.000005035401,14|2,0:0|0:1,0:0:0:0:
485,130,79284,1,10,0:0:0:0:
415,187,79477,1,2,0:1:0:0:
364,111,79671,1,0,1:2:0:0:
281,147,79864,2,0,L|195:136,1,82.5000025177003,2|8,0:1|0:0,0:0:0:0:
126,82,80252,1,2,0:1:0:0:
46,180,80445,5,2,1:2:0:0:
133,230,80639,1,8,0:0:0:0:
133,230,80735,1,8,0:0:0:0:
133,230,80832,1,8,0:0:0:0:
93,313,81026,2,0,L|102:357,4,41.2500012588501,8|8|8|8|8,0:0|0:0|0:0|0:0|0:3,0:0:0:0:
7,287,81606,1,4,0:3:0:0:
46,180,81800,6,0,P|35:100|112:87,1,165.000005035401,6|10,1:2|0:0,0:0:0:0:
167,120,82381,1,10,0:0:0:0:
481,226,85090,6,0,B|372:210|372:210|342:254,1,150,6|2,1:2|1:2,0:0:0:0:
309,323,85671,2,0,B|286:355|286:355|177:339,1,150,2|0,0:0|0:0,0:0:0:0:
103,288,86252,2,0,P|109:238|124:210,1,75,2|0,1:2|0:0,0:0:0:0:
228,180,86639,6,0,P|164:196|125:118,1,150,2|2,1:2|1:2,0:0:0:0:
156,51,87219,2,0,P|220:35|259:113,1,150,8|0,0:3|1:2,0:0:0:0:
332,153,87800,1,2,1:2:0:0:
281,265,88187,6,0,B|283:217|230:188|176:210|150:255|130:358|208:436|320:428|419:389|434:327|426:240|397:159|358:116|318:100|236:82|196:102|218:109|134:141|86:117|29:50|29:50|13:125|64:162|64:162|39:189|0:204|0:204|7:261|64:279|105:267|105:267|130:313|186:307,1,1296.00003164063,6|0,1:2|0:0,0:0:0:0:
