osu file format v14

[General]
AudioFilename: audio.mp3
AudioLeadIn: 0
PreviewTime: 127796
Countdown: 0
SampleSet: None
StackLeniency: 0.7
Mode: 3
LetterboxInBreaks: 0
SpecialStyle: 0
WidescreenStoryboard: 0

[Editor]
DistanceSpacing: 1.5
BeatDivisor: 4
GridSize: 32
TimelineZoom: 1.7

[Metadata]
Title:ReAliZe
TitleUnicode:ReAliZe
Artist:Yonekura Chihiro
ArtistUnicode:米倉千尋
Creator:Damaree
Version:ReComplete // 7K
Source:9-nine-ここのつここのかここのいろ
Tags:9 -nine- nokonotsu kokonoka kokonoiro episode 1 miyako kujou vn eroge palette izumi tsubasa 14th project
BeatmapID:1605823
BeatmapSetID:763711

[Difficulty]
HPDrainRate:8
CircleSize:7
OverallDifficulty:8
ApproachRate:5
SliderMultiplier:1.4
SliderTickRate:1

[Events]
//Background and Video events
0,0,"9 BBBG.jpg",0,0
//Break Periods
//Storyboard Layer 0 (Background)
//Storyboard Layer 1 (Fail)
//Storyboard Layer 2 (Pass)
//Storyboard Layer 3 (Foreground)
//Storyboard Sound Samples

[TimingPoints]
13990,387.096774193548,4,2,0,0,1,0
63538,-100,4,2,0,0,0,1
75538,-100,4,2,0,0,0,0
75925,-100,4,2,0,0,0,1
84054,-100,4,2,0,0,0,0
127796,-100,4,2,0,0,0,1
139796,-100,4,2,0,0,0,0
140183,-100,4,2,0,0,0,1
148312,-100,4,2,0,0,0,0
182764,-100,4,2,0,0,0,1
194764,-100,4,2,0,0,0,0
195151,-100,4,2,0,0,0,1
204054,-100,4,2,0,0,0,0
204441,-100,4,2,0,0,0,1
216441,-100,4,2,0,0,0,0
216828,-100,4,2,0,0,0,1
224957,-100,4,2,0,0,0,0

[HitObjects]
475,192,3925,128,0,5086:0:0:0:0:
402,192,4506,128,0,5667:0:0:0:0:
329,192,5086,128,0,6635:0:0:0:0:
256,192,5667,128,0,8183:0:0:0:0:
36,192,6635,128,0,8764:0:0:0:0:
109,192,8183,128,0,9344:0:0:0:0:
182,192,8764,128,0,9925:0:0:0:0:
475,192,9344,128,0,10506:0:0:0:0:
402,192,9925,128,0,13602:0:0:0:0:
329,192,10506,128,0,13602:0:0:0:0:
256,192,10893,128,0,13602:0:0:0:0:
36,192,13990,128,0,14183:0:0:0:0:
182,192,13990,1,0,0:0:0:0:
475,192,13990,1,0,0:0:0:0:
402,192,13990,1,0,0:0:0:0:
109,192,14183,128,0,14377:0:0:0:0:
256,192,14183,1,0,0:0:0:0:
182,192,14377,128,0,14570:0:0:0:0:
329,192,14377,1,0,0:0:0:0:
36,192,14570,1,0,0:0:0:0:
475,192,14570,1,0,0:0:0:0:
402,192,14764,128,0,14957:0:0:0:0:
109,192,14764,1,0,0:0:0:0:
256,192,14957,128,0,15151:0:0:0:0:
329,192,14957,1,0,0:0:0:0:
475,192,15151,1,0,0:0:0:0:
36,192,15151,1,0,0:0:0:0:
109,192,15344,128,0,15538:0:0:0:0:
182,192,15344,1,0,0:0:0:0:
329,192,15538,128,0,15731:0:0:0:0:
402,192,15538,1,0,0:0:0:0:
256,192,15731,1,0,0:0:0:0:
36,192,15731,1,0,0:0:0:0:
182,192,15925,128,0,16312:0:0:0:0:
475,192,15925,1,0,0:0:0:0:
36,192,16119,128,0,16312:0:0:0:0:
109,192,16119,1,0,0:0:0:0:
329,192,16312,128,0,16699:0:0:0:0:
256,192,16312,1,0,0:0:0:0:
475,192,16506,128,0,16699:0:0:0:0:
402,192,16506,1,0,0:0:0:0:
109,192,16699,128,0,17086:0:0:0:0:
182,192,16699,1,0,0:0:0:0:
256,192,16893,128,0,17086:0:0:0:0:
402,192,16893,1,0,0:0:0:0:
329,192,17086,1,0,0:0:0:0:
402,192,17086,1,0,0:0:0:0:
36,192,17280,128,0,17473:0:0:0:0:
475,192,17473,1,0,0:0:0:0:
109,192,17473,1,0,0:0:0:0:
329,192,17538,1,0,0:0:0:0:
402,192,17602,1,0,0:0:0:0:
256,192,17667,1,0,0:0:0:0:
109,192,17731,1,0,0:0:0:0:
182,192,17796,1,0,0:0:0:0:
36,192,17860,1,0,0:0:0:0:
475,192,17860,1,0,0:0:0:0:
402,192,17957,1,0,0:0:0:0:
109,192,17957,1,0,0:0:0:0:
329,192,18054,1,0,0:0:0:0:
182,192,18054,1,0,0:0:0:0:
109,192,18151,1,0,0:0:0:0:
402,192,18151,1,0,0:0:0:0:
36,192,18248,1,0,0:0:0:0:
475,192,18248,1,0,0:0:0:0:
256,192,18248,1,0,0:0:0:0:
402,192,18441,1,0,0:0:0:0:
109,192,18441,1,0,0:0:0:0:
182,192,18635,1,0,0:0:0:0:
329,192,18635,1,0,0:0:0:0:
256,192,18828,1,0,0:0:0:0:
36,192,18828,1,0,0:0:0:0:
475,192,18828,1,0,0:0:0:0:
109,192,18828,1,0,0:0:0:0:
402,192,18828,1,0,0:0:0:0:
256,192,19215,128,0,19409:0:0:0:0:
36,192,19409,1,0,0:0:0:0:
109,192,19473,1,0,0:0:0:0:
182,192,19538,1,0,0:0:0:0:
256,192,19602,1,0,0:0:0:0:
329,192,19667,1,0,0:0:0:0:
402,192,19731,1,0,0:0:0:0:
475,192,19796,1,0,0:0:0:0:
36,192,19860,1,0,0:0:0:0:
109,192,19925,1,0,0:0:0:0:
182,192,19990,1,0,0:0:0:0:
256,192,20054,1,0,0:0:0:0:
329,192,20119,1,0,0:0:0:0:
402,192,20183,1,0,0:0:0:0:
475,192,20248,1,0,0:0:0:0:
36,192,20312,1,0,0:0:0:0:
109,192,20377,1,0,0:0:0:0:
182,192,20441,1,0,0:0:0:0:
256,192,20506,1,0,0:0:0:0:
329,192,20570,128,0,21731:0:0:0:0:
182,192,20957,1,0,0:0:0:0:
109,192,21022,1,0,0:0:0:0:
36,192,21022,128,0,21731:0:0:0:0:
256,192,21344,1,0,0:0:0:0:
402,192,21344,1,0,0:0:0:0:
475,192,21731,1,0,0:0:0:0:
182,192,21731,1,0,0:0:0:0:
109,192,21731,1,0,0:0:0:0:
402,192,21731,1,0,0:0:0:0:
475,192,22119,1,0,0:0:0:0:
402,192,22119,1,0,0:0:0:0:
256,192,22119,128,0,22312:0:0:0:0:
475,192,22506,1,0,0:0:0:0:
402,192,22506,1,0,0:0:0:0:
256,192,22699,128,0,22893:0:0:0:0:
402,192,22893,1,0,0:0:0:0:
475,192,22893,1,0,0:0:0:0:
256,192,23086,128,0,23667:0:0:0:0:
475,192,23280,1,0,0:0:0:0:
402,192,23280,1,0,0:0:0:0:
475,192,23667,1,0,0:0:0:0:
402,192,23667,1,0,0:0:0:0:
475,192,24054,1,0,0:0:0:0:
182,192,24054,128,0,24248:0:0:0:0:
329,192,24248,128,0,24441:0:0:0:0:
182,192,24441,128,0,24635:0:0:0:0:
475,192,24441,1,0,0:0:0:0:
329,192,24635,128,0,24828:0:0:0:0:
475,192,24828,1,0,0:0:0:0:
36,192,24828,1,0,0:0:0:0:
256,192,25022,128,0,25215:0:0:0:0:
109,192,25215,1,0,0:0:0:0:
36,192,25215,1,0,0:0:0:0:
109,192,25602,1,0,0:0:0:0:
36,192,25602,1,0,0:0:0:0:
256,192,25602,128,0,25796:0:0:0:0:
109,192,25989,1,0,0:0:0:0:
36,192,25989,1,0,0:0:0:0:
256,192,25989,128,0,26183:0:0:0:0:
329,192,26183,128,0,26377:0:0:0:0:
109,192,26377,1,0,0:0:0:0:
36,192,26377,1,0,0:0:0:0:
109,192,26764,1,0,0:0:0:0:
36,192,26764,1,0,0:0:0:0:
402,192,27151,1,0,0:0:0:0:
329,192,27215,1,0,0:0:0:0:
109,192,27280,1,0,0:0:0:0:
182,192,27344,1,0,0:0:0:0:
402,192,27409,1,0,0:0:0:0:
329,192,27473,1,0,0:0:0:0:
182,192,27538,1,0,0:0:0:0:
109,192,27538,1,0,0:0:0:0:
402,192,27731,1,0,0:0:0:0:
329,192,27731,1,0,0:0:0:0:
256,192,27925,1,0,0:0:0:0:
36,192,27925,1,0,0:0:0:0:
109,192,28119,1,0,0:0:0:0:
182,192,28183,1,0,0:0:0:0:
256,192,28248,1,0,0:0:0:0:
329,192,28312,1,0,0:0:0:0:
402,192,28312,1,0,0:0:0:0:
182,192,28506,128,0,28699:0:0:0:0:
475,192,28699,1,0,0:0:0:0:
256,192,28699,1,0,0:0:0:0:
475,192,29086,1,0,0:0:0:0:
256,192,29086,1,0,0:0:0:0:
182,192,29473,128,0,29860:0:0:0:0:
36,192,29473,1,0,0:0:0:0:
402,192,29860,1,0,0:0:0:0:
329,192,29860,1,0,0:0:0:0:
256,192,30054,1,0,0:0:0:0:
182,192,30248,1,0,0:0:0:0:
109,192,30248,1,0,0:0:0:0:
475,192,30441,128,0,31022:0:0:0:0:
36,192,30635,1,0,0:0:0:0:
256,192,30635,1,0,0:0:0:0:
402,192,31022,1,0,0:0:0:0:
329,192,31022,1,0,0:0:0:0:
182,192,31022,1,0,0:0:0:0:
109,192,31022,1,0,0:0:0:0:
256,192,31409,1,0,0:0:0:0:
182,192,31409,1,0,0:0:0:0:
109,192,31409,1,0,0:0:0:0:
475,192,31602,1,0,0:0:0:0:
329,192,31602,1,0,0:0:0:0:
402,192,31602,1,0,0:0:0:0:
36,192,31602,1,0,0:0:0:0:
256,192,31796,1,0,0:0:0:0:
182,192,31796,1,0,0:0:0:0:
109,192,31989,1,0,0:0:0:0:
36,192,31989,1,0,0:0:0:0:
402,192,32183,128,0,32957:0:0:0:0:
329,192,32183,128,0,32764:0:0:0:0:
256,192,32183,1,0,0:0:0:0:
475,192,32183,128,0,33054:0:0:0:0:
109,192,32667,128,0,32764:0:0:0:0:
36,192,32764,128,0,33151:0:0:0:0:
182,192,32764,128,0,32860:0:0:0:0:
256,192,32860,128,0,32957:0:0:0:0:
109,192,32957,128,0,33344:0:0:0:0:
329,192,32957,128,0,33054:0:0:0:0:
402,192,33054,128,0,33151:0:0:0:0:
182,192,33151,128,0,33344:0:0:0:0:
475,192,33151,128,0,33344:0:0:0:0:
256,192,33344,128,0,33731:0:0:0:0:
329,192,33344,128,0,33731:0:0:0:0:
109,192,33731,1,0,0:0:0:0:
36,192,33731,1,0,0:0:0:0:
475,192,33828,1,0,0:0:0:0:
402,192,33828,1,0,0:0:0:0:
182,192,33925,1,0,0:0:0:0:
109,192,33925,1,0,0:0:0:0:
402,192,34022,1,0,0:0:0:0:
329,192,34022,1,0,0:0:0:0:
256,192,34119,1,0,0:0:0:0:
36,192,34119,1,0,0:0:0:0:
109,192,34119,1,0,0:0:0:0:
475,192,34119,1,0,0:0:0:0:
402,192,34312,1,0,0:0:0:0:
329,192,34506,1,0,0:0:0:0:
182,192,34506,1,0,0:0:0:0:
36,192,34699,1,0,0:0:0:0:
109,192,34893,1,0,0:0:0:0:
256,192,34893,1,0,0:0:0:0:
402,192,35086,128,0,35183:0:0:0:0:
475,192,35280,1,0,0:0:0:0:
182,192,35280,1,0,0:0:0:0:
329,192,35473,128,0,35570:0:0:0:0:
256,192,35667,1,0,0:0:0:0:
36,192,35667,1,0,0:0:0:0:
109,192,35860,128,0,35957:0:0:0:0:
329,192,36054,1,0,0:0:0:0:
402,192,36054,1,0,0:0:0:0:
475,192,36248,128,0,36344:0:0:0:0:
256,192,36441,1,0,0:0:0:0:
36,192,36441,1,0,0:0:0:0:
475,192,36635,1,0,0:0:0:0:
402,192,36699,1,0,0:0:0:0:
329,192,36764,1,0,0:0:0:0:
36,192,36828,1,0,0:0:0:0:
109,192,36893,1,0,0:0:0:0:
182,192,36957,1,0,0:0:0:0:
402,192,37022,1,0,0:0:0:0:
329,192,37086,1,0,0:0:0:0:
256,192,37151,1,0,0:0:0:0:
402,192,37215,1,0,0:0:0:0:
182,192,37215,1,0,0:0:0:0:
36,192,37409,1,0,0:0:0:0:
329,192,37602,1,0,0:0:0:0:
182,192,37602,1,0,0:0:0:0:
402,192,37796,128,0,37989:0:0:0:0:
475,192,37989,1,0,0:0:0:0:
256,192,37989,128,0,38183:0:0:0:0:
109,192,38183,128,0,38377:0:0:0:0:
36,192,38377,1,0,0:0:0:0:
402,192,38377,128,0,38570:0:0:0:0:
182,192,38570,1,0,0:0:0:0:
36,192,38570,128,0,38764:0:0:0:0:
256,192,38667,1,0,0:0:0:0:
475,192,38764,1,0,0:0:0:0:
329,192,38764,1,0,0:0:0:0:
109,192,38957,128,0,39344:0:0:0:0:
256,192,39151,1,0,0:0:0:0:
329,192,39151,1,0,0:0:0:0:
402,192,39344,128,0,39731:0:0:0:0:
182,192,39538,1,0,0:0:0:0:
36,192,39538,1,0,0:0:0:0:
329,192,39731,1,0,0:0:0:0:
256,192,39796,1,0,0:0:0:0:
182,192,39860,1,0,0:0:0:0:
109,192,39925,1,0,0:0:0:0:
475,192,39925,1,0,0:0:0:0:
182,192,40119,1,0,0:0:0:0:
256,192,40183,1,0,0:0:0:0:
329,192,40248,1,0,0:0:0:0:
402,192,40312,1,0,0:0:0:0:
36,192,40312,1,0,0:0:0:0:
182,192,40506,1,0,0:0:0:0:
256,192,40699,1,0,0:0:0:0:
475,192,40699,1,0,0:0:0:0:
402,192,40893,1,0,0:0:0:0:
329,192,41086,1,0,0:0:0:0:
36,192,41086,1,0,0:0:0:0:
182,192,41280,1,0,0:0:0:0:
256,192,41473,1,0,0:0:0:0:
475,192,41473,1,0,0:0:0:0:
109,192,41667,1,0,0:0:0:0:
329,192,41860,1,0,0:0:0:0:
402,192,41860,1,0,0:0:0:0:
475,192,41860,1,0,0:0:0:0:
36,192,41860,1,0,0:0:0:0:
256,192,42054,1,0,0:0:0:0:
182,192,42248,1,0,0:0:0:0:
109,192,42248,1,0,0:0:0:0:
36,192,42441,1,0,0:0:0:0:
475,192,42441,128,0,43409:0:0:0:0:
402,192,42635,1,0,0:0:0:0:
182,192,42635,1,0,0:0:0:0:
256,192,42828,1,0,0:0:0:0:
329,192,43022,1,0,0:0:0:0:
402,192,43022,1,0,0:0:0:0:
109,192,43215,1,0,0:0:0:0:
36,192,43409,128,0,44183:0:0:0:0:
182,192,43409,1,0,0:0:0:0:
329,192,43602,1,0,0:0:0:0:
256,192,43796,1,0,0:0:0:0:
109,192,43796,1,0,0:0:0:0:
402,192,43989,1,0,0:0:0:0:
182,192,44183,128,0,44828:0:0:0:0:
329,192,44183,1,0,0:0:0:0:
109,192,44377,1,0,0:0:0:0:
36,192,44570,1,0,0:0:0:0:
475,192,44570,1,0,0:0:0:0:
402,192,44764,1,0,0:0:0:0:
256,192,44893,1,0,0:0:0:0:
329,192,44957,128,0,45538:0:0:0:0:
36,192,44957,1,0,0:0:0:0:
182,192,45151,1,0,0:0:0:0:
475,192,45344,1,0,0:0:0:0:
402,192,45344,1,0,0:0:0:0:
182,192,45538,128,0,46764:0:0:0:0:
36,192,45731,128,0,45925:0:0:0:0:
402,192,45731,1,0,0:0:0:0:
109,192,45925,128,0,46312:0:0:0:0:
256,192,46119,1,0,0:0:0:0:
475,192,46119,1,0,0:0:0:0:
329,192,46312,128,0,46506:0:0:0:0:
256,192,46409,1,0,0:0:0:0:
402,192,46506,128,0,46893:0:0:0:0:
36,192,46506,1,0,0:0:0:0:
475,192,46699,1,0,0:0:0:0:
109,192,46828,1,0,0:0:0:0:
36,192,46893,128,0,47280:0:0:0:0:
329,192,46893,1,0,0:0:0:0:
256,192,47086,1,0,0:0:0:0:
182,192,47280,128,0,47667:0:0:0:0:
109,192,47280,1,0,0:0:0:0:
402,192,47473,1,0,0:0:0:0:
329,192,47667,128,0,48054:0:0:0:0:
256,192,47667,1,0,0:0:0:0:
402,192,47860,1,0,0:0:0:0:
475,192,48054,128,0,49602:0:0:0:0:
36,192,48054,1,0,0:0:0:0:
182,192,48248,1,0,0:0:0:0:
329,192,48441,1,0,0:0:0:0:
402,192,48441,1,0,0:0:0:0:
109,192,48635,1,0,0:0:0:0:
256,192,48828,1,0,0:0:0:0:
36,192,48828,1,0,0:0:0:0:
182,192,49022,1,0,0:0:0:0:
109,192,49215,1,0,0:0:0:0:
36,192,49215,1,0,0:0:0:0:
402,192,49409,1,0,0:0:0:0:
256,192,49602,128,0,51022:0:0:0:0:
329,192,49602,1,0,0:0:0:0:
182,192,49796,1,0,0:0:0:0:
109,192,49989,1,0,0:0:0:0:
36,192,49989,1,0,0:0:0:0:
402,192,50183,1,0,0:0:0:0:
329,192,50377,1,0,0:0:0:0:
182,192,50377,1,0,0:0:0:0:
475,192,50570,1,0,0:0:0:0:
402,192,50764,1,0,0:0:0:0:
36,192,50764,1,0,0:0:0:0:
109,192,50957,1,0,0:0:0:0:
182,192,51086,1,0,0:0:0:0:
36,192,51151,128,0,52506:0:0:0:0:
109,192,51151,1,0,0:0:0:0:
329,192,51344,1,0,0:0:0:0:
402,192,51538,1,0,0:0:0:0:
475,192,51538,1,0,0:0:0:0:
256,192,51731,1,0,0:0:0:0:
329,192,51925,1,0,0:0:0:0:
402,192,51925,1,0,0:0:0:0:
182,192,52119,1,0,0:0:0:0:
256,192,52312,1,0,0:0:0:0:
329,192,52312,1,0,0:0:0:0:
109,192,52570,1,0,0:0:0:0:
182,192,52635,1,0,0:0:0:0:
256,192,52699,128,0,52989:0:0:0:0:
475,192,52699,1,0,0:0:0:0:
36,192,52893,1,0,0:0:0:0:
329,192,52989,128,0,53280:0:0:0:0:
109,192,53086,1,0,0:0:0:0:
475,192,53086,1,0,0:0:0:0:
402,192,53280,128,0,53473:0:0:0:0:
256,192,53280,1,0,0:0:0:0:
182,192,53473,1,0,0:0:0:0:
36,192,53473,1,0,0:0:0:0:
329,192,53667,1,0,0:0:0:0:
475,192,53860,1,0,0:0:0:0:
402,192,53860,1,0,0:0:0:0:
182,192,53860,1,0,0:0:0:0:
109,192,53860,1,0,0:0:0:0:
256,192,54054,1,0,0:0:0:0:
109,192,54248,1,0,0:0:0:0:
36,192,54248,1,0,0:0:0:0:
329,192,54248,1,0,0:0:0:0:
402,192,54248,1,0,0:0:0:0:
475,192,54441,1,0,0:0:0:0:
256,192,54635,128,0,54828:0:0:0:0:
182,192,54635,1,0,0:0:0:0:
36,192,54828,1,0,0:0:0:0:
329,192,55022,1,0,0:0:0:0:
475,192,55022,1,0,0:0:0:0:
402,192,55215,128,0,55409:0:0:0:0:
182,192,55409,1,0,0:0:0:0:
109,192,55409,1,0,0:0:0:0:
36,192,55602,128,0,55796:0:0:0:0:
475,192,55796,128,0,56570:0:0:0:0:
402,192,55796,128,0,55989:0:0:0:0:
329,192,55989,1,0,0:0:0:0:
256,192,56183,1,0,0:0:0:0:
36,192,56183,1,0,0:0:0:0:
182,192,56377,128,0,56570:0:0:0:0:
36,192,56570,128,0,57215:0:0:0:0:
402,192,56570,1,0,0:0:0:0:
256,192,56764,1,0,0:0:0:0:
402,192,56957,128,0,57151:0:0:0:0:
329,192,56957,1,0,0:0:0:0:
109,192,57280,1,0,0:0:0:0:
182,192,57344,128,0,58764:0:0:0:0:
475,192,57344,1,0,0:0:0:0:
402,192,57538,1,0,0:0:0:0:
329,192,57731,1,0,0:0:0:0:
256,192,57731,1,0,0:0:0:0:
36,192,57925,128,0,58119:0:0:0:0:
109,192,58119,1,0,0:0:0:0:
475,192,58119,1,0,0:0:0:0:
402,192,58312,1,0,0:0:0:0:
329,192,58506,128,0,58699:0:0:0:0:
256,192,58506,1,0,0:0:0:0:
36,192,58699,1,0,0:0:0:0:
256,192,58828,1,0,0:0:0:0:
329,192,58893,128,0,59667:0:0:0:0:
475,192,58893,1,0,0:0:0:0:
182,192,59086,1,0,0:0:0:0:
109,192,59280,1,0,0:0:0:0:
36,192,59280,1,0,0:0:0:0:
402,192,59473,128,0,59667:0:0:0:0:
475,192,59667,1,0,0:0:0:0:
256,192,59667,1,0,0:0:0:0:
109,192,59860,1,0,0:0:0:0:
182,192,60054,1,0,0:0:0:0:
402,192,60054,1,0,0:0:0:0:
329,192,60248,1,0,0:0:0:0:
256,192,60441,1,0,0:0:0:0:
36,192,60441,1,0,0:0:0:0:
109,192,60441,1,0,0:0:0:0:
475,192,60635,1,0,0:0:0:0:
402,192,60828,1,0,0:0:0:0:
182,192,60828,1,0,0:0:0:0:
329,192,61022,1,0,0:0:0:0:
256,192,61215,1,0,0:0:0:0:
109,192,61215,1,0,0:0:0:0:
36,192,61409,1,0,0:0:0:0:
329,192,61602,1,0,0:0:0:0:
475,192,61602,1,0,0:0:0:0:
402,192,61796,1,0,0:0:0:0:
182,192,61796,1,0,0:0:0:0:
109,192,61796,1,0,0:0:0:0:
256,192,61796,1,0,0:0:0:0:
329,192,61989,1,0,0:0:0:0:
36,192,61989,1,0,0:0:0:0:
182,192,62183,1,0,0:0:0:0:
402,192,62183,1,0,0:0:0:0:
475,192,62183,1,0,0:0:0:0:
329,192,62377,1,0,0:0:0:0:
256,192,62377,1,0,0:0:0:0:
109,192,62377,1,0,0:0:0:0:
36,192,62377,1,0,0:0:0:0:
402,192,62570,1,0,0:0:0:0:
475,192,62570,1,0,0:0:0:0:
182,192,62570,1,0,0:0:0:0:
109,192,62570,1,0,0:0:0:0:
36,192,63538,128,0,65086:0:0:0:0:
402,192,63538,1,0,0:0:0:0:
475,192,63538,1,0,0:0:0:0:
109,192,63538,1,0,0:0:0:0:
329,192,63731,1,0,0:0:0:0:
256,192,63731,1,0,0:0:0:0:
182,192,63925,1,0,0:0:0:0:
109,192,63925,1,0,0:0:0:0:
402,192,63925,1,0,0:0:0:0:
475,192,64119,1,0,0:0:0:0:
329,192,64119,1,0,0:0:0:0:
402,192,64312,1,0,0:0:0:0:
256,192,64312,1,0,0:0:0:0:
109,192,64506,1,0,0:0:0:0:
329,192,64506,1,0,0:0:0:0:
182,192,64699,1,0,0:0:0:0:
256,192,64699,1,0,0:0:0:0:
402,192,64699,1,0,0:0:0:0:
329,192,64893,1,0,0:0:0:0:
109,192,64893,1,0,0:0:0:0:
475,192,65086,128,0,66635:0:0:0:0:
402,192,65086,1,0,0:0:0:0:
256,192,65280,1,0,0:0:0:0:
182,192,65280,1,0,0:0:0:0:
109,192,65473,1,0,0:0:0:0:
36,192,65473,1,0,0:0:0:0:
329,192,65473,1,0,0:0:0:0:
402,192,65667,1,0,0:0:0:0:
182,192,65667,1,0,0:0:0:0:
329,192,65860,1,0,0:0:0:0:
109,192,65860,1,0,0:0:0:0:
36,192,66054,1,0,0:0:0:0:
182,192,66054,1,0,0:0:0:0:
256,192,66248,1,0,0:0:0:0:
329,192,66248,1,0,0:0:0:0:
402,192,66248,1,0,0:0:0:0:
109,192,66441,1,0,0:0:0:0:
182,192,66506,1,0,0:0:0:0:
256,192,66570,1,0,0:0:0:0:
329,192,66635,1,0,0:0:0:0:
36,192,66635,1,0,0:0:0:0:
402,192,66828,1,0,0:0:0:0:
182,192,66828,1,0,0:0:0:0:
109,192,67022,128,0,67215:0:0:0:0:
36,192,67022,1,0,0:0:0:0:
256,192,67215,128,0,67602:0:0:0:0:
329,192,67215,1,0,0:0:0:0:
182,192,67409,1,0,0:0:0:0:
402,192,67602,128,0,67796:0:0:0:0:
475,192,67602,1,0,0:0:0:0:
182,192,67796,1,0,0:0:0:0:
36,192,67796,1,0,0:0:0:0:
329,192,67989,1,0,0:0:0:0:
256,192,67989,1,0,0:0:0:0:
402,192,68183,1,0,0:0:0:0:
182,192,68377,1,0,0:0:0:0:
36,192,68377,1,0,0:0:0:0:
256,192,68570,1,0,0:0:0:0:
402,192,68570,1,0,0:0:0:0:
36,192,68764,1,0,0:0:0:0:
109,192,68828,1,0,0:0:0:0:
182,192,68893,1,0,0:0:0:0:
256,192,68957,1,0,0:0:0:0:
329,192,69022,1,0,0:0:0:0:
402,192,69086,1,0,0:0:0:0:
475,192,69151,1,0,0:0:0:0:
109,192,69215,1,0,0:0:0:0:
182,192,69280,1,0,0:0:0:0:
256,192,69344,1,0,0:0:0:0:
329,192,69344,1,0,0:0:0:0:
36,192,69538,1,0,0:0:0:0:
402,192,69538,1,0,0:0:0:0:
475,192,69731,128,0,71280:0:0:0:0:
109,192,69731,1,0,0:0:0:0:
182,192,69731,1,0,0:0:0:0:
329,192,69731,1,0,0:0:0:0:
256,192,69925,1,0,0:0:0:0:
36,192,69925,1,0,0:0:0:0:
402,192,70119,1,0,0:0:0:0:
329,192,70119,1,0,0:0:0:0:
182,192,70119,1,0,0:0:0:0:
109,192,70312,1,0,0:0:0:0:
256,192,70312,1,0,0:0:0:0:
182,192,70506,1,0,0:0:0:0:
36,192,70506,1,0,0:0:0:0:
329,192,70699,1,0,0:0:0:0:
402,192,70699,1,0,0:0:0:0:
256,192,70893,1,0,0:0:0:0:
109,192,70893,1,0,0:0:0:0:
36,192,70893,1,0,0:0:0:0:
182,192,71086,1,0,0:0:0:0:
402,192,71086,1,0,0:0:0:0:
36,192,71280,128,0,72828:0:0:0:0:
329,192,71280,1,0,0:0:0:0:
109,192,71473,1,0,0:0:0:0:
256,192,71473,1,0,0:0:0:0:
329,192,71667,1,0,0:0:0:0:
475,192,71667,1,0,0:0:0:0:
182,192,71667,1,0,0:0:0:0:
402,192,71860,1,0,0:0:0:0:
256,192,71860,1,0,0:0:0:0:
182,192,72054,1,0,0:0:0:0:
109,192,72054,1,0,0:0:0:0:
475,192,72248,1,0,0:0:0:0:
329,192,72248,1,0,0:0:0:0:
402,192,72441,1,0,0:0:0:0:
256,192,72441,1,0,0:0:0:0:
182,192,72441,1,0,0:0:0:0:
475,192,72635,1,0,0:0:0:0:
109,192,72635,1,0,0:0:0:0:
329,192,72828,1,0,0:0:0:0:
402,192,72828,1,0,0:0:0:0:
256,192,73022,1,0,0:0:0:0:
109,192,73022,1,0,0:0:0:0:
402,192,73215,1,0,0:0:0:0:
475,192,73215,1,0,0:0:0:0:
182,192,73215,1,0,0:0:0:0:
36,192,73409,1,0,0:0:0:0:
256,192,73409,1,0,0:0:0:0:
182,192,73602,1,0,0:0:0:0:
402,192,73602,128,0,73796:0:0:0:0:
475,192,73796,1,0,0:0:0:0:
329,192,73796,1,0,0:0:0:0:
256,192,73989,1,0,0:0:0:0:
182,192,73989,1,0,0:0:0:0:
36,192,73989,1,0,0:0:0:0:
329,192,74183,1,0,0:0:0:0:
109,192,74183,1,0,0:0:0:0:
256,192,74377,1,0,0:0:0:0:
475,192,74377,1,0,0:0:0:0:
329,192,74570,1,0,0:0:0:0:
36,192,74570,1,0,0:0:0:0:
475,192,74764,1,0,0:0:0:0:
109,192,74764,1,0,0:0:0:0:
402,192,74828,1,0,0:0:0:0:
329,192,74893,1,0,0:0:0:0:
256,192,74957,1,0,0:0:0:0:
182,192,75022,1,0,0:0:0:0:
109,192,75086,1,0,0:0:0:0:
36,192,75151,1,0,0:0:0:0:
475,192,75215,1,0,0:0:0:0:
402,192,75280,1,0,0:0:0:0:
329,192,75344,1,0,0:0:0:0:
256,192,75409,1,0,0:0:0:0:
182,192,75473,1,0,0:0:0:0:
109,192,75538,1,0,0:0:0:0:
36,192,75538,1,0,0:0:0:0:
402,192,75635,1,0,0:0:0:0:
475,192,75635,1,0,0:0:0:0:
182,192,75731,1,0,0:0:0:0:
109,192,75731,1,0,0:0:0:0:
402,192,75828,1,0,0:0:0:0:
329,192,75828,1,0,0:0:0:0:
109,192,75925,1,0,0:0:0:0:
475,192,75925,1,0,0:0:0:0:
256,192,75925,1,0,0:0:0:0:
36,192,75925,128,0,77473:0:0:0:0:
402,192,76119,1,0,0:0:0:0:
329,192,76119,1,0,0:0:0:0:
182,192,76312,128,0,76506:0:0:0:0:
109,192,76312,1,0,0:0:0:0:
256,192,76506,1,0,0:0:0:0:
475,192,76506,1,0,0:0:0:0:
402,192,76699,128,0,76893:0:0:0:0:
329,192,76699,1,0,0:0:0:0:
109,192,76893,1,0,0:0:0:0:
182,192,76893,1,0,0:0:0:0:
256,192,77086,128,0,77280:0:0:0:0:
475,192,77086,1,0,0:0:0:0:
402,192,77280,1,0,0:0:0:0:
109,192,77473,128,0,77667:0:0:0:0:
182,192,77473,1,0,0:0:0:0:
256,192,77667,1,0,0:0:0:0:
402,192,77667,1,0,0:0:0:0:
475,192,77860,128,0,78054:0:0:0:0:
329,192,77860,1,0,0:0:0:0:
36,192,78054,1,0,0:0:0:0:
109,192,78054,1,0,0:0:0:0:
182,192,78248,128,0,78441:0:0:0:0:
402,192,78248,1,0,0:0:0:0:
256,192,78441,1,0,0:0:0:0:
475,192,78441,1,0,0:0:0:0:
36,192,78635,128,0,78828:0:0:0:0:
109,192,78635,1,0,0:0:0:0:
329,192,78635,1,0,0:0:0:0:
402,192,78828,1,0,0:0:0:0:
475,192,78828,1,0,0:0:0:0:
256,192,79022,128,0,79215:0:0:0:0:
182,192,79022,1,0,0:0:0:0:
36,192,79022,1,0,0:0:0:0:
329,192,79215,1,0,0:0:0:0:
402,192,79215,1,0,0:0:0:0:
475,192,79409,128,0,79602:0:0:0:0:
182,192,79409,1,0,0:0:0:0:
36,192,79602,1,0,0:0:0:0:
329,192,79602,1,0,0:0:0:0:
109,192,79796,128,0,79989:0:0:0:0:
256,192,79796,1,0,0:0:0:0:
475,192,79989,1,0,0:0:0:0:
182,192,79989,1,0,0:0:0:0:
329,192,80183,128,0,80377:0:0:0:0:
36,192,80183,1,0,0:0:0:0:
182,192,80377,128,0,80570:0:0:0:0:
256,192,80377,1,0,0:0:0:0:
109,192,80473,1,0,0:0:0:0:
402,192,80570,1,0,0:0:0:0:
475,192,80570,1,0,0:0:0:0:
109,192,80764,128,0,80957:0:0:0:0:
329,192,80764,1,0,0:0:0:0:
402,192,80957,128,0,81151:0:0:0:0:
182,192,80957,1,0,0:0:0:0:
36,192,81151,1,0,0:0:0:0:
475,192,81151,1,0,0:0:0:0:
109,192,81215,1,0,0:0:0:0:
182,192,81280,1,0,0:0:0:0:
256,192,81344,1,0,0:0:0:0:
329,192,81409,1,0,0:0:0:0:
402,192,81473,1,0,0:0:0:0:
475,192,81538,1,0,0:0:0:0:
36,192,81602,1,0,0:0:0:0:
109,192,81667,1,0,0:0:0:0:
182,192,81731,1,0,0:0:0:0:
256,192,81796,1,0,0:0:0:0:
329,192,81860,1,0,0:0:0:0:
402,192,81925,1,0,0:0:0:0:
475,192,81989,1,0,0:0:0:0:
256,192,82119,1,0,0:0:0:0:
182,192,82119,1,0,0:0:0:0:
109,192,82119,1,0,0:0:0:0:
36,192,82119,1,0,0:0:0:0:
475,192,82312,1,0,0:0:0:0:
329,192,82312,1,0,0:0:0:0:
402,192,82409,1,0,0:0:0:0:
329,192,82506,1,0,0:0:0:0:
256,192,82506,1,0,0:0:0:0:
36,192,82699,1,0,0:0:0:0:
182,192,82699,1,0,0:0:0:0:
256,192,82893,1,0,0:0:0:0:
475,192,82893,1,0,0:0:0:0:
402,192,83086,1,0,0:0:0:0:
109,192,83086,1,0,0:0:0:0:
182,192,83280,1,0,0:0:0:0:
256,192,83280,1,0,0:0:0:0:
329,192,83473,1,0,0:0:0:0:
475,192,83473,1,0,0:0:0:0:
109,192,83473,1,0,0:0:0:0:
36,192,83473,1,0,0:0:0:0:
256,192,83860,1,0,0:0:0:0:
329,192,83860,1,0,0:0:0:0:
402,192,83860,1,0,0:0:0:0:
475,192,83860,1,0,0:0:0:0:
475,192,84054,128,0,84344:0:0:0:0:
402,192,84054,128,0,84248:0:0:0:0:
329,192,84054,128,0,84151:0:0:0:0:
256,192,84054,1,0,0:0:0:0:
256,192,84828,128,0,85215:0:0:0:0:
36,192,85215,1,0,0:0:0:0:
109,192,85215,1,0,0:0:0:0:
402,192,85215,1,0,0:0:0:0:
475,192,85215,1,0,0:0:0:0:
36,192,85602,1,0,0:0:0:0:
109,192,85602,1,0,0:0:0:0:
256,192,85602,128,0,85989:0:0:0:0:
36,192,85989,1,0,0:0:0:0:
109,192,85989,1,0,0:0:0:0:
109,192,86377,1,0,0:0:0:0:
36,192,86377,1,0,0:0:0:0:
36,192,86764,1,0,0:0:0:0:
109,192,86764,1,0,0:0:0:0:
36,192,87151,1,0,0:0:0:0:
109,192,87151,1,0,0:0:0:0:
329,192,87344,128,0,87731:0:0:0:0:
36,192,87538,1,0,0:0:0:0:
109,192,87538,1,0,0:0:0:0:
256,192,87731,128,0,87925:0:0:0:0:
36,192,87925,1,0,0:0:0:0:
109,192,87925,1,0,0:0:0:0:
182,192,87925,128,0,88119:0:0:0:0:
329,192,88119,128,0,88312:0:0:0:0:
36,192,88312,1,0,0:0:0:0:
109,192,88312,1,0,0:0:0:0:
256,192,88312,128,0,88699:0:0:0:0:
475,192,88699,1,0,0:0:0:0:
402,192,88699,1,0,0:0:0:0:
475,192,89086,1,0,0:0:0:0:
402,192,89086,1,0,0:0:0:0:
402,192,89473,1,0,0:0:0:0:
475,192,89473,1,0,0:0:0:0:
182,192,89667,128,0,89860:0:0:0:0:
402,192,89860,1,0,0:0:0:0:
475,192,89860,1,0,0:0:0:0:
256,192,90054,128,0,90248:0:0:0:0:
402,192,90248,1,0,0:0:0:0:
475,192,90248,1,0,0:0:0:0:
109,192,90248,128,0,90441:0:0:0:0:
182,192,90441,128,0,90635:0:0:0:0:
36,192,90635,128,0,90828:0:0:0:0:
475,192,90635,1,0,0:0:0:0:
402,192,90635,1,0,0:0:0:0:
329,192,90828,128,0,91022:0:0:0:0:
182,192,91022,128,0,91215:0:0:0:0:
475,192,91022,1,0,0:0:0:0:
402,192,91022,1,0,0:0:0:0:
36,192,91215,128,0,91409:0:0:0:0:
475,192,91409,1,0,0:0:0:0:
402,192,91409,1,0,0:0:0:0:
256,192,91602,1,0,0:0:0:0:
109,192,91796,1,0,0:0:0:0:
182,192,91796,1,0,0:0:0:0:
36,192,91989,1,0,0:0:0:0:
256,192,92183,1,0,0:0:0:0:
402,192,92183,1,0,0:0:0:0:
475,192,92377,1,0,0:0:0:0:
329,192,92570,1,0,0:0:0:0:
109,192,92570,1,0,0:0:0:0:
182,192,92764,1,0,0:0:0:0:
402,192,92957,128,0,93344:0:0:0:0:
36,192,92957,1,0,0:0:0:0:
475,192,93151,1,0,0:0:0:0:
256,192,93344,128,0,93538:0:0:0:0:
182,192,93344,1,0,0:0:0:0:
109,192,93538,128,0,93731:0:0:0:0:
329,192,93538,1,0,0:0:0:0:
475,192,93731,1,0,0:0:0:0:
402,192,93731,1,0,0:0:0:0:
182,192,93925,1,0,0:0:0:0:
36,192,93925,128,0,94119:0:0:0:0:
475,192,94119,1,0,0:0:0:0:
256,192,94119,1,0,0:0:0:0:
109,192,94119,1,0,0:0:0:0:
402,192,94312,1,0,0:0:0:0:
329,192,94377,1,0,0:0:0:0:
256,192,94441,1,0,0:0:0:0:
109,192,94506,1,0,0:0:0:0:
182,192,94506,1,0,0:0:0:0:
36,192,94506,1,0,0:0:0:0:
402,192,94506,1,0,0:0:0:0:
475,192,94699,1,0,0:0:0:0:
402,192,94699,1,0,0:0:0:0:
329,192,94796,1,0,0:0:0:0:
182,192,94796,1,0,0:0:0:0:
109,192,94893,1,0,0:0:0:0:
36,192,94893,1,0,0:0:0:0:
182,192,95086,1,0,0:0:0:0:
329,192,95086,1,0,0:0:0:0:
256,192,95086,1,0,0:0:0:0:
475,192,95086,1,0,0:0:0:0:
36,192,95473,128,0,96183:0:0:0:0:
109,192,95667,128,0,96119:0:0:0:0:
475,192,95667,1,0,0:0:0:0:
402,192,95667,1,0,0:0:0:0:
329,192,95667,1,0,0:0:0:0:
182,192,95860,128,0,96054:0:0:0:0:
256,192,96054,128,0,96731:0:0:0:0:
329,192,96119,128,0,96312:0:0:0:0:
402,192,96183,128,0,96377:0:0:0:0:
475,192,96248,128,0,96441:0:0:0:0:
329,192,96441,128,0,96731:0:0:0:0:
109,192,96441,1,0,0:0:0:0:
36,192,96441,1,0,0:0:0:0:
475,192,96538,1,0,0:0:0:0:
402,192,96538,1,0,0:0:0:0:
182,192,96635,128,0,97119:0:0:0:0:
36,192,96635,1,0,0:0:0:0:
109,192,96635,1,0,0:0:0:0:
475,192,96731,1,0,0:0:0:0:
402,192,96731,1,0,0:0:0:0:
256,192,96828,128,0,97119:0:0:0:0:
329,192,96828,128,0,97602:0:0:0:0:
402,192,97022,1,0,0:0:0:0:
109,192,97022,1,0,0:0:0:0:
256,192,97215,128,0,97602:0:0:0:0:
182,192,97215,128,0,97602:0:0:0:0:
109,192,97602,1,0,0:0:0:0:
36,192,97602,1,0,0:0:0:0:
402,192,97602,1,0,0:0:0:0:
475,192,97602,1,0,0:0:0:0:
256,192,97796,1,0,0:0:0:0:
182,192,97989,1,0,0:0:0:0:
329,192,97989,1,0,0:0:0:0:
475,192,98183,1,0,0:0:0:0:
402,192,98377,1,0,0:0:0:0:
256,192,98377,1,0,0:0:0:0:
109,192,98570,1,0,0:0:0:0:
36,192,98764,1,0,0:0:0:0:
329,192,98764,1,0,0:0:0:0:
182,192,98957,1,0,0:0:0:0:
256,192,99151,1,0,0:0:0:0:
475,192,99151,1,0,0:0:0:0:
402,192,99344,128,0,99538:0:0:0:0:
182,192,99538,1,0,0:0:0:0:
109,192,99538,1,0,0:0:0:0:
36,192,99731,1,0,0:0:0:0:
475,192,99925,1,0,0:0:0:0:
402,192,99989,1,0,0:0:0:0:
329,192,100054,1,0,0:0:0:0:
256,192,100119,1,0,0:0:0:0:
182,192,100183,1,0,0:0:0:0:
109,192,100248,1,0,0:0:0:0:
36,192,100312,1,0,0:0:0:0:
475,192,100377,1,0,0:0:0:0:
402,192,100441,1,0,0:0:0:0:
329,192,100506,1,0,0:0:0:0:
256,192,100570,1,0,0:0:0:0:
182,192,100635,1,0,0:0:0:0:
109,192,100699,1,0,0:0:0:0:
36,192,100699,128,0,100893:0:0:0:0:
475,192,100893,128,0,101086:0:0:0:0:
182,192,101086,1,0,0:0:0:0:
329,192,101086,128,0,101280:0:0:0:0:
109,192,101280,128,0,101473:0:0:0:0:
256,192,101473,1,0,0:0:0:0:
36,192,101473,128,0,101667:0:0:0:0:
402,192,101667,128,0,101860:0:0:0:0:
475,192,101860,1,0,0:0:0:0:
182,192,101860,128,0,102054:0:0:0:0:
329,192,102054,1,0,0:0:0:0:
256,192,102151,1,0,0:0:0:0:
36,192,102248,1,0,0:0:0:0:
182,192,102248,1,0,0:0:0:0:
402,192,102441,1,0,0:0:0:0:
256,192,102635,1,0,0:0:0:0:
182,192,102635,1,0,0:0:0:0:
109,192,102828,1,0,0:0:0:0:
329,192,103022,1,0,0:0:0:0:
475,192,103022,1,0,0:0:0:0:
182,192,103215,1,0,0:0:0:0:
256,192,103280,1,0,0:0:0:0:
329,192,103344,1,0,0:0:0:0:
402,192,103409,1,0,0:0:0:0:
36,192,103409,1,0,0:0:0:0:
329,192,103602,1,0,0:0:0:0:
256,192,103667,1,0,0:0:0:0:
182,192,103731,1,0,0:0:0:0:
109,192,103796,1,0,0:0:0:0:
475,192,103796,1,0,0:0:0:0:
329,192,103989,1,0,0:0:0:0:
256,192,104183,1,0,0:0:0:0:
36,192,104183,1,0,0:0:0:0:
109,192,104377,1,0,0:0:0:0:
182,192,104570,1,0,0:0:0:0:
475,192,104570,1,0,0:0:0:0:
329,192,104764,1,0,0:0:0:0:
256,192,104957,1,0,0:0:0:0:
36,192,104957,1,0,0:0:0:0:
402,192,105151,1,0,0:0:0:0:
182,192,105344,1,0,0:0:0:0:
109,192,105344,1,0,0:0:0:0:
36,192,105344,1,0,0:0:0:0:
475,192,105344,1,0,0:0:0:0:
256,192,105538,1,0,0:0:0:0:
329,192,105731,1,0,0:0:0:0:
402,192,105731,1,0,0:0:0:0:
475,192,105925,1,0,0:0:0:0:
36,192,105925,128,0,106699:0:0:0:0:
109,192,106119,1,0,0:0:0:0:
329,192,106119,1,0,0:0:0:0:
256,192,106312,1,0,0:0:0:0:
182,192,106506,1,0,0:0:0:0:
109,192,106506,1,0,0:0:0:0:
182,192,106699,128,0,106796:0:0:0:0:
329,192,106796,128,0,106893:0:0:0:0:
475,192,106893,128,0,107667:0:0:0:0:
182,192,107086,1,0,0:0:0:0:
256,192,107280,1,0,0:0:0:0:
402,192,107280,1,0,0:0:0:0:
109,192,107473,1,0,0:0:0:0:
329,192,107667,128,0,108312:0:0:0:0:
182,192,107667,1,0,0:0:0:0:
402,192,107860,1,0,0:0:0:0:
475,192,108054,1,0,0:0:0:0:
36,192,108054,1,0,0:0:0:0:
109,192,108248,1,0,0:0:0:0:
256,192,108377,1,0,0:0:0:0:
182,192,108441,128,0,109022:0:0:0:0:
475,192,108441,1,0,0:0:0:0:
329,192,108635,1,0,0:0:0:0:
36,192,108828,1,0,0:0:0:0:
109,192,108828,1,0,0:0:0:0:
329,192,109022,128,0,110248:0:0:0:0:
109,192,109215,1,0,0:0:0:0:
402,192,109409,128,0,109796:0:0:0:0:
256,192,109602,1,0,0:0:0:0:
36,192,109602,1,0,0:0:0:0:
182,192,109796,128,0,109989:0:0:0:0:
256,192,109893,1,0,0:0:0:0:
109,192,109989,128,0,110377:0:0:0:0:
475,192,109989,1,0,0:0:0:0:
36,192,110183,1,0,0:0:0:0:
402,192,110312,1,0,0:0:0:0:
475,192,110377,128,0,110764:0:0:0:0:
182,192,110377,1,0,0:0:0:0:
256,192,110570,1,0,0:0:0:0:
329,192,110764,128,0,111151:0:0:0:0:
402,192,110764,1,0,0:0:0:0:
109,192,110957,1,0,0:0:0:0:
182,192,111151,128,0,111538:0:0:0:0:
256,192,111151,1,0,0:0:0:0:
109,192,111344,1,0,0:0:0:0:
36,192,111538,128,0,112957:0:0:0:0:
475,192,111538,1,0,0:0:0:0:
329,192,111731,1,0,0:0:0:0:
182,192,111925,1,0,0:0:0:0:
109,192,111925,1,0,0:0:0:0:
402,192,112119,1,0,0:0:0:0:
256,192,112312,1,0,0:0:0:0:
475,192,112312,1,0,0:0:0:0:
329,192,112506,1,0,0:0:0:0:
402,192,112699,1,0,0:0:0:0:
475,192,112699,1,0,0:0:0:0:
475,192,112893,128,0,113086:0:0:0:0:
109,192,113022,1,0,0:0:0:0:
256,192,113086,128,0,114506:0:0:0:0:
182,192,113086,1,0,0:0:0:0:
329,192,113280,1,0,0:0:0:0:
402,192,113473,1,0,0:0:0:0:
475,192,113473,1,0,0:0:0:0:
109,192,113667,1,0,0:0:0:0:
182,192,113860,1,0,0:0:0:0:
329,192,113860,1,0,0:0:0:0:
36,192,114054,1,0,0:0:0:0:
182,192,114248,1,0,0:0:0:0:
475,192,114248,1,0,0:0:0:0:
109,192,114441,1,0,0:0:0:0:
329,192,114570,1,0,0:0:0:0:
475,192,114635,128,0,115989:0:0:0:0:
402,192,114635,1,0,0:0:0:0:
182,192,114828,1,0,0:0:0:0:
109,192,115022,1,0,0:0:0:0:
36,192,115022,1,0,0:0:0:0:
256,192,115215,1,0,0:0:0:0:
182,192,115409,1,0,0:0:0:0:
109,192,115409,1,0,0:0:0:0:
329,192,115602,1,0,0:0:0:0:
256,192,115796,1,0,0:0:0:0:
182,192,115796,1,0,0:0:0:0:
402,192,116054,1,0,0:0:0:0:
329,192,116119,1,0,0:0:0:0:
256,192,116183,128,0,116473:0:0:0:0:
36,192,116183,128,0,116860:0:0:0:0:
475,192,116377,1,0,0:0:0:0:
182,192,116473,128,0,116667:0:0:0:0:
402,192,116570,1,0,0:0:0:0:
402,192,116764,128,0,116957:0:0:0:0:
256,192,116764,1,0,0:0:0:0:
329,192,116957,1,0,0:0:0:0:
475,192,116957,1,0,0:0:0:0:
36,192,116957,128,0,117731:0:0:0:0:
182,192,117151,1,0,0:0:0:0:
109,192,117344,1,0,0:0:0:0:
329,192,117344,1,0,0:0:0:0:
402,192,117344,1,0,0:0:0:0:
475,192,117344,1,0,0:0:0:0:
256,192,117538,1,0,0:0:0:0:
402,192,117731,1,0,0:0:0:0:
475,192,117731,1,0,0:0:0:0:
182,192,117731,1,0,0:0:0:0:
109,192,117731,1,0,0:0:0:0:
36,192,117925,1,0,0:0:0:0:
256,192,118119,128,0,118312:0:0:0:0:
329,192,118119,1,0,0:0:0:0:
475,192,118312,1,0,0:0:0:0:
182,192,118506,1,0,0:0:0:0:
36,192,118506,1,0,0:0:0:0:
109,192,118699,128,0,118893:0:0:0:0:
329,192,118893,1,0,0:0:0:0:
402,192,118893,1,0,0:0:0:0:
475,192,119086,128,0,119280:0:0:0:0:
36,192,119280,128,0,120054:0:0:0:0:
109,192,119280,128,0,119473:0:0:0:0:
182,192,119473,1,0,0:0:0:0:
256,192,119667,1,0,0:0:0:0:
475,192,119667,1,0,0:0:0:0:
329,192,119860,128,0,120054:0:0:0:0:
475,192,120054,128,0,120699:0:0:0:0:
109,192,120054,1,0,0:0:0:0:
256,192,120248,1,0,0:0:0:0:
36,192,120248,128,0,120441:0:0:0:0:
109,192,120441,128,0,120635:0:0:0:0:
182,192,120441,1,0,0:0:0:0:
402,192,120764,1,0,0:0:0:0:
329,192,120828,128,0,122248:0:0:0:0:
36,192,120828,1,0,0:0:0:0:
109,192,121022,1,0,0:0:0:0:
182,192,121215,1,0,0:0:0:0:
256,192,121215,1,0,0:0:0:0:
475,192,121409,128,0,121602:0:0:0:0:
402,192,121602,1,0,0:0:0:0:
36,192,121602,1,0,0:0:0:0:
109,192,121796,1,0,0:0:0:0:
182,192,121989,128,0,122183:0:0:0:0:
256,192,121989,1,0,0:0:0:0:
475,192,122183,1,0,0:0:0:0:
256,192,122312,1,0,0:0:0:0:
182,192,122377,128,0,123151:0:0:0:0:
36,192,122377,1,0,0:0:0:0:
329,192,122570,1,0,0:0:0:0:
402,192,122764,1,0,0:0:0:0:
475,192,122764,1,0,0:0:0:0:
109,192,122957,128,0,123151:0:0:0:0:
36,192,123151,1,0,0:0:0:0:
256,192,123151,1,0,0:0:0:0:
402,192,123344,1,0,0:0:0:0:
329,192,123538,1,0,0:0:0:0:
109,192,123538,1,0,0:0:0:0:
182,192,123731,1,0,0:0:0:0:
256,192,123925,1,0,0:0:0:0:
475,192,123925,1,0,0:0:0:0:
402,192,123925,1,0,0:0:0:0:
36,192,124119,1,0,0:0:0:0:
329,192,124119,1,0,0:0:0:0:
402,192,124312,1,0,0:0:0:0:
182,192,124312,1,0,0:0:0:0:
109,192,124506,1,0,0:0:0:0:
36,192,124506,1,0,0:0:0:0:
182,192,124602,1,0,0:0:0:0:
329,192,124602,1,0,0:0:0:0:
402,192,124699,1,0,0:0:0:0:
475,192,124699,1,0,0:0:0:0:
329,192,124893,1,0,0:0:0:0:
182,192,124893,1,0,0:0:0:0:
402,192,125086,1,0,0:0:0:0:
109,192,125086,1,0,0:0:0:0:
329,192,125280,1,0,0:0:0:0:
36,192,125280,1,0,0:0:0:0:
182,192,125280,1,0,0:0:0:0:
475,192,125280,1,0,0:0:0:0:
329,192,125667,1,0,0:0:0:0:
109,192,125667,1,0,0:0:0:0:
36,192,125667,1,0,0:0:0:0:
182,192,125860,1,0,0:0:0:0:
256,192,125860,1,0,0:0:0:0:
402,192,125860,1,0,0:0:0:0:
475,192,125860,1,0,0:0:0:0:
109,192,126054,1,0,0:0:0:0:
36,192,126054,1,0,0:0:0:0:
329,192,126054,1,0,0:0:0:0:
402,192,126054,1,0,0:0:0:0:
182,192,126635,128,0,127796:0:0:0:0:
329,192,127022,128,0,127796:0:0:0:0:
256,192,127409,128,0,127796:0:0:0:0:
475,192,127796,128,0,129344:0:0:0:0:
109,192,127796,1,0,0:0:0:0:
36,192,127796,1,0,0:0:0:0:
402,192,127796,1,0,0:0:0:0:
182,192,127989,1,0,0:0:0:0:
256,192,127989,1,0,0:0:0:0:
329,192,128183,1,0,0:0:0:0:
402,192,128183,1,0,0:0:0:0:
109,192,128183,1,0,0:0:0:0:
36,192,128377,1,0,0:0:0:0:
182,192,128377,1,0,0:0:0:0:
109,192,128570,1,0,0:0:0:0:
256,192,128570,1,0,0:0:0:0:
402,192,128764,1,0,0:0:0:0:
182,192,128764,1,0,0:0:0:0:
329,192,128957,1,0,0:0:0:0:
256,192,128957,1,0,0:0:0:0:
109,192,128957,1,0,0:0:0:0:
182,192,129151,1,0,0:0:0:0:
402,192,129151,1,0,0:0:0:0:
36,192,129344,128,0,130893:0:0:0:0:
109,192,129344,1,0,0:0:0:0:
256,192,129538,1,0,0:0:0:0:
329,192,129538,1,0,0:0:0:0:
402,192,129731,1,0,0:0:0:0:
475,192,129731,1,0,0:0:0:0:
182,192,129731,1,0,0:0:0:0:
109,192,129925,1,0,0:0:0:0:
329,192,129925,1,0,0:0:0:0:
182,192,130119,1,0,0:0:0:0:
402,192,130119,1,0,0:0:0:0:
475,192,130312,1,0,0:0:0:0:
329,192,130312,1,0,0:0:0:0:
256,192,130506,1,0,0:0:0:0:
182,192,130506,1,0,0:0:0:0:
109,192,130506,1,0,0:0:0:0:
402,192,130699,1,0,0:0:0:0:
329,192,130764,1,0,0:0:0:0:
256,192,130828,1,0,0:0:0:0:
182,192,130893,1,0,0:0:0:0:
475,192,130893,1,0,0:0:0:0:
109,192,131086,1,0,0:0:0:0:
329,192,131086,1,0,0:0:0:0:
402,192,131280,128,0,131473:0:0:0:0:
475,192,131280,1,0,0:0:0:0:
256,192,131473,128,0,131860:0:0:0:0:
182,192,131473,1,0,0:0:0:0:
329,192,131667,1,0,0:0:0:0:
109,192,131860,128,0,132054:0:0:0:0:
36,192,131860,1,0,0:0:0:0:
329,192,132054,1,0,0:0:0:0:
475,192,132054,128,0,132248:0:0:0:0:
182,192,132248,1,0,0:0:0:0:
256,192,132248,1,0,0:0:0:0:
109,192,132441,1,0,0:0:0:0:
36,192,132441,128,0,132828:0:0:0:0:
329,192,132635,1,0,0:0:0:0:
475,192,132635,1,0,0:0:0:0:
256,192,132828,1,0,0:0:0:0:
109,192,132828,128,0,133022:0:0:0:0:
475,192,133022,1,0,0:0:0:0:
402,192,133086,1,0,0:0:0:0:
329,192,133151,1,0,0:0:0:0:
256,192,133215,1,0,0:0:0:0:
182,192,133280,1,0,0:0:0:0:
109,192,133344,1,0,0:0:0:0:
36,192,133409,1,0,0:0:0:0:
402,192,133473,1,0,0:0:0:0:
329,192,133538,1,0,0:0:0:0:
256,192,133602,1,0,0:0:0:0:
182,192,133602,1,0,0:0:0:0:
475,192,133796,1,0,0:0:0:0:
109,192,133796,1,0,0:0:0:0:
36,192,133989,128,0,135538:0:0:0:0:
402,192,133989,1,0,0:0:0:0:
329,192,133989,1,0,0:0:0:0:
182,192,133989,1,0,0:0:0:0:
256,192,134183,1,0,0:0:0:0:
475,192,134183,1,0,0:0:0:0:
109,192,134377,1,0,0:0:0:0:
182,192,134377,1,0,0:0:0:0:
329,192,134377,1,0,0:0:0:0:
402,192,134570,1,0,0:0:0:0:
256,192,134570,1,0,0:0:0:0:
329,192,134764,1,0,0:0:0:0:
475,192,134764,1,0,0:0:0:0:
182,192,134957,1,0,0:0:0:0:
109,192,134957,1,0,0:0:0:0:
256,192,135151,1,0,0:0:0:0:
402,192,135151,1,0,0:0:0:0:
475,192,135151,1,0,0:0:0:0:
329,192,135344,1,0,0:0:0:0:
109,192,135344,1,0,0:0:0:0:
475,192,135538,128,0,137086:0:0:0:0:
182,192,135538,1,0,0:0:0:0:
402,192,135731,1,0,0:0:0:0:
256,192,135731,1,0,0:0:0:0:
182,192,135925,1,0,0:0:0:0:
36,192,135925,1,0,0:0:0:0:
329,192,135925,1,0,0:0:0:0:
109,192,136119,1,0,0:0:0:0:
256,192,136119,1,0,0:0:0:0:
329,192,136312,1,0,0:0:0:0:
402,192,136312,1,0,0:0:0:0:
36,192,136506,1,0,0:0:0:0:
182,192,136506,1,0,0:0:0:0:
109,192,136699,1,0,0:0:0:0:
256,192,136699,1,0,0:0:0:0:
329,192,136699,1,0,0:0:0:0:
36,192,136893,1,0,0:0:0:0:
402,192,136893,1,0,0:0:0:0:
182,192,137086,1,0,0:0:0:0:
109,192,137086,1,0,0:0:0:0:
256,192,137280,1,0,0:0:0:0:
402,192,137280,1,0,0:0:0:0:
109,192,137473,1,0,0:0:0:0:
36,192,137473,1,0,0:0:0:0:
329,192,137473,1,0,0:0:0:0:
475,192,137667,1,0,0:0:0:0:
256,192,137667,1,0,0:0:0:0:
329,192,137860,1,0,0:0:0:0:
109,192,137860,128,0,138054:0:0:0:0:
36,192,138054,1,0,0:0:0:0:
182,192,138054,1,0,0:0:0:0:
256,192,138248,1,0,0:0:0:0:
329,192,138248,1,0,0:0:0:0:
475,192,138248,1,0,0:0:0:0:
182,192,138441,1,0,0:0:0:0:
402,192,138441,1,0,0:0:0:0:
256,192,138635,1,0,0:0:0:0:
36,192,138635,1,0,0:0:0:0:
182,192,138828,1,0,0:0:0:0:
475,192,138828,1,0,0:0:0:0:
329,192,139022,1,0,0:0:0:0:
256,192,139022,1,0,0:0:0:0:
109,192,139215,1,0,0:0:0:0:
36,192,139215,1,0,0:0:0:0:
475,192,139312,1,0,0:0:0:0:
402,192,139312,1,0,0:0:0:0:
256,192,139409,1,0,0:0:0:0:
182,192,139409,1,0,0:0:0:0:
329,192,139602,1,0,0:0:0:0:
109,192,139602,1,0,0:0:0:0:
475,192,139796,1,0,0:0:0:0:
402,192,139796,1,0,0:0:0:0:
109,192,139893,1,0,0:0:0:0:
36,192,139893,1,0,0:0:0:0:
329,192,139989,1,0,0:0:0:0:
402,192,139989,1,0,0:0:0:0:
109,192,140086,1,0,0:0:0:0:
182,192,140086,1,0,0:0:0:0:
402,192,140183,1,0,0:0:0:0:
36,192,140183,1,0,0:0:0:0:
256,192,140183,1,0,0:0:0:0:
475,192,140183,128,0,141731:0:0:0:0:
109,192,140377,1,0,0:0:0:0:
182,192,140377,1,0,0:0:0:0:
329,192,140570,128,0,140764:0:0:0:0:
402,192,140570,1,0,0:0:0:0:
256,192,140764,1,0,0:0:0:0:
36,192,140764,1,0,0:0:0:0:
109,192,140957,128,0,141151:0:0:0:0:
182,192,140957,1,0,0:0:0:0:
402,192,141151,1,0,0:0:0:0:
329,192,141151,1,0,0:0:0:0:
256,192,141344,128,0,141538:0:0:0:0:
36,192,141344,1,0,0:0:0:0:
109,192,141538,1,0,0:0:0:0:
402,192,141731,128,0,141925:0:0:0:0:
329,192,141731,1,0,0:0:0:0:
256,192,141925,1,0,0:0:0:0:
109,192,141925,1,0,0:0:0:0:
36,192,142119,128,0,142312:0:0:0:0:
182,192,142119,1,0,0:0:0:0:
475,192,142312,1,0,0:0:0:0:
402,192,142312,1,0,0:0:0:0:
329,192,142506,128,0,142699:0:0:0:0:
109,192,142506,1,0,0:0:0:0:
256,192,142699,1,0,0:0:0:0:
36,192,142699,1,0,0:0:0:0:
475,192,142893,128,0,143086:0:0:0:0:
402,192,142893,1,0,0:0:0:0:
182,192,142893,1,0,0:0:0:0:
109,192,143086,1,0,0:0:0:0:
36,192,143086,1,0,0:0:0:0:
256,192,143280,128,0,143473:0:0:0:0:
329,192,143280,1,0,0:0:0:0:
475,192,143280,1,0,0:0:0:0:
182,192,143473,1,0,0:0:0:0:
109,192,143473,1,0,0:0:0:0:
36,192,143667,128,0,143860:0:0:0:0:
329,192,143667,1,0,0:0:0:0:
475,192,143860,1,0,0:0:0:0:
182,192,143860,1,0,0:0:0:0:
402,192,144054,128,0,144248:0:0:0:0:
256,192,144054,1,0,0:0:0:0:
36,192,144248,1,0,0:0:0:0:
329,192,144248,1,0,0:0:0:0:
182,192,144441,128,0,144635:0:0:0:0:
475,192,144441,1,0,0:0:0:0:
329,192,144635,128,0,144828:0:0:0:0:
256,192,144635,1,0,0:0:0:0:
402,192,144731,1,0,0:0:0:0:
109,192,144828,1,0,0:0:0:0:
36,192,144828,1,0,0:0:0:0:
402,192,145022,128,0,145215:0:0:0:0:
182,192,145022,1,0,0:0:0:0:
109,192,145215,128,0,145409:0:0:0:0:
329,192,145215,1,0,0:0:0:0:
475,192,145409,1,0,0:0:0:0:
36,192,145409,1,0,0:0:0:0:
402,192,145473,1,0,0:0:0:0:
329,192,145538,1,0,0:0:0:0:
256,192,145602,1,0,0:0:0:0:
182,192,145667,1,0,0:0:0:0:
109,192,145731,1,0,0:0:0:0:
36,192,145796,1,0,0:0:0:0:
475,192,145860,1,0,0:0:0:0:
402,192,145925,1,0,0:0:0:0:
329,192,145989,1,0,0:0:0:0:
256,192,146054,1,0,0:0:0:0:
182,192,146119,1,0,0:0:0:0:
109,192,146183,1,0,0:0:0:0:
36,192,146248,1,0,0:0:0:0:
256,192,146377,1,0,0:0:0:0:
329,192,146377,1,0,0:0:0:0:
402,192,146377,1,0,0:0:0:0:
475,192,146377,1,0,0:0:0:0:
36,192,146570,1,0,0:0:0:0:
182,192,146570,1,0,0:0:0:0:
182,192,146764,1,0,0:0:0:0:
256,192,146764,1,0,0:0:0:0:
475,192,146957,1,0,0:0:0:0:
329,192,146957,1,0,0:0:0:0:
256,192,147151,1,0,0:0:0:0:
36,192,147151,1,0,0:0:0:0:
109,192,147344,1,0,0:0:0:0:
402,192,147344,1,0,0:0:0:0:
329,192,147538,1,0,0:0:0:0:
256,192,147538,1,0,0:0:0:0:
182,192,147731,1,0,0:0:0:0:
36,192,147731,1,0,0:0:0:0:
402,192,147731,1,0,0:0:0:0:
475,192,147731,1,0,0:0:0:0:
256,192,148119,1,0,0:0:0:0:
182,192,148119,1,0,0:0:0:0:
109,192,148119,1,0,0:0:0:0:
36,192,148119,1,0,0:0:0:0:
36,192,148312,128,0,148602:0:0:0:0:
109,192,148312,128,0,148506:0:0:0:0:
182,192,148312,128,0,148409:0:0:0:0:
256,192,148312,1,0,0:0:0:0:
475,192,149183,128,0,149473:0:0:0:0:
402,192,149280,128,0,149473:0:0:0:0:
329,192,149377,128,0,149473:0:0:0:0:
36,192,149473,128,0,150893:0:0:0:0:
109,192,149473,1,0,0:0:0:0:
182,192,149473,1,0,0:0:0:0:
256,192,149473,1,0,0:0:0:0:
475,192,149860,1,0,0:0:0:0:
402,192,149860,1,0,0:0:0:0:
475,192,150248,1,0,0:0:0:0:
402,192,150248,1,0,0:0:0:0:
182,192,150441,1,0,0:0:0:0:
256,192,150635,1,0,0:0:0:0:
329,192,150635,1,0,0:0:0:0:
109,192,150893,1,0,0:0:0:0:
182,192,150957,1,0,0:0:0:0:
256,192,151022,128,0,152441:0:0:0:0:
475,192,151022,1,0,0:0:0:0:
402,192,151409,1,0,0:0:0:0:
109,192,151409,1,0,0:0:0:0:
36,192,151602,128,0,152183:0:0:0:0:
182,192,151796,1,0,0:0:0:0:
329,192,151796,1,0,0:0:0:0:
109,192,152183,128,0,152570:0:0:0:0:
475,192,152183,1,0,0:0:0:0:
329,192,152506,1,0,0:0:0:0:
402,192,152570,128,0,154119:0:0:0:0:
109,192,152957,1,0,0:0:0:0:
36,192,152957,1,0,0:0:0:0:
329,192,153215,1,0,0:0:0:0:
256,192,153280,1,0,0:0:0:0:
182,192,153344,128,0,154119:0:0:0:0:
109,192,153344,1,0,0:0:0:0:
36,192,153731,128,0,154119:0:0:0:0:
329,192,153731,1,0,0:0:0:0:
475,192,154119,128,0,157215:0:0:0:0:
329,192,154119,1,0,0:0:0:0:
256,192,154119,1,0,0:0:0:0:
109,192,154119,1,0,0:0:0:0:
36,192,154312,1,0,0:0:0:0:
256,192,154506,1,0,0:0:0:0:
109,192,154506,1,0,0:0:0:0:
182,192,154699,1,0,0:0:0:0:
402,192,154893,1,0,0:0:0:0:
329,192,154893,1,0,0:0:0:0:
256,192,155086,1,0,0:0:0:0:
182,192,155280,1,0,0:0:0:0:
36,192,155280,1,0,0:0:0:0:
109,192,155473,1,0,0:0:0:0:
329,192,155667,1,0,0:0:0:0:
402,192,155667,1,0,0:0:0:0:
182,192,155860,1,0,0:0:0:0:
256,192,156054,1,0,0:0:0:0:
36,192,156054,1,0,0:0:0:0:
402,192,156248,1,0,0:0:0:0:
109,192,156441,1,0,0:0:0:0:
182,192,156441,1,0,0:0:0:0:
329,192,156635,1,0,0:0:0:0:
256,192,156828,1,0,0:0:0:0:
402,192,156828,1,0,0:0:0:0:
36,192,157022,1,0,0:0:0:0:
109,192,157215,128,0,159538:0:0:0:0:
182,192,157215,128,0,157409:0:0:0:0:
402,192,157409,128,0,157602:0:0:0:0:
329,192,157602,1,0,0:0:0:0:
256,192,157602,128,0,157796:0:0:0:0:
36,192,157796,128,0,157989:0:0:0:0:
182,192,157989,1,0,0:0:0:0:
402,192,157989,128,0,158183:0:0:0:0:
329,192,158183,128,0,158377:0:0:0:0:
256,192,158377,128,0,158570:0:0:0:0:
36,192,158377,1,0,0:0:0:0:
475,192,158570,128,0,158764:0:0:0:0:
402,192,158764,128,0,158957:0:0:0:0:
329,192,158764,1,0,0:0:0:0:
182,192,158957,128,0,159151:0:0:0:0:
36,192,159151,128,0,159344:0:0:0:0:
475,192,159151,1,0,0:0:0:0:
329,192,159344,128,0,159538:0:0:0:0:
256,192,159538,1,0,0:0:0:0:
182,192,159538,1,0,0:0:0:0:
402,192,159731,128,0,159925:0:0:0:0:
475,192,159731,1,0,0:0:0:0:
256,192,159925,128,0,160119:0:0:0:0:
329,192,159925,1,0,0:0:0:0:
109,192,160119,128,0,160312:0:0:0:0:
182,192,160119,1,0,0:0:0:0:
36,192,160312,1,0,0:0:0:0:
475,192,160312,1,0,0:0:0:0:
402,192,160312,1,0,0:0:0:0:
256,192,160312,1,0,0:0:0:0:
182,192,160506,1,0,0:0:0:0:
402,192,160699,1,0,0:0:0:0:
36,192,160699,1,0,0:0:0:0:
329,192,160893,1,0,0:0:0:0:
256,192,161086,1,0,0:0:0:0:
182,192,161086,1,0,0:0:0:0:
36,192,161280,1,0,0:0:0:0:
329,192,161473,1,0,0:0:0:0:
475,192,161473,1,0,0:0:0:0:
109,192,161667,1,0,0:0:0:0:
182,192,161860,1,0,0:0:0:0:
402,192,161860,1,0,0:0:0:0:
329,192,162054,128,0,162248:0:0:0:0:
36,192,162248,128,0,162441:0:0:0:0:
109,192,162248,1,0,0:0:0:0:
256,192,162441,1,0,0:0:0:0:
475,192,162635,128,0,162828:0:0:0:0:
182,192,162635,1,0,0:0:0:0:
36,192,162828,1,0,0:0:0:0:
402,192,163022,1,0,0:0:0:0:
256,192,163022,1,0,0:0:0:0:
329,192,163215,1,0,0:0:0:0:
109,192,163409,128,0,163602:0:0:0:0:
182,192,163409,1,0,0:0:0:0:
36,192,163602,1,0,0:0:0:0:
402,192,163796,128,0,163989:0:0:0:0:
475,192,163796,1,0,0:0:0:0:
256,192,163989,128,0,164183:0:0:0:0:
109,192,163989,1,0,0:0:0:0:
36,192,164183,128,0,164377:0:0:0:0:
182,192,164183,1,0,0:0:0:0:
402,192,164377,1,0,0:0:0:0:
256,192,164570,128,0,164764:0:0:0:0:
109,192,164570,1,0,0:0:0:0:
329,192,164764,128,0,164860:0:0:0:0:
402,192,164860,128,0,164957:0:0:0:0:
475,192,164957,128,0,165151:0:0:0:0:
182,192,164957,1,0,0:0:0:0:
36,192,165151,128,0,165344:0:0:0:0:
109,192,165344,1,0,0:0:0:0:
256,192,165344,1,0,0:0:0:0:
402,192,165538,128,0,165731:0:0:0:0:
329,192,165731,1,0,0:0:0:0:
182,192,165731,1,0,0:0:0:0:
256,192,165925,128,0,166022:0:0:0:0:
182,192,166022,128,0,166119:0:0:0:0:
36,192,166119,1,0,0:0:0:0:
475,192,166119,1,0,0:0:0:0:
109,192,166183,1,0,0:0:0:0:
182,192,166248,1,0,0:0:0:0:
256,192,166312,1,0,0:0:0:0:
329,192,166312,1,0,0:0:0:0:
475,192,166409,1,0,0:0:0:0:
402,192,166409,1,0,0:0:0:0:
182,192,166506,1,0,0:0:0:0:
109,192,166506,1,0,0:0:0:0:
36,192,166506,1,0,0:0:0:0:
256,192,166506,1,0,0:0:0:0:
329,192,166699,1,0,0:0:0:0:
182,192,166893,1,0,0:0:0:0:
36,192,166893,1,0,0:0:0:0:
402,192,167086,1,0,0:0:0:0:
329,192,167280,1,0,0:0:0:0:
256,192,167280,1,0,0:0:0:0:
109,192,167473,1,0,0:0:0:0:
475,192,167667,1,0,0:0:0:0:
256,192,167667,1,0,0:0:0:0:
402,192,167860,1,0,0:0:0:0:
36,192,168054,1,0,0:0:0:0:
182,192,168054,1,0,0:0:0:0:
109,192,168248,1,0,0:0:0:0:
256,192,168441,1,0,0:0:0:0:
329,192,168441,1,0,0:0:0:0:
402,192,168635,1,0,0:0:0:0:
475,192,168828,1,0,0:0:0:0:
109,192,168828,1,0,0:0:0:0:
256,192,169022,1,0,0:0:0:0:
182,192,169215,1,0,0:0:0:0:
36,192,169215,1,0,0:0:0:0:
475,192,169215,1,0,0:0:0:0:
402,192,169409,1,0,0:0:0:0:
256,192,169602,1,0,0:0:0:0:
109,192,169602,1,0,0:0:0:0:
402,192,169796,1,0,0:0:0:0:
475,192,169989,1,0,0:0:0:0:
36,192,169989,1,0,0:0:0:0:
182,192,170183,1,0,0:0:0:0:
329,192,170377,1,0,0:0:0:0:
402,192,170377,1,0,0:0:0:0:
109,192,170570,1,0,0:0:0:0:
36,192,170764,1,0,0:0:0:0:
256,192,170764,1,0,0:0:0:0:
402,192,170957,1,0,0:0:0:0:
475,192,171151,1,0,0:0:0:0:
109,192,171151,1,0,0:0:0:0:
182,192,171344,1,0,0:0:0:0:
329,192,171538,1,0,0:0:0:0:
402,192,171538,1,0,0:0:0:0:
109,192,171731,1,0,0:0:0:0:
256,192,171925,1,0,0:0:0:0:
475,192,171925,1,0,0:0:0:0:
36,192,172119,1,0,0:0:0:0:
109,192,172215,1,0,0:0:0:0:
182,192,172312,1,0,0:0:0:0:
329,192,172312,1,0,0:0:0:0:
475,192,172506,1,0,0:0:0:0:
402,192,172506,1,0,0:0:0:0:
256,192,172602,1,0,0:0:0:0:
329,192,172602,1,0,0:0:0:0:
182,192,172699,1,0,0:0:0:0:
109,192,172699,1,0,0:0:0:0:
36,192,172699,1,0,0:0:0:0:
475,192,172699,1,0,0:0:0:0:
256,192,172893,1,0,0:0:0:0:
329,192,173086,1,0,0:0:0:0:
109,192,173086,1,0,0:0:0:0:
182,192,173280,1,0,0:0:0:0:
402,192,173473,1,0,0:0:0:0:
475,192,173473,1,0,0:0:0:0:
36,192,173667,1,0,0:0:0:0:
109,192,173860,1,0,0:0:0:0:
329,192,173860,1,0,0:0:0:0:
256,192,174054,1,0,0:0:0:0:
182,192,174248,1,0,0:0:0:0:
36,192,174248,1,0,0:0:0:0:
475,192,174248,1,0,0:0:0:0:
402,192,174248,1,0,0:0:0:0:
329,192,174441,1,0,0:0:0:0:
256,192,174441,1,0,0:0:0:0:
109,192,174635,1,0,0:0:0:0:
402,192,174635,1,0,0:0:0:0:
256,192,174828,1,0,0:0:0:0:
109,192,175022,1,0,0:0:0:0:
36,192,175022,1,0,0:0:0:0:
329,192,175215,1,0,0:0:0:0:
402,192,175409,1,0,0:0:0:0:
475,192,175409,1,0,0:0:0:0:
182,192,175409,1,0,0:0:0:0:
256,192,175602,1,0,0:0:0:0:
109,192,175796,1,0,0:0:0:0:
36,192,175796,1,0,0:0:0:0:
329,192,175796,1,0,0:0:0:0:
402,192,175796,1,0,0:0:0:0:
475,192,175989,1,0,0:0:0:0:
256,192,175989,1,0,0:0:0:0:
182,192,176183,1,0,0:0:0:0:
36,192,176183,1,0,0:0:0:0:
402,192,176377,1,0,0:0:0:0:
475,192,176377,1,0,0:0:0:0:
329,192,176570,1,0,0:0:0:0:
109,192,176570,1,0,0:0:0:0:
182,192,176764,1,0,0:0:0:0:
256,192,176828,1,0,0:0:0:0:
329,192,176893,1,0,0:0:0:0:
475,192,176957,1,0,0:0:0:0:
402,192,176957,1,0,0:0:0:0:
109,192,177151,1,0,0:0:0:0:
36,192,177344,1,0,0:0:0:0:
182,192,177344,1,0,0:0:0:0:
402,192,177344,1,0,0:0:0:0:
475,192,177344,1,0,0:0:0:0:
329,192,177538,1,0,0:0:0:0:
256,192,177731,1,0,0:0:0:0:
109,192,177731,1,0,0:0:0:0:
36,192,177925,1,0,0:0:0:0:
475,192,178119,1,0,0:0:0:0:
402,192,178119,1,0,0:0:0:0:
182,192,178119,1,0,0:0:0:0:
256,192,178312,1,0,0:0:0:0:
402,192,178506,1,0,0:0:0:0:
329,192,178506,1,0,0:0:0:0:
109,192,178506,128,0,178893:0:0:0:0:
182,192,178699,1,0,0:0:0:0:
36,192,178893,1,0,0:0:0:0:
329,192,178893,1,0,0:0:0:0:
402,192,178893,1,0,0:0:0:0:
256,192,178893,1,0,0:0:0:0:
475,192,179086,1,0,0:0:0:0:
182,192,179086,1,0,0:0:0:0:
109,192,179086,1,0,0:0:0:0:
256,192,179280,1,0,0:0:0:0:
329,192,179280,1,0,0:0:0:0:
36,192,179280,1,0,0:0:0:0:
36,192,179473,1,0,0:0:0:0:
109,192,179473,1,0,0:0:0:0:
475,192,179570,1,0,0:0:0:0:
402,192,179570,1,0,0:0:0:0:
182,192,179667,1,0,0:0:0:0:
329,192,179667,1,0,0:0:0:0:
475,192,179860,1,0,0:0:0:0:
36,192,179860,1,0,0:0:0:0:
182,192,179957,1,0,0:0:0:0:
329,192,179957,1,0,0:0:0:0:
36,192,180054,128,0,181796:0:0:0:0:
109,192,180054,1,0,0:0:0:0:
402,192,180054,1,0,0:0:0:0:
402,192,180248,1,0,0:0:0:0:
109,192,180248,1,0,0:0:0:0:
402,192,180441,1,0,0:0:0:0:
109,192,180441,1,0,0:0:0:0:
256,192,180441,1,0,0:0:0:0:
329,192,180441,1,0,0:0:0:0:
475,192,180635,128,0,181796:0:0:0:0:
329,192,180635,1,0,0:0:0:0:
182,192,180635,1,0,0:0:0:0:
109,192,180635,1,0,0:0:0:0:
402,192,180635,1,0,0:0:0:0:
256,192,180828,1,0,0:0:0:0:
182,192,180828,1,0,0:0:0:0:
109,192,180828,1,0,0:0:0:0:
402,192,180828,1,0,0:0:0:0:
402,192,181022,1,0,0:0:0:0:
256,192,181022,1,0,0:0:0:0:
109,192,181022,1,0,0:0:0:0:
329,192,181022,1,0,0:0:0:0:
109,192,181215,1,0,0:0:0:0:
329,192,181215,1,0,0:0:0:0:
402,192,181215,1,0,0:0:0:0:
182,192,181215,1,0,0:0:0:0:
109,192,181409,1,0,0:0:0:0:
182,192,181409,1,0,0:0:0:0:
402,192,181409,1,0,0:0:0:0:
256,192,181409,1,0,0:0:0:0:
109,192,181602,1,0,0:0:0:0:
256,192,181602,1,0,0:0:0:0:
402,192,181602,1,0,0:0:0:0:
329,192,181602,1,0,0:0:0:0:
109,192,181796,1,0,0:0:0:0:
182,192,181796,1,0,0:0:0:0:
402,192,181796,1,0,0:0:0:0:
329,192,181796,1,0,0:0:0:0:
36,192,182473,128,0,182764:0:0:0:0:
109,192,182570,128,0,182764:0:0:0:0:
182,192,182667,128,0,182764:0:0:0:0:
256,192,182764,1,0,0:0:0:0:
329,192,182764,1,0,0:0:0:0:
475,192,182764,1,0,0:0:0:0:
402,192,182764,1,0,0:0:0:0:
109,192,182957,1,0,0:0:0:0:
329,192,182957,1,0,0:0:0:0:
256,192,183151,1,0,0:0:0:0:
182,192,183151,1,0,0:0:0:0:
36,192,183151,1,0,0:0:0:0:
475,192,183344,1,0,0:0:0:0:
329,192,183344,1,0,0:0:0:0:
402,192,183538,1,0,0:0:0:0:
182,192,183538,1,0,0:0:0:0:
109,192,183538,1,0,0:0:0:0:
256,192,183731,1,0,0:0:0:0:
475,192,183731,1,0,0:0:0:0:
329,192,183925,1,0,0:0:0:0:
109,192,183925,1,0,0:0:0:0:
36,192,183925,1,0,0:0:0:0:
256,192,184119,1,0,0:0:0:0:
475,192,184119,1,0,0:0:0:0:
402,192,184312,1,0,0:0:0:0:
109,192,184312,1,0,0:0:0:0:
329,192,184312,1,0,0:0:0:0:
256,192,184506,1,0,0:0:0:0:
475,192,184506,1,0,0:0:0:0:
182,192,184699,1,0,0:0:0:0:
109,192,184699,1,0,0:0:0:0:
36,192,184699,1,0,0:0:0:0:
475,192,184893,1,0,0:0:0:0:
402,192,184893,1,0,0:0:0:0:
109,192,185086,1,0,0:0:0:0:
329,192,185086,1,0,0:0:0:0:
256,192,185086,1,0,0:0:0:0:
182,192,185280,1,0,0:0:0:0:
402,192,185280,1,0,0:0:0:0:
475,192,185473,1,0,0:0:0:0:
256,192,185473,1,0,0:0:0:0:
36,192,185473,1,0,0:0:0:0:
109,192,185667,1,0,0:0:0:0:
402,192,185667,1,0,0:0:0:0:
329,192,185860,1,0,0:0:0:0:
475,192,185860,1,0,0:0:0:0:
256,192,185860,1,0,0:0:0:0:
182,192,186054,1,0,0:0:0:0:
36,192,186054,1,0,0:0:0:0:
402,192,186248,128,0,186441:0:0:0:0:
475,192,186248,1,0,0:0:0:0:
109,192,186248,1,0,0:0:0:0:
329,192,186248,1,0,0:0:0:0:
256,192,186441,128,0,186828:0:0:0:0:
182,192,186441,1,0,0:0:0:0:
329,192,186635,1,0,0:0:0:0:
475,192,186635,1,0,0:0:0:0:
36,192,186635,1,0,0:0:0:0:
109,192,186828,128,0,187022:0:0:0:0:
182,192,186828,1,0,0:0:0:0:
329,192,187022,1,0,0:0:0:0:
475,192,187022,1,0,0:0:0:0:
36,192,187022,1,0,0:0:0:0:
182,192,187215,1,0,0:0:0:0:
256,192,187215,1,0,0:0:0:0:
109,192,187409,1,0,0:0:0:0:
402,192,187409,1,0,0:0:0:0:
329,192,187409,1,0,0:0:0:0:
475,192,187602,1,0,0:0:0:0:
182,192,187602,1,0,0:0:0:0:
256,192,187796,1,0,0:0:0:0:
109,192,187796,1,0,0:0:0:0:
36,192,187796,1,0,0:0:0:0:
475,192,187989,1,0,0:0:0:0:
402,192,188054,1,0,0:0:0:0:
329,192,188119,1,0,0:0:0:0:
256,192,188183,1,0,0:0:0:0:
182,192,188248,1,0,0:0:0:0:
109,192,188312,1,0,0:0:0:0:
36,192,188377,1,0,0:0:0:0:
475,192,188441,1,0,0:0:0:0:
402,192,188506,1,0,0:0:0:0:
329,192,188570,1,0,0:0:0:0:
256,192,188635,1,0,0:0:0:0:
182,192,188699,1,0,0:0:0:0:
109,192,188764,1,0,0:0:0:0:
36,192,188828,1,0,0:0:0:0:
402,192,188893,1,0,0:0:0:0:
475,192,188957,128,0,190506:0:0:0:0:
109,192,188957,1,0,0:0:0:0:
182,192,188957,1,0,0:0:0:0:
256,192,188957,1,0,0:0:0:0:
36,192,189151,1,0,0:0:0:0:
329,192,189151,1,0,0:0:0:0:
402,192,189344,1,0,0:0:0:0:
182,192,189344,1,0,0:0:0:0:
109,192,189344,1,0,0:0:0:0:
256,192,189538,1,0,0:0:0:0:
329,192,189538,1,0,0:0:0:0:
182,192,189731,1,0,0:0:0:0:
36,192,189731,1,0,0:0:0:0:
109,192,189731,1,0,0:0:0:0:
329,192,189925,1,0,0:0:0:0:
402,192,189925,1,0,0:0:0:0:
256,192,190119,1,0,0:0:0:0:
109,192,190119,1,0,0:0:0:0:
36,192,190119,1,0,0:0:0:0:
182,192,190312,1,0,0:0:0:0:
402,192,190312,1,0,0:0:0:0:
36,192,190506,128,0,192054:0:0:0:0:
329,192,190506,1,0,0:0:0:0:
109,192,190506,1,0,0:0:0:0:
256,192,190699,1,0,0:0:0:0:
182,192,190699,1,0,0:0:0:0:
329,192,190893,1,0,0:0:0:0:
475,192,190893,1,0,0:0:0:0:
109,192,190893,1,0,0:0:0:0:
402,192,191086,1,0,0:0:0:0:
256,192,191086,1,0,0:0:0:0:
182,192,191280,1,0,0:0:0:0:
109,192,191280,1,0,0:0:0:0:
329,192,191280,1,0,0:0:0:0:
475,192,191473,1,0,0:0:0:0:
256,192,191473,1,0,0:0:0:0:
402,192,191667,1,0,0:0:0:0:
182,192,191667,1,0,0:0:0:0:
329,192,191667,1,0,0:0:0:0:
475,192,191860,1,0,0:0:0:0:
109,192,191860,1,0,0:0:0:0:
329,192,192054,1,0,0:0:0:0:
402,192,192054,1,0,0:0:0:0:
182,192,192054,1,0,0:0:0:0:
256,192,192248,1,0,0:0:0:0:
475,192,192248,1,0,0:0:0:0:
109,192,192441,1,0,0:0:0:0:
36,192,192441,1,0,0:0:0:0:
329,192,192441,1,0,0:0:0:0:
475,192,192635,1,0,0:0:0:0:
256,192,192635,1,0,0:0:0:0:
329,192,192828,1,0,0:0:0:0:
109,192,192828,128,0,193022:0:0:0:0:
402,192,192828,1,0,0:0:0:0:
36,192,193022,1,0,0:0:0:0:
182,192,193022,1,0,0:0:0:0:
256,192,193215,1,0,0:0:0:0:
329,192,193215,1,0,0:0:0:0:
475,192,193215,1,0,0:0:0:0:
182,192,193409,1,0,0:0:0:0:
256,192,193409,128,0,194377:0:0:0:0:
109,192,193602,1,0,0:0:0:0:
475,192,193602,1,0,0:0:0:0:
402,192,193602,1,0,0:0:0:0:
182,192,193796,128,0,194377:0:0:0:0:
36,192,193796,1,0,0:0:0:0:
329,192,193989,128,0,194377:0:0:0:0:
109,192,193989,1,0,0:0:0:0:
402,192,193989,1,0,0:0:0:0:
475,192,194183,1,0,0:0:0:0:
36,192,194183,1,0,0:0:0:0:
109,192,194377,1,0,0:0:0:0:
402,192,194377,1,0,0:0:0:0:
36,192,194473,1,0,0:0:0:0:
475,192,194473,1,0,0:0:0:0:
329,192,194570,1,0,0:0:0:0:
182,192,194570,1,0,0:0:0:0:
402,192,194764,1,0,0:0:0:0:
475,192,194764,1,0,0:0:0:0:
109,192,194860,1,0,0:0:0:0:
36,192,194860,1,0,0:0:0:0:
329,192,194957,1,0,0:0:0:0:
402,192,194957,1,0,0:0:0:0:
109,192,195054,1,0,0:0:0:0:
182,192,195054,1,0,0:0:0:0:
402,192,195151,1,0,0:0:0:0:
36,192,195151,1,0,0:0:0:0:
256,192,195151,1,0,0:0:0:0:
475,192,195151,128,0,196699:0:0:0:0:
109,192,195344,1,0,0:0:0:0:
182,192,195344,1,0,0:0:0:0:
329,192,195538,128,0,195731:0:0:0:0:
402,192,195538,1,0,0:0:0:0:
36,192,195538,1,0,0:0:0:0:
256,192,195731,1,0,0:0:0:0:
182,192,195731,1,0,0:0:0:0:
109,192,195925,128,0,196119:0:0:0:0:
36,192,195925,1,0,0:0:0:0:
329,192,195925,1,0,0:0:0:0:
402,192,196119,1,0,0:0:0:0:
182,192,196119,1,0,0:0:0:0:
256,192,196312,128,0,196506:0:0:0:0:
36,192,196312,1,0,0:0:0:0:
329,192,196312,1,0,0:0:0:0:
109,192,196506,1,0,0:0:0:0:
182,192,196506,1,0,0:0:0:0:
402,192,196699,128,0,196893:0:0:0:0:
329,192,196699,1,0,0:0:0:0:
36,192,196699,1,0,0:0:0:0:
256,192,196893,1,0,0:0:0:0:
109,192,196893,1,0,0:0:0:0:
36,192,197086,128,0,197280:0:0:0:0:
182,192,197086,1,0,0:0:0:0:
329,192,197086,1,0,0:0:0:0:
475,192,197280,1,0,0:0:0:0:
402,192,197280,1,0,0:0:0:0:
329,192,197473,128,0,197667:0:0:0:0:
109,192,197473,1,0,0:0:0:0:
256,192,197473,1,0,0:0:0:0:
36,192,197667,1,0,0:0:0:0:
402,192,197667,1,0,0:0:0:0:
475,192,197860,128,0,198054:0:0:0:0:
182,192,197860,1,0,0:0:0:0:
256,192,197860,1,0,0:0:0:0:
109,192,198054,1,0,0:0:0:0:
36,192,198054,1,0,0:0:0:0:
256,192,198248,128,0,198441:0:0:0:0:
329,192,198248,1,0,0:0:0:0:
475,192,198248,1,0,0:0:0:0:
182,192,198441,1,0,0:0:0:0:
109,192,198441,1,0,0:0:0:0:
36,192,198635,128,0,198828:0:0:0:0:
329,192,198635,1,0,0:0:0:0:
402,192,198635,1,0,0:0:0:0:
475,192,198828,1,0,0:0:0:0:
182,192,198828,1,0,0:0:0:0:
402,192,199022,128,0,199215:0:0:0:0:
256,192,199022,1,0,0:0:0:0:
109,192,199022,1,0,0:0:0:0:
36,192,199215,1,0,0:0:0:0:
329,192,199215,1,0,0:0:0:0:
182,192,199409,128,0,199602:0:0:0:0:
475,192,199409,1,0,0:0:0:0:
109,192,199409,1,0,0:0:0:0:
256,192,199602,1,0,0:0:0:0:
329,192,199602,128,0,199989:0:0:0:0:
36,192,199602,1,0,0:0:0:0:
475,192,199602,1,0,0:0:0:0:
109,192,199796,1,0,0:0:0:0:
36,192,199796,1,0,0:0:0:0:
402,192,199796,1,0,0:0:0:0:
402,192,199989,128,0,200183:0:0:0:0:
182,192,199989,1,0,0:0:0:0:
109,192,200183,128,0,200377:0:0:0:0:
329,192,200183,1,0,0:0:0:0:
256,192,200183,1,0,0:0:0:0:
36,192,200377,1,0,0:0:0:0:
182,192,200377,128,0,200473:0:0:0:0:
256,192,200473,128,0,200570:0:0:0:0:
329,192,200570,128,0,200667:0:0:0:0:
475,192,200570,1,0,0:0:0:0:
109,192,200570,1,0,0:0:0:0:
402,192,200764,128,0,200957:0:0:0:0:
36,192,200764,1,0,0:0:0:0:
109,192,200957,128,0,201151:0:0:0:0:
182,192,200957,1,0,0:0:0:0:
329,192,200957,1,0,0:0:0:0:
256,192,201151,1,0,0:0:0:0:
36,192,201151,1,0,0:0:0:0:
329,192,201344,1,0,0:0:0:0:
402,192,201344,1,0,0:0:0:0:
475,192,201344,1,0,0:0:0:0:
182,192,201344,1,0,0:0:0:0:
36,192,201538,1,0,0:0:0:0:
256,192,201538,1,0,0:0:0:0:
182,192,201731,1,0,0:0:0:0:
402,192,201731,1,0,0:0:0:0:
109,192,201731,1,0,0:0:0:0:
475,192,201925,1,0,0:0:0:0:
329,192,201925,1,0,0:0:0:0:
256,192,202119,1,0,0:0:0:0:
36,192,202119,1,0,0:0:0:0:
182,192,202119,1,0,0:0:0:0:
109,192,202312,1,0,0:0:0:0:
402,192,202312,1,0,0:0:0:0:
329,192,202506,1,0,0:0:0:0:
182,192,202506,1,0,0:0:0:0:
475,192,202506,1,0,0:0:0:0:
256,192,202699,1,0,0:0:0:0:
36,192,202699,1,0,0:0:0:0:
402,192,202699,1,0,0:0:0:0:
109,192,202699,1,0,0:0:0:0:
182,192,202893,1,0,0:0:0:0:
475,192,202893,1,0,0:0:0:0:
256,192,203086,1,0,0:0:0:0:
329,192,203086,1,0,0:0:0:0:
402,192,203086,1,0,0:0:0:0:
475,192,203086,1,0,0:0:0:0:
475,192,203280,128,0,203570:0:0:0:0:
402,192,203280,128,0,203473:0:0:0:0:
329,192,203280,128,0,203377:0:0:0:0:
256,192,203280,1,0,0:0:0:0:
109,192,203473,1,0,0:0:0:0:
36,192,203473,1,0,0:0:0:0:
329,192,203570,1,0,0:0:0:0:
182,192,203570,1,0,0:0:0:0:
475,192,203667,1,0,0:0:0:0:
402,192,203667,1,0,0:0:0:0:
109,192,203764,1,0,0:0:0:0:
36,192,203764,1,0,0:0:0:0:
182,192,203860,1,0,0:0:0:0:
329,192,203860,1,0,0:0:0:0:
402,192,203957,1,0,0:0:0:0:
475,192,203957,1,0,0:0:0:0:
36,192,204054,1,0,0:0:0:0:
109,192,204054,1,0,0:0:0:0:
329,192,204151,1,0,0:0:0:0:
182,192,204151,1,0,0:0:0:0:
402,192,204248,1,0,0:0:0:0:
475,192,204248,1,0,0:0:0:0:
36,192,204344,1,0,0:0:0:0:
109,192,204344,1,0,0:0:0:0:
182,192,204441,1,0,0:0:0:0:
256,192,204441,1,0,0:0:0:0:
329,192,204441,1,0,0:0:0:0:
402,192,204441,1,0,0:0:0:0:
475,192,204635,1,0,0:0:0:0:
109,192,204635,1,0,0:0:0:0:
329,192,204828,1,0,0:0:0:0:
256,192,204828,1,0,0:0:0:0:
36,192,204828,1,0,0:0:0:0:
402,192,205022,1,0,0:0:0:0:
182,192,205022,1,0,0:0:0:0:
109,192,205215,1,0,0:0:0:0:
475,192,205215,1,0,0:0:0:0:
329,192,205215,1,0,0:0:0:0:
36,192,205409,1,0,0:0:0:0:
182,192,205409,1,0,0:0:0:0:
256,192,205602,1,0,0:0:0:0:
329,192,205602,1,0,0:0:0:0:
475,192,205602,1,0,0:0:0:0:
109,192,205796,1,0,0:0:0:0:
402,192,205796,1,0,0:0:0:0:
256,192,205989,1,0,0:0:0:0:
182,192,205989,1,0,0:0:0:0:
36,192,205989,1,0,0:0:0:0:
402,192,206183,1,0,0:0:0:0:
475,192,206183,1,0,0:0:0:0:
329,192,206377,1,0,0:0:0:0:
109,192,206377,1,0,0:0:0:0:
256,192,206377,1,0,0:0:0:0:
36,192,206570,1,0,0:0:0:0:
402,192,206570,1,0,0:0:0:0:
182,192,206764,1,0,0:0:0:0:
475,192,206764,1,0,0:0:0:0:
256,192,206764,1,0,0:0:0:0:
402,192,206957,1,0,0:0:0:0:
329,192,206957,1,0,0:0:0:0:
36,192,207151,1,0,0:0:0:0:
109,192,207151,1,0,0:0:0:0:
256,192,207151,1,0,0:0:0:0:
475,192,207344,1,0,0:0:0:0:
182,192,207344,1,0,0:0:0:0:
402,192,207538,1,0,0:0:0:0:
109,192,207538,1,0,0:0:0:0:
329,192,207538,1,0,0:0:0:0:
256,192,207731,1,0,0:0:0:0:
182,192,207731,1,0,0:0:0:0:
475,192,207925,128,0,208119:0:0:0:0:
36,192,207925,1,0,0:0:0:0:
329,192,207925,1,0,0:0:0:0:
109,192,208119,128,0,208506:0:0:0:0:
182,192,208119,1,0,0:0:0:0:
329,192,208312,1,0,0:0:0:0:
402,192,208312,1,0,0:0:0:0:
36,192,208312,1,0,0:0:0:0:
256,192,208506,128,0,208699:0:0:0:0:
475,192,208506,1,0,0:0:0:0:
182,192,208699,1,0,0:0:0:0:
329,192,208699,1,0,0:0:0:0:
36,192,208699,1,0,0:0:0:0:
402,192,208893,128,0,209280:0:0:0:0:
109,192,208893,1,0,0:0:0:0:
475,192,209086,1,0,0:0:0:0:
256,192,209086,1,0,0:0:0:0:
182,192,209086,1,0,0:0:0:0:
329,192,209280,128,0,209473:0:0:0:0:
36,192,209280,1,0,0:0:0:0:
256,192,209473,128,0,209667:0:0:0:0:
475,192,209473,1,0,0:0:0:0:
109,192,209473,1,0,0:0:0:0:
182,192,209667,128,0,210054:0:0:0:0:
402,192,209667,1,0,0:0:0:0:
329,192,209860,1,0,0:0:0:0:
256,192,209860,1,0,0:0:0:0:
109,192,209957,1,0,0:0:0:0:
36,192,209957,1,0,0:0:0:0:
475,192,210054,1,0,0:0:0:0:
402,192,210054,1,0,0:0:0:0:
36,192,210248,128,0,210441:0:0:0:0:
329,192,210248,1,0,0:0:0:0:
182,192,210248,1,0,0:0:0:0:
256,192,210441,1,0,0:0:0:0:
475,192,210441,1,0,0:0:0:0:
402,192,210441,1,0,0:0:0:0:
329,192,210538,1,0,0:0:0:0:
182,192,210538,1,0,0:0:0:0:
109,192,210538,1,0,0:0:0:0:
36,192,210635,1,0,0:0:0:0:
256,192,210635,1,0,0:0:0:0:
402,192,210635,1,0,0:0:0:0:
475,192,210635,1,0,0:0:0:0:
109,192,210828,128,0,210973:0:0:0:0:
182,192,210925,128,0,211070:0:0:0:0:
256,192,211022,128,0,211167:0:0:0:0:
36,192,211022,1,0,0:0:0:0:
475,192,211022,1,0,0:0:0:0:
402,192,211215,128,0,211360:0:0:0:0:
329,192,211312,128,0,211457:0:0:0:0:
256,192,211409,128,0,211554:0:0:0:0:
109,192,211409,1,0,0:0:0:0:
475,192,211409,1,0,0:0:0:0:
36,192,211602,128,0,211748:0:0:0:0:
109,192,211699,128,0,211844:0:0:0:0:
182,192,211796,128,0,211941:0:0:0:0:
402,192,211796,1,0,0:0:0:0:
329,192,211796,1,0,0:0:0:0:
475,192,211989,128,0,212135:0:0:0:0:
402,192,212086,128,0,212231:0:0:0:0:
329,192,212183,128,0,212328:0:0:0:0:
256,192,212183,1,0,0:0:0:0:
109,192,212183,1,0,0:0:0:0:
36,192,212377,128,0,212764:0:0:0:0:
182,192,212377,1,0,0:0:0:0:
402,192,212570,1,0,0:0:0:0:
329,192,212570,1,0,0:0:0:0:
109,192,212570,1,0,0:0:0:0:
475,192,212764,128,0,213151:0:0:0:0:
256,192,212764,1,0,0:0:0:0:
109,192,212957,1,0,0:0:0:0:
402,192,212957,1,0,0:0:0:0:
329,192,212957,1,0,0:0:0:0:
36,192,213151,1,0,0:0:0:0:
182,192,213151,1,0,0:0:0:0:
256,192,213344,128,0,213731:0:0:0:0:
402,192,213344,1,0,0:0:0:0:
475,192,213344,1,0,0:0:0:0:
182,192,213538,1,0,0:0:0:0:
109,192,213538,1,0,0:0:0:0:
36,192,213731,1,0,0:0:0:0:
329,192,213731,1,0,0:0:0:0:
402,192,213731,1,0,0:0:0:0:
475,192,213731,1,0,0:0:0:0:
109,192,213925,1,0,0:0:0:0:
182,192,213925,1,0,0:0:0:0:
402,192,214119,1,0,0:0:0:0:
475,192,214119,1,0,0:0:0:0:
256,192,214119,1,0,0:0:0:0:
182,192,214312,1,0,0:0:0:0:
36,192,214312,1,0,0:0:0:0:
329,192,214506,1,0,0:0:0:0:
402,192,214506,1,0,0:0:0:0:
109,192,214506,1,0,0:0:0:0:
475,192,214699,1,0,0:0:0:0:
182,192,214699,1,0,0:0:0:0:
256,192,214893,1,0,0:0:0:0:
36,192,214893,1,0,0:0:0:0:
402,192,214893,1,0,0:0:0:0:
329,192,215086,1,0,0:0:0:0:
475,192,215086,1,0,0:0:0:0:
182,192,215086,1,0,0:0:0:0:
109,192,215086,1,0,0:0:0:0:
256,192,215280,1,0,0:0:0:0:
36,192,215280,1,0,0:0:0:0:
182,192,215377,1,0,0:0:0:0:
109,192,215377,1,0,0:0:0:0:
402,192,215473,1,0,0:0:0:0:
475,192,215473,1,0,0:0:0:0:
256,192,215667,1,0,0:0:0:0:
329,192,215667,1,0,0:0:0:0:
36,192,215667,1,0,0:0:0:0:
109,192,215667,1,0,0:0:0:0:
402,192,215860,1,0,0:0:0:0:
475,192,215860,1,0,0:0:0:0:
329,192,215957,1,0,0:0:0:0:
256,192,215957,1,0,0:0:0:0:
475,192,216054,1,0,0:0:0:0:
402,192,216054,1,0,0:0:0:0:
109,192,216248,1,0,0:0:0:0:
36,192,216248,1,0,0:0:0:0:
256,192,216344,1,0,0:0:0:0:
182,192,216344,1,0,0:0:0:0:
109,192,216441,1,0,0:0:0:0:
36,192,216441,1,0,0:0:0:0:
475,192,216538,1,0,0:0:0:0:
402,192,216538,1,0,0:0:0:0:
182,192,216635,1,0,0:0:0:0:
109,192,216635,1,0,0:0:0:0:
402,192,216731,1,0,0:0:0:0:
329,192,216731,1,0,0:0:0:0:
475,192,216828,1,0,0:0:0:0:
36,192,216828,1,0,0:0:0:0:
256,192,216828,1,0,0:0:0:0:
109,192,216828,1,0,0:0:0:0:
182,192,217022,1,0,0:0:0:0:
402,192,217022,1,0,0:0:0:0:
329,192,217215,128,0,217409:0:0:0:0:
475,192,217215,1,0,0:0:0:0:
109,192,217215,1,0,0:0:0:0:
256,192,217409,1,0,0:0:0:0:
36,192,217409,1,0,0:0:0:0:
109,192,217602,128,0,217796:0:0:0:0:
182,192,217602,1,0,0:0:0:0:
475,192,217602,1,0,0:0:0:0:
402,192,217796,1,0,0:0:0:0:
329,192,217796,1,0,0:0:0:0:
256,192,217989,128,0,218183:0:0:0:0:
36,192,217989,1,0,0:0:0:0:
475,192,217989,1,0,0:0:0:0:
109,192,218183,1,0,0:0:0:0:
182,192,218183,1,0,0:0:0:0:
402,192,218377,128,0,218570:0:0:0:0:
329,192,218377,1,0,0:0:0:0:
475,192,218377,1,0,0:0:0:0:
256,192,218570,1,0,0:0:0:0:
109,192,218570,1,0,0:0:0:0:
182,192,218764,1,0,0:0:0:0:
329,192,218764,1,0,0:0:0:0:
36,192,218860,128,0,219151:0:0:0:0:
475,192,218957,1,0,0:0:0:0:
402,192,218957,1,0,0:0:0:0:
109,192,219151,1,0,0:0:0:0:
256,192,219151,1,0,0:0:0:0:
329,192,219151,128,0,219538:0:0:0:0:
36,192,219344,1,0,0:0:0:0:
402,192,219344,1,0,0:0:0:0:
475,192,219538,128,0,219731:0:0:0:0:
182,192,219538,1,0,0:0:0:0:
256,192,219538,1,0,0:0:0:0:
109,192,219731,1,0,0:0:0:0:
36,192,219731,1,0,0:0:0:0:
329,192,219925,1,0,0:0:0:0:
475,192,219925,1,0,0:0:0:0:
36,192,219925,128,0,221473:0:0:0:0:
182,192,220119,1,0,0:0:0:0:
109,192,220119,1,0,0:0:0:0:
329,192,220312,1,0,0:0:0:0:
402,192,220312,1,0,0:0:0:0:
256,192,220312,1,0,0:0:0:0:
475,192,220506,1,0,0:0:0:0:
182,192,220506,1,0,0:0:0:0:
256,192,220699,1,0,0:0:0:0:
109,192,220699,1,0,0:0:0:0:
402,192,220699,1,0,0:0:0:0:
329,192,220893,1,0,0:0:0:0:
182,192,220893,1,0,0:0:0:0:
475,192,221086,1,0,0:0:0:0:
256,192,221086,1,0,0:0:0:0:
402,192,221086,1,0,0:0:0:0:
182,192,221280,1,0,0:0:0:0:
109,192,221280,1,0,0:0:0:0:
329,192,221280,1,0,0:0:0:0:
402,192,221280,1,0,0:0:0:0:
256,192,221473,1,0,0:0:0:0:
329,192,221473,1,0,0:0:0:0:
475,192,221473,1,0,0:0:0:0:
402,192,221667,1,0,0:0:0:0:
109,192,221667,1,0,0:0:0:0:
182,192,221860,128,0,222054:0:0:0:0:
36,192,221860,1,0,0:0:0:0:
475,192,221860,1,0,0:0:0:0:
329,192,222054,128,0,222248:0:0:0:0:
256,192,222054,1,0,0:0:0:0:
109,192,222248,128,0,222441:0:0:0:0:
475,192,222248,1,0,0:0:0:0:
402,192,222248,1,0,0:0:0:0:
402,192,222441,128,0,222635:0:0:0:0:
182,192,222441,1,0,0:0:0:0:
256,192,222635,128,0,223022:0:0:0:0:
36,192,222635,1,0,0:0:0:0:
109,192,222635,1,0,0:0:0:0:
329,192,222828,1,0,0:0:0:0:
402,192,222828,1,0,0:0:0:0:
182,192,223022,1,0,0:0:0:0:
109,192,223022,1,0,0:0:0:0:
109,192,223215,1,0,0:0:0:0:
36,192,223215,1,0,0:0:0:0:
475,192,223312,1,0,0:0:0:0:
402,192,223312,1,0,0:0:0:0:
329,192,223409,1,0,0:0:0:0:
182,192,223409,1,0,0:0:0:0:
256,192,223506,1,0,0:0:0:0:
109,192,223602,1,0,0:0:0:0:
36,192,223602,1,0,0:0:0:0:
402,192,223699,1,0,0:0:0:0:
475,192,223699,1,0,0:0:0:0:
182,192,223796,1,0,0:0:0:0:
109,192,223796,1,0,0:0:0:0:
402,192,223893,1,0,0:0:0:0:
329,192,223893,1,0,0:0:0:0:
109,192,223989,1,0,0:0:0:0:
36,192,223989,1,0,0:0:0:0:
475,192,224086,1,0,0:0:0:0:
402,192,224086,1,0,0:0:0:0:
182,192,224183,1,0,0:0:0:0:
109,192,224183,1,0,0:0:0:0:
402,192,224280,1,0,0:0:0:0:
329,192,224280,1,0,0:0:0:0:
109,192,224377,1,0,0:0:0:0:
36,192,224377,1,0,0:0:0:0:
256,192,224377,1,0,0:0:0:0:
475,192,224377,1,0,0:0:0:0:
329,192,224764,1,0,0:0:0:0:
256,192,224764,1,0,0:0:0:0:
182,192,224764,1,0,0:0:0:0:
109,192,224764,1,0,0:0:0:0:
402,192,224764,1,0,0:0:0:0:
182,192,224957,128,0,225151:0:0:0:0:
256,192,224957,128,0,225248:0:0:0:0:
329,192,224957,128,0,225151:0:0:0:0:
109,192,224957,128,0,225054:0:0:0:0:
402,192,224957,128,0,225054:0:0:0:0:
256,192,227280,128,0,227667:0:0:0:0:
182,192,227377,128,0,227667:0:0:0:0:
329,192,227377,128,0,227667:0:0:0:0:
109,192,227473,128,0,227667:0:0:0:0:
402,192,227473,128,0,227667:0:0:0:0:
36,192,227667,128,0,228828:0:0:0:0:
475,192,227667,1,0,0:0:0:0:
256,192,228054,1,0,0:0:0:0:
109,192,228054,1,0,0:0:0:0:
475,192,228248,128,0,229215:0:0:0:0:
182,192,228248,1,0,0:0:0:0:
329,192,228441,1,0,0:0:0:0:
402,192,228441,1,0,0:0:0:0:
109,192,228828,128,0,229796:0:0:0:0:
329,192,228828,1,0,0:0:0:0:
256,192,228828,1,0,0:0:0:0:
402,192,229215,128,0,230183:0:0:0:0:
182,192,229215,1,0,0:0:0:0:
256,192,229215,1,0,0:0:0:0:
329,192,229602,1,0,0:0:0:0:
256,192,229602,1,0,0:0:0:0:
36,192,229602,1,0,0:0:0:0:
182,192,229796,128,0,230377:0:0:0:0:
475,192,229796,1,0,0:0:0:0:
329,192,229796,1,0,0:0:0:0:
109,192,229989,1,0,0:0:0:0:
36,192,229989,1,0,0:0:0:0:
475,192,230183,128,0,230764:0:0:0:0:
256,192,230183,1,0,0:0:0:0:
329,192,230183,1,0,0:0:0:0:
36,192,230377,128,0,230764:0:0:0:0:
109,192,230377,1,0,0:0:0:0:
402,192,230377,1,0,0:0:0:0:
109,192,230764,128,0,232119:0:0:0:0:
182,192,230764,128,0,232183:0:0:0:0:
329,192,230764,128,0,232248:0:0:0:0:
402,192,230764,128,0,232312:0:0:0:0:
256,192,230764,128,0,232796:0:0:0:0:
109,192,232183,128,0,235409:0:0:0:0:
182,192,232248,128,0,235409:0:0:0:0:
329,192,232312,128,0,235409:0:0:0:0:
402,192,232377,128,0,235409:0:0:0:0:
256,192,232893,128,0,235409:0:0:0:0:
