osu file format v14

[General]
AudioFilename: audio.mp3
AudioLeadIn: 0
PreviewTime: 184474
Countdown: 0
SampleSet: Soft
StackLeniency: 0.7
Mode: 0
LetterboxInBreaks: 0
WidescreenStoryboard: 1

[Editor]
Bookmarks: 45792,194223
DistanceSpacing: 1.1
BeatDivisor: 8
GridSize: 4
TimelineZoom: 2.2

[Metadata]
Title:Koiseyo Otome!
TitleUnicode:恋せよ乙女!
Artist:Yonekura Chihiro
ArtistUnicode:米倉千尋
Creator:Kencho
Version:yf's Expert
Source:サノバウィッチ
Tags:Smug Nanachi sodarose -Eriri- Mimari SnowNiNo_ Narcissu Lavender yf_bmp Skystar Amamiya Yuko sabbat of the witch yuzu soft visual novel eroge hentai opening sanoba japanese video game
BeatmapID:1086592
BeatmapSetID:498438

[Difficulty]
HPDrainRate:6.6
CircleSize:4
OverallDifficulty:8
ApproachRate:9.2
SliderMultiplier:1.8
SliderTickRate:1

[Events]
//Background and Video events
0,0,"BG5.jpg",0,0
//Break Periods
2,163810,183737
//Storyboard Layer 0 (Background)
//Storyboard Layer 1 (Fail)
//Storyboard Layer 2 (Pass)
//Storyboard Layer 3 (Foreground)
//Storyboard Layer 4 (Overlay)
//Storyboard Sound Samples

[TimingPoints]
1113,260.869565217391,4,2,88,60,1,0
1895,-100,4,2,88,70,0,0
1960,-100,4,2,88,5,0,0
2026,-100,4,2,88,70,0,0
2091,-100,4,2,88,5,0,0
2156,272.727272727273,4,2,88,60,1,0
2156,-133.333333333333,4,2,88,60,0,0
10406,-133.333333333333,4,2,88,80,0,0
10610,-100,4,2,88,50,0,0
10883,-100,4,2,88,80,0,0
12724,-100,4,2,88,50,0,0
12792,-100,4,2,88,80,0,0
14906,-100,4,2,88,50,0,0
14974,-100,4,2,88,80,0,0
17087,-100,4,2,88,50,0,0
17156,-100,4,2,88,80,0,0
17633,-100,4,2,88,5,0,0
17701,-100,4,2,88,80,0,0
18383,-200,4,2,88,80,0,0
19201,-133.333333333333,4,2,88,80,0,0
19269,-133.333333333333,4,2,88,40,0,0
19337,-133.333333333333,4,2,88,80,0,0
19406,-133.333333333333,4,2,88,40,0,0
19474,-133.333333333333,4,2,88,80,0,0
19542,-133.333333333333,4,2,88,40,0,0
19610,-200,4,2,88,80,0,0
20292,-200,4,2,88,5,0,0
20565,-200,4,2,88,80,0,0
20701,-133.333333333333,4,2,88,80,0,0
20974,-113.636363636364,4,2,88,80,0,0
21246,-100,4,2,88,80,0,0
21792,-133.333333333333,4,2,88,80,0,0
25337,-90.9090909090909,4,2,88,80,0,0
26292,-133.333333333333,4,2,88,80,0,0
30246,-83.3333333333333,4,2,88,80,0,0
30451,-83.3333333333333,4,2,88,10,0,0
30519,-113.636363636364,4,2,88,80,0,0
33928,-83.3333333333333,4,2,88,80,0,0
34883,-100,4,2,88,80,0,0
37065,-83.3333333333333,4,2,88,80,0,0
38974,-100,4,2,88,80,0,0
39178,-66.6666666666667,4,2,88,5,0,0
39246,-133.333333333333,4,2,88,80,0,0
39792,-200,4,2,88,80,0,0
44156,-100,4,2,88,80,0,0
44565,-133.333333333333,4,2,88,80,0,0
45519,-133.333333333333,4,2,88,80,0,0
45792,-100,4,2,88,80,0,0
47974,-133.333333333333,4,2,88,80,0,0
52337,-100,4,2,88,80,0,0
54519,-100,4,2,88,80,0,0
55610,-133.333333333333,4,2,88,80,0,0
56087,-133.333333333333,4,2,88,10,0,0
56156,-133.333333333333,4,2,88,80,0,0
56428,-113.636363636364,4,2,88,80,0,0
56565,-113.636363636364,4,2,88,20,0,0
56701,-100,4,2,88,80,0,1
59701,-83.3333333333333,4,2,88,80,0,1
59974,-100,4,2,88,80,0,1
64746,-83.3333333333333,4,2,88,80,0,1
65360,-83.3333333333333,4,2,88,80,0,0
65428,-100,4,2,88,80,0,1
68428,-83.3333333333333,4,2,88,80,0,1
68701,-100,4,2,88,80,0,1
73065,-83.3333333333333,4,2,88,80,0,1
74156,-166.666666666667,4,2,88,80,0,0
74701,-133.333333333333,4,2,88,80,0,0
78519,-83.3333333333333,4,2,88,80,0,1
78792,-66.6666666666667,4,2,88,80,0,1
79065,-50,4,2,88,80,0,1
79610,-200,4,2,88,80,0,0
80428,-83.3333333333333,4,2,88,80,0,0
80633,-83.3333333333333,4,2,88,5,0,0
80701,-90.9090909090909,4,2,88,80,0,1
82133,-90.9090909090909,4,2,88,50,0,1
82337,-66.6666666666667,4,2,88,80,0,1
82883,-100,4,2,88,80,0,0
83565,-111.111111111111,4,2,88,80,0,0
83837,-133.333333333333,4,2,88,80,0,0
84246,-66.6666666666667,4,2,88,80,0,0
84451,-66.6666666666667,4,2,88,5,0,0
84519,-66.6666666666667,4,2,88,80,0,0
84656,-100,4,2,88,80,0,0
84996,-100,4,2,88,5,0,0
85065,-100,4,2,88,80,0,0
85746,-111.111111111111,4,2,88,80,0,0
86019,-133.333333333333,4,2,88,80,0,0
86428,-66.6666666666667,4,2,88,80,0,0
86633,-66.6666666666667,4,2,88,5,0,0
86701,-100,4,2,88,80,0,0
86974,-66.6666666666667,4,2,88,80,0,0
87246,-100,4,2,88,80,0,0
87656,-76.9230769230769,4,2,88,80,0,0
87860,-76.9230769230769,4,2,88,5,0,0
87928,-100,4,2,88,80,0,0
88201,-149.253731343284,4,2,88,80,0,0
88406,-149.253731343284,4,2,88,5,0,0
88474,-149.253731343284,4,2,88,80,0,0
88610,-66.6666666666667,4,2,88,80,0,0
88815,-66.6666666666667,4,2,88,5,0,0
88883,-66.6666666666667,4,2,88,80,0,0
89019,-100,4,2,88,80,0,0
89428,-76.9230769230769,4,2,88,80,0,0
89701,-100,4,2,88,80,0,0
90383,-133.333333333333,4,2,88,80,0,0
91201,-66.6666666666667,4,2,88,80,0,0
91337,-100,4,2,88,80,0,0
91474,-133.333333333333,4,2,88,80,0,0
91610,-250,4,2,88,80,0,0
92701,-133.333333333333,4,2,88,80,0,0
92974,-113.636363636364,4,2,88,80,0,0
93246,-100,4,2,88,80,0,0
93792,-200,4,2,88,80,0,0
94201,-66.6666666666667,4,2,88,80,0,0
94610,-200,4,2,88,80,0,0
95019,-133.333333333333,4,2,88,80,0,0
95974,-100,4,2,88,80,0,0
96383,-200,4,2,88,80,0,0
96928,-66.6666666666667,4,2,88,80,0,0
97065,-66.6666666666667,4,2,88,5,0,0
97337,-100,4,2,88,80,0,0
98156,-133.333333333333,4,2,88,80,0,0
102246,-83.3333333333333,4,2,88,80,0,0
102519,-113.636363636364,4,2,88,80,0,0
105656,-76.9230769230769,4,2,88,80,0,0
106610,-113.636363636364,4,2,88,80,0,0
106883,-100,4,2,88,80,0,0
109065,-83.3333333333333,4,2,88,80,0,0
111178,-83.3333333333333,4,2,88,5,0,0
111246,-133.333333333333,4,2,88,80,0,0
111928,-200,4,2,88,80,0,0
115542,-200,4,2,88,5,0,0
115610,-200,4,2,88,80,0,0
116156,-100,4,2,88,80,0,0
116565,-83.3333333333333,4,2,88,80,0,0
117519,-100,4,2,88,80,0,0
117792,-100,4,2,88,80,0,0
119974,-133.333333333333,4,2,88,80,0,0
122701,-116.279069767442,4,2,88,80,0,0
123246,-100,4,2,88,80,0,0
123792,-83.3333333333333,4,2,88,80,0,0
124337,-133.333333333333,4,2,88,80,0,0
124746,-116.279069767442,4,2,88,80,0,0
125156,-100,4,2,88,80,0,0
125565,-83.3333333333333,4,2,88,80,0,0
125974,-100,4,2,88,80,0,0
126519,-83.3333333333333,4,2,88,80,0,0
126928,-76.9230769230769,4,2,88,80,0,0
127337,-71.4285714285714,4,2,88,80,0,0
127610,-66.6666666666667,4,2,88,80,0,0
127678,-66.6666666666667,4,2,88,5,0,0
127746,-133.333333333333,4,2,88,80,0,0
128087,-133.333333333333,4,2,88,5,0,0
128156,-133.333333333333,4,2,88,80,0,0
128428,-113.636363636364,4,2,88,80,0,0
128565,-113.636363636364,4,2,88,20,0,0
128701,-100,4,2,88,80,0,1
131701,-83.3333333333333,4,2,88,80,0,1
131974,-100,4,2,88,80,0,1
136746,-83.3333333333333,4,2,88,80,0,1
137156,-100,4,2,88,80,0,1
137360,-100,4,2,88,80,0,0
137428,-100,4,2,88,80,0,1
140428,-83.3333333333333,4,2,88,80,0,1
140701,-100,4,2,88,80,0,1
146156,-133.333333333333,4,2,88,80,0,0
150519,-83.3333333333333,4,2,88,80,0,1
150792,-66.6666666666667,4,2,88,80,0,1
151065,-50,4,2,88,80,0,1
151610,-200,4,2,88,80,0,0
152428,-83.3333333333333,4,2,88,80,0,0
152701,-90.9090909090909,4,2,88,80,0,1
154337,-66.6666666666667,4,2,88,80,0,1
154883,-133.333333333333,4,2,88,70,0,0
161428,-100,4,2,88,80,0,0
161974,-133.333333333333,4,2,88,80,0,0
163337,-66.6666666666667,4,2,88,60,0,0
163542,-66.6666666666667,4,2,88,5,0,0
163610,-100,4,2,88,80,0,0
184474,-133.333333333333,4,2,88,80,0,0
184815,-133.333333333333,4,2,88,5,0,0
184883,-133.333333333333,4,2,88,80,0,0
185156,-113.636363636364,4,2,88,80,0,0
185428,-200,4,2,88,80,0,0
188701,-133.333333333333,4,2,88,80,0,0
193065,-90.9090909090909,4,2,88,80,0,0
194156,-90.9090909090909,4,2,88,80,0,1
194701,-83.3333333333333,4,2,88,80,0,1
195110,-76.9230769230769,4,2,88,80,0,1
195383,-90.9090909090909,4,2,88,80,0,1
195792,-83.3333333333333,4,2,88,80,0,1
196065,-76.9230769230769,4,2,88,80,0,1
198519,-100,4,2,88,80,0,1
202883,-133.333333333333,4,2,88,80,0,0
207246,-100,4,2,88,80,0,1
208337,-83.3333333333333,4,2,88,80,0,0
208542,-83.3333333333333,4,2,88,5,0,0
208610,-83.3333333333333,4,2,88,80,0,0
208815,-83.3333333333333,4,2,88,5,0,0
208883,-83.3333333333333,4,2,88,80,0,0
209428,-100,4,2,88,80,0,1
211065,-66.6666666666667,4,2,88,80,0,1
211610,-100,4,2,88,80,0,0
219110,-200,4,2,88,80,0,0
219724,-200,4,2,88,5,0,0
219792,-100,4,2,88,60,0,0
220337,-100,4,2,88,80,0,0
227837,-200,4,2,88,80,0,0
228519,-133.333333333333,4,2,88,80,0,0
230428,-113.636363636364,4,2,88,80,0,0
230701,-100,4,2,88,80,0,0
231246,-133.333333333333,4,2,88,80,0,0
231519,-113.636363636364,4,2,88,80,0,0
231791,-100,4,2,88,80,0,0
237110,-133.333333333333,4,2,88,80,0,0
238065,-133.333333333333,4,2,88,5,0,0

[Colours]
Combo1 : 255,240,128
Combo2 : 224,224,224
Combo3 : 255,128,112
Combo4 : 208,192,200
Combo5 : 80,80,96

[HitObjects]
192,0,1113,5,4,0:1:0:0:
76,172,1243,1,0,1:0:0:0:
76,172,1308,1,0,1:0:0:0:
76,172,1373,1,0,1:0:0:0:
332,148,1504,1,0,1:0:0:0:
200,80,1634,5,0,1:0:0:0:
212,240,1765,1,0,3:0:0:0:
252,156,1895,6,0,L|208:160,1,45,0|0,3:0|0:0,0:0:0:0:
162,164,2026,2,0,L|206:160,1,45,0|0,3:0|0:0,0:0:0:0:
216,320,2156,5,4,3:1:0:0:
292,256,2292,1,2,0:1:0:0:
392,272,2428,1,2,0:0:0:0:
412,136,2565,6,0,P|412:68|420:48,1,67.5000025749208,2|8,0:1|1:0,0:0:0:0:
396,364,2837,2,0,P|331:342|309:344,1,67.5000025749208,2|0,0:1|3:0,0:0:0:0:
495,250,3110,2,0,P|431:273|365:266,1,135.000005149842,2|8,0:1|1:0,0:0:0:0:
412,69,3519,1,2,0:1:0:0:
333,343,3792,1,8,1:0:0:0:
52,336,4065,2,0,P|52:300|44:240,1,67.5000025749208,2|0,3:1|3:1,0:0:0:0:
94,88,4337,5,0,3:2:0:0:
158,164,4474,1,2,0:1:0:0:
142,264,4610,1,2,0:2:0:0:
278,284,4746,6,0,P|346:284|366:292,1,67.5000025749208,2|8,0:1|1:0,0:0:0:0:
50,268,5019,2,0,P|72:203|70:181,1,67.5000025749208,2|0,0:1|3:0,0:0:0:0:
163,366,5292,2,0,P|140:302|147:236,1,135.000005149842,2|8,0:0|1:0,0:0:0:0:
94,88,5701,6,0,B|162:104|162:60|226:78,2,135.000005149842,2|2|8,0:1|1:1|1:3,0:0:0:0:
300,116,6383,1,4,0:3:0:0:
216,276,6519,5,4,3:2:0:0:
292,212,6656,1,2,0:1:0:0:
392,228,6792,1,2,0:2:0:0:
412,92,6928,6,0,P|412:24|420:4,1,67.5000025749208,2|8,0:1|1:0,0:0:0:0:
396,320,7201,2,0,P|331:298|309:300,1,67.5000025749208,2|0,0:1|3:0,0:0:0:0:
495,206,7474,2,0,P|431:229|365:222,1,135.000005149842,2|8,3:2|1:0,0:0:0:0:
308,51,7883,6,0,P|296:79|300:115,1,67.5000025749208,2|0,0:1|0:0,0:0:0:0:
396,320,8156,1,8,1:0:0:0:
4,264,8428,2,0,L|76:268,1,67.5000025749208,0|0,3:0|3:0,0:0:0:0:
252,316,8701,6,0,P|244:276|244:168,2,135.000005149842,2|2|10,0:1|0:2|1:1,0:0:0:0:
4,332,9519,1,2,3:2:0:0:
4,332,9656,2,0,L|4:244,1,67.5000025749208,2|0,0:1|3:0,0:0:0:0:
84,102,9928,2,0,L|32:94,2,33.7500012874604,0|0|8,3:0|3:0|1:0,0:0:0:0:
152,246,10201,1,0,3:0:0:0:
120,246,10269,1,0,3:0:0:0:
96,222,10337,2,0,P|92:200|100:178,3,33.7500012874604,8|0|0|0,3:1|3:0|3:0|3:0,0:0:0:0:
164,136,10610,5,0,1:0:0:0:
211,143,10678,1,0,1:0:0:0:
241,184,10746,2,0,P|241:210|219:240,1,45,0|0,1:0|1:0,1:0:0:0:
96,328,10883,5,4,3:1:0:0:
24,272,11019,1,2,1:0:0:0:
96,136,11156,2,0,P|107:169|96:224,1,90,2|2,3:3|1:0,0:0:0:0:
20,180,11428,1,2,3:3:0:0:
20,8,11565,2,0,P|8:41|20:96,1,90,2|2,1:0|3:3,0:0:0:0:
185,132,11837,6,0,L|95:135,1,90,2|2,1:0|3:0,0:0:0:0:
96,222,12110,1,0,1:0:0:0:
272,124,12246,2,0,L|182:120,1,90,2|0,3:3|1:0,0:0:0:0:
180,32,12519,1,2,3:0:0:0:
344,72,12656,1,0,1:0:0:0:
344,72,12724,1,0,1:0:0:0:
344,72,12792,2,0,P|361:112|354:156,1,90,2|0,3:1|1:0,0:0:0:0:
351,291,13065,5,2,3:0:0:0:
295,363,13201,1,2,1:1:0:0:
159,291,13337,2,0,P|192:280|247:291,1,90,2|2,3:0|1:1,0:0:0:0:
203,367,13610,1,2,3:0:0:0:
31,367,13746,2,0,P|64:379|119:367,1,90,0|2,1:0|3:0,0:0:0:0:
155,202,14019,6,0,L|158:291,1,90,2|2,1:0|3:0,0:0:0:0:
245,291,14292,1,0,1:0:0:0:
147,115,14428,2,0,L|143:204,1,90,2|0,3:0|1:0,0:0:0:0:
55,207,14701,1,2,3:0:0:0:
95,43,14837,1,0,1:0:0:0:
95,43,14906,1,0,1:0:0:0:
95,43,14974,2,0,P|135:25|179:32,1,90,0|0,3:0|1:0,0:0:0:0:
60,120,15246,5,2,3:0:0:0:
228,180,15383,2,0,P|244:152|240:96,1,90,2|2,1:1|3:3,0:0:0:0:
55,207,15656,2,0,L|74:294,1,90,2|2,1:1|3:0,0:0:0:0:
179,32,15928,2,0,P|135:24|95:43,1,90,2|2,1:1|3:0,0:0:0:0:
160,256,16201,6,0,L|247:275,1,90,2|2,1:1|3:0,0:0:0:0:
228,180,16474,1,0,1:0:0:0:
404,188,16610,2,0,L|316:207,1,90,2|0,3:0|1:0,0:0:0:0:
336,112,16883,1,2,3:0:0:0:
472,244,17019,1,0,1:0:0:0:
472,244,17087,1,0,1:0:0:0:
472,244,17156,2,0,P|492:196|484:156,1,90,2|0,3:1|1:0,0:0:0:0:
472,16,17428,6,2,P|456:68|484:160,1,135,2|0,3:0|0:0,0:1:0:0:
485,159,17701,2,0,L|396:172,1,90,2|0,3:0|1:0,0:0:0:0:
331,25,17974,2,0,P|343:67|331:121,1,90,2|0,3:0|1:0,0:0:0:0:
256,72,18246,1,0,3:0:0:0:
45,59,18383,6,2,B|149:3|153:127|257:71,1,225,4|0,1:2|1:0,0:1:0:0:
212,176,19201,6,0,L|196:220,1,33.7500012874604,0|0,3:0|3:0,0:0:0:0:
152,300,19337,2,0,L|136:256,1,33.7500012874604,8|0,3:0|3:0,0:0:0:0:
128,152,19474,2,0,L|112:196,1,33.7500012874604,4|4,3:3|3:3,0:0:0:0:
100,368,19610,6,0,B|204:424|208:300|312:356,1,225,4|0,1:0|0:0,0:1:0:0:
100,368,20565,1,0,3:0:0:0:
32,311,20701,6,0,P|24:279|22:245,1,67.5000025749208,4|0,1:0|0:0,0:0:0:0:
110,105,20974,6,0,P|117:143|116:183,1,79.2000024169922,0|0,1:0|0:0,0:0:0:0:
232,352,21246,6,0,P|222:308|222:263,1,90,0|8,1:0|2:3,0:0:0:0:
256,20,21519,5,4,1:3:0:0:
480,360,21792,5,4,3:1:0:0:
364,224,21928,2,0,P|363:188|376:140,1,67.5000025749208,2|0,0:2|1:0,0:0:0:0:
281,235,22201,2,0,P|275:200|254:154,1,67.5000025749208,2|0,0:2|3:0,0:0:0:0:
444,200,22474,2,0,L|520:184,1,67.5000025749208,2|0,3:2|1:3,0:0:0:0:
200,228,22746,1,2,0:2:0:0:
304,80,22883,5,0,3:0:0:0:
364,224,23019,2,0,L|416:164,1,67.5000025749208,2|0,0:2|1:0,0:0:0:0:
281,235,23292,2,0,L|224:192,1,67.5000025749208,2|0,0:2|3:0,0:0:0:0:
424,280,23565,2,0,L|480:328,1,67.5000025749208,2|0,3:2|1:0,0:0:0:0:
240,304,23837,1,2,0:2:0:0:
304,80,23974,5,0,3:0:0:0:
364,224,24110,2,0,L|440:225,1,67.5000025749208,2|0,0:2|1:0,0:0:0:0:
281,235,24383,2,0,L|216:252,1,67.5000025749208,2|0,0:2|3:0,0:0:0:0:
340,368,24656,2,0,L|328:276,1,67.5000025749208,2|0,3:2|1:0,0:0:0:0:
312,160,24928,1,2,0:2:0:0:
296,0,25065,5,0,3:0:0:0:
304,12,25337,6,0,L|188:20,1,99.0000030212403,2|0,1:0|0:0,0:0:0:0:
44,28,25610,1,0,3:0:0:0:
184,96,25746,2,0,P|213:135|218:183,1,99.0000030212403,2|0,0:1|1:0,0:0:0:0:
156,332,26019,1,2,0:1:0:0:
0,312,26156,5,0,3:0:0:0:
72,176,26292,2,0,P|105:173|138:164,1,67.5000025749208,2|0,0:2|1:0,0:0:0:0:
269,226,26565,2,0,P|239:206|205:167,1,67.5000025749208,2|0,0:2|3:0,0:0:0:0:
32,76,26837,2,0,L|104:92,1,67.5000025749208,2|0,3:2|1:0,0:0:0:0:
355,150,27110,1,2,0:2:0:0:
204,80,27246,5,0,3:0:0:0:
94,215,27383,2,0,L|141:160,1,67.5000025749208,2|0,0:2|1:0,0:0:0:0:
234,248,27656,2,0,L|214:175,1,67.5000025749208,2|0,0:2|3:0,0:0:0:0:
220,15,27928,2,0,L|200:97,1,67.5000025749208,2|0,3:2|1:0,0:0:0:0:
152,278,28201,1,0,1:0:0:0:
16,296,28337,6,0,P|76:320|64:224,1,202.500007724762,4|0,3:1|3:0,0:0:0:0:
229,272,28883,2,0,P|195:349|280:344,1,202.500007724762,0|0,1:0|3:0,0:0:0:0:
312,244,29428,5,0,3:0:0:0:
252,188,29565,1,0,1:0:0:0:
244,164,29633,1,0,1:0:0:0:
248,140,29701,1,0,3:0:0:0:
300,76,29837,1,0,3:0:0:0:
276,0,29974,1,0,1:0:0:0:
220,60,30110,1,0,3:0:0:0:
464,72,30246,6,0,B|384:37|388:121|312:90,1,161.999995056153,8|0,3:3|0:0,0:0:0:0:
300,76,30519,5,4,3:2:0:0:
316,212,30656,1,2,0:0:0:0:
436,148,30792,2,0,P|440:192|419:225,1,79.2000024169922,2|2,1:3|0:0,0:0:0:0:
504,332,31065,1,2,3:0:0:0:
423,221,31201,1,2,3:2:0:0:
376,376,31337,2,0,P|357:341|363:302,1,79.2000024169922,2|2,1:3|0:0,0:0:0:0:
436,148,31610,5,2,3:3:0:0:
300,164,31746,1,2,0:0:0:0:
364,284,31883,2,0,P|320:288|287:267,1,79.2000024169922,2|2,1:3|3:2,0:0:0:0:
180,352,32156,1,2,3:3:0:0:
136,224,32292,1,2,3:2:0:0:
136,224,32360,1,2,0:0:0:0:
136,224,32428,2,0,P|170:205|209:211,1,79.2000024169922,2|0,1:3|0:0,0:0:0:0:
60,336,32701,5,2,3:3:0:0:
136,224,32837,1,2,0:0:0:0:
32,136,32974,2,0,P|13:116|1:66,1,79.2000024169922,2|2,1:3|0:0,0:0:0:0:
136,52,33246,5,2,3:3:0:0:
32,136,33383,1,2,3:2:0:0:
136,224,33519,2,0,L|140:308,1,79.2000024169922,2|2,1:3|0:0,0:0:0:0:
40,236,33792,5,2,3:3:0:0:
224,144,33928,2,0,L|111:139,1,107.999996704102,2|2,0:1|1:3,0:0:0:0:
136,52,34201,1,0,3:2:0:0:
312,181,34337,2,2,P|313:75|390:4,2,215.999993408203,2|2|6,0:1|1:3|3:1,0:1:0:0:
487,354,35156,5,2,1:3:0:0:
496,184,35428,2,2,P|431:198|401:99,1,180,2|2,3:3|1:3,0:1:0:0:
479,104,35837,1,0,3:0:0:0:
445,283,35974,2,2,P|362:252|312:180,1,180,2|2,3:0|1:3,0:1:0:0:
479,104,36383,1,0,0:0:0:0:
487,354,36519,2,2,B|399:380|394:325|310:347,1,180,2|2,3:3|1:3,0:1:0:0:
204,384,36928,1,0,3:0:0:0:
84,288,37065,6,0,L|88:356,1,53.9999983520508,4|0,3:1|3:0,0:0:0:0:
78,189,37201,1,0,3:0:0:0:
78,189,37269,1,0,3:0:0:0:
78,189,37337,1,0,3:0:0:0:
172,308,37474,6,0,L|240:304,1,53.9999983520508,8|0,1:1|3:0,0:0:0:0:
0,320,37610,1,0,3:0:0:0:
0,320,37678,1,0,3:0:0:0:
0,320,37746,1,0,3:0:0:0:
159,194,37883,2,0,P|156:168|144:144,1,53.9999983520508,8|0,1:3|3:3,0:0:0:0:
10,148,38019,2,0,P|0:173|0:200,1,53.9999983520508,0|0,3:3|3:3,0:0:0:0:
87,341,38156,5,2,1:0:0:0:
80,200,38292,1,0,1:0:0:0:
72,60,38428,5,2,1:1:0:0:
78,156,38565,1,8,3:3:0:0:
84,252,38701,1,2,1:0:0:0:
88,348,38837,1,8,3:3:0:0:
80,268,38974,6,0,L|96:172,1,90,4|0,1:2|3:0,0:0:0:0:
124,0,39246,5,4,0:1:0:0:
484,76,39792,1,2,1:1:0:0:
324,120,39928,6,0,P|347:126|380:128,1,45,0|0,3:0|0:0,0:0:0:0:
484,76,40201,1,0,3:0:0:0:
220,368,40474,5,2,1:0:0:0:
192,192,40746,1,0,3:0:0:0:
131,360,40883,5,0,1:0:0:0:
220,368,41019,2,0,P|232:346|228:312,1,45,2|0,0:1|3:0,0:0:0:0:
44,4,41428,5,0,3:0:0:0:
48,20,41837,1,0,3:0:0:0:
48,20,41974,2,2,L|150:9,2,90,2|0|2,1:1|3:0|3:1,0:1:0:0:
4,96,42656,1,0,1:0:0:0:
80,144,42792,2,0,L|92:84,1,45,2|0,0:1|3:0,0:0:0:0:
48,304,43065,5,2,1:0:0:0:
64,224,43337,1,0,3:0:0:0:
257,366,43610,6,0,P|321:384|380:354,1,135,4|0,3:1|3:0,0:0:0:0:
408,360,44087,1,0,3:0:0:0:
408,360,44156,6,0,P|394:312|392:268,1,90,4|0,0:2|0:0,0:0:0:0:
420,184,44428,1,0,3:0:0:0:
424,32,44565,6,0,P|421:76|440:108,1,67.5000025749208,2|0,1:1|0:0,0:1:0:0:
512,196,44837,1,0,1:0:0:0:
391,272,44974,5,2,0:0:0:0:
332,200,45110,1,0,3:0:0:0:
256,308,45246,1,2,1:2:0:0:
167,300,45383,1,0,3:0:0:0:
167,300,45451,1,0,3:0:0:0:
167,300,45519,2,0,P|172:334|188:364,1,67.5000025749208,2|0,1:2|1:0,0:0:0:0:
215,226,45792,6,0,P|245:143|208:64,1,180,4|2,3:1|1:3,0:0:0:0:
128,220,46201,1,0,0:0:0:0:
256,308,46337,2,0,L|348:296,1,90,2|0,3:0|3:0,0:0:0:0:
216,226,46610,1,2,1:3:0:0:
76,296,46746,2,0,P|44:260|44:200,1,90,2|2,0:0|3:3,0:0:0:0:
80,52,47019,5,0,3:0:0:0:
80,52,47087,1,0,3:0:0:0:
80,52,47156,2,0,P|92:108|68:156,1,90,2|0,1:3|0:0,0:0:0:0:
38,219,47428,1,2,3:0:0:0:
180,136,47565,2,0,L|276:132,2,90,0|2|0,3:0|1:3|0:0,0:0:0:0:
76,296,47974,6,2,B|173:256|173:344|270:301,1,202.500007724762,0|0,3:0|0:0,0:1:0:0:
348,348,48519,2,0,P|357:317|356:280,1,67.5000025749208,2|0,1:1|3:0,0:0:0:0:
292,220,48792,1,0,1:0:0:0:
356,282,48928,1,0,3:0:0:0:
444,260,49065,6,2,P|468:192|432:124,2,135.000005149842,2|0|2,3:1|1:0|3:1,0:1:0:0:
376,200,49746,1,0,3:0:0:0:
376,200,49815,1,0,3:0:0:0:
376,200,49883,1,8,3:0:0:0:
40,100,50156,6,0,P|38:132|56:188,1,67.5000025749208,4|0,3:1|0:0,0:0:0:0:
152,300,50428,2,0,P|127:320|71:338,1,67.5000025749208,2|0,1:3|0:0,0:0:0:0:
153,64,50701,2,0,P|135:90|122:148,1,67.5000025749208,6|0,3:3|0:0,0:0:0:0:
80,248,50974,2,0,P|48:253|-9:241,1,67.5000025749208,2|0,1:3|0:0,0:0:0:0:
216,128,51246,6,0,L|304:124,1,67.5000025749208,2|0,1:3|0:0,0:0:0:0:
45,166,51519,2,0,L|24:84,1,67.5000025749208,4|0,1:3|0:0,0:0:0:0:
256,212,51792,2,0,L|344:220,1,67.5000025749208,0|0,1:0|0:0,0:0:0:0:
132,200,52065,2,0,L|128:156,1,33.7500012874604,8|0,3:3|3:0,0:0:0:0:
120,56,52201,1,4,3:3:0:0:
120,56,52269,1,4,3:3:0:0:
120,56,52337,6,2,P|192:112|276:80,1,180,4|0,3:1|3:0,0:1:0:0:
391,327,52746,2,2,P|325:272|242:297,1,180,2|0,1:0|3:0,0:1:0:0:
305,6,53156,2,2,P|291:91|354:151,1,180,2|0,1:1|3:0,0:1:0:0:
206,377,53565,2,2,P|220:292|157:232,1,180,2|0,1:1|3:0,0:1:0:0:
443,140,53974,2,0,L|333:153,1,90,2|0,1:1|3:0,0:0:0:0:
69,244,54246,2,0,L|178:230,1,90,2|0,1:1|3:0,0:0:0:0:
392,56,54519,6,2,P|320:112|236:80,1,180,6|0,1:1|3:0,0:1:0:0:
70,142,54928,2,2,P|154:176|169:265,1,180,2|0,1:1|3:0,0:1:0:0:
304,378,55337,2,0,P|291:336|308:295,1,90,2|0,1:1|3:0,0:0:0:0:
432,212,55610,5,2,1:0:0:0:
308,296,55746,2,0,P|224:312|172:256,1,168.750006437302,2|0,1:0|0:0,0:0:0:0:
148,180,56156,6,0,L|131:110,1,67.5000025749208,0|0,3:0|3:0,0:0:0:0:
300,36,56428,2,0,L|279:116,1,79.2000024169922,8|0,1:0|0:0,0:0:0:0:
308,296,56701,6,0,P|246:253|227:327,1,180,6|8,3:1|1:0,0:0:0:0:
352,366,57110,1,0,0:0:0:0:
360,362,57178,1,0,0:0:0:0:
368,358,57246,2,0,P|392:310|372:235,1,135,2|0,3:2|0:0,0:0:0:0:
357,221,57519,2,0,L|307:296,1,90,8|0,1:0|0:0,0:0:0:0:
480,242,57792,6,0,P|449:159|464:72,1,180,2|8,3:2|1:0,0:0:0:0:
284,0,58201,1,0,3:0:0:0:
292,4,58269,1,0,0:0:0:0:
300,8,58337,2,0,P|312:50|306:95,1,90,2|0,0:2|3:0,0:0:0:0:
228,348,58610,2,0,P|215:305|221:260,1,90,8|0,1:0|0:0,0:0:0:0:
363,172,58883,6,0,P|278:187|216:127,1,180,2|8,3:2|1:0,0:0:0:0:
212,36,59292,1,0,0:0:0:0:
136,84,59428,1,2,3:2:0:0:
0,30,59565,5,0,0:0:0:0:
0,30,59633,1,0,0:0:0:0:
0,30,59701,2,2,B|52:8|86:48|86:48|100:84|140:84,1,161.999995056153,4|0,1:2|0:0,0:1:0:0:
140,104,59974,5,2,3:1:0:0:
64,152,60110,1,0,0:0:0:0:
164,216,60246,1,2,1:1:0:0:
52,236,60383,1,0,3:0:0:0:
92,368,60519,2,0,P|114:345|116:284,1,90,2|0,0:1|3:0,0:0:0:0:
260,356,60792,2,0,L|364:368,1,90,2|0,1:1|0:0,0:0:0:0:
483,239,61065,5,2,3:2:0:0:
479,255,61337,2,0,P|434:264|399:239,1,90,0|0,1:0|0:0,0:0:0:0:
291,131,61610,2,0,P|281:86|307:51,1,90,0|0,3:0|3:0,0:0:0:0:
475,11,61883,2,0,L|385:22,1,90,0|0,1:0|0:0,0:0:0:0:
155,19,62156,5,2,3:2:0:0:
139,23,62428,2,0,P|129:67|155:103,1,90,0|0,1:0|3:0,0:0:0:0:
263,211,62701,2,0,P|307:220|343:195,1,90,0|0,0:0|3:0,0:0:0:0:
175,191,62974,2,0,L|85:198,1,90,0|0,1:0|0:0,0:0:0:0:
108,384,63246,5,2,3:2:0:0:
32,336,63383,1,0,0:0:0:0:
132,272,63519,1,0,1:0:0:0:
20,252,63656,1,0,0:0:0:0:
60,120,63792,2,0,P|82:143|84:204,1,90,0|0,3:0|3:0,0:0:0:0:
238,131,64065,2,0,L|246:39,1,90,0|0,1:0|0:0,0:0:0:0:
31,26,64337,6,2,L|85:198,1,180,4|0,3:1|0:0,0:1:0:0:
246,41,64746,6,2,L|31:26,1,215.999993408203,4|0,3:2|0:0,0:1:0:0:
84,197,65156,5,0,1:0:0:0:
120,184,65224,1,2,0:0:0:0:
156,188,65292,1,2,1:2:0:0:
188,212,65360,1,0,0:0:0:0:
204,248,65428,6,0,P|228:316|272:240,1,180,4|8,3:1|1:0,0:0:0:0:
262,33,65837,1,0,0:0:0:0:
254,37,65906,1,0,0:0:0:0:
246,41,65974,2,0,P|232:92|264:168,1,135,2|0,3:2|0:0,0:0:0:0:
268,148,66246,2,0,L|165:143,1,90,8|0,1:0|0:0,0:0:0:0:
32,142,66519,6,0,P|63:225|48:312,1,180,2|8,3:2|1:0,0:0:0:0:
228,384,66928,1,0,0:0:0:0:
220,380,66996,1,0,0:0:0:0:
212,376,67065,2,0,P|200:334|206:289,1,90,2|0,3:2|3:0,0:0:0:0:
284,36,67337,2,0,P|297:79|291:124,1,90,8|0,1:0|0:0,0:0:0:0:
149,212,67610,6,0,P|234:197|296:257,1,180,2|8,3:2|1:0,0:0:0:0:
300,348,68019,1,0,0:0:0:0:
376,300,68156,1,0,3:0:0:0:
512,354,68292,5,0,0:0:0:0:
512,354,68360,1,0,0:0:0:0:
512,354,68428,2,2,B|460:376|426:336|426:336|412:300|372:300,1,161.999995056153,4|0,3:2|0:0,0:1:0:0:
372,280,68701,5,2,3:1:0:0:
448,232,68837,1,0,0:0:0:0:
348,168,68974,1,2,1:1:0:0:
460,148,69110,1,0,0:0:0:0:
420,16,69246,2,0,P|398:39|396:100,1,90,2|0,3:1|3:0,0:0:0:0:
252,28,69519,2,0,L|148:16,1,90,0|0,1:0|0:0,0:0:0:0:
120,164,69792,6,0,L|133:257,1,90,4|0,3:1|0:0,0:0:0:0:
244,352,70065,2,0,P|254:308|228:272,1,90,2|0,1:3|0:0,0:0:0:0:
120,164,70337,2,0,P|76:155|40:180,1,90,2|0,3:3|3:0,0:0:0:0:
208,188,70610,2,0,L|328:164,1,90,2|0,1:3|0:0,0:0:0:0:
406,279,70883,6,0,L|393:186,1,90,2|0,3:3|0:0,0:0:0:0:
282,91,71156,2,0,P|272:135|298:171,1,90,2|0,1:3|0:0,0:0:0:0:
406,279,71428,2,0,P|450:288|486:263,1,90,2|0,0:3|3:0,0:0:0:0:
318,255,71701,2,0,L|198:279,1,90,2|0,1:3|0:0,0:0:0:0:
31,259,71974,6,0,P|112:283|157:212,1,180,2|2,3:3|1:3,0:0:0:0:
168,16,72383,1,0,0:0:0:0:
157,212,72519,2,0,P|133:190|128:129,1,90,2|0,3:3|3:0,0:0:0:0:
272,90,72792,2,0,P|293:113|293:174,1,90,2|0,1:3|0:0,0:0:0:0:
396,332,73065,6,0,P|315:356|251:245,2,215.999993408203,2|2|2,3:3|1:3|1:3,0:0:0:0:
396,168,73746,1,0,1:0:0:0:
295,169,73883,1,8,1:3:0:0:
247,260,74019,1,4,1:3:0:0:
300,352,74156,6,0,B|375:313|381:377|456:344,1,161.999995056153,4|0,3:1|3:0,0:0:0:0:
412,264,74701,2,0,P|396:212|432:140,1,135.000005149842,0|2,1:0|0:0,0:0:0:0:
484,212,75110,2,0,L|512:276,1,67.5000025749208,0|0,3:2|0:0,0:0:0:0:
456,344,75383,1,0,1:0:0:0:
412,264,75519,2,0,L|336:260,1,67.5000025749208,2|0,0:0|3:0,0:0:0:0:
284,196,75792,2,0,P|320:149|304:80,1,135.000005149842,0|2,1:2|3:2,0:0:0:0:
232,28,76201,1,0,0:0:0:0:
160,76,76337,6,0,P|86:69|152:52,1,202.500007724762,4|0,3:1|3:0,0:0:0:0:
144,192,76883,2,0,P|64:180|20:128,1,135.000005149842,0|2,1:0|0:2,0:0:0:0:
4,60,77292,1,0,3:0:0:0:
4,248,77428,5,8,1:1:0:0:
4,248,77565,1,8,1:1:0:0:
508,136,77974,1,8,1:1:0:0:
432,92,78110,1,0,3:2:0:0:
428,180,78246,1,8,3:3:0:0:
416,212,78315,1,0,3:3:0:0:
388,228,78383,1,0,3:0:0:0:
356,228,78451,1,0,3:0:0:0:
328,212,78519,6,0,P|332:168|352:208,1,107.999996704102,4|0,3:1|0:0,0:0:0:0:
196,280,78792,2,0,P|224:239|221:289,1,135.000005149842,10|0,1:1|0:0,0:0:0:0:
80,160,79065,2,0,P|140:132|103:188,1,180,8|0,1:0|3:0,0:0:0:0:
168,36,79337,1,4,3:3:0:0:
189,9,79406,1,4,3:3:0:0:
221,0,79474,1,0,3:3:0:0:
250,11,79542,1,0,3:3:0:0:
270,37,79610,6,0,P|260:118|178:117,1,180,4|2,3:2|0:0,0:0:0:0:
352,135,80292,1,0,3:0:0:0:
178,117,80428,6,0,L|352:136,1,161.999995056153,0|0,1:0|0:0,0:0:0:0:
400,208,80701,6,0,P|413:245|384:296,1,99.0000030212403,4|0,3:1|0:0,0:0:0:0:
184,344,80974,2,0,P|141:322|128:275,1,99.0000030212403,2|0,1:2|0:0,0:0:0:0:
216,36,81246,1,4,1:1:0:0:
296,364,81519,5,2,0:2:0:0:
236,120,81656,2,0,L|260:220,1,99.0000030212403,4|0,1:1|0:1,0:0:0:0:
296,364,81928,1,2,0:2:0:0:
380,278,82065,2,0,L|321:292,1,49.5000015106202,4|0,1:1|1:0,0:0:0:0:
180,327,82201,2,0,L|239:313,1,49.5000015106202,0|0,1:0|1:0,0:0:0:0:
259,216,82337,6,0,B|239:191|263:186|244:152,4,67.5000025749208,0|0|0|0|0,1:0|1:0|1:0|1:0|1:0,0:0:0:0:
108,264,82746,1,0,3:0:0:0:
108,264,82815,1,0,3:0:0:0:
108,264,82883,5,4,3:1:0:0:
40,204,83019,1,2,1:1:0:0:
20,292,83156,1,0,3:0:0:0:
112,100,83292,6,0,P|123:67|112:12,1,90,2|0,1:1|3:0,0:0:0:0:
180,148,83565,2,0,P|226:131|236:80,1,80.9999975280763,2|0,1:1|3:0,0:0:0:0:
188,232,83837,2,0,P|216:248|263:240,1,67.5000025749208,2|0,1:1|3:0,0:0:0:0:
416,162,84110,1,0,1:0:0:0:
240,264,84246,6,0,P|316:240|289:105,1,202.500007724762,2|0,3:1|0:0,0:0:0:0:
236,28,84519,1,2,3:1:0:0:
108,200,84656,2,0,P|128:216|176:212,1,45,0|0,1:0|1:0,0:0:0:0:
328,116,84792,2,0,P|266:101|235:156,1,135,0|0,3:0|0:0,0:0:0:0:
250,246,85065,5,0,3:0:0:0:
310,314,85201,1,2,1:1:0:0:
222,334,85337,1,0,3:0:0:0:
414,242,85474,6,0,P|447:231|502:242,1,90,2|0,1:1|3:0,0:0:0:0:
366,174,85746,2,0,P|383:128|434:118,1,80.9999975280763,2|0,1:1|3:0,0:0:0:0:
282,166,86019,2,0,P|266:138|274:91,1,67.5000025749208,2|0,1:1|3:0,0:0:0:0:
488,24,86292,1,0,1:0:0:0:
250,114,86428,6,0,P|274:38|409:65,1,202.500007724762,2|0,3:1|0:0,0:0:0:0:
486,118,86701,1,2,3:1:0:0:
314,246,86837,2,0,P|298:226|302:178,1,45,0|0,1:0|1:0,0:0:0:0:
398,26,86974,2,0,P|412:87|357:118,1,135,0|0,3:0|1:0,0:0:0:0:
124,24,87246,5,4,3:1:0:0:
267,103,87383,2,0,P|226:84|182:91,1,90,2|0,1:1|3:0,0:0:0:0:
128,296,87656,6,0,P|196:348|284:296,1,175.499991966248,2|0,1:1|0:0,0:0:0:0:
184,168,87928,2,0,P|143:185|118:222,1,90,2|0,1:1|3:0,0:0:0:0:
300,252,88201,2,0,P|289:208|257:178,1,90.4499957215121,2|0,1:1|0:0,0:0:0:0:
208,256,88474,1,0,1:0:0:0:
336,124,88610,6,0,L|352:344,1,202.500007724762,2|0,3:1|0:0,0:0:0:0:
353,356,88883,1,0,3:0:0:0:
472,156,89019,1,0,1:0:0:0:
472,156,89087,1,0,3:0:0:0:
472,156,89156,2,0,P|492:204|484:244,1,90,0|0,3:0|1:0,0:0:0:0:
208,256,89428,6,0,P|195:190|244:84,1,175.499991966248,4|0,3:1|0:0,0:0:0:0:
152,8,89701,2,0,P|137:49|146:103,1,90,2|0,3:1|1:0,0:0:0:0:
196,264,89974,2,0,P|181:222|190:168,1,90,2|0,3:1|1:0,0:0:0:0:
274,211,90246,1,0,3:0:0:0:
432,223,90383,6,2,B|355:264|352:170|274:212,1,168.750006437302,2|0,1:0|0:0,0:1:0:0:
272,292,90792,1,0,1:0:0:0:
260,312,90860,1,0,1:0:0:0:
260,336,90928,2,0,P|264:360|272:376,1,33.7500012874604,0|0,3:0|3:0,0:0:0:0:
364,344,91065,2,0,P|360:320|352:304,1,33.7500012874604,0|0,3:0|3:0,0:0:0:0:
204,124,91201,6,0,P|208:160|192:204,1,67.5000025749208,10|0,1:1|3:0,0:0:0:0:
64,320,91337,6,0,P|60:304|56:276,1,45,8|0,3:3|3:0,0:0:0:0:
84,76,91474,6,0,L|100:128,1,33.7500012874604,4|0,3:3|3:0,0:0:0:0:
144,320,91610,6,0,B|259:382|264:244|380:306,1,252,4|0,3:1|0:0,0:1:0:0:
448,312,92701,6,0,P|416:320|382:322,1,67.5000025749208,6|0,1:0|0:0,0:0:0:0:
225,220,92974,6,0,P|263:213|303:214,1,79.2000024169922,2|0,1:0|0:0,0:0:0:0:
472,98,93246,6,0,P|428:108|383:108,1,90,2|0,1:1|0:0,0:0:0:0:
208,8,93519,5,2,1:1:0:0:
304,376,93792,6,0,P|260:368|212:368,1,90,4|0,3:1|3:0,0:0:0:0:
52,184,94201,2,0,P|104:323|149:315,1,202.500007724762,4|0,1:2|3:0,0:0:0:0:
145,311,94474,1,0,3:0:0:0:
196,240,94610,2,0,P|200:224|192:180,1,45,8|0,0:3|3:0,0:0:0:0:
188,176,94815,1,0,3:0:0:0:
188,176,94883,5,0,3:0:0:0:
145,311,95019,2,0,P|180:328|264:296,1,135.000005149842,4|0,3:3|3:0,0:0:0:0:
296,296,95360,2,0,P|284:276|284:240,1,33.7500012874604,0|8,3:0|3:3,0:0:0:0:
360,352,95565,1,0,3:0:0:0:
368,244,95701,1,8,3:1:0:0:
376,136,95837,1,0,3:0:0:0:
384,28,95974,6,0,P|332:40|212:0,1,180,4|0,3:1|0:0,0:0:0:0:
84,104,96383,2,0,P|128:96|173:112,1,90,8|0,0:3|0:0,0:0:0:0:
220,196,96792,1,0,1:0:0:0:
56,276,96928,6,2,P|143:300|213:254,1,135.000005149842,4|0,3:1|0:0,0:1:0:0:
188,280,97337,5,10,0:1:0:0:
304,360,97474,1,0,3:0:0:0:
316,360,97542,1,0,3:0:0:0:
328,360,97610,2,0,L|388:364,1,45,0|0,1:0|3:0,3:0:0:0:
476,368,97746,1,2,3:1:0:0:
292,360,97883,1,8,3:0:0:0:
512,72,98156,5,4,3:1:0:0:
440,208,98292,2,0,P|407:211|374:220,1,67.5000025749208,2|0,0:2|1:0,0:0:0:0:
243,158,98565,2,0,P|273:178|307:217,1,67.5000025749208,2|0,0:2|3:0,0:0:0:0:
480,308,98837,2,0,L|408:292,1,67.5000025749208,2|0,3:2|1:0,0:0:0:0:
157,234,99110,1,2,0:2:0:0:
308,304,99246,5,0,3:0:0:0:
418,169,99383,2,0,L|371:224,1,67.5000025749208,2|0,0:2|1:0,0:0:0:0:
278,136,99656,2,0,L|298:209,1,67.5000025749208,2|0,0:2|3:0,0:0:0:0:
292,369,99928,2,0,L|312:287,1,67.5000025749208,2|0,3:2|1:0,0:0:0:0:
360,106,100201,1,0,1:0:0:0:
496,88,100337,6,0,P|436:64|448:160,1,202.500007724762,4|0,3:1|0:0,0:0:0:0:
283,112,100883,2,0,P|317:35|232:40,1,202.500007724762,0|0,1:0|0:0,0:0:0:0:
200,140,101428,5,0,1:0:0:0:
260,196,101565,1,0,3:0:0:0:
268,220,101633,1,0,3:0:0:0:
264,244,101701,1,0,1:0:0:0:
212,308,101837,1,0,3:0:0:0:
236,384,101974,1,0,1:0:0:0:
292,324,102110,1,0,3:0:0:0:
48,312,102246,6,0,B|128:347|124:263|200:294,1,161.999995056153,8|0,1:3|0:0,0:0:0:0:
212,308,102519,5,4,3:1:0:0:
196,172,102656,1,0,0:0:0:0:
76,236,102792,2,0,P|72:192|93:159,1,79.2000024169922,2|0,1:3|0:0,0:0:0:0:
8,52,103065,1,2,3:3:0:0:
89,163,103201,1,0,3:0:0:0:
136,8,103337,2,0,P|155:43|149:82,1,79.2000024169922,2|0,1:3|0:0,0:0:0:0:
76,236,103610,5,2,3:3:0:0:
212,220,103746,1,0,0:0:0:0:
148,100,103883,2,0,P|192:96|225:117,1,79.2000024169922,2|0,1:3|0:0,0:0:0:0:
332,32,104156,1,2,0:3:0:0:
376,160,104292,1,0,3:0:0:0:
376,160,104360,1,0,0:0:0:0:
376,160,104428,2,0,P|342:179|303:173,1,79.2000024169922,2|0,1:3|0:0,0:0:0:0:
452,48,104701,5,2,3:3:0:0:
376,160,104837,1,0,0:0:0:0:
480,248,104974,2,0,P|499:268|511:318,1,79.2000024169922,2|0,1:3|0:0,0:0:0:0:
360,340,105246,5,2,3:3:0:0:
480,248,105383,1,0,3:0:0:0:
372,144,105519,1,2,1:3:0:0:
248,232,105656,6,0,P|176:132|47:147,2,233.999989288331,4|2|0,3:1|0:1|0:0,0:0:0:0:
80,344,106337,2,2,P|164:360|236:308,1,175.499991966248,2|0,3:1|0:0,0:1:0:0:
252,228,106610,5,0,1:0:0:0:
72,136,106746,1,0,1:0:0:0:
80,353,106883,6,2,P|164:369|238:318,1,180,6|2,3:1|1:3,0:1:0:0:
112,120,107292,1,0,0:0:0:0:
96,244,107428,2,0,P|135:298|176:225,1,180,2|2,3:3|1:3,0:0:0:0:
112,120,107837,1,0,0:0:0:0:
80,353,107974,6,2,P|25:284|36:197,1,180,2|2,3:3|1:3,0:1:0:0:
164,368,108383,1,0,0:0:0:0:
236,318,108519,2,2,P|259:233|215:157,1,180,2|2,0:3|1:3,0:1:0:0:
112,120,108928,1,0,0:0:0:0:
304,84,109065,6,0,P|318:65|326:1,1,53.9999983520508,4|0,3:1|3:0,0:0:0:0:
215,157,109201,1,0,3:0:0:0:
215,157,109269,1,0,3:0:0:0:
215,157,109337,1,0,3:0:0:0:
276,256,109474,6,0,P|278:279|253:338,1,53.9999983520508,10|0,1:1|3:0,0:0:0:0:
215,157,109610,1,0,3:0:0:0:
215,157,109678,1,0,3:0:0:0:
215,157,109746,1,0,3:0:0:0:
332,264,109883,6,0,P|305:267|279:260,1,53.9999983520508,8|0,1:3|3:3,0:0:0:0:
308,80,110019,2,0,P|334:83|358:95,1,53.9999983520508,0|0,3:3|3:3,0:0:0:0:
448,352,110156,5,2,1:0:0:0:
455,211,110292,1,0,1:0:0:0:
463,71,110428,5,2,1:1:0:0:
457,167,110565,1,8,3:3:0:0:
451,263,110701,1,2,1:0:0:0:
447,359,110837,1,8,3:3:0:0:
455,279,110974,6,0,B|464:192|424:208|431:120,1,161.999995056153,4|0,1:2|2:0,0:0:0:0:
428,0,111246,5,4,0:1:0:0:
512,144,111519,1,2,0:0:0:0:
336,184,111656,1,0,0:0:0:0:
364,340,111792,1,2,1:1:0:0:
372,256,111928,6,0,P|349:262|316:264,1,45,0|0,3:0|0:0,0:0:0:0:
212,212,112201,1,0,3:0:0:0:
476,376,112474,6,0,P|488:354|484:320,1,45,2|0,1:1|3:0,0:0:0:0:
448,200,112746,1,0,3:0:0:0:
387,368,112883,5,0,1:0:0:0:
476,376,113019,2,0,P|488:354|484:320,1,45,2|0,0:1|3:0,0:0:0:0:
156,332,113428,5,2,3:3:0:0:
172,328,113837,1,0,3:0:0:0:
172,328,113974,2,2,L|180:236,2,90,2|0|2,1:1|3:0|3:1,0:1:0:0:
4,288,114656,1,0,1:0:0:0:
80,240,114792,1,2,0:1:0:0:
88,284,114928,1,0,3:0:0:0:
48,80,115065,6,0,L|36:16,1,45,2|0,1:1|0:0,0:0:0:0:
64,160,115337,2,0,P|104:160|136:140,1,67.5
136,128,115610,6,0,P|135:194|179:243,1,135,4|0,3:1|3:0,0:0:0:0:
180,272,116087,1,0,3:0:0:0:
180,272,116156,6,0,P|222:246|268:240,1,90,4|0,3:2|0:0,0:0:0:0:
348,284,116428,5,0,3:0:0:0:
512,216,116565,6,0,P|480:204|409:217,1,107.999996704102,6|2,1:1|0:3,0:1:0:0:
232,364,116837,6,0,P|262:366|296:352,1,53.9999983520508,0|0,1:0|0:0,0:0:0:0:
328,184,116974,5,2,3:3:0:0:
348,296,117110,1,0,3:0:0:0:
484,320,117246,6,0,P|459:331|433:333,1,53.9999983520508,2|0,1:3|3:0,0:0:0:0:
328,176,117383,1,0,3:0:0:0:
328,176,117451,1,0,3:0:0:0:
328,176,117519,2,0,B|321:129|300:137|299:88,1,90,2|0,1:3|1:0,0:0:0:0:
444,20,117792,6,0,P|516:41|467:98,1,180,4|0,3:1|1:0,0:0:0:0:
296,12,118201,1,0,0:0:0:0:
420,180,118337,2,0,P|420:240|396:284,1,90,2|0,3:3|3:0,0:0:0:0:
256,324,118610,1,2,1:3:0:0:
152,192,118746,2,0,L|248:160,1,90,2|2,0:0|3:3,0:0:0:0:
260,328,119019,5,0,3:0:0:0:
260,328,119087,1,0,3:0:0:0:
260,328,119156,2,0,P|204:340|156:316,1,90,2|0,1:3|3:0,0:0:0:0:
292,100,119428,1,2,3:3:0:0:
352,348,119565,2,0,L|324:244,2,90,2|2|2,0:0|1:3|0:0,0:0:0:0:
216,256,119974,6,0,B|149:228|149:288|83:259,1,135.000005149842,2|2,0:2|1:3,0:0:0:0:
331,194,120519,6,0,B|340:265|392:235|400:307,1,135.000005149842,2|2,0:0|1:3,0:0:0:0:
256,192,120928,1,0,0:0:0:0:
220,125,121065,6,0,B|277:81|225:51|283:9,2,135.000005149842,2|8|8,0:0|1:0|0:3,0:0:0:0:
68,136,121746,1,0,3:0:0:0:
68,136,121815,1,0,3:0:0:0:
68,136,121883,1,4,0:3:0:0:
72,144,122156,6,0,P|104:151|138:149,1,67.5000025749208,12|0,1:1|0:0,0:0:0:0:
244,56,122428,2,0,P|231:87|210:113,1,67.5000025749208,8|0,1:0|0:0,0:0:0:0:
72,260,122701,6,0,P|117:252|152:220,1,77.4000011810303,8|0,1:0|0:0,0:0:0:0:
336,136,122974,2,0,P|308:162|271:173,1,77.4000011810303,8|0,1:0|0:0,0:0:0:0:
196,376,123246,6,0,P|212:340|208:284,1,90,8|0,1:0|0:0,0:0:0:0:
124,63,123519,2,0,P|121:107|138:148,1,90,8|0,1:0|0:0,0:0:0:0:
0,316,123792,6,0,P|46:269|104:264,1,107.999996704102,8|0,1:0|0:0,0:0:0:0:
324,320,124065,2,0,P|340:344|336:380,1,53.9999983520508,8|0,1:0|3:0,0:0:0:0:
124,360,124201,1,0,3:0:0:0:
124,340,124269,1,0,3:0:0:0:
135,318,124337,6,0,P|219:282|268:316,1,135.000005149842,4|0,3:1|3:0,0:0:0:0:
392,268,124746,2,0,P|342:256|256:304,1,154.800002362061,8|0,1:0|3:0,0:0:0:0:
132,112,125156,2,0,P|217:126|236:208,1,180,8|0,1:0|3:0,0:0:0:0:
356,44,125565,2,0,P|285:94|243:232,1,215.999993408203,8|0,1:0|3:0,0:0:0:0:
32,192,125974,2,0,P|72:210|116:202,1,90,8|0,1:0|3:0,0:0:0:0:
384,168,126246,2,0,P|360:143|368:172,1,90,8|0,1:0|3:0,0:0:0:0:
504,352,126519,6,0,P|448:279|331:281,1,215.999993408203,4|0,3:1|0:0,0:0:0:0:
40,200,126928,2,0,P|47:93|154:91,1,233.999989288331,4|0,3:1|0:0,0:0:0:0:
472,88,127337,2,0,P|380:6|357:14,1,125.999996154785,4|0,3:1|0:0,0:0:0:0:
196,152,127610,2,0,P|172:173|184:203,1,67.5000025749208,8|0,1:0|0:0,0:0:0:0:
296,352,127746,6,0,P|212:368|160:312,1,168.750006437302,8|0,1:0|0:0,0:0:0:0:
154,293,128156,6,0,L|76:304,1,67.5000025749208,0|0,3:0|3:0,0:0:0:0:
56,184,128428,2,0,L|134:195,1,79.2000024169922,0|0,3:0|2:0,0:0:0:0:
283,119,128701,6,0,P|221:162|202:88,1,180,4|8,3:1|1:0,0:0:0:0:
327,49,129110,1,0,0:0:0:0:
335,53,129178,1,0,0:0:0:0:
343,57,129246,2,0,P|367:105|347:180,1,135,2|0,3:2|0:0,0:0:0:0:
332,194,129519,2,0,L|282:119,1,90,8|0,1:0|0:0,0:0:0:0:
480,142,129792,6,0,P|449:225|464:312,1,180,2|8,3:2|1:0,0:0:0:0:
284,384,130201,1,0,3:0:0:0:
292,380,130269,1,0,0:0:0:0:
300,376,130337,2,0,P|312:334|306:289,1,90,2|0,0:2|3:0,0:0:0:0:
228,36,130610,2,0,P|215:79|221:124,1,90,8|0,1:0|3:0,0:0:0:0:
363,212,130883,6,0,P|278:197|216:257,1,180,2|8,3:2|1:0,0:0:0:0:
212,348,131292,1,0,0:0:0:0:
136,300,131428,1,2,3:2:0:0:
0,354,131565,5,0,0:0:0:0:
0,354,131633,1,0,0:0:0:0:
0,354,131701,2,2,B|52:376|86:336|86:336|100:300|140:300,1,161.999995056153,4|0,1:2|0:0,0:1:0:0:
140,280,131974,5,2,3:1:0:0:
64,232,132110,1,0,0:0:0:0:
164,168,132246,1,2,1:1:0:0:
52,148,132383,1,0,3:0:0:0:
92,16,132519,2,0,P|114:39|116:100,1,90,2|0,0:1|3:0,0:0:0:0:
260,28,132792,2,0,L|364:16,1,90,2|0,1:1|0:0,0:0:0:0:
483,145,133065,5,2,3:2:0:0:
479,129,133337,2,0,P|434:120|399:145,1,90,0|0,1:0|0:0,0:0:0:0:
291,253,133610,2,0,P|281:298|307:333,1,90,0|0,3:0|3:0,0:0:0:0:
475,373,133883,2,0,L|385:362,1,90,0|0,1:0|0:0,0:0:0:0:
155,365,134156,5,2,3:2:0:0:
139,361,134428,2,0,P|129:317|155:281,1,90,0|0,1:0|3:0,0:0:0:0:
263,173,134701,2,0,P|307:164|343:189,1,90,0|0,0:0|3:0,0:0:0:0:
175,193,134974,2,0,L|85:186,1,90,0|0,1:0|0:0,0:0:0:0:
108,0,135246,5,2,3:2:0:0:
32,48,135383,1,0,0:0:0:0:
132,112,135519,1,0,1:0:0:0:
20,132,135656,1,0,0:0:0:0:
60,264,135792,2,0,P|82:241|84:180,1,90,0|0,3:0|3:0,0:0:0:0:
238,253,136065,2,0,L|246:345,1,90,0|0,1:0|0:0,0:0:0:0:
31,358,136337,6,0,L|85:186,1,180,4|0,3:1|1:0,0:0:0:0:
246,343,136746,6,0,L|31:358,1,215.999993408203,4|0,3:2|0:0,0:0:0:0:
84,187,137156,5,0,1:0:0:0:
120,200,137224,1,2,0:0:0:0:
156,196,137292,1,2,0:0:0:0:
188,172,137360,1,2,0:0:0:0:
204,136,137428,6,0,P|228:68|272:144,1,180,4|8,3:1|1:0,0:0:0:0:
262,351,137837,1,0,0:0:0:0:
254,347,137906,1,0,0:0:0:0:
246,343,137974,2,0,P|232:292|264:216,1,135,2|0,3:2|0:0,0:0:0:0:
268,236,138246,2,0,L|165:241,1,90,8|0,1:0|0:0,0:0:0:0:
32,242,138519,6,0,P|63:159|48:72,1,180,2|8,3:2|1:0,0:0:0:0:
228,0,138928,1,0,0:0:0:0:
220,4,138996,1,0,0:0:0:0:
212,8,139065,2,0,P|200:50|206:95,1,90,2|0,3:2|3:0,0:0:0:0:
284,348,139337,2,0,P|297:305|291:260,1,90,8|0,1:0|0:0,0:0:0:0:
149,172,139610,6,0,P|234:187|296:127,1,180,2|8,3:2|1:0,0:0:0:0:
300,36,140019,1,0,0:0:0:0:
375,84,140156,1,2,3:2:0:0:
512,30,140292,5,0,3:0:0:0:
512,30,140360,1,0,3:0:0:0:
512,30,140428,2,0,B|460:8|426:48|426:48|412:84|372:84,1,161.999995056153,4|0,1:1|0:0,0:0:0:0:
372,104,140701,5,2,3:1:0:0:
448,152,140837,1,0,0:0:0:0:
348,216,140974,1,2,1:1:0:0:
460,236,141110,1,0,0:0:0:0:
420,368,141246,2,0,P|398:345|396:284,1,90,2|0,3:1|3:0,0:0:0:0:
252,356,141519,2,0,L|148:368,1,90,2|0,1:1|0:0,0:0:0:0:
120,220,141792,6,0,L|133:127,1,90,4|0,3:1|0:0,0:0:0:0:
244,32,142065,2,0,P|254:76|228:112,1,90,2|0,1:3|0:0,0:0:0:0:
120,220,142337,2,0,P|76:229|40:204,1,90,2|0,3:3|3:0,0:0:0:0:
208,196,142610,2,0,L|328:220,1,90,2|0,1:3|0:0,0:0:0:0:
406,105,142883,6,0,L|393:198,1,90,2|0,3:3|0:0,0:0:0:0:
282,293,143156,2,0,P|272:249|298:213,1,90,2|0,1:3|3:0,0:0:0:0:
406,105,143428,2,0,P|450:96|486:121,1,90,2|0,0:3|3:0,0:0:0:0:
318,129,143701,2,0,L|198:105,1,90,2|0,1:3|3:0,0:0:0:0:
31,125,143974,6,0,P|112:101|157:172,1,180,2|2,3:3|1:3,0:0:0:0:
164,332,144383,1,0,0:0:0:0:
157,172,144519,2,0,P|135:195|133:256,1,90,2|0,3:3|3:0,0:0:0:0:
248,360,144792,2,0,L|340:368,1,90,2|0,1:3|0:0,0:0:0:0:
504,312,145065,6,0,P|431:326|376:244,1,180,4|8,3:2|1:3,0:0:0:0:
376,248,145610,1,0,1:0:0:0:
424,104,145746,1,0,1:0:0:0:
456,252,145883,1,4,3:3:0:0:
312,203,146019,1,0,3:0:0:0:
504,188,146156,6,0,B|408:144|408:240|312:203,1,202.500007724762,4|0,3:1|3:0,0:0:0:0:
240,160,146701,2,0,P|207:102|222:38,1,135.000005149842,0|2,1:0|0:0,0:0:0:0:
354,124,147110,2,0,L|297:89,1,67.5000025749208,0|0,3:0|0:0,0:0:0:0:
452,36,147383,1,0,1:0:0:0:
504,188,147519,2,0,L|472:252,1,67.5000025749208,2|0,0:0|3:0,0:0:0:0:
332,320,147792,2,0,P|348:256|311:202,1,135.000005149842,0|2,1:0|3:2,0:0:0:0:
264,272,148201,1,0,0:0:0:0:
176,340,148337,6,0,P|115:298|187:312,1,202.500007724762,0|0,3:0|3:0,0:0:0:0:
55,244,148883,2,0,P|105:200|171:195,1,135.000005149842,0|2,1:0|0:2,0:0:0:0:
31,328,149292,1,0,3:0:0:0:
4,136,149428,5,8,1:0:0:0:
4,136,149565,1,8,1:0:0:0:
4,136,149974,1,8,1:0:0:0:
80,92,150110,1,8,3:3:0:0:
84,180,150246,1,4,3:0:0:0:
96,212,150315,1,0,3:0:0:0:
124,228,150383,1,0,3:0:0:0:
156,228,150451,1,0,3:0:0:0:
184,212,150519,6,0,P|180:168|160:208,1,107.999996704102,4|0,3:1|0:0,0:0:0:0:
316,280,150792,2,0,P|288:239|291:289,1,135.000005149842,8|0,1:0|0:0,0:0:0:0:
432,160,151065,2,0,P|372:132|409:188,1,180,2|0,1:3|0:0,0:0:0:0:
344,36,151337,1,2,1:3:0:0:
323,9,151406,1,0,3:0:0:0:
291,0,151474,1,0,3:0:0:0:
262,11,151542,1,0,3:0:0:0:
242,37,151610,6,0,P|252:118|334:117,1,180,4|2,3:2|0:0,0:0:0:0:
160,135,152292,1,0,3:0:0:0:
335,117,152428,6,0,L|161:136,1,161.999995056153,8|0,1:0|0:0,0:0:0:0:
112,208,152701,6,0,P|99:245|128:296,1,99.0000030212403,4|0,3:1|0:0,0:0:0:0:
328,344,152974,2,0,P|371:322|384:275,1,99.0000030212403,10|0,1:0|0:0,0:0:0:0:
296,36,153246,1,6,3:1:0:0:
216,364,153519,5,0,3:0:0:0:
276,120,153656,2,0,L|252:220,1,99.0000030212403,6|0,1:1|0:1,0:0:0:0:
216,364,153928,1,2,3:1:0:0:
132,278,154065,2,0,L|191:292,1,49.5000015106202,4|0,1:0|1:0,0:0:0:0:
332,327,154201,2,0,L|273:313,1,49.5000015106202,0|0,1:0|1:0,0:0:0:0:
253,216,154337,6,0,B|273:191|249:186|268:152,4,67.5000025749208,6|0|8|0|2,1:1|1:0|1:3|1:0|1:2,0:0:0:0:
384,328,154746,1,2,0:2:0:0:
384,328,154815,1,2,0:2:0:0:
384,328,154883,6,0,B|436:292|456:356|512:320,1,135.000005149842,4|0,3:2|0:0,0:0:0:0:
476,248,155292,1,2,3:2:0:0:
308,296,155428,2,0,L|236:284,1,67.5000025749208,0|0,1:0|0:0,0:0:0:0:
372,240,155701,1,2,0:2:0:0:
428,180,155837,6,0,P|442:136|440:96,1,67.5000025749208,2|0,3:2|0:0,0:0:0:0:
230,138,156110,2,0,P|233:172|244:204,1,67.5000025749208,0|0,1:0|0:0,0:0:0:0:
384,328,156383,1,2,3:2:0:0:
242,284,156519,2,0,B|170:268|188:326|116:306,1,135.000005149842,2|0,1:2|3:0,0:0:0:0:
40,264,156928,1,0,0:0:0:0:
40,264,157065,6,0,P|9:193|24:68,1,202.500007724762,2|0,3:2|3:0,0:0:0:0:
175,82,157610,2,0,L|247:94,1,67.5000025749208,0|0,1:0|0:0,0:0:0:0:
111,138,157883,1,2,0:2:0:0:
55,198,158019,6,0,P|42:241|43:282,1,67.5000025749208,2|0,3:2|0:0,0:0:0:0:
254,239,158292,2,0,P|252:205|240:173,1,67.5000025749208,0|0,1:0|0:0,0:0:0:0:
99,50,158565,1,0,3:0:0:0:
241,94,158701,2,0,B|314:109|296:51|368:71,1,135.000005149842,2|0,1:2|0:0,0:0:0:0:
443,114,159110,1,0,0:0:0:0:
447,256,159246,6,0,P|377:224|251:240,1,202.500007724762,4|2,3:2|0:0,0:0:0:0:
196,296,159792,2,0,L|120:284,1,67.5000025749208,0|0,1:0|0:0,0:0:0:0:
76,224,160065,1,0,0:0:0:0:
68,364,160201,2,0,P|48:332|56:284,1,67.5000025749208,2|0,3:2|0:0,0:0:0:0:
176,148,160474,2,0,P|175:181|156:208,1,67.5000025749208,8|0,1:0|0:0,0:0:0:0:
76,224,160746,1,0,3:0:0:0:
56,72,160883,2,0,L|48:4,1,67.5000025749208,2|0,1:2|0:0,0:0:0:0:
172,60,161156,2,0,L|164:128,1,67.5000025749208,0|0,3:0|3:0,0:0:0:0:
176,148,161360,1,0,3:0:0:0:
176,148,161428,6,0,L|272:164,1,90,2|0,1:3|0:0,0:0:0:0:
412,85,161701,2,0,L|316:101,1,90,2|0,1:3|0:0,0:0:0:0:
287,258,161974,5,2,1:3:0:0:
295,222,162042,1,0,1:0:0:0:
303,186,162110,2,0,L|259:159,1,45.0000017166138,8|8,3:3|3:3,0:0:0:0:
160,256,162337,2,0,L|216:228,1,45.0000017166138,4|4,3:0|3:0,0:0:0:0:
176,148,162519,1,8,1:0:0:0:
176,148,163201,5,4,0:3:0:0:
176,148,163337,2,0,P|112:121|188:121,1,202.500007724762,8|0,1:0|0:0,0:0:0:0:
264,163,163610,5,4,3:1:0:0:
236,16,184337,5,8,1:0:0:0:
124,112,184474,2,0,P|108:196|164:248,1,168.750006437302,8|0,1:0|0:0,0:0:0:0:
240,272,184883,6,0,L|310:289,1,67.5000025749208,0|0,3:0|3:0,0:0:0:0:
384,120,185156,2,0,L|304:141,1,79.2000024169922,8|0,1:0|3:0,0:0:0:0:
164,248,185428,6,0,P|237:161|126:113,1,270,4|2,3:2|0:0,0:0:0:0:
128,112,186519,6,0,P|80:54|153:22,1,180,4|2,3:1|3:2,0:0:0:0:
153,22,187610,6,0,L|248:14,2,90,4|0|2,3:2|0:0|0:2,0:0:0:0:
153,22,188428,2,0,L|145:66,1,45,2|0,0:0|0:0,0:0:0:0:
192,132,188701,5,2,1:3:0:0:
312,244,188837,1,0,3:0:0:0:
200,244,188974,1,2,1:3:0:0:
320,132,189110,1,0,3:0:0:0:
132,192,189246,5,8,1:3:0:0:
380,192,189383,1,0,3:0:0:0:
256,180,189519,1,2,3:2:0:0:
256,180,189587,1,0,3:0:0:0:
256,180,189656,1,0,3:0:0:0:
256,180,189724,1,0,3:0:0:0:
256,180,189792,5,4,3:1:0:0:
256,180,190201,1,2,0:0:0:0:
224,320,190337,1,8,1:0:0:0:
224,320,190610,2,0,L|291:320,1,67.5000025749208,2|0,3:2|0:0,0:0:0:0:
368,304,190883,5,2,0:0:0:0:
144,304,191019,1,0,3:0:0:0:
256,180,191156,2,0,L|184:180,1,67.5000025749208,2|0,0:0|3:0,0:0:0:0:
256,180,191428,2,0,L|323:180,1,67.5000025749208,2|0,1:2|0:0,0:0:0:0:
256,32,191701,2,0,L|256:104,1,67.5000025749208,8|0,0:3|0:0,0:0:0:0:
256,260,191974,5,4,1:1:0:0:
256,260,192246,1,8,1:1:0:0:
188,180,192383,1,0,0:0:0:0:
256,260,192519,5,8,1:1:0:0:
324,180,192656,1,0,0:0:0:0:
256,344,192792,5,8,1:1:0:0:
156,280,192928,1,0,0:0:0:0:
354,280,193065,6,0,L|150:280,1,198.000006042481,4|0,3:2|0:0,0:0:0:0:
156,104,193474,6,0,L|360:104,1,198.000006042481,4|8,3:1|3:3,0:0:0:0:
474,229,193883,5,4,3:3:0:0:
438,216,193951,1,2,3:2:0:0:
402,220,194019,1,2,3:2:0:0:
370,244,194087,1,2,3:2:0:0:
354,280,194156,5,4,3:1:0:0:
444,384,194292,2,0,P|449:335|429:290,1,99.0000030212403,8|0,1:1|3:0,0:0:0:0:
328,152,194565,2,0,P|312:176|309:205,1,49.5000015106202,8|0,1:1|3:0,0:0:0:0:
236,356,194701,2,0,P|244:303|276:260,1,107.999996704102,2|8,3:2|1:1,0:0:0:0:
232,36,194974,1,0,3:0:0:0:
412,20,195110,2,0,P|365:63|294:59,1,116.999994644165,8|2,1:1|3:2,0:0:0:0:
55,87,195383,6,0,P|52:39|86:4,1,99.0000030212403,8|0,1:1|3:0,0:0:0:0:
124,176,195656,2,0,P|103:175|79:161,1,49.5000015106202,8|0,1:1|3:0,0:0:0:0:
220,40,195792,6,0,P|228:87|196:136,1,107.999996704102,2|8,3:2|1:1,0:0:0:0:
0,272,196065,2,0,P|43:285|112:252,1,116.999994644165,0|8,3:0|1:1,0:0:0:0:
140,72,196337,1,2,3:2:0:0:
120,252,196474,2,0,P|132:332|152:364,1,116.999994644165,8|0,1:1|3:1,0:0:0:0:
256,124,196746,1,8,1:1:0:0:
312,300,196883,1,2,3:2:0:0:
204,224,197019,5,8,1:1:0:0:
204,224,197087,1,0,3:0:0:0:
204,224,197156,2,0,B|332:204,1,116.999994644165,6|8,3:1|1:1,0:0:0:0:
392,300,197428,5,2,3:1:0:0:
160,372,197565,1,8,1:1:0:0:
120,300,197701,5,2,3:1:0:0:
352,372,197837,1,8,1:1:0:0:
200,300,197974,5,2,3:1:0:0:
256,144,198110,1,8,1:1:0:0:
312,300,198246,1,10,1:1:0:0:
180,168,198383,1,8,1:1:0:0:
332,168,198519,6,0,B|360:184|360:184|416:172,1,90,4|8,3:1|1:1,0:0:0:0:
340,4,198792,2,0,B|324:28|324:28|316:100,1,90,2|8,3:3|1:1,0:0:0:0:
194,88,199065,2,0,B|188:28|188:28|172:4,1,90,2|8,3:3|1:1,0:0:0:0:
95,172,199337,2,0,B|152:184|152:184|180:168,1,90,2|8,3:3|1:1,0:0:0:0:
200,252,199542,1,0,3:0:0:0:
200,252,199610,6,0,L|187:341,1,90,2|8,3:2|1:0,0:0:0:0:
24,268,199883,2,0,P|65:288|109:280,1,90,2|8,3:3|1:1,0:0:0:0:
136,96,200156,2,0,L|148:6,1,90,2|8,3:3|1:1,0:0:0:0:
312,80,200428,2,0,P|270:59|226:67,1,90,2|8,3:3|1:1,0:0:0:0:
200,252,200701,5,2,3:2:0:0:
364,192,200837,1,8,1:0:0:0:
148,192,200974,5,2,3:3:0:0:
312,252,201110,1,8,1:1:0:0:
256,140,201246,5,2,3:3:0:0:
256,308,201383,1,8,1:1:0:0:
388,268,201519,5,2,3:3:0:0:
124,268,201656,1,8,1:1:0:0:
248,368,201792,5,4,3:1:0:0:
264,20,201928,1,0,1:1:0:0:
264,276,202065,5,0,1:0:0:0:
248,104,202201,1,0,1:0:0:0:
256,192,202337,5,8,1:3:0:0:
256,192,202610,1,0,3:0:0:0:
62,45,202883,6,0,P|148:8|206:82,1,202.500007724762,4|0,3:1|3:0,0:0:0:0:
328,100,203428,2,0,P|276:116|204:80,1,135.000005149842,8|0,1:0|0:0,0:0:0:0:
276,28,203837,2,0,L|340:0,1,67.5000025749208,2|0,3:2|0:0,0:0:0:0:
408,60,204110,1,0,1:0:0:0:
328,100,204246,2,0,L|324:176,1,67.5000025749208,0|0,0:0|3:0,0:0:0:0:
268,240,204519,2,0,P|250:302|284:364,1,135.000005149842,2|0,1:2|3:0,0:0:0:0:
340,292,204928,1,0,3:0:0:0:
172,243,205065,6,0,P|112:202|184:216,1,202.500007724762,2|0,0:2|3:0,0:0:0:0:
51,148,205610,2,0,P|101:105|168:100,1,135.000005149842,8|2,1:0|0:0,0:0:0:0:
28,232,206019,1,0,3:0:0:0:
28,44,206156,5,8,1:0:0:0:
28,44,206292,1,8,1:0:0:0:
484,340,206701,1,8,1:0:0:0:
416,288,206837,1,8,3:3:0:0:
496,256,206974,1,4,3:3:0:0:
508,224,207042,1,0,3:0:0:0:
512,192,207110,1,0,3:0:0:0:
508,160,207178,1,0,3:0:0:0:
491,127,207246,6,0,P|475:63|496:0,1,135,4|0,3:1|0:0,0:0:0:0:
500,20,207519,2,0,L|410:27,1,90,2|0,1:2|0:0,0:0:0:0:
256,80,207792,2,0,P|268:128|268:172,1,90,8|0,3:1|0:0,0:0:0:0:
240,340,208065,1,8,1:3:0:0:
228,308,208133,1,0,3:0:0:0:
236,276,208201,1,0,3:0:0:0:
260,256,208269,1,0,3:0:0:0:
292,252,208337,6,0,P|352:304|316:372,1,161.999995056153,4|0,3:1|0:0,0:0:0:0:
322,369,208610,2,0,P|337:291|413:288,1,161.999995056153,2|0,0:2|0:0,0:0:0:0:
464,344,208883,5,2,0:0:0:0:
368,192,209019,1,0,3:0:0:0:
228,307,209156,6,0,P|151:315|114:248,1,161.999995056153,8|0,1:1|0:0,0:0:0:0:
124,228,209428,6,0,L|35:241,1,90,6|0,1:1|0:0,0:0:0:0:
100,40,209701,2,0,B|109:98|109:98|129:121,1,90,10|0,1:1|0:0,0:0:0:0:
382,121,209974,2,0,B|402:98|402:98|412:40,1,90,10|0,1:1|0:0,0:0:0:0:
256,160,210246,1,2,0:2:0:0:
388,228,210383,6,0,L|476:241,1,90,6|0,1:1|0:0,0:0:0:0:
256,264,210656,1,2,0:2:0:0:
257,70,210792,2,0,L|255:171,1,90,10|0,1:1|0:0,0:0:0:0:
356,308,211065,6,2,B|350:345|308:339|308:339|297:382|255:360|255:360|213:382|202:339|202:339|160:345|154:308,1,270.000010299683,10|0,1:0|3:0,0:1:0:0:
80,156,211474,1,0,3:0:0:0:
80,156,211542,1,0,3:0:0:0:
80,156,211610,5,4,3:1:0:0:
168,136,211746,1,2,1:1:0:0:
140,220,211883,1,2,3:3:0:0:
159,49,212019,2,0,B|172:76|172:76|168:135,1,90,2|2,1:1|3:3,0:0:0:0:
48,328,212292,2,0,B|44:268|44:268|57:241,1,90,2|2,1:1|3:3,0:0:0:0:
168,136,212565,6,0,L|75:157,1,90,2|2,1:1|3:3,0:0:0:0:
20,88,212837,1,2,1:1:0:0:
140,220,212974,2,0,L|233:241,1,90,2|0,3:3|1:0,0:0:0:0:
280,140,213246,1,2,3:3:0:0:
296,304,213383,1,0,1:0:0:0:
296,304,213451,1,0,1:0:0:0:
296,304,213519,2,0,P|316:264|312:204,1,90,2|0,3:3|1:0,0:0:0:0:
456,164,213792,5,2,3:3:0:0:
367,148,213928,1,2,1:1:0:0:
399,231,214065,1,2,3:3:0:0:
372,61,214201,2,0,B|360:89|360:89|367:148,1,90,2|2,1:1|3:3,0:0:0:0:
496,334,214474,2,0,B|496:274|496:274|482:247,1,90,2|2,1:1|3:3,0:0:0:0:
367,148,214746,6,0,L|460:164,1,90,2|2,1:1|3:3,0:0:0:0:
512,92,215019,1,0,1:0:0:0:
399,231,215156,2,0,L|307:256,1,90,2|0,3:3|1:0,0:0:0:0:
255,158,215428,1,2,3:3:0:0:
248,323,215565,1,0,1:0:0:0:
248,323,215633,1,0,1:0:0:0:
248,323,215701,2,0,P|225:284|226:223,1,90,2|0,3:3|1:0,0:0:0:0:
319,98,215974,5,2,3:3:0:0:
339,186,216110,1,2,1:1:0:0:
255,158,216246,1,2,3:3:0:0:
426,176,216383,2,0,B|399:189|399:189|340:185,1,90,2|2,1:1|3:3,0:0:0:0:
147,66,216656,2,0,B|207:62|207:62|234:75,1,90,2|2,1:1|3:3,0:0:0:0:
339,186,216928,6,0,L|318:93,1,90,2|2,1:1|3:3,0:0:0:0:
387,38,217201,1,0,1:0:0:0:
255,158,217337,2,0,L|234:251,1,90,2|0,3:3|1:0,0:0:0:0:
335,298,217610,1,2,3:3:0:0:
171,314,217746,1,0,1:0:0:0:
171,314,217815,1,0,1:0:0:0:
171,314,217883,2,0,P|211:334|271:330,1,90,2|0,3:3|1:0,0:0:0:0:
30,323,218156,6,0,P|46:271|18:179,1,135,2|0,3:3|0:0,0:0:0:0:
17,180,218428,2,0,L|106:167,1,90,2|0,3:3|1:0,0:0:0:0:
171,314,218701,2,0,P|159:272|171:218,1,90,2|0,3:3|1:0,0:0:0:0:
246,267,218974,1,2,3:3:0:0:
435,277,219110,6,0,B|342:326|338:216|246:266,1,202.5,0|0,1:0|0:0,0:0:0:0:
256,176,219792,1,0,1:0:0:0:
256,168,219860,1,0,1:0:0:0:
256,160,219928,1,0,1:0:0:0:
256,152,219996,1,0,1:0:0:0:
256,144,220065,1,0,1:0:0:0:
256,136,220133,1,0,1:0:0:0:
256,128,220201,1,0,1:0:0:0:
256,120,220269,1,0,1:0:0:0:
256,112,220337,6,0,L|344:92,1,90,4|2,3:1|1:1,0:0:0:0:
308,248,220610,1,2,3:3:0:0:
172,156,220746,2,2,P|161:123|172:68,1,90,0|2,1:3|3:3,0:3:0:0:
424,48,221019,2,0,P|435:81|424:136,1,90,2|2,1:1|3:3,0:0:0:0:
308,248,221292,6,0,L|218:245,1,90,2|2,1:1|3:3,0:0:0:0:
172,156,221565,1,0,1:0:0:0:
395,256,221701,2,0,L|305:260,1,90,2|0,3:1|1:0,0:0:0:0:
276,356,221974,1,2,3:1:0:0:
467,308,222110,1,0,1:0:0:0:
467,308,222178,1,0,1:0:0:0:
467,308,222246,2,0,P|484:268|477:224,1,90,2|0,3:3|1:0,0:0:0:0:
256,112,222519,6,0,L|168:92,1,90,2|2,3:3|1:1,0:0:0:0:
204,248,222792,1,2,3:3:0:0:
340,156,222928,2,0,P|351:123|340:68,1,90,2|2,1:1|3:3,0:0:0:0:
88,48,223201,2,0,P|77:81|88:136,1,90,2|2,1:1|3:3,0:0:0:0:
204,248,223474,6,0,L|294:245,1,90,2|2,1:1|3:3,0:0:0:0:
340,156,223746,1,0,1:0:0:0:
117,256,223883,2,0,L|207:260,1,90,2|0,3:1|1:0,0:0:0:0:
236,356,224156,1,2,3:1:0:0:
45,308,224292,1,0,1:0:0:0:
45,308,224360,1,0,1:0:0:0:
45,308,224428,2,0,P|28:268|35:224,1,90,2|0,3:3|1:0,0:0:0:0:
144,20,224701,5,2,3:3:0:0:
204,188,224837,2,0,P|176:204|120:200,1,90,2|2,1:1|3:3,0:0:0:0:
231,15,225110,2,0,L|318:34,1,90,2|2,1:1|3:3,0:0:0:0:
55,139,225383,2,0,P|47:95|66:55,1,90,2|2,1:1|3:3,0:0:0:0:
280,120,225656,6,0,L|299:207,1,90,2|2,1:1|3:3,0:0:0:0:
204,188,225928,1,0,1:0:0:0:
216,360,226065,2,0,L|235:272,1,90,2|0,3:1|1:0,0:0:0:0:
140,292,226337,1,2,3:1:0:0:
375,279,226474,1,0,1:0:0:0:
375,279,226542,1,0,1:0:0:0:
375,279,226610,2,0,P|395:231|387:191,1,90,2|0,3:3|1:0,0:0:0:0:
375,51,226883,6,0,P|359:103|387:195,1,135,2|0,3:3|0:0,0:0:0:0:
388,194,227156,2,0,L|299:207,1,90,2|0,3:3|1:0,0:0:0:0:
370,365,227428,2,0,P|382:323|370:269,1,90,2|0,3:3|1:0,0:0:0:0:
295,318,227701,1,2,3:3:0:0:
127,329,227837,6,2,B|209:373|212:273|295:318,1,180,2|0,1:1|1:0,0:1:0:0:
298,207,228519,6,0,L|266:195,1,33.7500012874604,0|0,1:0|1:0,0:0:0:0:
154,179,228656,2,0,L|198:163,1,33.7500012874604,0|0,1:0|1:0,0:0:0:0:
278,119,228792,2,0,L|234:103,1,33.7500012874604,0|0,1:0|1:0,0:0:0:0:
130,95,228928,2,0,L|174:79,1,33.7500012874604,0|0,1:0|1:0,0:0:0:0:
224,24,229065,1,4,3:1:0:0:
256,192,229133,12,0,230019,0:0:0:0:
81,86,230156,6,0,P|113:78|147:76,1,67.5000025749208,2|0,1:0|0:0,0:0:0:0:
287,164,230428,6,0,P|249:171|209:170,1,79.2000024169922,2|0,1:1|0:0,0:0:0:0:
40,286,230701,6,0,P|84:276|129:276,1,90,10|0,1:0|0:0,0:0:0:0:
304,376,230974,5,10,1:0:0:0:
431,86,231246,6,0,P|399:78|365:76,1,67.5000025749208,2|0,1:0|1:0,0:0:0:0:
225,164,231519,6,0,P|263:171|303:170,1,79.2000024169922,2|0,1:0|0:0,0:0:0:0:
472,286,231792,6,0,P|428:276|383:276,1,90,10|0,1:0|0:0,0:0:0:0:
208,376,232065,5,8,1:0:0:0:
436,192,232337,5,4,1:2:0:0:
436,192,232474,1,2,1:2:0:0:
76,192,232746,1,2,1:2:0:0:
256,256,233019,1,2,1:2:0:0:
328,28,233292,5,2,1:2:0:0:
184,356,233565,1,2,1:2:0:0:
184,28,233837,5,2,1:2:0:0:
328,356,234110,1,2,1:2:0:0:
256,192,234519,5,6,1:1:0:0:
256,192,234587,12,4,236701,1:0:0:0:
256,260,236837,6,0,L|256:308,2,45,0|8|4,1:0|3:3|3:3,0:0:0:0:
176,224,237110,6,0,P|256:172|336:224,1,202.500007724762,6|2,1:2|1:1,0:0:0:0:
256,260,237656,6,2,B|244:216|244:216|264:176|264:176|248:120|248:120|256:64,1,202.500007724762,4|0,1:1|0:0,0:1:0:0:
