osu file format v14

[General]
AudioFilename: audio.mp3
AudioLeadIn: 0
PreviewTime: 184474
Countdown: 0
SampleSet: Soft
StackLeniency: 0.7
Mode: 0
LetterboxInBreaks: 0
WidescreenStoryboard: 1

[Editor]
Bookmarks: 1113,111246,163610
DistanceSpacing: 1.65
BeatDivisor: 8
GridSize: 32
TimelineZoom: 2.2

[Metadata]
Title:Koiseyo Otome!
TitleUnicode:恋せよ乙女!
Artist:Yonekura Chihiro
ArtistUnicode:米倉千尋
Creator:Kencho
Version:Skystar's Koigokoro
Source:サノバウィッチ
Tags:Smug Nanachi sodarose -Eriri- Mimari SnowNiNo_ Narcissu Lavender yf_bmp Skystar Amamiya Yuko sabbat of the witch yuzu soft visual novel eroge hentai opening sanoba japanese video game
BeatmapID:1909273
BeatmapSetID:498438

[Difficulty]
HPDrainRate:5.5
CircleSize:4
OverallDifficulty:9.2
ApproachRate:9.6
SliderMultiplier:1.8
SliderTickRate:1

[Events]
//Background and Video events
0,0,"BG8.jpg",0,0
//Break Periods
2,83083,92192
//Storyboard Layer 0 (Background)
//Storyboard Layer 1 (Fail)
//Storyboard Layer 2 (Pass)
//Storyboard Layer 3 (Foreground)
//Storyboard Layer 4 (Overlay)
//Storyboard Sound Samples

[TimingPoints]
1113,260.869565217391,4,2,1,60,1,0
1113,-133.333333333333,4,2,1,60,0,0
2156,272.727272727273,4,2,1,60,1,0
2156,-133.333333333333,4,2,1,60,0,0
9246,-100,4,2,1,60,0,0
10678,-133.333333333333,4,2,1,50,0,0
10883,-80,4,2,1,60,0,0
19610,-166.666666666667,4,2,1,50,0,0
20565,-166.666666666667,4,2,1,5,0,0
20701,-80,4,2,1,70,0,0
20974,-66.6666666666667,4,2,1,80,0,0
21246,-57.1428571428571,4,2,1,90,0,0
21519,-50,4,2,1,100,0,0
21792,-100,4,2,1,70,0,0
25337,-80,4,2,1,70,0,0
26019,-66.6666666666667,4,2,1,70,0,0
26292,-100,4,2,1,70,0,0
28337,-133.333333333333,4,2,1,70,0,0
28883,-100,4,2,1,70,0,0
29428,-80,4,2,1,70,0,0
30519,-100,4,2,1,70,0,0
33928,-80,4,2,1,70,0,0
34610,-66.6666666666667,4,2,1,70,0,0
34883,-100,4,2,1,70,0,0
37065,-80,4,2,1,70,0,0
38156,-80,4,2,1,70,0,0
39246,-100,4,2,1,60,0,0
44156,-80,4,2,1,60,0,0
45792,-80,4,2,1,70,0,0
50156,-80,4,2,1,80,0,0
52133,-80,4,2,1,50,0,0
52337,-80,4,2,1,80,0,0
54519,-100,4,2,1,90,0,0
55610,-200,4,2,1,100,0,0
56156,-100,4,2,1,100,0,0
56428,-66.6666666666667,4,2,1,100,0,0
56633,-100,4,2,1,100,0,0
56701,-80,4,2,1,90,0,1
61815,-80,4,2,1,30,0,1
61883,-80,4,2,1,90,0,1
62906,-80,4,2,1,30,0,1
62974,-80,4,2,1,90,0,1
63792,-80,4,2,1,90,0,1
64337,-66.6666666666667,4,2,1,90,0,1
64746,-57.1428571428571,4,2,1,90,0,1
65156,-80,4,2,1,90,0,1
65224,-80,4,2,1,50,0,1
65360,-80,4,2,1,50,0,0
65428,-80,4,2,1,90,0,1
74156,-133.333333333333,4,2,1,70,0,0
74701,-100,4,2,1,70,0,0
75110,-133.333333333333,4,2,1,70,0,0
75792,-100,4,2,1,70,0,0
76337,-133.333333333333,4,2,1,70,0,0
76883,-100,4,2,1,70,0,0
78519,-100,4,2,1,90,0,1
79406,-100,4,2,1,50,0,1
79610,-90.9090909090909,4,2,1,90,0,0
80428,-80,4,2,1,60,0,0
80633,-90.9090909090909,4,2,1,5,0,0
80701,-90.9090909090909,4,2,1,90,0,1
82883,-100,4,2,1,60,0,0
91610,-166.666666666667,4,2,1,50,0,0
92565,-166.666666666667,4,2,1,5,0,0
92701,-80,4,2,1,70,0,0
92974,-66.6666666666667,4,2,1,80,0,0
93246,-57.1428571428571,4,2,1,90,0,0
93519,-50,4,2,1,100,0,0
93792,-133.333333333333,4,2,1,60,0,0
94610,-100,4,2,1,60,0,0
98156,-100,4,2,1,70,0,0
100337,-133.333333333333,4,2,1,70,0,0
100883,-100,4,2,1,70,0,0
101428,-80,4,2,1,70,0,0
102519,-100,4,2,1,70,0,0
105928,-80,4,2,1,70,0,0
106610,-66.6666666666667,4,2,1,70,0,0
106815,-100,4,2,1,70,0,0
109065,-80,4,2,1,70,0,0
110156,-80,4,2,1,70,0,0
111246,-100,4,2,1,60,0,0
117792,-100,4,2,1,70,0,0
121474,-80,4,2,1,70,0,0
122156,-80,4,2,1,80,0,0
124133,-80,4,2,1,50,0,0
124337,-80,4,2,1,80,0,0
126519,-80,4,2,1,90,0,0
127610,-100,4,2,1,100,0,0
127883,-200,4,2,1,100,0,0
128087,-66.6666666666667,4,2,1,100,0,0
128156,-66.6666666666667,4,2,1,100,0,0
128360,-100,4,2,1,100,0,0
128428,-66.6666666666667,4,2,1,100,0,0
128633,-100,4,2,1,100,0,0
128701,-80,4,2,1,90,0,1
133815,-80,4,2,1,30,0,1
133883,-80,4,2,1,90,0,1
134906,-80,4,2,1,30,0,1
134974,-80,4,2,1,90,0,1
136337,-66.6666666666667,4,2,1,90,0,1
136746,-57.1428571428571,4,2,1,90,0,1
137224,-80,4,2,1,50,0,1
137360,-80,4,2,1,50,0,0
137428,-80,4,2,1,90,0,1
146156,-100,4,2,1,70,0,0
150519,-80,4,2,1,90,0,1
151610,-100,4,2,1,90,0,0
152156,-90.9090909090909,4,2,1,60,0,0
152633,-90.9090909090909,4,2,1,5,0,0
152701,-90.9090909090909,4,2,1,90,0,1
154883,-100,4,2,1,90,0,0
155156,-111.111111111111,4,2,1,90,0,0
159246,-100,4,2,1,60,0,0
161974,-133.333333333333,4,2,1,80,0,0
163337,-83.3333333333333,4,2,1,80,0,0
163542,-83.3333333333333,4,2,1,5,0,0
163609,-100,4,2,1,5,0,0
163610,-100,4,2,1,70,0,0
163882,-80,4,2,1,70,0,0
182156,-83.3333333333333,4,2,1,80,0,0
183246,-71.4285714285714,4,2,1,90,0,0
184337,-100,4,2,1,100,0,0
184609,-100,4,2,1,100,0,0
184814,-100,4,2,1,100,0,0
184882,-100,4,2,1,100,0,0
185087,-100,4,2,1,100,0,0
185155,-66.6666666666667,4,2,1,100,0,0
185359,-100,4,2,1,100,0,0
185428,-133.333333333333,4,2,1,60,0,0
188700,-100,4,2,1,60,0,0
188701,-100,4,2,1,80,0,0
193064,-80,4,2,1,80,0,0
194156,-66.6666666666667,4,2,1,90,0,1
202883,-100,4,2,1,70,0,0
207246,-90.9090909090909,4,2,1,90,0,1
208133,-90.9090909090909,4,2,1,50,0,1
208337,-90.9090909090909,4,2,1,90,0,0
209156,-80,4,2,1,60,0,0
209360,-90.9090909090909,4,2,1,5,0,0
209428,-66.6666666666667,4,2,1,90,0,1
211610,-80,4,2,1,70,0,0
219791,-66.6666666666667,4,2,1,70,0,0
219860,-100,4,2,1,50,0,0
220065,-80,4,2,1,70,0,0
229065,-166.666666666667,4,2,1,60,0,0
230019,-166.666666666667,4,2,1,5,0,0
230156,-66.6666666666667,4,2,1,70,0,0
230292,-66.6666666666667,4,2,1,40,0,0
230428,-66.6666666666667,4,2,1,70,0,0
230565,-66.6666666666667,4,2,1,40,0,0
230701,-66.6666666666667,4,2,1,70,0,0
230837,-66.6666666666667,4,2,1,40,0,0
230974,-66.6666666666667,4,2,1,70,0,0
231110,-66.6666666666667,4,2,1,40,0,0
231246,-66.6666666666667,4,2,1,80,0,0
231382,-66.6666666666667,4,2,1,80,0,0
231383,-66.6666666666667,4,2,1,50,0,0
231519,-66.6666666666667,4,2,1,80,0,0
231656,-66.6666666666667,4,2,1,50,0,0
231792,-66.6666666666667,4,2,1,80,0,0
231928,-66.6666666666667,4,2,1,50,0,0
232065,-66.6666666666667,4,2,1,80,0,0
232201,-66.6666666666667,4,2,1,50,0,0
232337,-66.6666666666667,4,2,1,70,0,0
234109,-80,4,2,1,70,0,0
234519,-100,4,2,1,70,0,0
236224,-100,4,2,1,50,0,0
236428,-100,4,2,1,70,0,0
236701,-80,4,2,1,80,0,0

[Colours]
Combo1 : 255,240,128
Combo2 : 224,224,224
Combo3 : 255,128,112
Combo4 : 208,192,200
Combo5 : 80,80,96

[HitObjects]
28,239,1113,5,4,0:0:0:0:
103,211,1243,1,8,0:0:0:0:
103,211,1308,1,8,0:0:0:0:
103,211,1373,1,8,0:0:0:0:
180,234,1504,1,8,0:0:0:0:
224,301,1634,1,2,0:0:0:0:
198,73,1765,1,2,0:0:0:0:
224,301,1895,1,8,0:0:0:0:
198,73,2026,1,8,0:0:0:0:
277,193,2156,6,0,P|309:202|343:202,2,67.5000025749208,4|0|0,3:2|3:2|3:2,0:0:0:0:
408,251,2565,2,0,P|440:240|468:223,1,67.5000025749208,0|8,3:2|0:0,0:0:0:0:
198,73,2837,2,0,P|220:98|248:117,1,67.5000025749208,0|0,3:2|0:0,0:0:0:0:
343,202,3110,2,0,P|315:261|342:321,1,135.000005149842,0|2,3:2|3:2,0:0:0:0:
218,381,3519,5,0,3:2:0:0:
170,324,3656,1,2,0:0:0:0:
170,324,3792,2,0,L|165:244,1,67.5000025749208,8|0,3:2|0:0,0:0:0:0:
243,310,4065,2,0,L|238:230,1,67.5000025749208,0|0,3:2|0:0,0:0:0:0:
127,105,4337,6,0,P|118:137|118:171,2,67.5000025749208,0|0|0,3:2|3:2|3:2,0:0:0:0:
69,236,4746,2,0,P|80:268|97:296,1,67.5000025749208,0|8,3:2|0:0,0:0:0:0:
247,26,5019,2,0,P|222:48|203:76,1,67.5000025749208,0|0,3:2|0:0,0:0:0:0:
118,171,5292,6,0,B|190:162|171:207|246:198,1,135.000005149842,0|2,3:2|3:2,0:0:0:0:
335,180,5701,2,0,P|322:211|323:245,1,67.5000025749208,0|2,3:2|0:0,0:0:0:0:
412,198,5974,2,0,P|411:232|400:264,1,67.5000025749208,8|0,3:2|0:0,0:0:0:0:
500,57,6246,5,2,0:0:0:0:
387,115,6383,1,8,0:0:0:0:
284,41,6519,2,0,P|315:25|348:22,2,67.5000025749208,4|0|0,3:2|3:2|3:2,0:0:0:0:
229,181,6928,6,0,P|242:150|240:116,1,67.5000025749208,0|8,3:2|0:0,0:0:0:0:
102,95,7201,2,0,P|89:126|91:160,1,67.5000025749208,0|0,3:2|0:0,0:0:0:0:
66,324,7474,2,0,P|69:276|5:196,1,135.000005149842,0|2,3:2|3:2,0:0:0:0:
90,160,7883,6,0,P|121:145|154:144,1,67.5000025749208,0|2,3:2|0:0,0:0:0:0:
212,201,8156,2,0,P|244:210|269:232,1,67.5000025749208,8|0,3:2|0:0,0:0:0:0:
508,260,8428,5,0,3:2:0:0:
343,207,8565,1,0,0:0:0:0:
233,341,8701,2,0,P|212:314|205:282,1,67.5000025749208,0|0,3:2|0:0,0:0:0:0:
223,69,8974,2,0,P|243:95|250:127,1,67.5000025749208,0|0,3:2|0:0,0:0:0:0:
212,201,9246,6,0,L|5:189,1,180,8|0,3:2|3:2,0:0:0:0:
7,60,9656,1,0,3:2:0:0:
66,116,9792,5,0,0:0:0:0:
166,7,9928,1,2,3:2:0:0:
66,116,10065,2,0,P|84:82|76:14,1,90,0|2,3:2|0:0,0:0:0:0:
164,88,10337,2,0,P|201:134|205:276,1,180,8|8,3:2|3:2,0:0:0:0:
412,353,10746,5,8,0:0:0:0:
412,353,10815,1,8,0:0:0:0:
412,353,10883,2,0,L|421:201,1,112.5,6|8,3:2|3:2,0:0:0:0:
497,292,11156,1,2,3:2:0:0:
349,206,11292,2,0,P|386:166|441:168,1,112.5,8|2,3:2|0:0,0:0:0:0:
419,241,11565,6,0,P|376:257|245:223,1,168.75,8|0,3:2|0:0,0:0:0:0:
211,173,11837,2,0,P|184:219|217:299,1,112.5,8|2,3:2|0:0,0:0:0:0:
146,367,12110,5,8,3:3:0:0:
259,234,12246,1,2,3:2:0:0:
88,202,12383,1,8,0:3:0:0:
100,14,12519,6,0,L|112:146,1,112.5,2|8,3:2|0:3,0:0:0:0:
26,25,12792,2,0,L|38:157,1,112.5,2|8,3:2|0:3,0:0:0:0:
4,320,13065,5,2,3:2:0:0:
88,201,13201,2,0,P|135:174|189:187,1,112.5,8|2,3:2|3:2,0:0:0:0:
229,259,13474,2,0,P|206:309|155:330,1,112.5,8|2,3:2|0:0,0:0:0:0:
392,347,13746,6,0,P|388:264|419:186,1,168.75,8|0,3:2|0:0,0:0:0:0:
465,124,14019,2,0,P|413:106|363:129,1,112.5,8|2,3:2|0:0,0:0:0:0:
155,330,14292,5,8,3:3:0:0:
342,226,14428,1,2,3:2:0:0:
155,330,14565,1,8,0:3:0:0:
230,364,14701,6,0,P|232:309|216:255,1,112.5,2|8,3:2|0:3,0:0:0:0:
270,192,14974,2,0,P|241:143|199:107,1,112.5,2|8,3:2|0:3,0:0:0:0:
433,0,15246,6,0,L|420:152,1,112.5,2|8,3:2|3:2,0:0:0:0:
392,186,15519,1,2,3:2:0:0:
351,10,15656,2,0,L|338:162,1,112.5,8|2,3:2|0:0,0:0:0:0:
461,322,15928,6,0,P|410:251|289:269,1,168.75,8|0,3:2|0:0,0:0:0:0:
274,290,16201,2,0,P|237:304|161:272,1,112.5,8|2,3:2|0:0,0:0:0:0:
42,76,16474,5,8,3:3:0:0:
155,177,16610,1,2,3:2:0:0:
10,224,16746,1,8,0:3:0:0:
291,136,16883,6,0,L|303:4,1,112.5,2|8,3:2|0:3,0:0:0:0:
217,125,17156,2,0,L|229:-7,1,112.5,2|8,3:2|0:3,0:0:0:0:
491,255,17428,6,0,P|405:191|311:219,1,168.75,2|0,3:2|0:0,0:0:0:0:
367,269,17701,2,0,P|313:264|276:221,1,112.5,2|8,3:2|0:2,0:0:0:0:
36,273,17974,6,0,P|90:267|131:303,1,112.5,2|8,3:2|0:2,0:0:0:0:
146,380,18246,1,2,3:2:0:0:
265,64,18383,6,0,P|209:137|74:111,1,225,8|8,3:2|0:3,0:0:0:0:
118,51,18792,1,2,0:0:0:0:
189,18,18928,1,8,0:3:0:0:
306,275,19065,5,10,0:0:0:0:
306,275,19133,1,8,0:0:0:0:
306,275,19201,1,8,3:3:0:0:
195,174,19337,1,2,3:2:0:0:
268,205,19474,1,8,3:3:0:0:
117,195,19610,2,0,P|180:220|280:2,1,377.999988464356,6|0,3:2|0:0,0:0:0:0:
219,44,20701,6,0,P|259:80|314:77,1,112.5,12|0,3:2|0:0,0:0:0:0:
428,384,20974,6,0,P|418:328|306:259,1,135.000005149842,8|0,3:2|0:0,0:0:0:0:
36,272,21246,6,0,P|98:213|194:239,1,157.500001502037,8|0,3:2|0:0,0:0:0:0:
482,49,21519,6,0,P|482:111|346:171,1,180,8|0,3:2|0:0,0:0:0:0:
256,192,21792,5,6,0:0:0:0:
332,312,21928,1,0,3:2:0:0:
332,312,22065,2,0,L|337:208,1,90,8|0,0:0|3:2,0:0:0:0:
129,30,22337,6,0,P|186:19|294:102,2,180,2|8|2,0:0|0:0|0:0,0:0:0:0:
100,225,23019,1,0,3:2:0:0:
173,268,23156,1,8,0:0:0:0:
197,101,23292,2,0,P|161:101|100:141,1,90,2|0,3:2|0:0,0:0:0:0:
269,213,23565,1,2,3:2:0:0:
173,183,23701,2,0,P|217:177|260:192,1,90,8|0,0:0|3:2,0:0:0:0:
350,330,23974,6,0,P|345:274|379:132,2,180,2|8|2,0:0|0:0|0:0,0:0:0:0:
350,330,24656,1,2,3:2:0:0:
176,238,24792,5,8,0:0:0:0:
233,181,24928,1,2,3:2:0:0:
176,238,25065,2,0,P|221:233|302:280,1,135,0|0,0:0|0:0,0:0:0:0:
350,330,25337,6,0,P|284:298|191:341,1,168.75,8|0,3:2|0:0,0:0:0:0:
187,351,25610,1,2,3:2:0:0:
373,246,25746,6,0,P|390:194|440:172,1,112.5,2|8,3:2|0:0,0:0:0:0:
92,42,26019,6,0,P|117:76|144:196,1,135.000005149842,0|2,3:2|0:0,0:0:0:0:
45,279,26292,5,0,3:2:0:0:
45,279,26428,2,0,P|85:260|134:262,1,90,8|0,0:0|3:2,0:0:0:0:
209,282,26701,2,0,P|244:309|264:353,1,90,2|2,0:0|3:2,0:0:0:0:
463,198,26974,6,0,P|431:221|368:224,1,90,8|0,0:0|3:2,0:0:0:0:
263,349,27246,2,0,P|298:305|272:189,1,180,2|8,0:0|0:0,0:0:0:0:
509,134,27656,2,0,P|472:94|351:79,1,180,2|2,3:2|3:2,0:0:0:0:
279,111,28065,5,8,0:0:0:0:
100,325,28201,1,8,3:2:0:0:
100,325,28337,2,0,P|128:272|273:291,1,202.500007724762,6|0,3:2|0:0,0:0:0:0:
406,0,28883,6,0,P|417:121|297:154,1,270,8|2,3:2|0:0,0:0:0:0:
268,350,29428,6,0,P|183:291|229:199,1,225,2|0,3:2|0:0,0:0:0:0:
376,67,29837,5,0,0:0:0:0:
376,67,29974,2,0,P|323:124|310:240,1,168.75,8|0,3:2|0:0,0:0:0:0:
256,271,30246,2,0,P|300:250|400:288,1,112.5,8|0,0:0|0:0,0:0:0:0:
491,287,30519,5,6,0:0:0:0:
435,230,30656,1,0,3:2:0:0:
435,230,30792,2,0,L|430:126,1,90,8|0,0:0|3:2,0:0:0:0:
289,157,31065,6,0,P|300:100|217:-8,2,180,2|8|2,0:0|0:0|0:0,0:0:0:0:
94,186,31746,1,0,3:2:0:0:
51,113,31883,1,8,0:0:0:0:
218,89,32019,2,0,P|218:125|178:186,1,90,2|0,3:2|0:0,0:0:0:0:
106,17,32292,1,2,3:2:0:0:
127,26,32428,2,0,P|141:68|136:113,1,90,8|0,0:0|3:2,0:0:0:0:
309,150,32701,6,0,P|277:67|208:10,2,180,2|8|2,0:0|0:0|0:0,0:0:0:0:
116,318,33383,1,2,3:2:0:0:
290,226,33519,5,8,0:0:0:0:
290,226,33656,2,0,P|245:221|164:268,1,135,2|0,3:2|0:0,0:0:0:0:
116,318,33928,6,0,P|95:267|97:211,1,112.5,0|8,3:2|0:0,0:0:0:0:
236,302,34201,1,2,3:2:0:0:
236,302,34337,2,0,P|238:246|216:194,1,112.5,2|0,3:2|0:0,0:0:0:0:
431,10,34610,6,0,P|406:44|379:164,1,135.000005149842,8|8,0:0|3:2,0:0:0:0:
493,358,34883,5,2,3:2:0:0:
467,279,35019,1,0,3:2:0:0:
467,279,35156,2,0,P|427:260|378:262,1,90,8|0,0:0|3:2,0:0:0:0:
303,282,35428,2,0,P|268:309|248:353,1,90,2|0,3:2|3:2,0:0:0:0:
49,198,35701,6,0,P|81:221|144:224,1,90,8|0,0:0|3:2,0:0:0:0:
249,349,35974,2,0,P|214:305|240:189,1,180,2|8,3:2|0:0,0:0:0:0:
3,134,36383,1,0,0:0:0:0:
159,78,36519,2,0,P|71:77|3:133,1,180,2|8,3:2|0:0,0:0:0:0:
89,29,36928,1,2,0:0:0:0:
136,166,37065,6,0,P|206:149|194:-3,1,225,8|2,3:2|0:0,0:0:0:0:
413,313,37474,2,0,P|353:261|204:246,1,225,8|2,3:2|0:0,0:0:0:0:
325,38,37883,2,0,B|370:17|411:41|395:69|439:89|483:67,1,168.75,8|0,3:2|0:0,0:0:0:0:
498,58,38156,5,8,3:2:0:0:
7,92,38292,1,8,0:0:0:0:
432,129,38428,1,8,3:2:0:0:
81,154,38565,1,8,0:0:0:0:
385,213,38701,1,8,3:2:0:0:
140,230,38837,1,8,0:0:0:0:
347,302,38974,5,8,3:2:0:0:
190,313,39110,1,8,0:0:0:0:
265,265,39246,1,6,0:0:0:0:
272,350,39519,1,0,0:0:0:0:
94,273,39792,5,8,3:2:0:0:
94,273,39928,1,0,3:2:0:0:
126,197,40201,1,2,0:0:0:0:
45,208,40474,2,0,P|125:228|180:313,1,180,8|0,3:2|0:0,0:0:0:0:
240,241,40883,2,0,P|254:276|250:361,1,90,8|0,3:2|3:2,0:0:0:0:
369,162,41156,5,2,0:0:0:0:
290,179,41292,1,0,0:0:0:0:
212,156,41428,2,0,P|198:121|202:36,2,90,2|0|0,0:0|0:0|0:0,0:0:0:0:
155,236,41837,5,0,0:0:0:0:
155,236,41974,2,0,P|212:254|269:75,1,270,8|2,3:2|0:0,0:0:0:0:
71,20,42519,5,2,3:2:0:0:
71,20,42656,2,0,P|57:62|59:107,1,90,8|0,0:0|3:2,0:0:0:0:
41,254,42928,1,2,0:0:0:0:
41,254,43065,6,0,P|15:218|4:175,1,90,8|0,3:2|0:0,0:0:0:0:
173,191,43337,2,0,P|162:148|136:112,1,90,2|0,3:2|0:0,0:0:0:0:
0,342,43610,6,0,P|69:328|165:382,1,180,2|0,0:0|0:0,0:0:0:0:
459,266,44019,5,0,0:0:0:0:
459,266,44156,2,0,P|371:236|278:329,1,225,8|0,3:2|0:0,0:0:0:0:
162,378,44565,6,0,P|143:325|148:269,1,112.5,2|0,3:2|0:0,0:0:0:0:
354,360,44837,1,8,0:0:0:0:
354,360,44974,2,0,P|358:304|340:251,1,112.5,2|0,0:0|0:0,0:0:0:0:
73,242,45246,6,0,P|136:238|184:118,1,168.75,8|0,3:2|0:0,0:0:0:0:
192,138,45519,1,8,3:2:0:0:
254,326,45656,1,8,0:0:0:0:
470,216,45792,6,0,P|397:189|249:272,2,225,2|8|2,0:0|0:0|3:2,0:0:0:0:
499,292,46474,1,2,0:0:0:0:
479,89,46610,1,8,0:0:0:0:
425,148,46746,2,0,P|396:107|388:25,1,112.5,2|0,0:0|0:0,0:0:0:0:
194,265,47019,1,2,0:0:0:0:
194,265,47156,2,0,P|241:281|296:342,1,112.5,8|0,0:0|0:0,0:0:0:0:
107,31,47428,6,0,P|51:28|0:49,1,112.5,2|2,3:2|0:0,0:0:0:0:
120,112,47701,2,0,P|68:132|12:130,1,112.5,8|0,0:0|0:0,0:0:0:0:
10,345,47974,6,0,P|70:253|162:265,1,168.75,2|0,3:2|0:0,0:0:0:0:
194,265,48246,2,0,P|167:312|108:326,1,112.5,8|0,0:0|0:0,0:0:0:0:
183,59,48519,6,0,P|288:87|305:179,1,168.75,2|0,3:2|0:0,0:0:0:0:
313,151,48792,1,8,0:0:0:0:
362,292,48928,6,0,P|356:238|394:192,1,112.5,2|0,3:2|0:0,0:0:0:0:
461,157,49201,1,0,0:0:0:0:
501,225,49337,2,0,P|506:279|473:322,1,112.5,8|0,0:0|0:0,0:0:0:0:
153,360,49610,5,2,3:2:0:0:
461,157,49746,1,0,0:0:0:0:
202,298,49883,2,0,P|289:307|353:389,1,168.75,8|0,0:0|0:0,0:0:0:0:
354,375,50156,5,2,3:2:0:0:
390,194,50292,1,0,0:0:0:0:
271,342,50428,1,8,0:0:0:0:
274,104,50565,1,0,0:0:0:0:
185,360,50701,1,2,0:0:0:0:
109,111,50837,1,0,0:0:0:0:
202,270,50974,6,0,P|145:280|59:196,1,168.75,8|0,0:0|0:0,0:0:0:0:
43,142,51246,5,2,3:2:0:0:
18,234,51383,1,2,0:0:0:0:
70,44,51519,2,0,P|106:84|161:87,1,112.5,8|0,0:0|0:0,0:0:0:0:
482,7,51792,2,0,P|446:47|391:50,1,112.5,2|0,3:2|0:0,0:0:0:0:
361,136,52065,5,8,0:0:0:0:
322,113,52133,1,8,0:0:0:0:
277,115,52201,1,8,0:0:0:0:
240,141,52269,1,8,0:0:0:0:
223,183,52337,5,2,3:2:0:0:
199,65,52474,1,0,0:0:0:0:
109,145,52610,1,2,0:0:0:0:
305,197,52746,6,0,P|311:278|254:337,1,168.75,8|0,3:2|0:0,0:0:0:0:
237,335,53019,1,2,0:0:0:0:
512,333,53156,5,8,3:2:0:0:
388,220,53292,1,0,0:0:0:0:
352,384,53428,1,2,0:0:0:0:
492,231,53565,6,0,P|472:173|347:152,1,168.75,8|0,3:2|0:0,0:0:0:0:
361,146,53837,1,2,0:0:0:0:
237,335,53974,6,0,L|227:208,1,112.5,8|0,3:2|0:0,0:0:0:0:
312,321,54246,2,0,L|302:194,1,112.5,2|0,3:2|0:0,0:0:0:0:
31,27,54519,5,8,3:2:0:0:
47,105,54656,1,2,0:0:0:0:
107,51,54792,1,2,0:0:0:0:
231,215,54928,5,8,3:2:0:0:
174,89,55065,1,2,0:0:0:0:
93,201,55201,1,2,0:0:0:0:
336,48,55337,5,8,3:2:0:0:
358,256,55474,1,2,0:0:0:0:
166,168,55610,5,8,3:2:0:0:
166,168,55746,1,8,3:2:0:0:
289,158,55883,6,0,L|386:167,1,90,0|0,0:0|0:0,0:0:0:0:
137,45,56292,5,2,0:0:0:0:
137,45,56428,2,0,B|168:92|144:144|119:124|91:189|121:234,1,202.500007724762,8|0,0:0|0:0,0:0:0:0:
199,252,56701,6,0,P|239:284|234:371,1,112.5,6|0,3:2|0:0,0:0:0:0:
23,384,56974,2,0,P|97:330|183:329,1,168.75,8|0,0:0|0:0,0:0:0:0:
199,252,57246,2,0,P|242:273|318:254,1,112.5,0|2,3:2|0:0,0:0:0:0:
453,37,57519,1,8,0:0:0:0:
426,112,57656,5,0,0:0:0:0:
426,112,57792,2,0,P|365:94|259:207,1,225,2|8,3:2|0:0,0:0:0:0:
416,323,58201,5,2,0:0:0:0:
471,231,58337,2,0,P|490:283|493:339,1,112.5,0|2,3:2|0:0,0:0:0:0:
348,364,58610,2,0,P|330:310|332:255,1,112.5,8|0,0:0|0:0,0:0:0:0:
259,194,58883,6,0,P|234:225|125:205,1,112.5,2|0,3:2|0:0,0:0:0:0:
130,11,59156,6,0,P|174:69|187:177,1,168.75,8|0,0:0|0:0,0:0:0:0:
115,182,59428,1,0,3:2:0:0:
315,244,59565,1,2,0:0:0:0:
257,377,59701,6,0,P|239:325|238:268,1,112.5,8|0,3:2|0:0,0:0:0:0:
413,358,59974,2,0,P|413:301|395:249,1,112.5,2|0,3:2|0:0,0:0:0:0:
159,262,60246,6,0,P|162:206|184:154,1,112.5,8|2,3:2|0:0,0:0:0:0:
357,309,60519,2,0,P|379:257|383:201,1,112.5,0|2,3:2|0:0,0:0:0:0:
371,36,60792,5,8,3:2:0:0:
278,205,60928,1,0,0:0:0:0:
437,317,61065,2,0,P|376:282|261:290,1,168.75,2|0,3:2|0:0,0:0:0:0:
218,335,61337,6,0,P|200:283|218:231,1,112.5,8|0,0:0|0:0,0:0:0:0:
0,180,61610,2,0,P|54:190|90:231,1,112.5,0|2,3:2|0:0,0:0:0:0:
244,68,61883,2,0,P|207:109|153:120,1,112.5,8|0,0:0|0:0,0:0:0:0:
156,197,62156,5,2,3:2:0:0:
27,45,62292,5,0,0:0:0:0:
27,45,62428,2,0,P|43:96|93:147,1,112.5,8|2,0:0|0:0,0:0:0:0:
88,384,62701,2,0,P|124:344|143:275,1,112.5,0|2,3:2|0:0,0:0:0:0:
352,161,62974,2,0,P|299:149|230:167,1,112.5,8|0,0:0|0:0,0:0:0:0:
156,197,63246,5,2,3:2:0:0:
483,343,63519,5,8,0:0:0:0:
501,267,63656,1,0,0:0:0:0:
483,343,63792,2,0,P|446:250|458:139,1,168.75,0|0,3:2|0:0,0:0:0:0:
461,165,64065,1,8,0:0:0:0:
305,286,64201,5,0,0:0:0:0:
231,77,64337,2,0,P|297:54|376:151,1,202.500007724762,6|0,3:2|0:0,0:0:0:0:
363,216,64610,1,0,0:0:0:0:
448,51,64746,6,0,P|421:186|292:138,1,315.000003004074,6|2,3:2|0:0,0:0:0:0:
38,307,65156,5,8,3:2:0:0:
38,307,65224,1,8,3:2:0:0:
38,307,65292,2,0,P|64:290|120:295,1,56.25,8|8,3:2|3:2,0:0:0:0:
236,344,65428,6,0,P|244:260|222:179,1,168.75,6|0,3:2|0:0,0:0:0:0:
150,148,65701,2,0,P|188:108|243:107,1,112.5,8|0,0:0|0:0,0:0:0:0:
362,15,65974,2,0,P|413:30|440:78,1,112.5,0|2,3:2|0:0,0:0:0:0:
385,171,66246,1,8,0:0:0:0:
508,119,66383,5,0,0:0:0:0:
508,119,66519,2,0,P|423:109|295:176,1,225,2|8,3:2|0:0,0:0:0:0:
125,280,66928,5,2,0:0:0:0:
125,280,67065,2,0,P|125:335|151:384,1,112.5,0|2,3:2|0:0,0:0:0:0:
304,346,67337,2,0,P|304:290|278:241,1,112.5,8|0,0:0|0:0,0:0:0:0:
206,206,67610,6,0,P|246:168|301:169,1,112.5,2|0,3:2|0:0,0:0:0:0:
106,21,67883,6,0,P|139:93|113:213,1,168.75,8|0,0:0|0:0,0:0:0:0:
68,225,68156,1,0,3:2:0:0:
260,255,68292,1,2,0:0:0:0:
153,348,68428,6,0,P|153:291|179:242,1,112.5,8|0,3:2|0:0,0:0:0:0:
286,107,68701,2,0,P|336:81|392:82,1,112.5,2|0,3:2|0:0,0:0:0:0:
123,123,68974,6,0,P|178:134|221:170,1,112.5,8|2,3:2|0:0,0:0:0:0:
301,208,69246,2,0,P|315:263|303:317,1,112.5,0|2,3:2|0:0,0:0:0:0:
244,370,69519,5,8,3:2:0:0:
289,130,69656,1,0,0:0:0:0:
474,288,69792,2,0,P|419:241|398:115,1,168.75,2|0,3:2|0:0,0:0:0:0:
464,121,70065,6,0,P|464:176|429:219,1,112.5,8|0,0:0|0:0,0:0:0:0:
319,178,70337,2,0,P|319:123|354:80,1,112.5,0|2,3:2|0:0,0:0:0:0:
425,55,70610,1,8,0:0:0:0:
386,318,70746,5,0,0:0:0:0:
386,318,70883,2,0,P|338:268|222:277,1,168.75,2|0,3:2|0:0,0:0:0:0:
192,330,71156,6,0,P|164:281|168:226,1,112.5,8|2,0:0|0:0,0:0:0:0:
0,117,71428,2,0,P|3:61|36:17,1,112.5,0|2,3:2|0:0,0:0:0:0:
113,0,71701,1,8,0:0:0:0:
306,74,71837,5,0,0:0:0:0:
306,74,71974,2,0,P|248:54|255:175,1,225,2|8,3:2|0:0,0:0:0:0:
340,200,72383,5,0,0:0:0:0:
417,187,72519,1,0,3:2:0:0:
494,174,72656,1,2,0:0:0:0:
305,338,72792,5,8,0:0:0:0:
379,371,72928,1,0,0:0:0:0:
460,357,73065,6,0,P|474:302|468:247,1,112.5,2|0,3:2|0:0,0:0:0:0:
305,338,73337,2,0,P|304:282|323:229,1,112.5,8|2,0:0|0:0,0:0:0:0:
418,64,73610,5,8,3:2:0:0:
379,371,73746,1,8,0:0:0:0:
409,142,73883,5,8,0:0:0:0:
389,295,74019,1,8,0:0:0:0:
398,217,74156,6,0,B|346:193|298:229|322:247|262:284|213:262,1,202.500007724762,6|0,3:2|0:0,0:0:0:0:
268,361,74701,2,0,P|274:305|237:183,1,180,8|0,3:2|0:0,0:0:0:0:
167,147,75110,6,0,P|155:115|156:81,1,67.5000025749208,2|0,3:2|0:0,0:0:0:0:
288,126,75383,1,8,0:0:0:0:
288,126,75519,2,0,P|288:92|277:60,1,67.5000025749208,0|0,0:0|0:0,0:0:0:0:
27,175,75792,6,0,P|87:165|172:241,1,180,8|0,3:2|0:0,0:0:0:0:
472,252,76201,5,0,0:0:0:0:
472,252,76337,2,0,P|392:236|287:319,1,202.500007724762,2|0,3:2|0:0,0:0:0:0:
493,343,76883,2,0,P|509:289|486:164,1,180,8|0,3:2|0:0,0:0:0:0:
364,54,77292,1,0,0:0:0:0:
505,83,77428,5,2,3:2:0:0:
505,83,77565,2,0,B|414:73|443:151|340:136,1,180,0|0,0:0|0:0,0:0:0:0:
324,264,77974,2,0,B|230:221|297:171|215:130,1,180,8|8,0:0|0:0,0:0:0:0:
134,111,78383,1,8,0:0:0:0:
60,145,78519,5,2,0:0:0:0:
347,181,78656,1,0,0:0:0:0:
226,0,78792,5,8,0:0:0:0:
324,264,78928,1,0,0:0:0:0:
478,75,79065,5,8,0:0:0:0:
263,202,79201,1,8,0:0:0:0:
487,384,79337,5,8,0:0:0:0:
496,374,79406,1,8,0:0:0:0:
502,362,79474,1,8,0:0:0:0:
503,348,79542,1,8,0:0:0:0:
499,336,79610,1,6,3:2:0:0:
512,27,80292,5,0,0:0:0:0:
512,27,80428,2,0,P|437:29|379:115,1,168.75,8|0,0:0|0:0,0:0:0:0:
428,162,80701,5,6,3:2:0:0:
38,92,80974,1,8,3:2:0:0:
350,148,81246,5,2,3:2:0:0:
116,106,81519,1,8,3:2:0:0:
116,106,81656,1,6,3:2:0:0:
272,134,81928,5,2,3:2:0:0:
272,134,82065,1,8,3:2:0:0:
194,120,82337,1,2,3:2:0:0:
246,237,82610,5,8,0:0:0:0:
220,17,82746,1,0,0:0:0:0:
246,237,82883,5,6,3:2:0:0:
55,312,92701,6,0,L|46:179,1,112.5,8|0,3:2|0:0,0:0:0:0:
131,288,92974,6,0,L|118:96,1,135.000005149842,8|0,3:2|0:0,0:0:0:0:
212,303,93246,6,0,L|199:111,1,157.500001502037,8|0,3:2|0:0,0:0:0:0:
291,281,93519,6,0,L|278:89,1,180,8|0,3:2|0:0,0:0:0:0:
486,40,93792,6,0,P|393:47|383:140,1,202.500007724762,6|12,0:0|0:0,0:0:0:0:
345,64,94474,1,0,0:0:0:0:
456,231,94610,6,0,P|462:164|444:100,1,135,2|0,0:0|0:0,0:0:0:0:
433,87,94883,1,0,0:0:0:0:
138,81,95019,6,0,P|225:75|289:134,1,180,2|2,0:0|0:0,0:0:0:0:
296,162,95360,1,0,0:0:0:0:
296,162,95428,5,2,0:0:0:0:
228,76,95565,1,0,0:0:0:0:
138,81,95701,1,8,0:0:0:0:
86,133,95837,1,0,0:0:0:0:
23,314,95974,5,6,0:0:0:0:
62,48,96246,1,0,0:0:0:0:
62,48,96383,2,0,P|81:89|86:134,1,90,2|0,0:0|0:0,0:0:0:0:
161,159,96656,2,0,P|154:203|134:244,1,90,0|8,0:0|0:0,0:0:0:0:
23,314,96928,5,4,3:2:0:0:
100,374,97201,1,0,0:0:0:0:
23,314,97337,2,0,B|115:294|97:375|198:351,1,180,0|8,3:2|3:2,0:0:0:0:
254,280,97746,1,0,3:2:0:0:
254,280,97883,6,0,P|219:268|145:288,1,90,8|0,0:0|0:0,0:0:0:0:
100,374,98156,1,2,0:0:0:0:
384,374,98292,5,0,0:0:0:0:
384,374,98428,2,0,P|348:346|328:302,1,90,8|0,0:0|3:2,0:0:0:0:
312,226,98701,2,0,P|320:182|350:144,1,90,2|2,0:0|3:2,0:0:0:0:
146,26,98974,6,0,P|169:58|172:121,1,90,8|0,0:0|3:2,0:0:0:0:
347,147,99246,2,0,P|291:135|200:211,1,180,2|8,0:0|0:0,0:0:0:0:
4,236,99656,2,0,P|75:184|97:99,1,180,2|0,3:2|3:2,0:0:0:0:
341,34,100065,5,8,0:0:0:0:
361,240,100201,1,8,3:2:0:0:
361,240,100337,2,0,P|377:182|523:170,1,202.500007724762,2|0,3:2|0:0,0:0:0:0:
265,194,100883,6,0,P|205:302|313:336,1,270,8|2,3:2|0:0,0:0:0:0:
474,324,101428,6,0,P|381:259|267:273,1,225,2|0,3:2|0:0,0:0:0:0:
461,61,101837,5,0,0:0:0:0:
461,61,101974,2,0,P|404:114|288:127,1,168.75,8|0,3:2|0:0,0:0:0:0:
265,193,102246,2,0,P|273:139|251:88,1,112.5,8|0,0:0|0:0,0:0:0:0:
33,2,102519,5,6,0:0:0:0:
90,58,102656,1,0,0:0:0:0:
90,58,102792,2,0,L|194:63,1,90,8|0,0:0|3:2,0:0:0:0:
392,155,103065,6,0,P|313:194|282:276,2,180,2|8|2,0:0|0:0|0:0,0:0:0:0:
494,363,103746,1,0,3:2:0:0:
443,225,103883,1,8,0:0:0:0:
443,225,104019,2,0,P|464:195|467:123,1,90,2|0,3:2|0:0,0:0:0:0:
302,37,104292,1,0,3:2:0:0:
392,155,104428,2,0,P|393:119|357:56,1,90,8|0,0:0|3:2,0:0:0:0:
201,176,104701,6,0,P|233:93|302:36,2,180,2|8|2,0:0|0:0|0:0,0:0:0:0:
313,129,105383,1,2,3:2:0:0:
134,227,105519,5,8,0:0:0:0:
255,263,105656,2,0,P|200:226|134:227,1,135,2|0,3:2|0:0,0:0:0:0:
74,169,105928,6,0,P|71:113|92:61,1,112.5,2|8,3:2|0:0,0:0:0:0:
223,81,106201,1,0,3:2:0:0:
223,81,106337,2,0,P|225:137|203:189,1,112.5,2|0,3:2|3:2,0:0:0:0:
306,117,106610,6,0,P|352:71|417:79,1,135.000005149842,8|8,3:2|3:2,0:0:0:0:
437,207,106883,5,2,3:2:0:0:
377,142,107019,1,0,3:2:0:0:
427,231,107156,2,0,P|471:232|511:213,1,90,8|0,0:0|3:2,0:0:0:0:
314,286,107428,2,0,P|284:262|223:261,1,90,2|0,3:2|3:2,0:0:0:0:
512,214,107701,6,0,P|503:255|508:319,1,90,8|0,0:0|3:2,0:0:0:0:
251,337,107974,2,0,P|286:293|260:177,1,180,2|8,3:2|0:0,0:0:0:0:
1,261,108383,1,0,0:0:0:0:
50,200,108519,2,0,P|138:199|206:255,1,180,2|8,3:2|0:0,0:0:0:0:
384,139,108928,1,2,0:0:0:0:
423,359,109065,6,0,P|353:342|365:190,1,225,8|2,3:2|0:0,0:0:0:0:
505,67,109474,2,0,P|394:71|304:136,1,225,8|2,3:2|0:0,0:0:0:0:
162,349,109883,2,0,B|207:328|248:352|232:380|276:400|320:378,1,168.75,8|0,3:2|0:0,0:0:0:0:
291,313,110156,5,8,3:2:0:0:
165,302,110292,1,2,0:0:0:0:
331,230,110428,1,8,3:2:0:0:
135,213,110565,1,0,0:0:0:0:
378,154,110701,1,8,3:2:0:0:
97,129,110837,1,8,0:0:0:0:
437,92,110974,5,2,3:2:0:0:
44,58,111110,1,8,0:0:0:0:
231,265,111246,1,6,0:0:0:0:
252,4,111519,5,0,0:0:0:0:
291,71,111792,2,0,B|251:55|251:55|205:65,1,90,8|0,3:2|3:2,0:0:0:0:
365,37,112065,1,0,0:0:0:0:
395,203,112201,2,0,P|395:139|489:89,1,180,2|8,0:0|3:2,0:0:0:0:
460,248,112610,5,0,0:0:0:0:
472,171,112746,1,0,0:0:0:0:
478,253,112883,2,0,L|490:360,1,90,8|0,3:2|0:0,0:0:0:0:
379,384,113156,6,0,B|363:344|363:344|373:298,1,90,2|0,0:0|0:0,0:0:0:0:
283,215,113428,2,0,B|299:255|299:255|288:300,1,90,2|0,0:0|0:0,0:0:0:0:
220,347,113701,1,0,0:0:0:0:
54,80,113837,5,0,0:0:0:0:
54,80,113974,2,0,B|199:17|155:190|293:135,1,270,8|2,3:2|0:0,0:0:0:0:
359,88,114519,1,2,3:2:0:0:
350,83,114656,5,8,0:0:0:0:
438,79,114792,1,0,3:2:0:0:
478,150,114928,1,0,0:0:0:0:
464,158,115065,6,0,P|461:229|470:319,1,135,8|0,3:2|0:0,0:0:0:0:
478,310,115337,1,2,3:2:0:0:
466,384,115474,1,0,0:0:0:0:
321,179,115610,5,2,0:0:0:0:
246,193,115883,1,0,0:0:0:0:
180,152,116156,1,8,3:2:0:0:
186,137,116292,1,0,3:2:0:0:
168,142,116428,1,0,0:0:0:0:
410,203,116565,6,0,P|412:142|404:42,1,135,2|0,3:2|0:0,0:0:0:0:
397,50,116837,1,8,0:0:0:0:
88,117,116974,6,0,P|88:164|94:214,1,90,2|0,0:0|0:0,0:0:0:0:
326,264,117246,2,0,P|330:219|330:174,1,90,8|0,3:2|0:0,0:0:0:0:
140,272,117519,2,0,P|140:319|146:369,1,90,8|8,3:2|0:0,0:0:0:0:
231,318,117792,6,0,L|239:121,1,180,2|8,0:0|0:0,0:0:0:0:
191,76,118201,1,0,0:0:0:0:
389,206,118337,6,0,L|504:212,1,90,2|2,3:2|0:0,0:0:0:0:
349,273,118610,1,8,0:0:0:0:
304,209,118746,2,0,P|295:124|369:81,1,180,2|0,0:0|0:0,0:0:0:0:
465,188,119156,6,0,P|420:189|379:171,1,90,8|0,0:0|0:0,0:0:0:0:
280,39,119428,2,0,P|284:84|306:123,1,90,2|0,3:2|0:0,0:0:0:0:
445,103,119701,2,0,L|453:14,1,90,8|0,0:0|0:0,0:0:0:0:
239,179,119974,6,0,L|34:171,1,180,2|8,3:2|0:0,0:0:0:0:
59,171,120383,1,0,0:0:0:0:
144,311,120519,1,2,0:0:0:0:
215,293,120656,1,2,0:0:0:0:
280,326,120792,2,0,L|382:337,1,90,8|0,0:0|0:0,0:0:0:0:
455,366,121065,6,0,P|453:308|334:260,1,180,2|8,3:2|0:0,0:0:0:0:
423,181,121474,1,0,0:0:0:0:
256,244,121610,5,2,0:0:0:0:
274,103,121746,1,0,0:0:0:0:
37,221,121883,2,0,P|88:157|170:154,1,168.75,8|0,0:0|0:0,0:0:0:0:
193,166,122156,5,2,3:2:0:0:
133,246,122292,1,0,0:0:0:0:
86,23,122428,5,8,0:0:0:0:
209,73,122565,1,0,0:0:0:0:
22,240,122701,5,2,0:0:0:0:
0,91,122837,1,0,0:0:0:0:
280,235,122974,6,0,L|155:228,1,112.5,8|0,0:0|0:0,0:0:0:0:
116,110,123246,5,2,3:2:0:0:
255,152,123383,1,2,0:0:0:0:
99,295,123519,2,0,B|76:247|76:247|85:188,1,112.5,8|0,0:0|0:0,0:0:0:0:
242,45,123792,2,0,B|265:93|265:93|255:151,1,112.5,2|0,3:2|0:0,0:0:0:0:
376,205,124065,5,8,0:0:0:0:
400,215,124133,1,0,0:0:0:0:
423,201,124201,1,8,0:0:0:0:
448,218,124269,1,0,0:0:0:0:
448,218,124337,6,0,L|260:208,1,168.75,2|0,3:2|0:0,0:0:0:0:
256,217,124610,1,2,0:0:0:0:
58,114,124746,6,0,L|226:122,1,168.75,8|0,3:2|0:0,0:0:0:0:
288,83,125019,1,2,0:0:0:0:
311,305,125156,6,0,L|479:313,1,168.75,8|0,3:2|0:0,0:0:0:0:
495,332,125428,1,2,0:0:0:0:
229,342,125565,6,0,L|60:333,1,168.75,8|0,3:2|0:0,0:0:0:0:
33,264,125837,1,2,0:0:0:0:
246,254,125974,6,0,L|238:141,1,112.5,8|0,3:2|0:0,0:0:0:0:
266,43,126246,2,0,L|258:155,1,112.5,2|0,3:2|0:0,0:0:0:0:
464,276,126519,5,8,3:2:0:0:
485,172,126656,1,2,0:0:0:0:
476,287,126792,1,2,0:0:0:0:
349,308,126928,5,8,3:2:0:0:
328,142,127065,1,2,0:0:0:0:
371,314,127201,1,2,0:0:0:0:
232,341,127337,5,8,3:2:0:0:
152,145,127474,1,2,0:0:0:0:
26,322,127610,5,8,3:2:0:0:
26,322,127746,1,8,3:2:0:0:
11,243,127883,6,0,P|7:205|13:153,1,90,0|0,0:0|0:0,0:0:0:0:
17,77,128292,5,2,0:0:0:0:
82,120,128428,2,0,B|178:154|178:154|254:78,1,202.500007724762,8|0,0:0|0:0,0:0:0:0:
221,307,128701,6,0,P|115:299|88:197,1,225,6|8,3:2|0:0,0:0:0:0:
152,145,129110,1,0,0:0:0:0:
310,171,129246,2,0,L|437:182,1,112.5,0|2,3:2|0:0,0:0:0:0:
476,238,129519,1,8,0:0:0:0:
255,379,129656,5,0,0:0:0:0:
255,379,129792,2,0,P|263:278|279:134,1,225,2|8,3:2|0:0,0:0:0:0:
427,10,130201,5,2,0:0:0:0:
355,38,130337,2,0,B|374:90|374:90|355:144,1,112.5,0|2,3:2|0:0,0:0:0:0:
193,154,130610,2,0,B|174:102|174:102|193:48,1,112.5,8|0,0:0|0:0,0:0:0:0:
266,10,130883,5,2,3:2:0:0:
266,10,131019,1,0,0:0:0:0:
293,272,131156,6,0,P|287:218|276:155,1,112.5,8|0,0:0|0:0,0:0:0:0:
380,330,131428,2,0,P|386:276|397:213,1,112.5,0|2,3:2|0:0,0:0:0:0:
87,233,131701,2,0,P|170:256|206:383,1,225,8|2,3:2|3:2,0:0:0:0:
10,346,132110,1,0,0:0:0:0:
10,346,132246,2,0,P|4:300|10:219,1,112.5,8|2,3:2|0:0,0:0:0:0:
154,156,132519,2,0,L|284:172,1,112.5,0|2,3:2|0:0,0:0:0:0:
467,243,132792,1,8,3:2:0:0:
467,243,132928,1,0,0:0:0:0:
487,123,133065,6,0,P|451:91|377:92,1,112.5,2|0,3:2|0:0,0:0:0:0:
172,188,133337,2,0,L|283:200,1,112.5,8|0,0:0|0:0,0:0:0:0:
409,176,133610,2,0,P|383:273|488:329,1,225,0|8,3:2|0:0,0:0:0:0:
467,243,134019,1,0,0:0:0:0:
253,297,134156,6,0,B|241:245|241:245|264:146,1,112.5,2|0,3:2|0:0,0:0:0:0:
351,20,134428,2,0,L|338:269,2,225,8|0|8,0:0|3:2|0:0,0:0:0:0:
351,20,135110,1,0,0:0:0:0:
270,81,135246,6,0,P|226:69|210:-8,1,112.5,2|0,3:2|0:0,0:0:0:0:
256,166,135519,2,0,P|261:222|263:298,1,112.5,8|0,0:0|0:0,0:0:0:0:
95,339,135792,2,0,P|116:291|178:270,1,112.5,0|2,3:2|0:0,0:0:0:0:
410,264,136065,2,0,P|389:216|327:195,1,112.5,8|0,0:0|0:0,0:0:0:0:
174,137,136337,6,0,P|97:130|81:-3,1,202.500007724762,6|0,3:2|0:0,0:0:0:0:
133,9,136610,1,0,0:0:0:0:
255,70,136746,2,0,P|239:248|233:386,1,315.000003004074,6|2,3:2|0:0,0:0:0:0:
407,284,137156,5,8,3:2:0:0:
434,293,137224,1,8,3:2:0:0:
459,282,137292,1,8,3:2:0:0:
489,291,137360,1,8,3:2:0:0:
496,284,137428,6,0,P|416:268|326:373,1,225,6|8,3:2|0:0,0:0:0:0:
152,260,137837,1,0,0:0:0:0:
221,229,137974,2,0,L|338:222,1,112.5,0|2,3:2|0:0,0:0:0:0:
419,379,138246,1,8,0:0:0:0:
496,284,138383,5,0,0:0:0:0:
496,284,138519,2,0,P|479:172|472:60,1,225,2|8,3:2|0:0,0:0:0:0:
272,165,138928,5,2,0:0:0:0:
381,21,139065,2,0,P|371:71|329:161,1,112.5,0|2,3:2|0:0,0:0:0:0:
239,384,139337,2,0,P|217:337|198:240,1,112.5,8|0,0:0|0:0,0:0:0:0:
400,222,139610,6,0,P|310:208|163:201,1,225,2|8,3:2|0:0,0:0:0:0:
11,132,140019,1,0,0:0:0:0:
46,66,140156,2,0,P|96:81|128:162,1,112.5,0|2,3:2|0:0,0:0:0:0:
49,335,140428,6,0,P|147:327|163:184,1,225,8|2,3:2|3:2,0:0:0:0:
206,143,140837,1,0,0:0:0:0:
299,12,140974,2,0,P|290:64|287:148,1,112.5,8|2,3:2|0:0,0:0:0:0:
477,325,141246,2,0,P|473:268|464:213,1,112.5,0|2,3:2|0:0,0:0:0:0:
136,217,141519,2,0,P|127:269|124:353,1,112.5,8|0,3:2|0:0,0:0:0:0:
183,152,141792,6,0,P|187:104|237:59,1,112.5,2|0,3:2|0:0,0:0:0:0:
391,137,142065,2,0,P|340:114|286:123,1,112.5,8|0,0:0|0:0,0:0:0:0:
464,213,142337,2,0,P|494:123|412:33,1,225,0|8,3:2|0:0,0:0:0:0:
340,52,142746,1,0,0:0:0:0:
221,0,142883,6,0,P|135:64|141:172,1,225,2|8,3:2|0:0,0:0:0:0:
272,289,143292,1,2,0:0:0:0:
207,230,143428,2,0,L|166:343,1,112.5,0|2,3:2|0:0,0:0:0:0:
338,238,143701,2,0,L|260:145,1,112.5,8|0,0:0|0:0,0:0:0:0:
264,374,143974,2,0,L|382:353,1,112.5,2|0,3:2|0:0,0:0:0:0:
495,222,144246,5,8,0:0:0:0:
415,175,144383,1,0,0:0:0:0:
331,201,144519,2,0,P|307:168|335:84,1,112.5,0|2,3:2|0:0,0:0:0:0:
476,35,144792,6,0,L|426:266,1,225,8|2,0:0|3:2,0:0:0:0:
461,329,145201,1,0,0:0:0:0:
331,201,145337,5,8,0:0:0:0:
201,241,145474,1,10,0:0:0:0:
359,307,145610,5,8,3:2:0:0:
173,135,145746,1,10,0:0:0:0:
280,274,145883,5,8,0:0:0:0:
252,168,146019,1,8,0:0:0:0:
160,357,146156,6,0,P|72:352|69:177,1,270,6|0,3:2|0:0,0:0:0:0:
113,169,146701,2,0,L|206:172,1,90,8|0,3:2|0:0,0:0:0:0:
276,171,146974,1,0,0:0:0:0:
276,171,147110,2,0,P|276:215|286:275,1,90,2|0,3:2|0:0,0:0:0:0:
340,384,147383,2,0,P|346:339|346:294,1,90,8|0,0:0|0:0,0:0:0:0:
353,222,147656,1,0,0:0:0:0:
493,313,147792,2,0,L|490:130,1,180,8|0,3:2|0:0,0:0:0:0:
507,62,148201,1,0,0:0:0:0:
317,58,148337,6,0,B|248:65|248:65|239:88|239:88|122:100,2,180,2|0|8,3:2|0:0|3:2,0:0:0:0:
317,58,149156,2,0,L|308:162,1,90,0|0,0:0|0:0,0:0:0:0:
378,183,149428,1,2,3:2:0:0:
378,183,149565,2,0,P|308:180|183:185,1,180,8|0,0:0|0:0,0:0:0:0:
44,157,149974,2,0,L|132:88,1,90,8|8,0:0|0:0,0:0:0:0:
131,276,150246,2,0,L|27:234,1,90,8|8,0:0|0:0,0:0:0:0:
194,93,150519,5,2,0:0:0:0:
218,260,150656,1,0,0:0:0:0:
321,203,150792,5,8,0:0:0:0:
187,341,150928,1,0,0:0:0:0:
378,362,151065,5,8,0:0:0:0:
131,276,151201,1,8,0:0:0:0:
373,131,151337,6,0,L|450:127,1,56.25,8|8,0:0|0:0,0:0:0:0:
264,49,151474,2,0,L|207:46,1,56.25,8|0,0:0|0:0,0:0:0:0:
281,224,151610,6,0,P|145:203|142:0,1,360,6|0,3:2|0:0,0:0:0:0:
207,46,152292,1,2,0:0:0:0:
207,46,152428,2,0,P|276:41|372:46,1,148.50000453186,8|0,0:0|0:0,0:0:0:0:
446,62,152701,5,6,3:2:0:0:
81,142,152974,1,8,3:2:0:0:
433,253,153246,5,2,3:2:0:0:
342,328,153383,1,2,3:2:0:0:
469,334,153519,1,8,3:2:0:0:
296,254,153656,2,0,P|216:255|69:252,1,198.000006042481,6|10,3:2|3:2,0:0:0:0:
20,237,154065,6,0,P|83:202|86:79,1,198.000006042481,8|2,3:2|3:2,0:0:0:0:
34,24,154474,1,8,0:0:0:0:
224,128,154610,5,8,0:0:0:0:
299,103,154746,1,0,0:0:0:0:
462,172,154883,5,6,0:0:0:0:
462,172,155156,2,0,P|460:211|462:264,1,80.9999975280763,0|2,0:0|0:0,0:0:0:0:
470,325,155428,2,0,L|301:321,1,161.999995056153,8|0,0:0|3:2,0:0:0:0:
236,313,155837,1,2,0:0:0:0:
54,239,155974,5,0,0:0:0:0:
118,205,156110,2,0,L|204:209,1,80.9999975280763,8|0,0:0|3:2,0:0:0:0:
318,146,156383,1,2,0:0:0:0:
240,140,156519,2,0,P|157:135|48:119,1,161.999995056153,8|2,0:0|0:0,0:0:0:0:
47,60,156928,1,0,0:0:0:0:
114,210,157065,6,0,P|33:229|28:369,1,242.999992584229,2|2,0:0|0:0,0:0:0:0:
98,333,157610,1,8,0:0:0:0:
98,333,157746,1,0,0:0:0:0:
303,317,157883,5,0,3:2:0:0:
246,260,158019,2,0,P|240:210|238:140,1,80.9999975280763,2|0,0:0|0:0,0:0:0:0:
431,53,158292,2,0,P|428:93|423:133,1,80.9999975280763,8|0,0:0|3:2,0:0:0:0:
511,174,158565,1,2,0:0:0:0:
511,174,158701,2,0,L|505:12,1,161.999995056153,8|2,0:0|0:0,0:0:0:0:
344,81,159110,5,0,0:0:0:0:
344,81,159246,2,0,B|277:87|277:87|262:108|262:108|168:119,1,180,2|0,0:0|0:0,0:0:0:0:
99,113,159656,1,0,0:0:0:0:
9,251,159792,6,0,B|53:245|53:245|129:254,1,90,8|0,0:0|0:0,0:0:0:0:
171,282,160065,1,0,0:0:0:0:
237,237,160201,1,2,0:0:0:0:
316,286,160337,1,2,0:0:0:0:
404,239,160474,2,0,B|416:281|416:281|402:335,1,90,8|0,0:0|0:0,0:0:0:0:
481,382,160746,5,0,0:0:0:0:
481,382,160883,2,0,L|500:191,1,180,8|2,0:0|0:0,0:0:0:0:
457,143,161292,1,0,0:0:0:0:
295,16,161428,2,0,L|304:130,1,90,2|0,0:0|0:0,0:0:0:0:
165,315,161701,2,0,L|174:201,1,90,2|0,0:0|0:0,0:0:0:0:
11,110,161974,6,0,L|54:98,1,33.7500012874604,8|8,0:0|0:0,0:0:0:0:
110,154,162110,2,0,L|74:105,1,45.0000017166138,8|2,0:0|0:0,0:0:0:0:
115,4,162337,2,0,L|95:59,1,45.0000017166138,2|2,0:0|0:0,0:0:0:0:
66,119,162519,5,4,0:0:0:0:
387,66,163201,5,0,0:0:0:0:
387,66,163337,2,0,L|398:265,1,161.999995056153,8|0,0:0|0:0,0:0:0:0:
402,307,163610,5,6,0:0:0:0:
89,127,163883,1,8,3:2:0:0:
190,78,164019,1,0,3:2:0:0:
324,162,164156,1,2,3:2:0:0:
487,43,164292,1,0,3:2:0:0:
324,162,164428,6,0,P|321:100|335:20,1,112.5,12|0,0:0|0:0,0:0:0:0:
430,163,164701,2,0,P|426:197|346:258,1,112.5,2|0,0:0|0:0,0:0:0:0:
159,150,164974,2,0,P|170:54|299:4,2,225,8|2|8,3:2|3:2|3:2,0:0:0:0:
204,214,165656,1,0,0:0:0:0:
303,348,165792,6,0,B|209:285|209:285|57:339,1,225,2|8,0:0|3:2,0:0:0:0:
21,125,166201,1,0,3:2:0:0:
23,292,166337,5,2,3:2:0:0:
105,86,166474,1,0,3:2:0:0:
111,218,166610,5,8,3:2:0:0:
255,161,166746,1,0,0:0:0:0:
137,192,166883,2,0,L|395:211,1,225,2|8,3:2|0:0,0:0:0:0:
512,122,167292,5,0,0:0:0:0:
491,45,167428,2,0,L|266:28,1,225,2|8,3:2|0:0,0:0:0:0:
193,68,167837,1,0,0:0:0:0:
21,30,167974,6,0,P|71:48|96:105,1,112.5,6|0,0:0|0:0,0:0:0:0:
66,174,168246,1,8,3:2:0:0:
250,182,168383,5,0,3:2:0:0:
216,248,168519,1,2,0:0:0:0:
393,116,168656,6,0,L|524:80,1,112.5,0|8,3:2|0:0,0:0:0:0:
483,364,168928,2,0,L|232:323,1,225,0|0,3:2|0:0,0:0:0:0:
198,365,169337,1,8,3:2:0:0:
250,182,169474,5,0,3:2:0:0:
324,163,169610,1,2,0:0:0:0:
165,64,169746,6,0,L|35:50,1,112.5,0|8,3:2|0:0,0:0:0:0:
393,26,170019,2,0,P|377:153|371:281,1,225,0|0,3:2|0:0,0:0:0:0:
49,324,170428,5,8,3:2:0:0:
164,229,170565,1,0,3:2:0:0:
181,366,170701,5,2,3:2:0:0:
40,193,170837,1,0,3:2:0:0:
293,58,170974,5,8,3:2:0:0:
246,297,171110,1,0,3:2:0:0:
375,126,171246,5,2,3:2:0:0:
164,229,171383,2,0,P|157:177|165:88,1,112.5,2|8,3:2|0:0,0:0:0:0:
345,260,171656,2,0,B|223:259|271:340|131:343,1,225,6|0,3:2|0:0,0:0:0:0:
25,99,172065,5,8,3:2:0:0:
33,113,172133,1,0,3:2:0:0:
30,129,172201,1,0,3:2:0:0:
36,143,172269,1,0,3:2:0:0:
11,177,172337,5,6,0:0:0:0:
409,93,172610,1,8,3:2:0:0:
308,142,172746,1,0,3:2:0:0:
174,58,172883,1,2,3:2:0:0:
11,177,173019,1,0,3:2:0:0:
174,58,173156,6,0,P|199:107|192:161,1,112.5,8|0,0:0|0:0,0:0:0:0:
131,328,173428,2,0,P|137:272|111:224,1,112.5,2|0,0:0|0:0,0:0:0:0:
0,50,173701,2,0,P|30:154|123:113,1,225,8|2,3:2|3:2,0:0:0:0:
174,58,174110,1,0,3:2:0:0:
244,267,174246,5,8,3:2:0:0:
260,192,174383,1,0,3:2:0:0:
310,366,174519,5,2,0:0:0:0:
184,214,174792,5,8,3:2:0:0:
325,243,174928,1,0,3:2:0:0:
214,24,175065,5,2,3:2:0:0:
60,170,175201,1,0,3:2:0:0:
446,214,175337,5,8,3:2:0:0:
308,12,175474,1,0,0:0:0:0:
250,327,175610,6,0,L|256:102,1,225,2|8,3:2|0:0,0:0:0:0:
477,9,176019,1,0,0:0:0:0:
472,299,176156,6,0,P|405:290|398:139,1,225,2|8,3:2|0:0,0:0:0:0:
446,101,176565,1,0,0:0:0:0:
155,310,176701,5,2,0:0:0:0:
155,310,176974,1,8,3:2:0:0:
287,167,177110,5,0,3:2:0:0:
238,237,177246,1,2,0:0:0:0:
376,295,177383,5,0,3:2:0:0:
140,141,177519,1,8,0:0:0:0:
267,312,177656,6,0,P|269:224|258:73,1,225,0|0,3:2|0:0,0:0:0:0:
203,29,178065,1,8,3:2:0:0:
386,114,178201,2,0,L|505:142,1,112.5,0|2,3:2|0:0,0:0:0:0:
139,211,178474,2,0,L|20:239,1,112.5,0|8,3:2|0:0,0:0:0:0:
391,361,178746,2,0,P|397:262|271:201,1,225,0|0,3:2|0:0,0:0:0:0:
220,220,179156,5,8,3:2:0:0:
381,171,179292,1,0,3:2:0:0:
106,127,179428,5,2,3:2:0:0:
309,299,179565,1,0,3:2:0:0:
426,12,179701,5,8,3:2:0:0:
261,114,179837,1,0,3:2:0:0:
446,24,179974,5,2,3:2:0:0:
230,12,180110,2,0,L|105:1,1,112.5,2|8,3:2|0:0,0:0:0:0:
290,99,180383,2,0,P|220:125|243:260,1,225,6|0,3:2|0:0,0:0:0:0:
308,236,180792,1,8,0:0:0:0:
308,236,180928,1,0,0:0:0:0:
480,373,181065,5,12,3:2:0:0:
486,231,181201,1,0,0:0:0:0:
366,298,181337,1,0,0:0:0:0:
504,360,181474,5,8,3:2:0:0:
446,212,181610,1,0,0:0:0:0:
354,322,181746,1,0,0:0:0:0:
437,295,181883,5,8,3:2:0:0:
295,247,182019,1,0,0:0:0:0:
193,342,182156,5,12,3:2:0:0:
153,198,182292,1,0,0:0:0:0:
316,233,182428,1,0,0:0:0:0:
179,363,182565,5,8,3:2:0:0:
166,176,182701,1,0,0:0:0:0:
346,245,182837,1,0,0:0:0:0:
242,283,182974,5,8,3:2:0:0:
225,120,183110,1,0,0:0:0:0:
367,53,183246,5,12,3:2:0:0:
462,262,183383,1,0,0:0:0:0:
392,63,183519,1,0,0:0:0:0:
303,214,183656,5,8,3:2:0:0:
512,119,183792,1,0,0:0:0:0:
313,189,183928,1,0,0:0:0:0:
512,201,184065,5,8,3:2:0:0:
306,104,184201,1,0,0:0:0:0:
407,152,184337,5,8,3:2:0:0:
407,152,184474,1,8,3:2:0:0:
474,156,184610,6,0,P|404:154|299:162,1,135,0|0,0:0|0:0,0:0:0:0:
268,186,184883,1,0,0:0:0:0:
159,151,185019,5,2,0:0:0:0:
89,192,185156,2,0,P|13:160|19:37,1,202.500007724762,8|0,0:0|0:0,0:0:0:0:
66,0,185428,5,6,3:2:0:0:
256,187,186519,5,6,3:2:0:0:
196,126,187065,5,2,3:2:0:0:
426,68,187610,5,6,0:0:0:0:
460,154,188701,6,0,P|459:201|461:263,1,90,8|2,3:2|0:0,0:0:0:0:
381,353,188974,2,0,P|382:306|380:244,1,90,8|2,3:2|0:0,0:0:0:0:
382,182,189246,5,8,3:2:0:0:
455,317,189383,1,2,0:0:0:0:
214,308,189519,5,8,3:2:0:0:
235,221,189656,1,8,0:0:0:0:
300,278,189792,5,6,3:2:0:0:
300,278,190065,2,0,L|295:376,1,90,0|0,0:0|0:0,0:0:0:0:
221,334,190337,2,0,P|158:336|13:331,1,180,8|0,3:2|0:0,0:0:0:0:
26,258,190746,1,0,0:0:0:0:
78,147,190883,5,2,3:2:0:0:
43,82,191019,1,8,0:0:0:0:
91,149,191156,2,0,L|183:152,1,90,0|0,0:0|0:0,0:0:0:0:
215,89,191428,2,0,P|212:178|214:270,1,180,8|2,3:2|0:0,0:0:0:0:
177,333,191837,1,0,0:0:0:0:
337,177,191974,6,0,L|343:65,1,90,8|2,3:2|0:0,0:0:0:0:
439,310,192246,2,0,L|527:371,1,90,8|2,0:0|0:0,0:0:0:0:
273,333,192519,2,0,L|178:393,1,90,8|2,3:2|0:0,0:0:0:0:
428,211,192792,5,8,0:0:0:0:
363,375,192928,1,0,0:0:0:0:
252,240,193065,2,0,B|152:201|152:201|34:264,1,225,6|0,3:2|0:0,0:0:0:0:
0,12,193474,6,0,P|15:96|151:111,1,225,6|8,3:2|3:2,0:0:0:0:
394,48,193883,1,8,3:2:0:0:
417,39,193951,1,0,0:0:0:0:
440,50,194019,1,8,3:2:0:0:
462,43,194087,1,0,0:0:0:0:
464,57,194156,6,0,B|394:40|417:109|330:106,1,135.000005149842,6|8,3:2|0:3,0:0:0:0:
217,97,194428,2,0,P|193:73|187:41,1,67.5000025749208,10|0,0:0|0:0,0:0:0:0:
248,173,194565,2,0,P|254:205|239:235,1,67.5000025749208,8|0,0:3|0:0,0:0:0:0:
160,320,194701,6,0,B|215:280|215:280|329:316,1,135.000005149842,2|8,3:2|0:3,0:0:0:0:
345,256,194906,1,0,0:0:0:0:
345,256,194974,2,0,L|364:186,1,67.5000025749208,10|0,0:0|0:0,0:0:0:0:
476,190,195110,2,0,L|494:255,1,67.5000025749208,8|0,0:3|0:0,0:0:0:0:
485,333,195246,6,0,L|311:338,1,135.000005149842,2|8,3:2|0:3,0:0:0:0:
223,365,195519,2,0,L|130:356,1,67.5000025749208,10|0,0:0|0:0,0:0:0:0:
10,330,195656,2,0,L|103:321,1,67.5000025749208,8|0,0:3|0:0,0:0:0:0:
149,266,195792,6,0,B|122:192|170:209|144:135,1,135.000005149842,2|8,3:2|0:3,0:0:0:0:
222,230,196065,1,10,0:0:0:0:
71,171,196201,1,8,0:3:0:0:
114,359,196337,6,0,P|157:307|222:297,1,135.000005149842,2|8,3:2|0:3,0:0:0:0:
256,279,196542,1,0,0:0:0:0:
289,297,196610,2,0,P|354:307|397:359,1,135.000005149842,10|8,0:0|0:3,0:0:0:0:
512,277,196883,6,0,P|478:283|444:282,1,67.5000025749208,2|0,3:2|0:0,0:0:0:0:
321,142,197019,2,0,P|354:141|388:146,1,67.5000025749208,8|0,0:3|0:0,0:0:0:0:
512,9,197156,2,0,B|438:4|466:64|384:69,1,135.000005149842,10|8,3:2|0:3,0:0:0:0:
321,52,197360,1,0,0:0:0:0:
321,52,197428,6,0,L|165:89,1,135.000005149842,2|8,3:2|0:3,0:0:0:0:
321,332,197701,2,0,L|165:295,1,135.000005149842,10|8,3:2|0:3,0:0:0:0:
115,261,197906,1,0,0:0:0:0:
115,261,197974,6,0,L|39:286,1,67.5000025749208,2|0,3:2|0:0,0:0:0:0:
37,105,198110,2,0,L|101:126,1,67.5000025749208,8|0,0:3|0:0,0:0:0:0:
168,187,198246,1,10,3:2:0:0:
181,65,198383,1,8,0:3:0:0:
290,130,198519,6,0,B|351:160|351:160|415:143,1,135.000005149842,2|8,3:2|0:3,0:0:0:0:
213,89,198792,2,0,P|203:128|215:175,1,67.5000025749208,10|0,0:0|0:0,0:0:0:0:
51,76,198928,2,0,P|82:50|99:5,1,67.5000025749208,8|0,0:3|0:0,0:0:0:0:
97,183,199065,6,0,L|7:203,1,67.5000025749208,2|0,3:2|0:0,0:0:0:0:
0,286,199201,2,0,L|90:306,1,67.5000025749208,8|0,0:3|0:0,0:0:0:0:
150,374,199337,2,0,P|140:303|159:193,1,135.000005149842,10|8,0:0|0:3,0:0:0:0:
226,228,199542,1,0,0:0:0:0:
226,228,199610,6,0,B|290:243|290:243|354:208,1,135.000005149842,2|8,3:2|0:3,0:0:0:0:
479,246,199883,2,0,B|400:230|432:293|339:293,1,135.000005149842,10|8,0:0|0:3,0:0:0:0:
351,210,200087,1,0,0:0:0:0:
351,210,200156,6,0,B|344:180|344:180|350:143,1,67.5000025749208,2|0,3:2|0:0,0:0:0:0:
204,11,200292,2,0,B|211:41|211:41|204:77,1,67.5000025749208,8|0,0:3|0:0,0:0:0:0:
303,70,200428,2,0,L|481:55,1,135.000005149842,10|8,0:0|0:3,0:0:0:0:
168,147,200701,6,0,L|92:141,1,67.5000025749208,2|0,3:2|0:0,0:0:0:0:
60,50,200837,2,0,L|136:44,1,67.5000025749208,8|0,0:3|0:0,0:0:0:0:
39,260,200974,2,0,B|1:204|1:204|18:138,1,135.000005149842,10|8,0:0|0:3,0:0:0:0:
249,234,201246,6,0,L|233:336,1,67.5000025749208,2|0,3:2|0:0,0:0:0:0:
125,302,201383,2,0,L|109:200,1,67.5000025749208,8|0,0:3|0:0,0:0:0:0:
101,142,201519,2,0,L|265:151,1,135.000005149842,10|8,0:0|0:3,0:0:0:0:
303,112,201724,1,0,0:0:0:0:
303,112,201792,6,0,B|313:144|313:144|308:180,1,67.5000025749208,10|0,3:2|0:0,0:0:0:0:
323,363,201928,2,0,B|313:331|313:331|318:295,1,67.5000025749208,8|0,0:0|0:0,0:0:0:0:
476,123,202065,6,0,L|385:138,1,67.5000025749208,10|0,0:0|0:0,0:0:0:0:
492,284,202201,2,0,L|401:269,1,67.5000025749208,8|0,0:0|0:0,0:0:0:0:
292,186,202337,6,0,L|225:181,1,67.5000025749208,10|0,3:2|0:0,0:0:0:0:
133,304,202474,2,0,L|66:310,1,67.5000025749208,8|0,0:0|0:0,0:0:0:0:
66,74,202610,6,0,L|133:79,1,67.5000025749208,10|0,0:0|0:0,0:0:0:0:
225,203,202746,2,0,L|292:197,1,67.5000025749208,8|0,0:0|0:0,0:0:0:0:
373,10,202883,6,0,P|449:28|455:214,1,270,6|0,3:2|0:0,0:0:0:0:
393,262,203428,1,8,3:2:0:0:
321,242,203565,1,0,0:0:0:0:
250,264,203701,1,0,0:0:0:0:
89,219,203837,5,2,3:2:0:0:
89,219,204110,2,0,L|-12:226,1,90,8|0,0:0|0:0,0:0:0:0:
24,342,204383,1,0,0:0:0:0:
89,371,204519,2,0,P|157:331|151:216,1,180,8|0,3:2|0:0,0:0:0:0:
146,166,204928,1,0,0:0:0:0:
296,119,205065,5,2,3:2:0:0:
310,34,205201,1,0,0:0:0:0:
311,110,205337,2,0,L|322:222,1,90,0|0,0:0|0:0,0:0:0:0:
406,255,205610,2,0,B|422:214|422:214|412:169,1,90,8|0,3:2|0:0,0:0:0:0:
229,161,205883,2,0,B|212:201|212:201|222:246,1,90,0|0,0:0|0:0,0:0:0:0:
184,364,206156,6,0,P|122:347|111:227,1,180,2|2,3:2|0:0,0:0:0:0:
147,179,206565,1,0,0:0:0:0:
12,342,206701,5,8,0:0:0:0:
39,151,206837,1,8,0:0:0:0:
229,161,206974,5,8,0:0:0:0:
194,27,207110,1,8,0:0:0:0:
99,244,207246,5,2,0:0:0:0:
311,182,207383,1,0,0:0:0:0:
350,354,207519,5,8,0:0:0:0:
229,161,207656,1,0,0:0:0:0:
432,55,207792,5,8,0:0:0:0:
337,263,207928,1,8,0:0:0:0:
119,152,208065,5,8,0:0:0:0:
87,179,208133,1,8,0:0:0:0:
58,158,208201,1,8,0:0:0:0:
35,175,208269,1,8,0:0:0:0:
21,166,208337,5,6,3:2:0:0:
158,352,208610,1,0,0:0:0:0:
311,182,208883,1,0,0:0:0:0:
420,309,209019,5,2,0:0:0:0:
420,309,209156,2,0,P|412:243|422:126,1,168.75,8|0,0:0|0:0,0:0:0:0:
466,67,209428,6,0,P|394:42|323:202,2,270.000010299683,6|8|2,3:2|3:2|3:2,0:0:0:0:
83,133,210246,1,8,3:2:0:0:
45,67,210383,2,0,P|170:61|201:182,1,270.000010299683,2|2,3:2|3:2,0:0:0:0:
210,285,210792,6,0,B|152:253|152:253|73:268,1,135.000005149842,8|0,3:2|0:0,0:0:0:0:
133,364,211065,1,2,3:2:0:0:
301,225,211201,1,8,0:0:0:0:
445,357,211337,5,8,0:0:0:0:
373,291,211474,1,0,0:0:0:0:
463,40,211610,5,6,3:2:0:0:
463,40,211746,2,0,P|470:77|469:166,1,112.5,8|2,3:2|3:2,0:0:0:0:
417,218,212019,2,0,P|330:198|313:52,1,225,8|8,3:2|3:2,0:0:0:0:
351,19,212428,1,2,0:0:0:0:
258,227,212565,6,0,B|119:189|185:325|39:309,1,225,8|8,3:2|3:3,0:0:0:0:
26,242,212974,1,2,3:2:0:0:
46,169,213110,1,8,0:3:0:0:
232,320,213246,6,0,L|343:372,1,112.5,2|8,3:2|0:3,0:0:0:0:
435,33,213519,2,0,L|333:80,1,112.5,2|8,3:2|0:3,0:0:0:0:
217,182,213792,5,2,3:2:0:0:
299,96,213928,1,8,3:2:0:0:
333,209,214065,1,2,3:2:0:0:
144,46,214201,6,0,B|124:99|124:99|144:175,1,112.5,8|2,3:2|0:0,0:0:0:0:
263,366,214474,2,0,B|283:313|283:313|263:237,1,112.5,8|2,3:2|0:0,0:0:0:0:
492,31,214746,6,0,P|410:33|411:172,1,225,8|8,3:2|3:3,0:0:0:0:
461,181,215156,1,2,3:2:0:0:
475,106,215292,1,8,0:3:0:0:
409,334,215428,5,2,3:2:0:0:
395,227,215565,1,8,0:3:0:0:
468,273,215701,1,2,3:2:0:0:
338,290,215837,1,8,0:3:0:0:
258,167,215974,5,2,3:2:0:0:
277,69,216110,2,0,P|272:128|283:213,1,112.5,8|2,3:2|3:2,0:0:0:0:
108,88,216383,2,0,P|161:62|229:10,1,112.5,8|2,3:2|0:0,0:0:0:0:
208,224,216656,2,0,P|159:190|80:157,1,112.5,8|2,3:2|0:0,0:0:0:0:
40,132,216928,6,0,P|29:209|152:278,1,225,8|8,3:2|3:3,0:0:0:0:
200,222,217337,1,2,3:2:0:0:
276,258,217474,1,8,0:3:0:0:
461,189,217610,6,0,L|312:209,1,112.5,2|8,3:2|0:3,0:0:0:0:
64,119,217883,2,0,L|213:139,1,112.5,2|8,3:2|0:3,0:0:0:0:
469,62,218156,5,2,3:2:0:0:
403,27,218292,1,8,0:2:0:0:
323,76,218428,1,2,3:2:0:0:
236,27,218565,1,8,0:2:0:0:
137,93,218701,1,2,3:2:0:0:
52,17,218837,1,8,0:2:0:0:
0,228,218974,5,2,3:2:0:0:
68,202,219110,2,0,B|185:164|135:306|307:270,1,225,8|8,3:2|0:3,0:0:0:0:
339,242,219519,1,2,0:0:0:0:
330,314,219656,1,8,0:3:0:0:
401,285,219792,6,0,B|450:247|450:247|313:304|183:324|183:324|250:335,1,405.000015449525,10|0,3:2|0:3,0:0:0:0:
341,371,220337,5,6,3:2:0:0:
347,198,220474,2,0,B|291:192|291:192|232:233,1,112.5,8|2,3:2|3:2,0:0:0:0:
0,110,220746,6,0,B|71:99|71:99|110:41|110:41|210:27,1,225,8|8,3:2|3:2,0:0:0:0:
247,77,221156,1,2,0:0:0:0:
224,336,221292,6,0,P|220:251|77:229,1,225,8|8,3:2|3:3,0:0:0:0:
44,273,221701,1,2,3:2:0:0:
19,199,221837,1,8,0:3:0:0:
47,125,221974,6,0,B|101:137|101:137|162:113,1,112.5,2|8,3:2|0:3,0:0:0:0:
270,259,222246,2,0,B|324:247|324:247|385:271,1,112.5,2|8,3:2|0:3,0:0:0:0:
490,79,222519,5,2,3:2:0:0:
388,78,222656,1,8,3:2:0:0:
438,169,222792,1,2,3:2:0:0:
396,63,222928,2,0,P|348:65|341:194,1,168.75,8|0,3:2|0:0,0:0:0:0:
330,180,223201,1,8,3:2:0:0:
493,288,223337,5,2,0:0:0:0:
420,275,223474,2,0,B|363:270|363:270|285:345|285:345|188:336,1,225,8|8,3:2|3:3,0:0:0:0:
167,277,223883,2,0,L|157:152,1,112.5,2|8,3:2|0:3,0:0:0:0:
40,340,224156,6,0,P|98:341|153:383,1,112.5,2|8,3:2|0:3,0:0:0:0:
102,90,224428,2,0,P|54:123|-14:121,1,112.5,2|8,3:2|0:3,0:0:0:0:
81,227,224701,5,2,3:2:0:0:
233,212,224837,2,0,L|359:216,1,112.5,8|2,3:2|3:2,0:0:0:0:
406,259,225110,2,0,P|472:243|476:125,1,168.75,8|0,3:2|0:0,0:0:0:0:
479,136,225383,1,8,3:2:0:0:
436,74,225519,5,2,0:0:0:0:
497,17,225656,2,0,B|363:-2|423:108|284:95,1,225,8|8,3:2|3:3,0:0:0:0:
251,50,226065,1,2,3:2:0:0:
239,37,226201,1,8,0:3:0:0:
178,84,226337,1,2,3:2:0:0:
133,27,226474,1,8,0:3:0:0:
54,106,226610,6,0,B|31:61|31:61|49:-9,1,112.5,2|8,3:2|0:3,0:0:0:0:
250,14,226883,2,0,B|273:59|273:59|255:129,1,112.5,2|8,3:2|0:2,0:0:0:0:
208,183,227156,6,0,L|65:200,1,112.5,2|8,3:2|0:2,0:0:0:0:
280,197,227428,2,0,L|366:312,1,112.5,2|8,3:2|0:2,0:0:0:0:
417,286,227701,1,2,3:2:0:0:
154,367,227837,5,8,3:2:0:0:
165,296,227974,1,0,0:0:0:0:
346,375,228110,5,8,0:3:0:0:
330,298,228246,1,2,0:0:0:0:
244,145,228383,5,8,0:3:0:0:
344,182,228519,2,0,B|248:235|248:235|112:183,1,225,10|2,3:2|0:0,0:0:0:0:
29,28,228928,5,8,0:3:0:0:
23,28,229065,2,0,L|430:34,1,404.999987640381,6|0,3:2|0:0,0:0:0:0:
442,15,230156,6,0,L|431:151,1,135.000005149842,12|8,3:2|0:0,0:0:0:0:
367,282,230428,2,0,L|359:147,1,135.000005149842,8|8,3:2|0:0,0:0:0:0:
290,218,230701,2,0,L|278:361,1,135.000005149842,8|8,3:2|0:0,0:0:0:0:
219,191,230974,2,0,L|223:41,1,135.000005149842,8|8,3:2|0:0,0:0:0:0:
28,54,231246,6,0,B|85:21|85:21|168:39,1,135.000005149842,8|8,3:2|0:0,0:0:0:0:
152,348,231519,2,0,B|85:363|85:363|28:330,1,135.000005149842,8|8,3:2|0:0,0:0:0:0:
304,106,231792,2,0,L|434:7,1,135.000005149842,8|8,3:2|0:0,0:0:0:0:
411,359,232065,2,0,L|304:278,1,135.000005149842,8|8,3:2|0:0,0:0:0:0:
478,191,232337,5,8,3:2:0:0:
478,191,232474,1,8,3:2:0:0:
403,176,232746,1,8,3:2:0:0:
331,202,233019,1,8,3:2:0:0:
331,193,233292,5,8,3:2:0:0:
257,208,233565,1,8,3:2:0:0:
187,187,233837,1,8,3:2:0:0:
15,211,234110,6,0,P|105:216|122:385,1,281.25,8|0,3:2|0:0,0:0:0:0:
115,371,234519,6,0,P|211:368|26:73,1,720,10|8,3:2|3:2,0:0:0:0:
16,123,235746,6,0,L|1:283,1,150,2|0,0:0|0:0,0:0:0:0:
72,312,236065,1,8,0:0:0:0:
98,292,236156,2,0,P|188:286|380:294,1,270,10|2,0:0|0:0,0:0:0:0:
437,342,236701,6,0,P|480:287|387:186,1,225,4|8,3:2|0:0,0:0:0:0:
116,185,237110,2,0,P|32:246|75:342,1,225,4|2,3:2|0:0,0:0:0:0:
291,337,237519,1,8,3:2:0:0:
227,298,237656,1,4,3:2:0:0:
