osu file format v14

[General]
AudioFilename: audio.mp3
AudioLeadIn: 0
PreviewTime: 184474
Countdown: 0
SampleSet: Soft
StackLeniency: 0.5
Mode: 0
LetterboxInBreaks: 0
WidescreenStoryboard: 1

[Editor]
DistanceSpacing: 1.2
BeatDivisor: 16
GridSize: 4
TimelineZoom: 1.7

[Metadata]
Title:Koiseyo Otome!
TitleUnicode:恋せよ乙女!
Artist:Yonekura Chihiro
ArtistUnicode:米倉千尋
Creator:Kencho
Version:Collab Extra
Source:サノバウィッチ
Tags:Smug Nanachi sodarose -Eriri- Mimari SnowNiNo_ Narcissu Lavender yf_bmp Skystar Amamiya Yuko sabbat of the witch yuzu soft visual novel eroge hentai opening sanoba japanese video game
BeatmapID:1097608
BeatmapSetID:498438

[Difficulty]
HPDrainRate:6
CircleSize:4
OverallDifficulty:8.3
ApproachRate:9.3
SliderMultiplier:0.999999999999999
SliderTickRate:1

[Events]
//Background and Video events
0,0,"BG1.jpg",0,0
//Break Periods
2,155083,163056
//Storyboard Layer 0 (Background)
//Storyboard Layer 1 (Fail)
//Storyboard Layer 2 (Pass)
//Storyboard Layer 3 (Foreground)
//Storyboard Layer 4 (Overlay)
//Storyboard Sound Samples

[TimingPoints]
1113,260.869565217391,4,2,1,60,1,0
1113,-62.5,4,2,1,60,0,0
2156,272.727272727273,4,2,1,60,1,0
2156,-62.5,4,2,1,60,0,0
10678,-100,4,2,1,50,0,0
10883,-58.8235294117647,4,2,1,60,0,0
19610,-142.857142857143,4,2,1,50,0,0
20565,-142.857142857143,4,2,1,5,0,0
20701,-58.8235294117647,4,2,1,70,0,0
20974,-58.8235294117647,4,2,1,80,0,0
21246,-58.8235294117647,4,2,1,90,0,0
21519,-58.8235294117647,4,2,1,100,0,0
21792,-62.5,4,2,1,70,0,0
39246,-71.4285714285714,4,2,1,60,0,0
45792,-62.5,4,2,1,70,0,0
50156,-62.5,4,2,1,80,0,0
52133,-62.5,4,2,1,50,0,0
52337,-62.5,4,2,1,80,0,0
54519,-62.5,4,2,1,90,0,0
55610,-62.5,4,2,1,100,0,0
56701,-58.8235294117647,4,2,1,90,0,1
61815,-58.8235294117647,4,2,1,30,0,1
61883,-58.8235294117647,4,2,1,90,0,1
62906,-58.8235294117647,4,2,1,30,0,1
62974,-58.8235294117647,4,2,1,90,0,1
65224,-58.8235294117647,4,2,1,50,0,1
65428,-58.8235294117647,4,2,1,90,0,1
74156,-71.4285714285714,4,2,1,70,0,0
78519,-58.8235294117647,4,2,1,90,0,1
79406,-58.8235294117647,4,2,1,50,0,1
79610,-58.8235294117647,4,2,1,90,0,1
80428,-58.8235294117647,4,2,1,60,0,1
80633,-58.8235294117647,4,2,1,5,0,1
80701,-58.8235294117647,4,2,1,90,0,1
82883,-58.8235294117647,4,2,1,60,0,0
91610,-142.857142857143,4,2,1,50,0,0
92565,-142.857142857143,4,2,1,5,0,0
92701,-58.8235294117647,4,2,1,70,0,0
92974,-58.8235294117647,4,2,1,80,0,0
93246,-58.8235294117647,4,2,1,90,0,0
93519,-58.8235294117647,4,2,1,100,0,0
93792,-71.4285714285714,4,2,1,60,0,0
98156,-62.5,4,2,1,70,0,0
111246,-71.4285714285714,4,2,1,60,0,0
117792,-62.5,4,2,1,70,0,0
122156,-62.5,4,2,1,80,0,0
124133,-62.5,4,2,1,50,0,0
124337,-62.5,4,2,1,80,0,0
126519,-62.5,4,2,1,90,0,0
127610,-62.5,4,2,1,100,0,0
128701,-55.5555555555556,4,2,1,90,0,1
133815,-55.5555555555556,4,2,1,30,0,1
133883,-55.5555555555556,4,2,1,90,0,1
134906,-55.5555555555556,4,2,1,30,0,1
134974,-55.5555555555556,4,2,1,90,0,1
137224,-55.5555555555556,4,2,1,50,0,1
137428,-55.5555555555556,4,2,1,90,0,1
146156,-71.4285714285714,4,2,1,70,0,0
150519,-55.5555555555556,4,2,1,90,0,1
152156,-55.5555555555556,4,2,1,60,0,1
152633,-55.5555555555556,4,2,1,5,0,1
152701,-55.5555555555556,4,2,1,90,0,1
154883,-71.4285714285714,4,2,1,90,0,0
159246,-71.4285714285714,4,2,1,60,0,0
161974,-133.333333333333,4,2,1,80,0,0
163337,-100,4,2,1,80,0,0
163542,-100,4,2,1,5,0,0
163610,-62.5,4,2,1,70,0,0
182156,-62.5,4,2,1,80,0,0
183246,-62.5,4,2,1,90,0,0
184337,-62.5,4,2,1,100,0,0
185428,-133.333333333333,4,2,1,60,0,0
188701,-100,4,2,1,80,0,0
193065,-52.0833333333333,4,2,1,80,0,0
194156,-52.0833333333333,4,2,1,90,0,1
202883,-71.4285714285714,4,2,1,70,0,0
207246,-52.0833333333333,4,2,1,90,0,1
208133,-52.0833333333333,4,2,1,50,0,1
208337,-52.0833333333333,4,2,1,90,0,1
209156,-52.0833333333333,4,2,1,60,0,1
209360,-52.0833333333333,4,2,1,5,0,1
209428,-52.0833333333333,4,2,1,90,0,1
211610,-58.8235294117647,4,2,1,70,0,0
219860,-58.8235294117647,4,2,1,50,0,0
220065,-58.8235294117647,4,2,1,70,0,0
229065,-58.8235294117647,4,2,1,60,0,0
230019,-58.8235294117647,4,2,1,5,0,0
230156,-58.8235294117647,4,2,1,70,0,0
230292,-58.8235294117647,4,2,1,40,0,0
230428,-58.8235294117647,4,2,1,70,0,0
230565,-58.8235294117647,4,2,1,40,0,0
230701,-58.8235294117647,4,2,1,70,0,0
230837,-58.8235294117647,4,2,1,40,0,0
230974,-58.8235294117647,4,2,1,70,0,0
231110,-58.8235294117647,4,2,1,40,0,0
231246,-58.8235294117647,4,2,1,80,0,0
231383,-58.8235294117647,4,2,1,50,0,0
231519,-58.8235294117647,4,2,1,80,0,0
231656,-58.8235294117647,4,2,1,50,0,0
231792,-58.8235294117647,4,2,1,80,0,0
231928,-58.8235294117647,4,2,1,50,0,0
232065,-58.8235294117647,4,2,1,80,0,0
232201,-58.8235294117647,4,2,1,50,0,0
232337,-58.8235294117647,4,2,1,70,0,0
236224,-58.8235294117647,4,2,1,50,0,0
236428,-58.8235294117647,4,2,1,70,0,0
236701,-58.8235294117647,4,2,1,80,0,0

[Colours]
Combo1 : 255,240,128
Combo2 : 224,224,224
Combo3 : 255,128,112
Combo4 : 208,192,200
Combo5 : 80,80,96

[HitObjects]
200,112,1113,5,4,0:0:0:0:
312,132,1243,1,8,0:0:0:0:
312,132,1308,1,8,0:0:0:0:
312,132,1373,1,8,0:0:0:0:
192,232,1504,1,8,0:0:0:0:
348,220,1634,2,0,P|388:191|404:156,1,79.9999999999999,2|2,0:0|0:0,0:0:0:0:
121,174,1895,2,0,P|102:209|100:249,1,79.9999999999999,8|8,0:0|0:0,0:0:0:0:
232,324,2156,6,0,L|228:236,2,79.9999999999999,4|0|0,3:2|3:2|3:2,0:0:0:0:
108,288,2565,2,0,L|24:280,1,79.9999999999999,0|8,3:2|0:0,0:0:0:0:
352,276,2837,2,0,L|436:268,1,79.9999999999999,0|0,3:2|0:0,0:0:0:0:
228,244,3110,6,0,P|192:172|208:88,1,160,0|2,3:2|3:2,0:0:0:0:
380,16,3519,2,0,P|380:56|356:100,1,79.9999999999999,0|2,3:2|0:0,0:0:0:0:
452,128,3792,2,0,P|432:162|389:188,1,79.9999999999999,8|0,3:2|0:0,0:0:0:0:
460,260,4065,2,0,P|425:280|375:281,1,79.9999999999999,0|0,3:2|0:0,0:0:0:0:
284,132,4337,6,0,L|184:124,2,79.9999999999999,0|0|0,3:2|3:2|3:2,0:0:0:0:
176,40,4746,2,0,L|264:36,1,79.9999999999999,0|8,3:2|0:0,0:0:0:0:
160,204,5019,2,0,L|240:220,1,79.9999999999999,0|0,3:2|0:0,0:0:0:0:
60,36,5292,6,0,P|84:116|36:204,1,160,0|2,3:2|3:2,0:0:0:0:
92,356,5701,2,0,B|88:328|88:328|100:252,1,79.9999999999999,0|2,3:2|0:0,0:0:0:0:
160,204,5974,1,8,3:2:0:0:
392,268,6246,1,2,0:0:0:0:
392,268,6383,1,8,0:0:0:0:
299,288,6519,6,0,P|301:247|323:195,2,79.9999999999999,4|0|0,3:2|3:2|3:2,0:0:0:0:
482,233,6928,2,0,P|456:202|422:180,1,79.9999999999999,0|8,3:2|0:0,0:0:0:0:
380,364,7201,2,0,P|419:356|454:338,1,79.9999999999999,0|0,3:2|0:0,0:0:0:0:
315,138,7474,6,0,P|283:210|298:287,1,160,0|2,3:2|3:2,0:0:0:0:
388,72,7883,2,0,P|356:52|300:44,1,79.9999999999999,0|2,3:2|0:0,0:0:0:0:
392,224,8156,2,0,L|484:216,1,79.9999999999999,8|0,3:2|0:0,0:0:0:0:
276,132,8428,2,0,L|196:124,1,79.9999999999999,0|0,3:2|0:0,0:0:0:0:
344,228,8701,6,0,P|368:296|352:388,1,160,0|0,3:2|3:2,0:0:0:0:
268,312,9110,1,0,0:0:0:0:
212,236,9246,2,0,L|112:240,1,79.9999999999999,8|0,3:2|0:0,0:0:0:0:
268,312,9519,1,0,3:2:0:0:
63,327,9656,6,0,P|26:258|35:180,1,160,0|2,3:2|3:2,0:0:0:0:
113,56,10065,2,0,L|120:136,1,79.9999999999999,0|2,3:2|0:0,0:0:0:0:
224,36,10337,2,0,L|217:115,1,79.9999999999999,8|0,3:2|0:0,0:0:0:0:
324,64,10610,2,0,L|316:116,2,40,8|8|8,3:2|0:0|0:0,0:0:0:0:
488,112,10883,5,6,3:2:0:0:
444,204,11019,1,8,3:2:0:0:
460,304,11156,1,2,3:2:0:0:
444,204,11292,2,0,P|400:188|348:192,1,85.0000016212463,8|2,3:2|0:0,0:0:0:0:
324,320,11565,2,0,L|232:328,1,85.0000016212463,8|2,3:2|0:0,0:0:0:0:
85,266,11837,6,0,P|125:254|168:256,1,85.0000016212463,8|2,3:2|0:0,0:0:0:0:
240,328,12110,1,8,3:3:0:0:
176,156,12246,2,0,L|184:72,1,85.0000016212463,2|8,3:2|0:3,0:0:0:0:
40,160,12519,2,0,L|44:248,1,85.0000016212463,2|8,3:2|0:3,0:0:0:0:
264,232,12792,2,0,L|284:140,1,85.0000016212463,2|8,3:2|0:3,0:0:0:0:
460,168,13065,5,2,3:2:0:0:
368,208,13201,1,8,3:2:0:0:
376,108,13337,1,2,3:2:0:0:
460,168,13474,2,0,P|468:212|456:264,1,85.0000016212463,8|2,3:2|0:0,0:0:0:0:
282,148,13746,2,0,L|190:140,1,85.0000016212463,8|2,3:2|0:0,0:0:0:0:
376,108,14019,6,0,P|360:65|324:26,1,85.0000016212463,8|2,3:2|0:0,0:0:0:0:
368,208,14292,1,8,3:3:0:0:
304,288,14428,2,0,P|260:295|208:283,1,85.0000016212463,2|8,3:2|0:3,0:0:0:0:
112,204,14701,2,0,L|124:380,1,170.000003242493,2|2,3:2|3:2,0:0:0:0:
100,52,15246,5,2,3:2:0:0:
192,100,15383,1,8,3:2:0:0:
276,40,15519,1,2,3:2:0:0:
368,88,15656,2,0,P|408:77|440:49,1,85.0000016212463,8|2,3:2|0:0,0:0:0:0:
284,143,15928,2,0,P|316:175|360:186,1,85.0000016212463,8|2,3:2|0:0,0:0:0:0:
445,328,16201,6,0,L|436:244,1,85.0000016212463,8|2,3:2|0:0,0:0:0:0:
353,186,16474,1,8,3:3:0:0:
512,123,16610,2,0,L|428:120,1,85.0000016212463,2|8,3:2|0:3,0:0:0:0:
264,280,16883,2,0,L|368:276,1,85.0000016212463,2|8,3:2|0:3,0:0:0:0:
320,76,17156,2,0,L|316:164,1,85.0000016212463,2|8,3:2|0:3,0:0:0:0:
220,364,17428,6,0,P|235:285|192:208,1,170.000003242493,2|2,3:2|3:2,0:0:0:0:
96,184,17837,1,8,0:2:0:0:
16,248,17974,2,0,L|8:344,1,85.0000016212463,2|8,3:2|0:2,0:0:0:0:
96,184,18246,1,2,3:2:0:0:
40,96,18383,6,0,B|88:84|88:84|164:96|164:96|228:84,1,170.000003242493,8|8,3:2|0:3,0:0:0:0:
292,28,18792,2,0,P|340:32|372:56,1,85.0000016212463,2|8,0:0|0:3,0:0:0:0:
368,156,19065,1,10,0:0:0:0:
368,156,19133,1,8,0:0:0:0:
368,156,19201,1,8,3:3:0:0:
452,212,19337,1,2,3:2:0:0:
460,108,19474,1,8,3:3:0:0:
368,156,19610,6,2,P|372:272|488:308,1,244.999992523193,6|0,3:2|0:0,0:0:0:0:
368,156,20701,6,0,L|264:152,1,85.0000016212463,12|0,3:2|0:0,0:0:0:0:
340,64,20974,2,0,L|255:60,1,85.0000016212463,8|0,3:2|0:0,0:0:0:0:
180,148,21246,2,0,L|95:144,1,85.0000016212463,8|0,3:2|0:0,0:0:0:0:
152,56,21519,2,0,L|48:52,1,85.0000016212463,8|0,3:2|0:0,0:0:0:0:
0,140,21792,5,6,0:0:0:0:
0,140,22065,2,0,P|4:184|-12:224,1,79.9999999999999,8|0,0:0|3:2,0:0:0:0:
112,340,22337,2,0,P|88:312|80:252,1,79.9999999999999,2|2,0:0|3:2,0:0:0:0:
180,148,22610,2,0,P|145:169|97:173,1,79.9999999999999,8|0,0:0|3:2,0:0:0:0:
224,272,22883,6,0,B|265:251|265:251|393:243,1,160,2|8,0:0|0:0,0:0:0:0:
476,240,23292,2,0,P|408:228|364:148,1,160,2|2,3:2|3:2,0:0:0:0:
468,64,23701,2,0,L|460:144,1,79.9999999999999,8|0,0:0|3:2,0:0:0:0:
284,159,23974,6,0,L|364:154,1,79.9999999999999,2|0,0:0|3:2,0:0:0:0:
248,40,24246,2,0,L|348:52,1,79.9999999999999,8|0,0:0|3:2,0:0:0:0:
188,136,24519,2,0,L|268:136,1,79.9999999999999,2|2,0:0|3:2,0:0:0:0:
120,68,24792,1,8,0:0:0:0:
28,96,24928,6,0,P|-4:168|16:260,1,160,2|0,3:2|3:2,0:0:0:0:
111,327,25337,2,0,L|104:248,1,79.9999999999999,8|0,3:2|3:2,0:0:0:0:
208,332,25610,1,2,3:2:0:0:
304,332,25746,2,0,L|315:245,1,79.9999999999999,2|8,3:2|0:0,0:0:0:0:
111,327,26019,6,0,L|96:132,1,160,0|0,3:2|3:2,0:0:0:0:
241,75,26428,2,0,B|229:105|229:105|188:128,1,79.9999999999999,8|0,0:0|3:2,0:0:0:0:
56,72,26701,2,0,L|64:152,1,79.9999999999999,2|2,0:0|3:2,0:0:0:0:
260,200,26974,2,0,L|176:244,1,79.9999999999999,8|0,0:0|3:2,0:0:0:0:
241,75,27246,6,0,P|318:83|372:140,1,160,2|8,0:0|0:0,0:0:0:0:
484,272,27656,2,0,P|464:195|492:120,1,160,2|2,3:2|3:2,0:0:0:0:
364,236,28065,1,8,0:0:0:0:
364,236,28201,1,8,3:2:0:0:
276,200,28337,6,0,P|200:222|148:281,1,160,6|0,3:2|0:0,0:0:0:0:
364,236,28746,1,0,0:0:0:0:
352,140,28883,2,0,P|294:85|217:70,1,160,8|0,3:2|0:0,0:0:0:0:
364,236,29292,1,2,0:0:0:0:
440,180,29428,2,0,P|458:103|433:28,1,160,2|0,3:2|0:0,0:0:0:0:
364,236,29837,1,0,0:0:0:0:
452,280,29974,6,0,L|464:368,2,79.9999999999999,8|2|8,3:2|0:0|0:0,0:0:0:0:
364,236,30383,1,0,0:0:0:0:
284,288,30519,5,6,0:0:0:0:
284,288,30792,2,0,L|191:292,1,79.9999999999999,8|0,0:0|3:2,0:0:0:0:
101,375,31065,2,0,L|108:296,1,79.9999999999999,2|2,0:0|3:2,0:0:0:0:
188,116,31337,2,0,L|197:218,1,79.9999999999999,8|0,0:0|3:2,0:0:0:0:
8,232,31610,6,0,P|-16:164|12:72,1,160,2|8,0:0|0:0,0:0:0:0:
96,108,32019,2,0,L|260:92,1,160,2|2,3:2|3:2,0:0:0:0:
413,68,32428,2,0,P|379:47|340:44,1,79.9999999999999,8|0,0:0|3:2,0:0:0:0:
420,212,32701,6,0,L|424:292,1,79.9999999999999,2|0,0:0|3:2,0:0:0:0:
480,136,32974,2,0,B|508:158|508:158|519:216,1,79.9999999999999,8|0,0:0|3:2,0:0:0:0:
351,143,33246,2,0,B|326:169|326:169|319:220,1,79.9999999999999,2|2,0:0|3:2,0:0:0:0:
413,68,33519,1,8,0:0:0:0:
420,212,33656,6,0,L|424:304,1,79.9999999999999,2|0,3:2|0:0,0:0:0:0:
233,334,33928,2,0,L|216:256,1,79.9999999999999,0|8,3:2|0:0,0:0:0:0:
329,314,34201,1,2,3:2:0:0:
140,360,34337,2,0,L|112:284,1,79.9999999999999,2|0,3:2|0:0,0:0:0:0:
56,152,34610,1,8,0:0:0:0:
56,152,34746,1,8,3:2:0:0:
211,168,34883,6,0,P|246:149|273:120,1,79.9999999999999,2|0,3:2|3:2,0:0:0:0:
56,152,35156,2,0,P|38:187|33:227,1,79.9999999999999,8|0,0:0|3:2,0:0:0:0:
190,74,35428,2,0,P|183:34|164:0,1,79.9999999999999,2|0,3:2|3:2,0:0:0:0:
127,216,35701,2,0,P|155:244|191:260,1,79.9999999999999,8|0,0:0|3:2,0:0:0:0:
95,64,35974,6,0,P|55:57|16:65,2,79.9999999999999,2|0|8,3:2|3:2|0:0,0:0:0:0:
136,136,36383,1,0,0:0:0:0:
190,74,36519,2,0,P|183:34|164:0,2,79.9999999999999,2|2|8,3:2|0:0|0:0,0:0:0:0:
136,136,36928,1,2,0:0:0:0:
264,108,37065,6,0,L|345:96,1,79.9999999999999,8|0,3:2|0:0,0:0:0:0:
136,136,37337,1,2,0:0:0:0:
236,200,37474,2,0,L|332:196,1,79.9999999999999,8|0,3:2|0:0,0:0:0:0:
136,136,37746,1,2,0:0:0:0:
196,288,37883,2,0,L|296:292,1,79.9999999999999,8|0,3:2|0:0,0:0:0:0:
412,192,38156,5,8,3:2:0:0:
412,192,38292,1,8,0:0:0:0:
372,296,38428,1,8,3:2:0:0:
372,296,38565,1,8,0:0:0:0:
332,152,38701,5,8,3:2:0:0:
428,152,38837,1,8,0:0:0:0:
276,228,38974,1,8,3:2:0:0:
296,68,39110,1,8,0:0:0:0:
192,208,39246,6,0,P|120:208|64:136,2,139.999995727539,6|0|8,0:0|0:0|3:2,0:0:0:0:
73,163,39928,2,0,L|73:256,1,69.9999978637695,0|0,3:2|0:0,0:0:0:0:
156,116,40201,1,2,0:0:0:0:
156,116,40474,5,8,3:2:0:0:
144,32,40610,2,0,L|288:48,2,139.999995727539,0|8|2,0:0|3:2|0:0,0:0:0:0:
420,60,41428,6,0,B|444:112|444:112|432:272,1,209.999993591309,2|0,0:0|0:0,0:0:0:0:
348,280,41974,2,0,B|357:137|357:137|332:164|272:164,1,209.999993591309,8|2,3:2|0:0,0:0:0:0:
296,80,42519,5,2,3:2:0:0:
296,80,42656,2,0,P|232:52|160:64,1,139.999995727539,8|2,0:0|0:0,0:0:0:0:
76,24,43065,2,0,L|64:180,1,139.999995727539,8|2,3:2|3:2,0:0:0:0:
172,348,43610,6,0,L|168:188,2,139.999995727539,2|0|8,0:0|0:0|3:2,0:0:0:0:
168,208,44428,1,0,0:0:0:0:
252,284,44565,6,0,P|328:268|376:200,1,139.999995727539,2|8,3:2|0:0,0:0:0:0:
424,304,44974,2,0,L|504:312,1,69.9999978637695,2|0,0:0|0:0,0:0:0:0:
422,141,45246,2,0,L|492:132,1,69.9999978637695,8|0,3:2|0:0,0:0:0:0:
367,223,45519,1,8,3:2:0:0:
367,223,45656,1,8,0:0:0:0:
268,172,45792,6,0,P|256:136|256:84,1,79.9999999999999,2|0,0:0|0:0,0:0:0:0:
491,132,46065,2,0,P|490:171|476:209,1,79.9999999999999,8|0,0:0|0:0,0:0:0:0:
367,223,46337,1,2,3:2:0:0:
268,172,46474,2,0,L|188:168,1,79.9999999999999,2|8,0:0|0:0,0:0:0:0:
132,323,46746,6,0,P|195:277|274:276,1,160,2|2,0:0|0:0,0:0:0:0:
48,276,47156,2,0,L|40:184,1,79.9999999999999,8|0,0:0|0:0,0:0:0:0:
213,94,47428,2,0,P|206:138|186:170,1,79.9999999999999,2|2,3:2|0:0,0:0:0:0:
88,76,47701,2,0,P|67:35|60:-4,1,79.9999999999999,8|0,0:0|0:0,0:0:0:0:
213,94,47974,6,0,L|302:89,1,79.9999999999999,2|0,3:2|0:0,0:0:0:0:
488,44,48246,2,0,L|404:36,1,79.9999999999999,8|0,0:0|0:0,0:0:0:0:
336,172,48519,1,2,3:2:0:0:
424,132,48656,1,2,0:0:0:0:
293,90,48792,1,8,0:0:0:0:
336,172,48928,6,0,P|336:260|280:328,1,160,2|0,3:2|0:0,0:0:0:0:
376,260,49337,2,0,L|468:252,1,79.9999999999999,8|0,0:0|0:0,0:0:0:0:
244,224,49610,1,2,3:2:0:0:
164,216,49746,1,0,0:0:0:0:
84,208,49883,1,8,0:0:0:0:
84,208,50156,6,0,L|72:308,1,79.9999999999999,2|0,3:2|0:0,0:0:0:0:
244,224,50428,2,0,L|240:144,1,79.9999999999999,8|0,0:0|0:0,0:0:0:0:
12,64,50701,2,0,L|0:164,1,79.9999999999999,2|0,0:0|0:0,0:0:0:0:
172,80,50974,2,0,L|168:0,1,79.9999999999999,8|0,0:0|0:0,0:0:0:0:
100,160,51246,5,2,3:2:0:0:
276,112,51383,1,2,0:0:0:0:
100,160,51519,1,8,0:0:0:0:
276,112,51656,1,0,0:0:0:0:
168,232,51792,2,0,P|168:272|188:320,1,79.9999999999999,2|0,3:2|0:0,0:0:0:0:
264,360,52065,1,8,0:0:0:0:
264,360,52133,1,8,0:0:0:0:
264,360,52201,1,8,0:0:0:0:
507,319,52337,6,0,L|348:316,1,160,2|2,3:2|0:0,0:0:0:0:
480,216,52746,2,0,L|308:228,1,160,8|2,3:2|0:0,0:0:0:0:
496,120,53156,2,0,L|336:116,1,160,8|2,3:2|0:0,0:0:0:0:
472,12,53565,2,0,L|296:24,1,160,8|2,3:2|0:0,0:0:0:0:
204,92,53974,6,0,P|228:124|236:180,1,79.9999999999999,8|0,3:2|0:0,0:0:0:0:
76,120,54246,2,0,L|86:40,1,79.9999999999999,2|0,3:2|0:0,0:0:0:0:
145,187,54519,5,8,3:2:0:0:
305,229,54656,1,2,0:0:0:0:
187,347,54792,1,2,0:0:0:0:
237,162,54928,1,8,3:2:0:0:
280,322,55065,1,2,0:0:0:0:
120,279,55201,1,2,0:0:0:0:
305,229,55337,2,0,L|404:208,1,79.9999999999999,8|2,3:2|0:0,0:0:0:0:
212,256,55610,5,8,3:2:0:0:
212,256,55746,1,8,3:2:0:0:
156,320,56701,6,0,B|127:298|127:298|102:223|167:162,1,170.000003242493,6|8,3:2|0:0,0:0:0:0:
256,151,57110,1,0,0:0:0:0:
356,168,57246,2,0,B|385:147|385:147|410:71|345:10,1,170.000003242493,0|8,3:2|0:0,0:0:0:0:
256,151,57656,1,0,0:0:0:0:
344,204,57792,6,0,L|445:215,1,85.0000016212463,2|0,3:2|0:0,0:0:0:0:
156,264,58065,2,0,P|128:275|74:271,1,85.0000016212463,8|2,0:0|0:0,0:0:0:0:
148,89,58337,2,0,L|155:186,1,85.0000016212463,0|2,3:2|0:0,0:0:0:0:
320,376,58610,2,0,B|330:318|330:318|323:282,1,85.0000016212463,8|0,0:0|0:0,0:0:0:0:
256,196,58883,5,2,3:2:0:0:
240,324,59019,1,0,0:0:0:0:
420,260,59156,1,8,0:0:0:0:
292,180,59292,1,0,0:0:0:0:
325,292,59428,2,0,P|352:336|392:356,1,85.0000016212463,0|2,3:2|0:0,0:0:0:0:
220,212,59701,2,0,P|176:200|124:208,1,85.0000016212463,8|0,3:2|0:0,0:0:0:0:
388,176,59974,6,0,P|420:120|408:8,1,170.000003242493,2|8,3:2|3:2,0:0:0:0:
312,80,60383,1,2,0:0:0:0:
144,28,60519,1,0,3:2:0:0:
200,172,60656,1,2,0:0:0:0:
176,24,60792,1,8,3:2:0:0:
64,116,60928,1,0,0:0:0:0:
208,20,61065,1,2,3:2:0:0:
16,228,61337,6,0,P|56:216|100:220,1,85.0000016212463,8|0,0:0|0:0,0:0:0:0:
220,356,61610,2,0,B|184:320|184:320|176:288,1,85.0000016212463,0|2,3:2|0:0,0:0:0:0:
279,183,61883,2,0,L|276:268,1,85.0000016212463,8|0,0:0|0:0,0:0:0:0:
448,356,62156,6,0,L|440:220,1,127.500002431869,2|0,3:2|0:0,0:0:0:0:
471,200,62428,2,0,P|488:161|490:118,1,85.0000016212463,8|2,0:0|0:0,0:0:0:0:
367,60,62701,2,0,P|387:98|391:140,1,85.0000016212463,0|2,3:2|0:0,0:0:0:0:
292,128,62974,2,0,P|268:96|216:66,1,85.0000016212463,8|0,0:0|0:0,0:0:0:0:
4,184,63246,6,0,L|88:180,1,85.0000016212463,2|0,3:2|0:0,0:0:0:0:
132,88,63519,1,8,0:0:0:0:
132,88,63656,1,0,0:0:0:0:
40,284,63792,2,0,L|124:272,1,85.0000016212463,0|2,3:2|0:0,0:0:0:0:
200,204,64065,1,8,0:0:0:0:
200,204,64201,1,0,0:0:0:0:
96,380,64337,6,0,L|272:344,1,170.000003242493,6|0,3:2|0:0,0:0:0:0:
336,215,64746,2,0,B|336:271|336:271|360:319|360:319|360:380,1,170.000003242493,6|2,3:2|0:0,0:0:0:0:
436,244,65156,1,8,3:2:0:0:
436,244,65224,1,8,3:2:0:0:
436,244,65292,1,8,3:2:0:0:
436,244,65360,1,8,3:2:0:0:
436,244,65428,6,0,P|480:172|464:76,1,170.000003242493,6|8,3:2|0:0,0:0:0:0:
384,40,65837,1,0,0:0:0:0:
308,108,65974,2,0,P|224:116|153:72,1,170.000003242493,0|8,3:2|0:0,0:0:0:0:
384,40,66383,1,0,0:0:0:0:
471,89,66519,6,0,L|480:196,1,85.0000016212463,2|0,3:2|0:0,0:0:0:0:
308,108,66792,2,0,L|224:116,1,85.0000016212463,8|2,0:0|0:0,0:0:0:0:
452,208,67065,2,0,P|476:244|480:300,1,85.0000016212463,0|2,3:2|0:0,0:0:0:0:
280,200,67337,2,0,B|224:204|224:204|192:224,1,85.0000016212463,8|0,0:0|0:0,0:0:0:0:
332,344,67610,5,2,3:2:0:0:
368,144,67746,1,0,0:0:0:0:
220,256,67883,1,8,0:0:0:0:
392,280,68019,1,0,0:0:0:0:
220,256,68156,2,0,L|128:252,1,85.0000016212463,0|2,3:2|0:0,0:0:0:0:
392,280,68428,2,0,L|496:272,1,85.0000016212463,8|0,3:2|0:0,0:0:0:0:
312,188,68701,6,0,P|304:108|304:12,1,170.000003242493,2|8,3:2|3:2,0:0:0:0:
416,56,69110,1,2,0:0:0:0:
192,28,69246,1,0,3:2:0:0:
408,96,69383,1,2,0:0:0:0:
220,112,69519,1,8,3:2:0:0:
420,140,69656,1,0,0:0:0:0:
208,204,69792,6,0,P|168:190|139:159,1,85.0000016212463,2|0,3:2|0:0,0:0:0:0:
408,184,70065,2,0,P|443:207|463:245,1,85.0000016212463,8|0,0:0|0:0,0:0:0:0:
220,112,70337,2,0,P|192:79|182:38,1,85.0000016212463,0|2,3:2|0:0,0:0:0:0:
372,268,70610,2,0,P|390:306|388:348,1,85.0000016212463,8|0,0:0|0:0,0:0:0:0:
328,104,70883,6,0,P|372:56|440:71,1,127.500002431869,2|0,3:2|0:0,0:0:0:0:
453,90,71156,2,0,B|488:67|488:67|500:18,1,85.0000016212463,8|2,0:0|0:0,0:0:0:0:
328,104,71428,2,0,B|301:92|301:92|245:88,1,85.0000016212463,0|2,3:2|0:0,0:0:0:0:
484,276,71701,2,0,L|476:180,1,85.0000016212463,8|0,0:0|0:0,0:0:0:0:
272,184,71974,5,2,3:2:0:0:
404,324,72110,1,0,0:0:0:0:
368,160,72246,1,8,0:0:0:0:
268,216,72383,1,0,0:0:0:0:
448,236,72519,5,0,3:2:0:0:
364,132,72656,1,2,0:0:0:0:
264,248,72792,1,8,0:0:0:0:
360,104,72928,1,0,0:0:0:0:
260,280,73065,6,0,P|188:320|84:308,1,170.000003242493,2|8,3:2|0:0,0:0:0:0:
132,140,73610,1,8,3:2:0:0:
132,140,73746,1,8,0:0:0:0:
167,236,73883,1,8,0:0:0:0:
167,236,74019,1,8,0:0:0:0:
34,170,74156,6,0,L|30:28,2,139.999995727539,6|0|8,3:2|0:0|3:2,0:0:0:0:
167,236,74974,1,0,0:0:0:0:
167,236,75110,6,0,L|180:84,1,139.999995727539,2|8,3:2|0:0,0:0:0:0:
188,16,75519,2,0,L|260:12,1,69.9999978637695,0|0,0:0|0:0,0:0:0:0:
284,108,75792,2,0,L|364:112,1,69.9999978637695,8|0,3:2|0:0,0:0:0:0:
392,4,76065,2,0,L|468:0,1,69.9999978637695,0|0,0:0|0:0,0:0:0:0:
354,111,76337,6,0,L|358:187,1,69.9999978637695,2|0,3:2|0:0,0:0:0:0:
480,312,76610,2,0,L|484:240,1,69.9999978637695,0|0,0:0|0:0,0:0:0:0:
456,84,76883,2,0,L|452:160,1,69.9999978637695,8|0,3:2|0:0,0:0:0:0:
388,344,77156,2,0,L|384:272,1,69.9999978637695,0|0,0:0|0:0,0:0:0:0:
358,179,77428,6,0,P|302:220|234:213,2,139.999995727539,2|2|8,3:2|0:0|0:0,0:0:0:0:
172,160,78110,1,8,0:0:0:0:
104,208,78246,2,0,L|96:284,1,69.9999978637695,8|8,0:0|0:0,0:0:0:0:
235,214,78519,6,0,P|316:204|404:248,1,170.000003242493,2|8,0:0|0:0,0:0:0:0:
276,116,78928,1,0,0:0:0:0:
276,116,79065,2,0,L|272:28,1,85.0000016212463,8|8,0:0|0:0,0:0:0:0:
452,160,79337,1,8,0:0:0:0:
452,160,79406,1,8,0:0:0:0:
452,160,79474,1,8,0:0:0:0:
452,160,79542,1,8,0:0:0:0:
452,160,79610,1,6,3:2:0:0:
452,160,80292,6,0,L|460:68,2,85.0000016212463,0|8|0,0:0|0:0|0:0,0:0:0:0:
408,312,80701,6,0,L|404:272,1,21.2500004053116,6|0,3:2|0:0,0:0:0:0:
328,324,80974,2,0,L|324:284,1,21.2500004053116,8|0,3:2|0:0,0:0:0:0:
248,336,81246,2,0,L|244:296,1,21.2500004053116,2|0,3:2|0:0,0:0:0:0:
164,348,81519,2,0,L|160:312,1,21.2500004053116,8|0,3:2|0:0,0:0:0:0:
152,192,81656,6,0,P|84:244|-8:236,1,170.000003242493,6|2,3:2|3:2,0:0:0:0:
241,251,82065,2,0,L|248:336,1,85.0000016212463,8|0,3:2|0:0,0:0:0:0:
312,180,82337,1,2,3:2:0:0:
312,180,82406,1,0,0:0:0:0:
312,180,82474,1,8,0:0:0:0:
228,120,82610,2,0,L|221:35,1,85.0000016212463,8|0,0:0|0:0,0:0:0:0:
488,100,82883,5,6,3:2:0:0:
320,76,83019,1,8,3:2:0:0:
412,32,83156,1,2,3:2:0:0:
488,100,83292,2,0,L|492:196,1,85.0000016212463,8|2,3:2|0:0,0:0:0:0:
416,303,83565,2,0,L|500:288,1,85.0000016212463,8|2,3:2|0:0,0:0:0:0:
296,220,83837,6,0,P|253:217|213:230,1,85.0000016212463,8|2,3:2|0:0,0:0:0:0:
268,316,84110,1,8,3:3:0:0:
108,268,84246,2,0,L|112:184,1,85.0000016212463,2|8,3:2|0:3,0:0:0:0:
8,228,84519,2,0,L|4:143,1,85.0000016212463,2|8,3:2|0:3,0:0:0:0:
213,230,84792,2,0,L|228:132,1,85.0000016212463,2|8,3:2|0:3,0:0:0:0:
128,52,85065,5,2,3:2:0:0:
232,108,85201,1,8,3:2:0:0:
340,56,85337,1,2,3:2:0:0:
128,52,85474,2,0,P|113:91|117:136,1,85.0000016212463,8|2,3:2|0:0,0:0:0:0:
340,56,85746,2,0,L|428:56,1,85.0000016212463,8|2,3:2|0:0,0:0:0:0:
248,148,86019,6,0,L|255:232,1,85.0000016212463,8|2,3:2|0:0,0:0:0:0:
456,268,86292,1,8,3:3:0:0:
356,248,86428,2,0,L|349:163,1,85.0000016212463,2|8,3:2|0:3,0:0:0:0:
291,328,86701,2,0,P|209:320|156:257,1,170.000003242493,2|2,3:2|3:2,0:0:0:0:
449,183,87246,5,2,3:2:0:0:
349,163,87383,1,8,3:2:0:0:
248,148,87519,1,2,3:2:0:0:
449,183,87656,2,0,L|457:95,1,85.0000016212463,8|2,3:2|0:0,0:0:0:0:
264,32,87928,2,0,L|268:132,1,85.0000016212463,8|2,3:2|0:0,0:0:0:0:
436,284,88201,6,0,L|351:287,1,85.0000016212463,8|2,3:2|0:0,0:0:0:0:
276,216,88474,1,8,3:3:0:0:
456,98,88610,2,0,L|448:200,1,85.0000016212463,2|8,3:2|0:3,0:0:0:0:
343,371,88883,2,0,L|351:279,1,85.0000016212463,2|8,3:2|0:3,0:0:0:0:
248,168,89156,2,0,L|244:252,1,85.0000016212463,2|8,3:2|0:3,0:0:0:0:
352,112,89428,6,0,P|288:58|204:57,1,170.000003242493,2|2,3:2|3:2,0:0:0:0:
136,132,89837,1,8,0:2:0:0:
72,52,89974,2,0,L|-32:48,1,85.0000016212463,2|8,3:2|0:2,0:0:0:0:
136,132,90246,1,2,3:2:0:0:
68,208,90383,6,0,B|124:228|124:228|252:216,1,170.000003242493,8|8,3:2|0:3,0:0:0:0:
308,288,90792,2,0,L|312:372,1,85.0000016212463,2|8,0:0|0:3,0:0:0:0:
396,232,91065,1,10,0:0:0:0:
396,232,91133,1,8,0:0:0:0:
396,232,91201,1,8,3:3:0:0:
480,176,91337,1,2,3:2:0:0:
488,280,91474,1,8,3:3:0:0:
396,232,91610,6,2,P|400:116|516:80,1,244.999992523193,6|0,3:2|0:0,0:0:0:0:
412,104,92701,6,0,L|416:19,1,85.0000016212463,8|0,3:2|0:0,0:0:0:0:
316,133,92974,2,0,L|320:48,1,85.0000016212463,8|0,3:2|0:0,0:0:0:0:
220,101,93246,2,0,L|224:16,1,85.0000016212463,8|0,3:2|0:0,0:0:0:0:
124,130,93519,2,0,L|128:45,1,85.0000016212463,8|0,3:2|0:0,0:0:0:0:
32,104,93792,5,6,0:0:0:0:
116,228,94065,1,2,0:0:0:0:
116,228,94201,2,0,L|108:367,1,139.999995727539,12|0,0:0|0:0,0:0:0:0:
216,196,94610,2,0,L|208:335,1,139.999995727539,2|0,0:0|0:0,0:0:0:0:
432,324,95019,2,0,P|376:280|292:280,1,139.999995727539,2|2,0:0|0:0,0:0:0:0:
480,164,95428,6,0,P|472:204|480:248,1,69.9999978637695,2|0,0:0|0:0,0:0:0:0:
376,184,95701,2,0,L|372:100,1,69.9999978637695,8|0,0:0|0:0,0:0:0:0:
292,84,95974,6,0,P|359:84|405:33,1,139.999995727539,6|0,0:0|0:0,0:0:0:0:
212,52,96383,2,0,P|215:127|271:167,1,139.999995727539,2|0,0:0|0:0,0:0:0:0:
84,168,96792,1,8,0:0:0:0:
84,168,96928,6,0,B|112:128|112:128|116:20,1,139.999995727539,4|0,3:2|0:0,0:0:0:0:
168,216,97337,2,0,L|172:292,1,69.9999978637695,0|0,3:2|0:0,0:0:0:0:
100,328,97610,1,8,3:2:0:0:
256,248,97746,2,0,L|260:324,2,69.9999978637695,0|8|0,3:2|0:0|0:0,0:0:0:0:
100,328,98156,1,2,0:0:0:0:
344,292,98428,6,0,B|340:212,1,79.9999999999999,8|0,0:0|3:2,0:0:0:0:
512,244,98701,2,0,L|433:230,1,79.9999999999999,2|2,0:0|3:2,0:0:0:0:
504,68,98974,2,0,L|508:148,1,79.9999999999999,8|0,0:0|3:2,0:0:0:0:
328,175,99246,6,0,P|378:116|376:38,1,160,2|8,0:0|0:0,0:0:0:0:
240,132,99656,2,0,L|72:132,1,160,2|0,3:2|3:2,0:0:0:0:
156,28,100065,1,8,0:0:0:0:
156,28,100201,1,8,3:2:0:0:
80,132,100337,6,0,P|60:216|60:312,1,160,2|0,3:2|0:0,0:0:0:0:
156,28,100746,1,0,0:0:0:0:
240,132,100883,2,0,P|260:216|260:312,1,160,8|0,3:2|0:0,0:0:0:0:
156,28,101292,1,2,0:0:0:0:
160,156,101428,2,0,L|160:316,1,160,2|0,3:2|0:0,0:0:0:0:
156,28,101837,1,0,0:0:0:0:
88,96,101974,6,0,P|40:92|4:72,2,79.9999999999999,8|2|8,3:2|0:0|0:0,0:0:0:0:
156,28,102383,1,0,0:0:0:0:
236,76,102519,5,6,0:0:0:0:
236,76,102792,2,0,L|315:72,1,79.9999999999999,8|0,0:0|3:2,0:0:0:0:
416,176,103065,2,0,L|504:164,1,79.9999999999999,2|2,0:0|3:2,0:0:0:0:
344,40,103337,2,0,L|436:48,1,79.9999999999999,8|0,0:0|3:2,0:0:0:0:
320,188,103610,6,0,P|312:276|348:344,1,160,2|8,0:0|0:0,0:0:0:0:
396,256,104019,2,0,L|232:276,1,160,2|0,3:2|3:2,0:0:0:0:
133,367,104428,2,0,L|140:288,1,79.9999999999999,8|0,0:0|3:2,0:0:0:0:
20,64,104701,6,0,P|0:104|0:144,1,79.9999999999999,2|0,0:0|3:2,0:0:0:0:
92,120,104974,2,0,P|94:164|114:199,1,79.9999999999999,8|0,0:0|3:2,0:0:0:0:
184,136,105246,2,0,P|208:173|243:193,1,79.9999999999999,2|2,0:0|3:2,0:0:0:0:
276,104,105519,1,8,0:0:0:0:
439,146,105656,6,0,L|360:152,1,79.9999999999999,2|0,3:2|0:0,0:0:0:0:
240,12,105928,2,0,L|344:20,1,79.9999999999999,2|8,3:2|0:0,0:0:0:0:
276,104,106201,1,0,3:2:0:0:
472,64,106337,2,0,L|480:164,1,79.9999999999999,2|0,3:2|3:2,0:0:0:0:
408,252,106610,1,8,3:2:0:0:
408,252,106746,1,8,3:2:0:0:
328,112,106883,6,0,P|291:128|263:156,1,79.9999999999999,2|0,3:2|3:2,0:0:0:0:
300,372,107156,2,0,P|319:337|326:297,1,79.9999999999999,8|0,0:0|3:2,0:0:0:0:
169,145,107428,2,0,P|173:184|192:219,1,79.9999999999999,2|0,3:2|3:2,0:0:0:0:
408,252,107701,2,0,P|380:222|345:203,1,79.9999999999999,8|0,0:0|3:2,0:0:0:0:
153,307,107974,6,0,P|192:314|231:307,2,79.9999999999999,2|0|8,3:2|0:0|0:0,0:0:0:0:
272,236,108383,1,0,0:0:0:0:
300,372,108519,2,0,P|319:337|326:297,2,79.9999999999999,2|2|8,3:2|0:0|0:0,0:0:0:0:
272,236,108928,1,2,0:0:0:0:
384,168,109065,6,0,L|464:164,1,79.9999999999999,8|0,3:2|0:0,0:0:0:0:
272,236,109337,1,2,0:0:0:0:
168,136,109474,2,0,L|72:132,1,79.9999999999999,8|0,3:2|0:0,0:0:0:0:
272,236,109746,1,2,0:0:0:0:
360,84,109883,2,0,L|460:80,1,79.9999999999999,8|0,3:2|0:0,0:0:0:0:
284,16,110156,5,8,3:2:0:0:
208,140,110292,1,2,0:0:0:0:
360,184,110428,1,8,3:2:0:0:
396,64,110565,1,0,0:0:0:0:
232,176,110701,5,8,3:2:0:0:
400,152,110837,1,8,0:0:0:0:
308,112,110974,1,2,3:2:0:0:
300,260,111110,1,8,0:0:0:0:
192,168,111246,6,0,P|120:184|76:248,1,139.999995727539,6|0,0:0|0:0,0:0:0:0:
80,233,111792,1,8,3:2:0:0:
192,168,111928,2,0,L|192:98,1,69.9999978637695,0|0,3:2|0:0,0:0:0:0:
80,233,112201,1,2,0:0:0:0:
276,300,112474,5,8,3:2:0:0:
348,260,112610,2,0,P|424:280|464:344,2,139.999995727539,0|8|2,0:0|3:2|0:0,0:0:0:0:
496,88,113428,6,0,P|444:152|320:160,1,209.999993591309,2|0,0:0|0:0,0:0:0:0:
320,76,113974,2,0,B|276:72|248:96|236:136|236:136|200:160|136:144,1,209.999993591309,8|2,3:2|0:0,0:0:0:0:
64,60,114519,5,2,3:2:0:0:
64,60,114656,2,0,L|48:212,1,139.999995727539,8|0,0:0|0:0,0:0:0:0:
144,240,115065,2,0,L|151:379,1,139.999995727539,8|2,3:2|3:2,0:0:0:0:
49,199,115610,5,2,0:0:0:0:
200,156,115883,1,0,0:0:0:0:
244,292,116156,1,8,3:2:0:0:
96,308,116428,1,0,0:0:0:0:
244,292,116565,6,0,L|392:276,1,139.999995727539,2|8,3:2|0:0,0:0:0:0:
510,340,116974,2,0,P|476:344|444:332,1,69.9999978637695,2|0,0:0|0:0,0:0:0:0:
491,188,117246,2,0,L|489:258,1,69.9999978637695,8|0,3:2|0:0,0:0:0:0:
383,276,117519,1,8,3:2:0:0:
383,276,117656,1,8,0:0:0:0:
408,60,117792,6,0,L|415:139,1,79.9999999999999,2|0,0:0|0:0,0:0:0:0:
288,304,118065,2,0,L|295:224,1,79.9999999999999,8|0,0:0|0:0,0:0:0:0:
320,36,118337,2,0,L|327:115,1,79.9999999999999,2|2,3:2|0:0,0:0:0:0:
212,200,118610,1,8,0:0:0:0:
144,132,118746,6,0,P|64:124|-16:188,1,160,2|0,0:0|0:0,0:0:0:0:
212,200,119156,2,0,P|236:168|240:124,1,79.9999999999999,8|0,0:0|0:0,0:0:0:0:
88,220,119428,2,0,L|92:312,1,79.9999999999999,2|0,3:2|0:0,0:0:0:0:
144,132,119701,2,0,L|148:48,1,79.9999999999999,8|0,0:0|0:0,0:0:0:0:
192,296,119974,6,0,L|281:291,1,79.9999999999999,2|0,3:2|0:0,0:0:0:0:
491,256,120246,2,0,L|407:248,1,79.9999999999999,8|0,0:0|0:0,0:0:0:0:
291,195,120519,1,2,0:0:0:0:
291,195,120656,1,2,0:0:0:0:
480,156,120792,2,0,L|396:148,1,79.9999999999999,8|0,0:0|0:0,0:0:0:0:
232,96,121065,6,0,P|300:92|352:44,1,120,2|0,3:2|0:0,0:0:0:0:
360,28,121337,2,0,L|439:25,1,79.9999999999999,8|0,0:0|0:0,0:0:0:0:
156,40,121610,1,2,0:0:0:0:
140,136,121746,1,0,0:0:0:0:
124,232,121883,1,8,0:0:0:0:
124,232,122156,6,0,L|40:240,1,79.9999999999999,2|0,3:2|0:0,0:0:0:0:
300,216,122428,2,0,L|304:296,1,79.9999999999999,8|0,0:0|0:0,0:0:0:0:
140,136,122701,2,0,L|149:56,1,79.9999999999999,2|0,0:0|0:0,0:0:0:0:
188,332,122974,2,0,L|108:336,1,79.9999999999999,8|0,0:0|0:0,0:0:0:0:
216,224,123246,5,2,3:2:0:0:
392,272,123383,1,2,0:0:0:0:
216,224,123519,1,8,0:0:0:0:
392,272,123656,1,0,0:0:0:0:
316,216,123792,2,0,P|316:176|336:128,1,79.9999999999999,2|0,3:2|0:0,0:0:0:0:
420,108,124065,1,8,0:0:0:0:
420,108,124133,1,0,0:0:0:0:
420,108,124201,1,8,0:0:0:0:
169,127,124337,6,0,L|336:138,1,160,2|2,3:2|0:0,0:0:0:0:
144,28,124746,2,0,L|316:24,1,160,8|2,3:2|0:0,0:0:0:0:
112,224,125156,2,0,L|272:240,1,160,8|2,3:2|0:0,0:0:0:0:
128,340,125565,2,0,L|288:332,1,160,8|2,3:2|0:0,0:0:0:0:
432,320,125974,6,0,P|408:288|400:232,1,79.9999999999999,8|0,3:2|0:0,0:0:0:0:
480,24,126246,2,0,L|470:104,1,79.9999999999999,2|0,3:2|0:0,0:0:0:0:
220,84,126519,5,8,3:2:0:0:
262,244,126656,1,2,0:0:0:0:
380,126,126792,1,2,0:0:0:0:
195,176,126928,1,8,3:2:0:0:
312,59,127065,1,2,0:0:0:0:
355,219,127201,1,2,0:0:0:0:
220,84,127337,2,0,L|144:16,1,79.9999999999999,8|2,3:2|0:0,0:0:0:0:
289,151,127610,5,8,3:2:0:0:
289,151,127746,1,8,3:2:0:0:
176,295,128701,6,0,P|87:302|14:252,1,179.999994506836,6|8,3:2|0:0,0:0:0:0:
256,224,129110,1,0,0:0:0:0:
356,264,129246,2,0,P|442:247|500:180,1,179.999994506836,0|8,3:2|0:0,0:0:0:0:
256,224,129656,1,0,0:0:0:0:
156,188,129792,6,0,P|140:144|144:92,1,89.999997253418,2|0,3:2|0:0,0:0:0:0:
380,20,130065,2,0,P|381:64|365:106,1,89.999997253418,8|2,0:0|0:0,0:0:0:0:
141,101,130337,2,0,L|40:96,1,89.999997253418,0|2,3:2|0:0,0:0:0:0:
365,106,130610,2,0,B|423:96|423:96|460:104,1,89.999997253418,8|0,0:0|0:0,0:0:0:0:
256,44,130883,5,2,3:2:0:0:
192,192,131019,1,0,0:0:0:0:
364,148,131156,1,8,0:0:0:0:
352,264,131292,1,0,0:0:0:0:
192,192,131428,2,0,P|144:196|104:224,1,89.999997253418,0|2,3:2|0:0,0:0:0:0:
424,328,131701,2,0,P|444:284|440:235,1,89.999997253418,8|0,3:2|0:0,0:0:0:0:
217,23,131974,6,0,P|183:86|195:198,1,179.999994506836,2|8,3:2|3:2,0:0:0:0:
352,264,132383,1,2,0:0:0:0:
280,120,132519,1,0,3:2:0:0:
248,300,132656,1,2,0:0:0:0:
420,152,132792,1,8,3:2:0:0:
436,272,132928,1,0,0:0:0:0:
324,240,133065,1,2,3:2:0:0:
101,307,133337,6,0,L|109:211,1,89.999997253418,8|0,0:0|0:0,0:0:0:0:
36,61,133610,2,0,B|20:101|20:101|24:148,1,89.999997253418,0|2,3:2|0:0,0:0:0:0:
292,160,133883,2,0,L|189:165,1,89.999997253418,8|0,0:0|0:0,0:0:0:0:
172,44,134156,6,0,L|312:53,1,134.999995880127,2|0,3:2|0:0,0:0:0:0:
328,20,134428,2,0,P|366:3|417:1,1,89.999997253418,8|2,0:0|0:0,0:0:0:0:
393,108,134701,2,0,P|437:114|477:135,1,89.999997253418,0|2,3:2|0:0,0:0:0:0:
401,215,134974,2,0,P|436:242|457:281,1,89.999997253418,8|0,0:0|0:0,0:0:0:0:
248,348,135246,6,0,L|256:256,1,89.999997253418,2|0,3:2|0:0,0:0:0:0:
202,164,135519,1,8,0:0:0:0:
202,164,135656,1,0,0:0:0:0:
352,336,135792,2,0,L|360:244,1,89.999997253418,0|2,3:2|0:0,0:0:0:0:
202,164,136065,1,8,0:0:0:0:
202,164,136201,1,0,0:0:0:0:
16,332,136337,6,0,B|8:204|8:204|-12:156,1,179.999994506836,6|0,3:2|0:0,0:0:0:0:
164,52,136746,2,0,L|152:240,1,179.999994506836,6|2,3:2|0:0,0:0:0:0:
420,332,137156,1,8,3:2:0:0:
420,332,137224,1,8,3:2:0:0:
420,332,137292,1,8,3:2:0:0:
420,332,137360,1,8,3:2:0:0:
420,332,137428,6,0,P|343:287|256:297,1,179.999994506836,6|8,3:2|0:0,0:0:0:0:
472,236,137837,1,0,0:0:0:0:
376,188,137974,2,0,P|368:104|416:24,1,179.999994506836,0|8,3:2|0:0,0:0:0:0:
472,236,138383,1,0,0:0:0:0:
420,332,138519,6,0,L|320:316,1,89.999997253418,2|0,3:2|0:0,0:0:0:0:
244,108,138792,2,0,L|333:100,1,89.999997253418,8|2,0:0|0:0,0:0:0:0:
152,160,139065,2,0,B|136:128|136:128|132:68,1,89.999997253418,0|2,3:2|0:0,0:0:0:0:
328,228,139337,2,0,B|334:285|334:285|330:317,1,89.999997253418,8|0,0:0|0:0,0:0:0:0:
124,280,139610,5,2,3:2:0:0:
256,152,139746,1,0,0:0:0:0:
224,344,139883,1,8,0:0:0:0:
328,228,140019,1,0,0:0:0:0:
124,280,140156,2,0,P|76:272|40:248,1,89.999997253418,0|2,3:2|0:0,0:0:0:0:
328,228,140428,2,0,P|376:236|412:260,1,89.999997253418,8|0,3:2|0:0,0:0:0:0:
116,176,140701,6,0,P|80:96|128:8,1,179.999994506836,2|8,3:2|3:2,0:0:0:0:
188,96,141110,1,2,0:0:0:0:
392,24,141246,1,0,3:2:0:0:
188,96,141383,1,2,0:0:0:0:
352,112,141519,1,8,3:2:0:0:
188,96,141656,1,0,0:0:0:0:
368,208,141792,6,0,P|408:194|442:157,1,89.999997253418,2|0,3:2|0:0,0:0:0:0:
184,200,142065,2,0,L|180:300,1,89.999997253418,8|0,0:0|0:0,0:0:0:0:
352,112,142337,2,0,B|348:52|348:52|328:16,1,89.999997253418,0|2,3:2|0:0,0:0:0:0:
92,184,142610,2,0,L|-4:172,1,89.999997253418,8|0,0:0|0:0,0:0:0:0:
280,252,142883,6,0,L|284:352,1,89.999997253418,2|0,3:2|0:0,0:0:0:0:
148,112,143156,2,0,P|156:68|200:16,1,89.999997253418,8|2,0:0|0:0,0:0:0:0:
368,204,143428,2,0,B|428:196|428:196|460:176,1,89.999997253418,0|2,3:2|0:0,0:0:0:0:
168,256,143701,2,0,P|120:276|96:328,1,89.999997253418,8|0,0:0|0:0,0:0:0:0:
252,104,143974,5,2,3:2:0:0:
316,296,144110,1,0,0:0:0:0:
384,116,144246,1,8,0:0:0:0:
404,252,144383,1,0,0:0:0:0:
240,144,144519,5,0,3:2:0:0:
268,280,144656,1,2,0:0:0:0:
384,116,144792,1,8,0:0:0:0:
376,240,144928,1,0,0:0:0:0:
228,184,145065,6,0,P|164:268|184:344,1,179.999994506836,2|8,3:2|0:0,0:0:0:0:
268,280,145474,1,10,0:0:0:0:
72,224,145610,1,8,3:2:0:0:
72,224,145746,1,10,0:0:0:0:
178,335,145883,1,8,0:0:0:0:
178,335,146019,1,8,0:0:0:0:
128,152,146156,6,0,P|60:136|-8:176,2,139.999995727539,6|0|8,3:2|0:0|3:2,0:0:0:0:
452,136,146974,1,0,0:0:0:0:
452,136,147110,6,0,B|357:124|357:124|317:92,1,139.999995727539,2|8,3:2|0:0,0:0:0:0:
329,26,147519,2,0,L|321:110,1,69.9999978637695,0|0,0:0|0:0,0:0:0:0:
388,284,147792,2,0,L|384:204,1,69.9999978637695,8|0,3:2|0:0,0:0:0:0:
224,196,148065,2,0,L|293:192,1,69.9999978637695,0|0,0:0|0:0,0:0:0:0:
200,288,148337,6,0,P|166:306|128:312,1,69.9999978637695,2|0,3:2|0:0,0:0:0:0:
75,204,148610,2,0,P|105:221|139:227,1,69.9999978637695,0|0,0:0|0:0,0:0:0:0:
216,40,148883,2,0,P|216:80|200:120,1,69.9999978637695,8|0,3:2|0:0,0:0:0:0:
64,116,149156,2,0,L|56:28,1,69.9999978637695,0|0,0:0|0:0,0:0:0:0:
207,108,149428,6,0,P|276:109|330:67,2,139.999995727539,2|2|8,3:2|0:0|0:0,0:0:0:0:
400,112,150110,1,8,0:0:0:0:
468,64,150246,2,0,P|508:64|544:80,1,69.9999978637695,8|8,0:0|0:0,0:0:0:0:
400,112,150519,6,0,P|384:200|400:288,1,179.999994506836,2|8,0:0|0:0,0:0:0:0:
476,368,150928,1,0,0:0:0:0:
400,288,151065,2,0,L|296:283,1,89.999997253418,8|8,0:0|0:0,0:0:0:0:
496,192,151337,1,8,0:0:0:0:
496,192,151406,1,8,0:0:0:0:
496,192,151474,1,8,0:0:0:0:
496,192,151542,1,8,0:0:0:0:
496,192,151610,1,6,3:2:0:0:
320,118,152292,5,2,0:0:0:0:
320,118,152360,1,0,0:0:0:0:
320,118,152428,2,0,L|412:110,1,89.999997253418,8|0,0:0|0:0,0:0:0:0:
256,44,152701,6,0,L|252:80,1,22.4999993133545,6|0,3:2|0:0,0:0:0:0:
176,52,152974,2,0,L|172:88,1,22.4999993133545,8|0,3:2|0:0,0:0:0:0:
96,60,153246,2,0,L|92:96,1,22.4999993133545,2|0,3:2|0:0,0:0:0:0:
16,68,153519,2,0,L|12:104,1,22.4999993133545,8|0,3:2|0:0,0:0:0:0:
160,176,153656,6,0,P|71:175|5:233,1,179.999994506836,6|10,3:2|3:2,0:0:0:0:
216,268,154065,2,0,P|251:237|268:188,1,89.999997253418,8|0,3:2|0:0,0:0:0:0:
232,96,154337,1,2,3:2:0:0:
232,96,154406,1,0,0:0:0:0:
232,96,154474,1,8,0:0:0:0:
364,160,154610,2,0,L|460:156,1,89.999997253418,8|0,0:0|0:0,0:0:0:0:
324,32,154883,5,6,0:0:0:0:
414,271,163610,6,0,P|339:294|271:256,1,160,6|8,0:0|3:2,0:0:0:0:
224,162,164019,1,0,3:2:0:0:
236,352,164156,1,2,3:2:0:0:
349,202,164292,1,0,3:2:0:0:
187,261,164428,2,0,L|107:250,1,79.9999999999999,12|0,0:0|0:0,0:0:0:0:
42,290,164701,6,0,P|77:243|78:184,1,120,2|0,0:0|0:0,0:0:0:0:
77,183,164974,2,0,L|156:172,1,79.9999999999999,8|0,3:2|0:0,0:0:0:0:
364,109,165246,2,0,P|379:72|373:33,1,79.9999999999999,2|0,3:2|0:0,0:0:0:0:
271,256,165519,2,0,P|255:292|261:331,1,79.9999999999999,8|0,3:2|0:0,0:0:0:0:
317,182,165792,5,2,0:0:0:0:
317,182,165928,1,0,0:0:0:0:
357,260,166065,5,8,3:2:0:0:
277,104,166201,1,0,3:2:0:0:
271,256,166337,5,2,3:2:0:0:
364,109,166474,1,0,3:2:0:0:
231,178,166610,5,8,3:2:0:0:
403,186,166746,1,0,0:0:0:0:
271,256,166883,6,0,P|195:259|147:199,1,160,2|8,3:2|0:0,0:0:0:0:
324,30,167292,1,0,0:0:0:0:
324,30,167428,2,0,P|400:26|448:86,1,160,2|8,3:2|0:0,0:0:0:0:
357,260,167837,1,0,0:0:0:0:
357,260,167974,6,0,L|363:180,1,79.9999999999999,6|0,0:0|0:0,0:0:0:0:
146,199,168246,1,8,3:2:0:0:
146,199,168383,6,0,P|107:205|70:191,1,79.9999999999999,0|2,3:2|0:0,0:0:0:0:
204,132,168656,2,0,P|218:95|248:69,1,79.9999999999999,0|8,3:2|0:0,0:0:0:0:
233,215,168928,1,0,3:2:0:0:
233,215,169065,2,0,P|257:245|264:284,1,79.9999999999999,2|0,0:0|0:0,0:0:0:0:
460,192,169337,1,8,3:2:0:0:
460,192,169474,6,0,P|423:206|384:200,1,79.9999999999999,0|2,3:2|0:0,0:0:0:0:
280,69,169746,2,0,P|310:95|325:132,1,79.9999999999999,0|8,3:2|0:0,0:0:0:0:
264,285,170019,1,0,3:2:0:0:
264,285,170156,2,0,P|271:246|296:216,1,79.9999999999999,2|0,0:0|0:0,0:0:0:0:
413,116,170428,5,8,3:2:0:0:
355,284,170565,1,0,3:2:0:0:
237,146,170701,5,2,3:2:0:0:
384,200,170837,1,0,3:2:0:0:
217,138,170974,5,8,3:2:0:0:
325,131,171110,1,0,3:2:0:0:
200,229,171246,5,2,3:2:0:0:
228,54,171383,1,2,3:2:0:0:
384,200,171519,1,8,0:0:0:0:
158,304,171656,2,0,P|115:241|140:168,1,160,6|0,3:2|0:0,0:0:0:0:
384,200,172065,2,0,L|384:281,1,79.9999999999999,8|0,3:2|3:2,0:0:0:0:
463,329,172337,6,0,B|384:307|384:307|308:326,1,160,6|8,0:0|3:2,0:0:0:0:
200,229,172746,1,0,3:2:0:0:
286,217,172883,1,2,3:2:0:0:
114,241,173019,1,0,3:2:0:0:
211,308,173156,2,0,L|199:228,1,79.9999999999999,8|0,0:0|0:0,0:0:0:0:
310,55,173428,6,0,L|321:134,1,79.9999999999999,2|0,0:0|0:0,0:0:0:0:
512,55,173701,2,0,L|500:134,1,79.9999999999999,8|0,3:2|3:2,0:0:0:0:
411,193,173974,5,2,3:2:0:0:
410,75,174110,1,0,3:2:0:0:
411,193,174246,5,8,3:2:0:0:
410,75,174383,1,0,3:2:0:0:
411,213,174519,6,0,L|331:213,1,79.9999999999999,2|0,0:0|0:0,0:0:0:0:
236,214,174792,1,8,3:2:0:0:
236,214,174928,1,0,3:2:0:0:
266,122,175065,5,2,3:2:0:0:
266,304,175201,1,0,3:2:0:0:
159,157,175337,5,8,3:2:0:0:
331,213,175474,1,0,0:0:0:0:
159,269,175610,6,0,L|159:109,1,160,2|8,3:2|0:0,0:0:0:0:
406,256,176019,1,0,0:0:0:0:
406,256,176156,2,0,P|343:299|270:274,1,160,2|8,3:2|0:0,0:0:0:0:
124,186,176565,1,0,0:0:0:0:
242,77,176701,6,0,L|322:77,1,79.9999999999999,2|0,0:0|0:0,0:0:0:0:
406,118,176974,1,8,3:2:0:0:
319,154,177110,6,0,P|311:114|321:76,1,79.9999999999999,0|2,3:2|0:0,0:0:0:0:
418,24,177383,2,0,P|456:37|484:64,1,79.9999999999999,0|8,3:2|0:0,0:0:0:0:
480,175,177656,1,0,3:2:0:0:
480,175,177792,2,0,P|449:201|411:212,1,79.9999999999999,2|0,0:0|0:0,0:0:0:0:
156,118,178065,1,8,3:2:0:0:
241,76,178201,6,0,P|251:115|243:154,1,79.9999999999999,0|2,3:2|0:0,0:0:0:0:
77,64,178474,2,0,P|106:36|144:24,1,79.9999999999999,0|8,3:2|0:0,0:0:0:0:
149,212,178746,1,0,3:2:0:0:
149,212,178883,2,0,P|111:201|82:175,1,79.9999999999999,2|0,0:0|0:0,0:0:0:0:
236,247,179156,5,8,3:2:0:0:
229,341,179292,1,0,3:2:0:0:
313,198,179428,5,2,3:2:0:0:
335,309,179565,1,0,3:2:0:0:
375,122,179701,5,8,3:2:0:0:
430,236,179837,1,0,3:2:0:0:
397,27,179974,5,2,3:2:0:0:
313,198,180110,1,2,3:2:0:0:
495,147,180246,1,8,0:0:0:0:
254,97,180383,2,0,P|184:128|114:95,1,160,6|0,3:2|0:0,0:0:0:0:
184,41,180792,2,0,L|184:121,1,79.9999999999999,8|0,0:0|0:0,0:0:0:0:
335,309,181065,6,0,L|335:229,1,79.9999999999999,12|0,3:2|0:0,0:0:0:0:
495,147,181337,1,0,0:0:0:0:
256,192,181474,6,0,L|296:122,1,79.9999999999999,8|0,3:2|0:0,0:0:0:0:
495,147,181746,1,0,0:0:0:0:
246,51,181883,6,0,L|315:11,1,79.9999999999999,8|0,3:2|0:0,0:0:0:0:
495,147,182156,6,0,P|462:167|422:167,1,79.9999999999999,12|0,3:2|0:0,0:0:0:0:
296,122,182428,1,0,0:0:0:0:
437,260,182565,6,0,P|397:261|363:242,1,79.9999999999999,8|0,3:2|0:0,0:0:0:0:
296,122,182837,1,0,0:0:0:0:
329,329,182974,6,0,P|294:310|274:275,1,79.9999999999999,8|0,3:2|0:0,0:0:0:0:
296,122,183246,6,0,P|335:113|374:106,1,79.9999999999999,12|0,3:2|0:0,0:0:0:0:
164,293,183519,1,0,0:0:0:0:
158,69,183656,6,0,P|118:60|79:53,1,79.9999999999999,8|0,3:2|0:0,0:0:0:0:
274,276,183928,1,0,0:0:0:0:
247,39,184065,6,0,P|252:78|239:115,1,79.9999999999999,8|0,3:2|0:0,0:0:0:0:
97,187,184337,5,8,3:2:0:0:
423,209,184474,1,8,3:2:0:0:
228,208,184610,6,0,P|274:164|275:228,2,160,0|0|8,0:0|0:0|0:0,0:0:0:0:
244,236,185428,6,0,L|94:221,1,150.000005722046,6|0,3:2|3:2,0:0:0:0:
303,166,186519,6,0,L|428:154,1,112.500004291534,6|0,3:2|0:0,0:0:0:0:
415,156,187065,2,0,P|392:217|411:271,1,112.500004291534,2|0,3:2|0:0,0:0:0:0:
405,261,187610,6,0,L|330:253,1,75.000002861023,6|0,0:0|0:0,0:0:0:0:
292,327,188156,2,0,L|217:334,1,75.000002861023,0|0,0:0|3:2,0:0:0:0:
140,303,188701,6,0,L|134:253,1,50,8|2,3:2|0:0,0:0:0:0:
202,198,188974,2,0,L|207:148,1,50,8|2,3:2|0:0,0:0:0:0:
219,23,189246,5,8,3:2:0:0:
219,23,189383,1,2,0:0:0:0:
151,80,189519,1,8,3:2:0:0:
151,80,189656,1,8,0:0:0:0:
274,91,189792,6,0,P|322:102|364:75,1,99.9999999999999,6|0,3:2|0:0,0:0:0:0:
475,300,190337,2,0,P|427:289|385:316,1,99.9999999999999,8|0,3:2|0:0,0:0:0:0:
328,256,190746,1,0,0:0:0:0:
328,256,190883,2,0,L|278:258,1,50,2|8,3:2|0:0,0:0:0:0:
198,354,191156,1,0,0:0:0:0:
198,354,191428,6,0,P|201:329|199:304,1,50,8|0,3:2|0:0,0:0:0:0:
26,304,191701,2,0,P|22:328|24:353,1,50,2|0,0:0|0:0,0:0:0:0:
111,329,191974,5,8,3:2:0:0:
111,329,192110,1,2,0:0:0:0:
111,147,192246,5,8,0:0:0:0:
111,147,192383,1,2,0:0:0:0:
111,238,192519,5,8,3:2:0:0:
111,238,192656,1,2,0:0:0:0:
111,56,192792,5,8,0:0:0:0:
111,56,192928,1,0,0:0:0:0:
20,144,193065,2,0,B|64:128|112:156|112:156|160:128|204:144,1,192.0000046875,6|0,3:2|0:0,0:0:0:0:
203,143,193474,2,0,P|221:93|254:58,1,96.00000234375,6|0,3:2|0:0,0:0:0:0:
338,223,193746,1,8,3:2:0:0:
338,223,193815,1,8,0:0:0:0:
338,223,193883,1,8,3:2:0:0:
312,147,194019,1,8,3:2:0:0:
248,222,194156,6,0,B|56:221,1,192.0000046875,6|10,3:2|0:0,0:0:0:0:
155,62,194565,1,8,0:3:0:0:
312,147,194701,2,0,P|402:168|476:112,1,192.0000046875,2|10,3:2|0:0,0:0:0:0:
383,70,195110,1,8,0:3:0:0:
430,252,195246,6,0,L|430:348,1,96.00000234375,2|8,3:2|0:3,0:0:0:0:
312,147,195519,2,0,L|312:51,1,96.00000234375,10|8,0:0|0:3,0:0:0:0:
243,214,195792,2,0,P|198:202|151:214,1,96.00000234375,2|8,3:2|0:3,0:0:0:0:
11,129,196065,2,0,P|57:141|104:130,1,96.00000234375,10|8,0:0|0:3,0:0:0:0:
179,69,196337,5,2,3:2:0:0:
148,230,196474,1,8,0:3:0:0:
275,128,196610,1,10,0:0:0:0:
309,289,196746,1,8,0:3:0:0:
145,246,196883,2,0,P|97:240|52:255,1,96.00000234375,2|8,3:2|0:3,0:0:0:0:
318,381,197156,2,0,P|323:333|308:288,1,96.00000234375,10|8,3:2|0:3,0:0:0:0:
257,114,197428,6,0,P|350:111|418:45,1,192.0000046875,2|10,3:2|3:2,0:0:0:0:
213,30,197837,1,8,0:3:0:0:
252,214,197974,2,0,P|234:258|240:305,1,96.00000234375,2|8,3:2|0:3,0:0:0:0:
340,247,198246,2,0,P|346:199|328:155,1,96.00000234375,10|8,3:2|0:3,0:0:0:0:
232,124,198519,6,0,B|108:175|108:175|170:179,1,192.0000046875,2|10,3:2|0:0,0:0:0:0:
328,155,198928,1,8,0:3:0:0:
270,42,199065,2,0,P|237:76|231:123,1,96.00000234375,2|8,3:2|0:3,0:0:0:0:
429,157,199337,2,0,P|439:111|421:68,1,96.00000234375,10|8,0:0|0:3,0:0:0:0:
328,155,199610,6,0,L|302:296,1,144.000003515625,2|0,3:2|0:0,0:0:0:0:
309,318,199883,2,0,P|262:313|216:324,1,96.00000234375,10|8,0:0|0:3,0:0:0:0:
29,217,200156,2,0,P|75:225|118:205,1,96.00000234375,2|8,3:2|0:3,0:0:0:0:
264,41,200428,2,0,L|253:136,1,96.00000234375,10|8,0:0|0:3,0:0:0:0:
309,318,200701,6,0,P|356:314|398:291,1,96.00000234375,2|8,3:2|0:3,0:0:0:0:
510,172,200974,2,0,P|441:156|394:103,1,144.000003515625,10|0,0:0|0:0,0:0:0:0:
370,73,201246,2,0,L|360:168,1,96.00000234375,2|8,3:2|0:3,0:0:0:0:
164,190,201519,2,0,P|175:236|181:284,1,96.00000234375,10|8,0:0|0:3,0:0:0:0:
303,379,201792,5,10,3:2:0:0:
276,162,201928,1,8,0:0:0:0:
181,285,202065,1,10,0:0:0:0:
399,257,202201,1,8,0:0:0:0:
140,384,202337,5,10,3:2:0:0:
115,198,202474,1,8,0:0:0:0:
290,271,202610,1,10,0:0:0:0:
181,285,202746,1,8,0:0:0:0:
181,285,202883,6,0,P|116:305|51:281,2,139.999995727539,6|0|8,3:2|0:0|3:2,0:0:0:0:
409,73,203701,1,0,0:0:0:0:
409,73,203837,6,0,B|395:125|395:125|405:210,1,139.999995727539,2|8,3:2|0:0,0:0:0:0:
475,204,204246,2,0,L|405:210,1,69.9999978637695,0|0,0:0|0:0,0:0:0:0:
330,255,204519,2,0,L|289:197,1,69.9999978637695,8|0,3:2|0:0,0:0:0:0:
406,298,204792,2,0,L|376:361,1,69.9999978637695,0|0,0:0|0:0,0:0:0:0:
205,220,205065,6,0,P|171:209|137:211,1,69.9999978637695,2|0,3:2|0:0,0:0:0:0:
9,283,205337,2,0,L|78:276,1,69.9999978637695,0|0,0:0|0:0,0:0:0:0:
163,298,205610,2,0,P|173:331|171:365,1,69.9999978637695,8|0,3:2|0:0,0:0:0:0:
52,189,205883,2,0,L|61:119,1,69.9999978637695,0|0,0:0|0:0,0:0:0:0:
129,62,206156,6,0,P|196:75|257:44,2,139.999995727539,2|2|8,3:2|0:0|0:0,0:0:0:0:
334,89,206837,1,8,0:0:0:0:
426,75,206974,2,0,L|416:144,1,69.9999978637695,8|8,0:0|0:0,0:0:0:0:
343,193,207246,6,0,P|316:256|380:360,1,192.0000046875,2|8,0:0|0:0,0:0:0:0:
420,264,207656,1,0,0:0:0:0:
372,356,207792,2,0,L|264:352,1,96.00000234375,8|8,0:0|0:0,0:0:0:0:
190,219,208065,1,8,0:0:0:0:
190,219,208133,1,8,0:0:0:0:
190,219,208201,1,8,0:0:0:0:
190,219,208269,1,8,0:0:0:0:
190,219,208337,1,6,3:2:0:0:
466,26,209019,5,2,0:0:0:0:
466,26,209087,1,0,0:0:0:0:
466,26,209156,2,0,P|480:76|456:128,1,96.00000234375,8|0,0:0|0:0,0:0:0:0:
396,185,209428,6,0,L|392:216,1,24.0000005859375,6|0,3:2|0:0,0:0:0:0:
311,110,209701,2,0,L|312:140,1,24.0000005859375,8|0,3:2|0:0,0:0:0:0:
201,110,209974,2,0,L|200:144,1,24.0000005859375,2|0,3:2|0:0,0:0:0:0:
116,185,210246,2,0,L|120:220,1,24.0000005859375,8|0,3:2|0:0,0:0:0:0:
256,384,210383,6,0,L|256:180,1,192.0000046875,2|2,3:2|3:2,0:0:0:0:
256,0,210792,2,0,L|257:103,1,96.00000234375,8|0,3:2|0:0,0:0:0:0:
256,192,211065,1,2,3:2:0:0:
256,192,211133,1,0,0:0:0:0:
256,192,211201,1,8,0:0:0:0:
172,157,211337,1,8,0:0:0:0:
336,155,211474,1,0,0:0:0:0:
91,218,211610,5,6,3:2:0:0:
172,157,211746,1,8,3:2:0:0:
183,258,211883,1,2,3:2:0:0:
91,218,212019,2,0,P|71:182|73:140,1,85.0000016212463,8|2,3:2|0:0,0:0:0:0:
284,245,212292,2,0,P|285:286|265:323,1,85.0000016212463,8|2,3:2|0:0,0:0:0:0:
239,62,212565,6,0,P|323:54|408:45,1,170.000003242493,8|8,3:2|3:3,0:0:0:0:
512,172,212974,2,0,P|519:213|508:254,1,85.0000016212463,2|8,3:2|0:3,0:0:0:0:
181,371,213246,2,0,P|170:330|178:288,1,85.0000016212463,2|8,3:2|0:3,0:0:0:0:
339,84,213519,2,0,L|338:168,1,85.0000016212463,2|8,3:2|0:3,0:0:0:0:
338,269,213792,5,2,3:2:0:0:
338,169,213928,1,8,3:2:0:0:
421,224,214065,1,2,3:2:0:0:
253,217,214201,2,0,L|168:212,1,85.0000016212463,8|2,3:2|0:0,0:0:0:0:
37,162,214474,2,0,P|39:119|58:82,1,85.0000016212463,8|2,3:2|0:0,0:0:0:0:
243,0,214746,6,0,P|260:38|262:80,1,85.0000016212463,8|2,3:2|0:0,0:0:0:0:
208,336,215019,1,8,3:3:0:0:
168,212,215156,2,0,L|252:216,1,85.0000016212463,2|8,3:2|0:3,0:0:0:0:
500,282,215428,2,0,P|523:203|478:134,1,170.000003242493,2|2,3:2|3:2,0:0:0:0:
255,384,215974,5,2,3:2:0:0:
168,212,216110,1,8,3:2:0:0:
133,348,216246,1,2,3:2:0:0:
260,252,216383,2,0,P|301:244|342:252,1,85.0000016212463,8|2,3:2|0:0,0:0:0:0:
499,359,216656,2,0,P|513:319|510:277,1,85.0000016212463,8|2,3:2|0:0,0:0:0:0:
388,0,216928,6,0,L|422:166,1,170.000003242493,8|8,3:2|3:3,0:0:0:0:
512,79,217337,2,0,P|471:89|430:77,1,85.0000016212463,2|8,3:2|0:3,0:0:0:0:
239,0,217610,2,0,P|267:38|276:83,1,85.0000016212463,2|8,3:2|0:3,0:0:0:0:
330,311,217883,2,0,L|339:227,1,85.0000016212463,2|8,3:2|0:3,0:0:0:0:
123,69,218156,6,0,P|200:39|275:74,1,170.000003242493,2|2,3:2|3:2,0:0:0:0:
209,185,218565,1,8,0:2:0:0:
384,109,218701,2,0,L|374:25,1,85.0000016212463,2|8,3:2|0:2,0:0:0:0:
209,185,218974,1,2,3:2:0:0:
309,277,219110,6,0,L|477:257,1,170.000003242493,8|8,3:2|0:3,0:0:0:0:
398,175,219519,2,0,L|313:184,1,85.0000016212463,2|8,0:0|0:3,0:0:0:0:
196,259,219792,1,10,3:2:0:0:
212,161,219928,1,8,0:3:0:0:
337,335,220065,1,10,0:0:0:0:
314,184,220201,1,0,0:3:0:0:
103,301,220337,5,6,3:2:0:0:
184,357,220474,1,8,3:2:0:0:
196,259,220610,1,2,3:2:0:0:
103,301,220746,2,0,P|86:342|86:395,1,85.0000016212463,8|2,3:2|0:0,0:0:0:0:
345,261,221019,2,0,P|337:219|314:184,1,85.0000016212463,8|2,3:2|0:0,0:0:0:0:
140,0,221292,6,0,L|176:166,1,170.000003242493,8|8,3:2|3:3,0:0:0:0:
231,363,221701,2,0,P|272:378|325:378,1,85.0000016212463,2|8,3:2|0:3,0:0:0:0:
186,271,221974,2,0,P|152:297|130:332,1,85.0000016212463,2|8,3:2|0:3,0:0:0:0:
288,278,222246,2,0,P|281:236|262:198,1,85.0000016212463,2|8,3:2|0:3,0:0:0:0:
205,112,222519,5,2,3:2:0:0:
130,221,222656,1,8,3:2:0:0:
74,52,222792,1,2,3:2:0:0:
219,101,222928,2,0,L|303:89,1,85.0000016212463,8|2,3:2|0:0,0:0:0:0:
482,280,223201,2,0,L|397:268,1,85.0000016212463,8|2,3:2|0:0,0:0:0:0:
438,36,223474,6,0,P|447:78|437:119,1,85.0000016212463,8|2,3:2|0:0,0:0:0:0:
204,298,223746,1,8,3:3:0:0:
309,334,223883,2,0,L|301:249,1,85.0000016212463,2|8,3:2|0:3,0:0:0:0:
219,101,224156,2,0,P|145:63|68:94,1,170.000003242493,2|2,3:2|3:2,0:0:0:0:
352,239,224701,5,2,3:2:0:0:
373,96,224837,1,8,3:2:0:0:
419,310,224974,1,2,3:2:0:0:
296,158,225110,2,0,P|253:158|214:173,1,85.0000016212463,8|2,3:2|0:0,0:0:0:0:
43,267,225383,2,0,P|78:289|120:292,1,85.0000016212463,8|2,3:2|0:0,0:0:0:0:
302,384,225656,6,0,L|291:299,1,85.0000016212463,8|2,3:2|0:0,0:0:0:0:
378,158,225928,1,8,3:3:0:0:
378,158,226065,2,0,P|418:147|460:152,1,85.0000016212463,2|8,3:2|0:3,0:0:0:0:
308,93,226337,2,0,P|344:71|386:65,1,85.0000016212463,2|8,3:2|0:3,0:0:0:0:
223,48,226610,2,0,P|252:18|291:1,1,85.0000016212463,2|8,3:2|0:3,0:0:0:0:
460,152,226883,6,0,P|480:231|427:294,1,170.000003242493,2|2,3:2|3:2,0:0:0:0:
308,93,227292,1,8,0:2:0:0:
242,186,227428,2,0,P|204:170|162:177,1,85.0000016212463,2|8,3:2|0:2,0:0:0:0:
323,361,227701,1,2,3:2:0:0:
193,262,227837,6,0,L|23:275,1,170.000003242493,8|8,3:2|0:3,0:0:0:0:
52,305,228246,2,0,P|65:265|66:222,1,85.0000016212463,2|8,0:0|0:3,0:0:0:0:
136,56,228519,2,0,P|164:88|200:110,1,85.0000016212463,10|8,3:2|0:3,0:0:0:0:
374,241,228792,2,0,L|289:250,1,85.0000016212463,2|8,0:0|0:3,0:0:0:0:
193,262,229065,5,6,3:2:0:0:
118,239,230156,5,12,3:2:0:0:
295,340,230428,1,8,3:2:0:0:
396,163,230701,1,8,3:2:0:0:
219,62,230974,1,8,3:2:0:0:
34,253,231246,6,0,P|75:243|117:238,1,85.0000016212463,8|8,3:2|0:0,0:0:0:0:
479,177,231519,2,0,P|437:167|395:162,1,85.0000016212463,8|8,3:2|0:0,0:0:0:0:
278,0,231792,2,0,P|300:35|305:77,1,85.0000016212463,8|8,3:2|0:0,0:0:0:0:
198,309,232065,2,0,P|202:267|225:231,1,85.0000016212463,8|8,3:2|0:0,0:0:0:0:
418,257,232337,5,8,3:2:0:0:
418,257,232474,1,8,3:2:0:0:
337,219,232746,1,8,3:2:0:0:
288,293,233019,1,8,3:2:0:0:
165,121,233292,5,8,3:2:0:0:
249,155,233565,1,8,3:2:0:0:
301,80,233837,1,8,3:2:0:0:
378,121,234110,2,8,P|400:179|372:235,1,127.500002431869,8|0,3:2|0:0,0:0:0:0:
367,243,234383,6,0,L|324:237,32,42.5000008106231,8|0|10|0|2|2|8|8|2|2|10|8|0|2|8|8|2|2|8|0|2|0|0|0|8|0|10|2|2|0|8|0|2,0:0|0:0|3:2|0:0|0:0|0:0|0:3|0:0|0:0|0:0|0:3|0:0|0:0|0:0|0:3|0:0|0:0|0:0|3:2|0:0|0:0|0:0|0:0|0:0|0:0|0:0|0:0|0:0|0:0|0:0|0:0|0:0|0:0,0:0:0:0:
258,185,236701,6,0,B|288:237|288:237|268:345,1,170.000003242493,4|8,3:2|0:0,0:0:0:0:
60,185,237110,2,0,B|30:237|30:237|49:345,1,170.000003242493,4|2,3:2|0:0,0:0:0:0:
159,271,237519,5,8,3:2:0:0:
159,185,237656,2,0,L|159:100,1,85.0000016212463,4|0,3:2|0:0,0:0:0:0:
