osu file format v14

[General]
AudioFilename: audio.mp3
AudioLeadIn: 0
PreviewTime: 73665
Countdown: 0
SampleSet: Soft
StackLeniency: 0.7
Mode: 0
LetterboxInBreaks: 0
WidescreenStoryboard: 1

[Editor]
Bookmarks: 33312
DistanceSpacing: 1
BeatDivisor: 4
GridSize: 8
TimelineZoom: 1

[Metadata]
Title:InFINITE Line
TitleUnicode:InFINITE Line
Artist:Yonekura Chihiro
ArtistUnicode:米倉千尋
Creator:Saggin
Version:Normal
Source:9-nine-
Tags:ぱれっと palette japanese pop j-pop jpop video game eroge visual novel vn opening op しいな まさる 椎名豪 Shiina Go 山口たこ Yamaguchi tako
BeatmapID:2903191
BeatmapSetID:1407839

[Difficulty]
HPDrainRate:3
CircleSize:3
OverallDifficulty:4
ApproachRate:5.2
SliderMultiplier:0.999999999999999
SliderTickRate:1

[Events]
//Background and Video events
Video,0,"video.mp4"
0,0,"myako.png",0,0
//Break Periods
//Storyboard Layer 0 (Background)
//Storyboard Layer 1 (Fail)
//Storyboard Layer 2 (Pass)
//Storyboard Layer 3 (Foreground)
//Storyboard Layer 4 (Overlay)
//Storyboard Sound Samples

[TimingPoints]
58,428.571428571429,4,2,1,20,1,0
13772,-100,4,2,1,25,0,0
29200,-100,4,2,1,35,0,0
56629,-100,4,2,1,50,0,0
72058,-100,4,2,1,60,0,0
73772,-100,4,2,1,70,0,0
75593,-100,4,2,1,5,0,0
75700,-100,4,2,1,70,0,0
89308,-100,4,2,1,5,0,0
89414,-100,4,2,1,70,0,0
102486,-100,4,2,1,60,0,0
108058,-100,4,2,1,50,0,0
114915,-100,4,2,1,30,0,0

[Colours]
Combo1 : 212,212,212
Combo2 : 138,255,138
Combo3 : 255,157,204
Combo4 : 147,228,255

[HitObjects]
421,70,58,5,2,0:0:0:0:
41,195,1772,1,2,0:0:0:0:
419,323,3486,1,2,0:0:0:0:
146,29,5200,6,0,P|155:99|166:235,2,200,2|2|2,0:0|0:0|0:0,0:0:0:0:
146,29,8200,5,2,0:0:0:0:
213,103,8629,2,0,B|340:124|276:34|422:51,1,200,2|2,0:0|0:0,0:0:0:0:
492,224,10343,2,0,P|435:228|290:260,1,200,2|2,0:0|0:0,0:0:0:0:
74,128,13772,6,0,P|67:72|56:12,2,99.9999999999999,6|0|2,0:0|0:0|0:0,0:0:0:0:
21,213,15058,1,0,0:0:0:0:
93,281,15486,2,0,P|144:273|202:265,1,99.9999999999999,2|0,0:0|0:0,0:0:0:0:
267,201,16343,2,0,L|256:137,2,50,2|2|2,0:0|0:0|0:0,0:0:0:0:
361,232,17200,6,0,P|354:287|348:365,2,99.9999999999999,2|0|2,0:0|0:0|0:0,0:0:0:0:
444,177,18486,1,2,0:0:0:0:
371,107,18915,2,0,B|278:113|333:52|190:64,1,150,2|2,0:0|0:0,0:0:0:0:
182,70,19772,1,2,0:0:0:0:
110,139,20200,5,2,0:0:0:0:
179,211,20629,2,0,P|171:262|166:324,2,99.9999999999999,2|0|2,0:0|0:0|0:0,0:0:0:0:
259,151,21915,1,0,0:0:0:0:
318,231,22343,2,0,P|375:224|425:222,1,99.9999999999999,2|0,0:0|0:0,0:0:0:0:
483,146,23200,2,0,L|487:93,2,50,2|2|2,0:0|0:0|0:0,0:0:0:0:
417,222,24058,6,0,P|427:278|440:356,2,99.9999999999999,2|2|2,0:0|0:0|0:0,0:0:0:0:
338,159,25343,2,0,P|285:160|261:222,1,99.9999999999999,2|2,0:0|0:0,0:0:0:0:
259,195,29200,6,0,L|264:257,2,50,0|0|0,1:2|1:2|1:2,0:0:0:0:
233,151,29843,2,0,P|180:166|132:170,1,99.9999999999999,0|0,1:2|1:2,0:0:0:0:
24,311,32629,6,0,L|19:373,2,50,0|0|0,1:2|1:2|1:2,0:0:0:0:
54,271,33272,2,0,P|107:286|157:292,1,99.9999999999999,0|0,1:2|1:2,0:0:0:0:
424,327,36058,6,0,P|428:290|437:223,1,99.9999999999999,0|0,1:2|1:2,0:0:0:0:
483,211,36700,2,0,P|479:173|462:97,1,99.9999999999999,0|0,1:2|1:2,0:0:0:0:
176,50,39486,6,0,P|132:54|112:59,2,50,0|0|0,1:2|1:2|1:2,0:0:0:0:
224,36,40129,2,0,P|215:74|209:136,1,99.9999999999999,0|0,1:2|1:2,0:0:0:0:
66,321,42915,6,0,B|113:323|101:287|164:294,1,99.9999999999999,6|2,1:2|0:0,0:0:0:0:
227,220,43772,1,2,0:0:0:0:
158,146,44200,2,0,L|161:87,1,50,2|2,0:0|0:0,0:0:0:0:
208,80,44629,2,0,P|259:88|315:91,1,99.9999999999999,2|2,1:2|1:2,0:0:0:0:
404,114,45486,2,0,P|408:82|401:57,2,50,2|0|2,0:0|1:2|0:0,0:0:0:0:
437,208,46343,6,0,P|387:211|337:218,1,99.9999999999999,2|2,1:2|1:2,0:0:0:0:
261,152,47200,1,2,0:0:0:0:
335,86,47629,2,0,L|332:27,1,50,2|2,0:0|0:0,0:0:0:0:
286,16,48058,6,0,P|241:17|191:109,1,150,2|2,1:2|1:2,0:0:0:0:
182,147,48915,1,2,0:0:0:0:
252,217,49343,2,0,L|245:282,1,50,2|2,0:0|0:0,0:0:0:0:
200,285,49772,6,0,B|153:287|165:251|102:258,1,99.9999999999999,0|2,1:2|1:2,0:0:0:0:
28,189,50629,1,2,0:0:0:0:
102,121,51058,1,2,0:0:0:0:
25,56,51486,2,0,P|35:21|108:5,1,99.9999999999999,0|2,1:2|1:2,0:0:0:0:
186,24,52343,2,0,L|181:87,2,50,2|2|2,0:0|1:2|0:0,0:0:0:0:
285,14,53200,6,0,P|315:26|382:39,1,99.9999999999999,0|2,1:2|1:2,0:0:0:0:
426,17,53843,2,0,P|410:71|439:127,1,99.9999999999999,2|2,1:2|1:2,0:0:0:0:
458,146,54486,1,2,0:0:0:0:
418,238,54915,6,0,L|362:231,1,50,2|8,1:2|0:0,0:0:0:0:
324,207,55343,2,0,P|271:219|218:221,1,99.9999999999999,0|0,1:2|1:2,0:0:0:0:
182,196,55986,2,0,L|173:137,2,50,2|10|10,1:2|0:0|1:2,0:0:0:0:
145,229,56629,6,0,B|155:290|159:342|159:343,1,99.9999999999999,6|10,1:2|0:0,0:0:0:0:
242,381,57486,1,2,1:2:0:0:
308,305,57915,1,10,0:0:0:0:
385,367,58343,1,2,1:2:0:0:
450,291,58772,2,0,P|437:233|436:175,1,99.9999999999999,10|0,0:0|1:2,0:0:0:0:
504,120,59629,1,8,0:0:0:0:
426,56,60058,6,0,P|385:63|369:62,1,50,2|2,1:2|0:0,0:0:0:0:
326,61,60486,1,10,0:0:0:0:
288,153,60915,2,0,P|247:146|231:147,1,50,2|2,1:2|1:2,0:0:0:0:
190,134,61343,1,10,0:0:0:0:
91,114,61772,2,0,P|98:170|100:221,1,99.9999999999999,2|8,1:2|0:0,0:0:0:0:
98,263,62415,1,2,0:0:0:0:
98,263,62629,1,0,1:2:0:0:
171,331,63058,6,0,B|205:325|232:321|233:321,1,50,10|2,0:0|0:0,0:0:0:0:
269,330,63486,2,0,P|266:280|260:230,1,99.9999999999999,2|10,1:2|0:0,0:0:0:0:
191,157,64343,1,2,1:2:0:0:
265,90,64772,1,10,0:0:0:0:
188,25,65200,2,0,P|129:38|84:40,2,99.9999999999999,2|2|8,1:2|1:2|0:0,0:0:0:0:
259,95,66486,6,0,P|309:95|366:111,1,99.9999999999999,10|2,0:0|1:2,0:0:0:0:
430,175,67343,1,0,1:2:0:0:
360,246,67772,2,0,B|300:237|332:277|255:271,1,99.9999999999999,10|0,0:0|0:0,0:0:0:0:
176,229,68629,2,0,P|171:176|164:121,2,99.9999999999999,2|2|10,0:0|0:0|0:0,0:0:0:0:
122,313,69915,1,2,0:0:0:0:
47,246,70343,2,0,P|41:183|21:46,1,200,6|10,1:2|0:0,0:0:0:0:
48,5,71415,1,8,0:0:0:0:
132,58,71843,5,10,0:0:0:0:
132,58,72058,2,0,P|190:49|236:45,1,99.9999999999999,2|10,1:2|0:0,0:0:0:0:
272,18,72700,2,0,P|257:74|273:117,1,99.9999999999999,2|0,0:0|1:2,0:0:0:0:
300,152,73343,1,8,0:0:0:0:
363,229,73772,6,0,P|289:243|241:260,1,99.9999999999999,6|10,1:2|0:0,0:0:0:0:
262,300,74415,2,0,P|213:286|164:278,1,99.9999999999999,2|2,0:0|0:0,0:0:0:0:
119,299,75058,1,8,0:0:0:0:
119,299,75272,2,0,P|143:244|130:190,1,99.9999999999999,2|2,1:2|0:0,0:0:0:0:
89,191,75915,2,0,P|65:136|78:82,1,99.9999999999999,10|0,0:0|1:2,0:0:0:0:
152,40,76772,2,0,P|186:48|216:49,1,50,10|2,0:0|0:0,0:0:0:0:
246,27,77200,6,0,P|233:84|230:139,1,99.9999999999999,2|8,1:2|0:0,0:0:0:0:
183,143,77843,2,0,P|196:200|199:255,1,99.9999999999999,2|2,0:0|0:0,0:0:0:0:
209,290,78486,1,8,0:0:0:0:
209,290,78700,2,0,B|266:292|256:258|311:261,1,99.9999999999999,2|2,1:2|0:0,0:0:0:0:
352,266,79343,1,10,0:0:0:0:
437,211,79772,5,0,1:2:0:0:
437,211,79986,2,0,P|479:201|511:200,2,50,2|10|2,1:2|0:0|0:0,0:0:0:0:
395,182,80629,2,0,P|387:116|378:77,1,99.9999999999999,0|10,1:2|0:0,0:0:0:0:
294,31,81486,1,2,1:2:0:0:
294,31,81700,2,0,P|253:39|227:40,1,50,2|10,1:2|0:0,0:0:0:0:
195,49,82129,2,0,P|245:67|256:124,1,99.9999999999999,2|2,1:2|0:0,0:0:0:0:
276,155,82772,1,8,0:0:0:0:
276,155,82986,2,0,P|222:148|167:147,1,99.9999999999999,2|0,1:2|0:0,0:0:0:0:
126,144,83629,1,10,0:0:0:0:
57,216,84058,5,2,1:2:0:0:
107,302,84486,1,10,0:0:0:0:
107,302,84700,2,0,P|159:295|216:293,1,99.9999999999999,2|2,0:0|0:0,0:0:0:0:
276,221,85558,2,0,P|231:192|215:137,1,99.9999999999999,2|2,0:0|0:0,0:0:0:0:
213,100,86200,1,8,0:0:0:0:
213,100,86415,2,0,P|273:97|330:81,1,99.9999999999999,2|2,0:0|0:0,0:0:0:0:
358,68,87058,1,10,0:0:0:0:
432,134,87486,6,0,P|422:197|418:255,1,99.9999999999999,6|10,1:2|0:0,0:0:0:0:
369,238,88129,2,0,P|379:301|383:359,1,99.9999999999999,2|2,0:0|1:2,0:0:0:0:
340,364,88772,1,8,0:0:0:0:
340,364,88986,2,0,B|274:365|306:333|221:338,1,99.9999999999999,2|2,1:2|0:0,0:0:0:0:
219,294,89629,2,0,P|161:303|117:305,1,99.9999999999999,8|0,0:0|1:2,0:0:0:0:
61,223,90486,2,0,P|74:188|77:160,1,50,10|2,0:0|0:0,0:0:0:0:
68,127,90915,6,0,P|120:137|170:142,1,99.9999999999999,2|10,1:2|0:0,0:0:0:0:
203,176,91558,2,0,P|212:122|262:104,1,99.9999999999999,2|2,0:0|0:0,0:0:0:0:
289,74,92200,1,8,0:0:0:0:
289,74,92415,2,0,P|342:83|396:89,1,99.9999999999999,2|2,1:2|0:0,0:0:0:0:
434,69,93058,2,0,P|419:133|416:178,1,99.9999999999999,10|0,0:0|1:2,0:0:0:0:
483,241,93915,1,10,0:0:0:0:
405,303,94343,6,0,P|342:312|293:325,1,99.9999999999999,2|8,1:2|0:0,0:0:0:0:
225,262,95200,2,0,P|237:227|241:196,1,50,2|2,1:2|0:0,0:0:0:0:
262,169,95629,1,10,0:0:0:0:
262,169,95843,2,0,P|188:166|142:157,1,99.9999999999999,2|2,1:2|0:0,0:0:0:0:
124,128,96486,2,0,P|142:188|125:227,1,99.9999999999999,8|0,0:0|1:2,0:0:0:0:
61,294,97343,1,10,0:0:0:0:
137,358,97772,6,0,P|195:346|246:344,1,99.9999999999999,2|8,1:2|0:0,0:0:0:0:
273,310,98415,1,10,0:0:0:0:
273,310,98629,2,0,L|281:253,1,50,2|2,1:2|0:0,0:0:0:0:
241,228,99058,1,10,0:0:0:0:
241,228,99272,2,0,P|239:173|225:104,1,99.9999999999999,2|2,0:0|1:2,0:0:0:0:
204,32,100129,2,0,P|251:45|311:47,1,99.9999999999999,2|10,1:2|0:0,0:0:0:0:
404,69,100986,1,10,0:0:0:0:
404,69,101200,6,0,L|391:168,1,99.9999999999999,4|0,1:2|1:2,0:0:0:0:
343,182,101843,2,0,L|357:295,1,99.9999999999999,4|0,0:2|1:2,0:0:0:0:
399,305,102486,2,0,B|283:293|352:373|189:365,2,200,4|0|8,0:2|1:2|0:3,0:0:0:0:
474,239,104629,6,0,L|491:107,1,99.9999999999999,6|2,0:0|0:0,0:0:0:0:
440,124,105272,2,0,L|423:-9,1,99.9999999999999,8|0,0:0|1:2,0:0:0:0:
381,3,105915,1,4,0:0:0:0:
381,3,106129,1,0,1:0:0:0:
309,73,106558,1,0,1:0:0:0:
309,73,106772,6,0,B|254:84|217:90,2,74.9999999999999,2|0|0,1:2|1:2|0:0,0:0:0:0:
339,112,107629,1,2,0:0:0:0:
282,194,108058,5,4,0:0:0:0:
256,192,108165,12,0,114915,0:0:0:0:
