osu file format v14

[General]
AudioFilename: audio.ogg
AudioLeadIn: 0
PreviewTime: 56035
Countdown: 0
SampleSet: Soft
StackLeniency: 0.7
Mode: 3
LetterboxInBreaks: 0
SpecialStyle: 0
WidescreenStoryboard: 0

[Editor]
DistanceSpacing: 0.1
BeatDivisor: 4
GridSize: 4
TimelineZoom: 1.9

[Metadata]
Title:Harutoki ~Spring Moment~
TitleUnicode:ハルトキ ~Spring Moment~
Artist:Yonekura Chihiro
ArtistUnicode:米倉千尋
Creator:Nabi-
Version:Queen of Eden
Source:9-nine-はるいろはるこいはるのかぜ
Tags:Paran dudehacker drum-hitnormal affirmation 香坂 春風 Kousaka Haruka ぱれっと palette haruiro harukoi harunokaze eroge visual novel galgame episode 3 opening pop jpop j-pop japanese Short cut version ver
BeatmapID:3306890
BeatmapSetID:1619670

[Difficulty]
HPDrainRate:8
CircleSize:4
OverallDifficulty:8
ApproachRate:5
SliderMultiplier:1.4
SliderTickRate:1

[Events]
//Background and Video events
Video,-124,"Harutoki.mp4"
0,0,"BG3.jpg",0,0
//Break Periods
//Storyboard Layer 0 (Background)
//Storyboard Layer 1 (Fail)
//Storyboard Layer 2 (Pass)
//Storyboard Layer 3 (Foreground)
//Storyboard Layer 4 (Overlay)
//Storyboard Sound Samples
Sample,71616,0,"hihat.wav",70

[TimingPoints]
584,387.096774193548,4,2,1,50,1,0
56325,-100,4,2,1,50,0,1
68713,-100,4,2,1,50,0,0
76551,-10,4,2,1,50,0,0
76600,-1000,4,2,1,50,0,0
77616,-333.333333333333,4,2,1,50,0,0
77640,-285.714285714286,4,2,1,50,0,0
77665,-250,4,2,1,50,0,0
77688,-222.222222222222,4,2,1,50,0,0
77713,-200,4,2,1,50,0,0
77737,-166.666666666667,4,2,1,50,0,0
77761,-142.857142857143,4,2,1,50,0,0
77786,-125,4,2,1,50,0,0
77809,-142.857142857143,4,2,1,50,0,0
77810,-111.111111111111,4,2,1,50,0,0
77834,-95.2380952380952,4,2,1,50,0,0
77858,-83.3333333333333,4,2,1,50,0,0
77882,-74.0740740740741,4,2,1,50,0,0
77906,-125,4,2,1,50,0,0
77907,-66.6666666666667,4,2,1,50,0,0
77930,-58.8235294117647,4,2,1,50,0,0
77954,-52.6315789473684,4,2,1,50,0,0
77979,-47.6190476190476,4,2,1,50,0,0
78003,-100,4,2,1,50,0,0
92519,-71.4285714285714,4,2,1,50,0,0
92713,-166.666666666667,4,2,1,50,0,0
92809,-100,4,2,1,50,0,0
92906,-71.4285714285714,4,2,1,50,0,0
93100,-166.666666666667,4,2,1,50,0,0
93196,-100,4,2,1,50,0,0

[HitObjects]
64,192,584,128,0,680:0:0:0:0:
448,192,584,1,0,0:0:0:0:
192,192,680,128,0,777:0:0:0:0:
320,192,777,128,0,874:0:0:0:0:
448,192,874,128,0,971:0:0:0:0:
64,192,971,128,0,1067:0:0:0:0:
192,192,1164,128,0,1454:0:0:0:0:
320,192,1164,128,0,1454:0:0:0:0:
320,192,1551,128,0,1842:0:0:0:0:
448,192,1551,128,0,1842:0:0:0:0:
64,192,1938,1,0,0:0:0:0:
320,192,2035,1,0,0:0:0:0:
64,192,2132,1,0,0:0:0:0:
448,192,2132,128,0,2229:0:0:0:0:
320,192,2229,128,0,2325:0:0:0:0:
192,192,2325,128,0,2422:0:0:0:0:
64,192,2422,128,0,2519:0:0:0:0:
448,192,2519,128,0,2616:0:0:0:0:
64,192,2713,128,0,3003:0:0:0:0:
320,192,2713,128,0,3003:0:0:0:0:
192,192,3100,128,0,3390:0:0:0:0:
320,192,3100,128,0,3390:0:0:0:0:
448,192,3487,1,0,0:0:0:0:
192,192,3583,1,0,0:0:0:0:
64,192,3680,128,0,3777:0:0:0:0:
448,192,3680,1,0,0:0:0:0:
192,192,3777,128,0,3874:0:0:0:0:
320,192,3874,128,0,3971:0:0:0:0:
448,192,3971,128,0,4067:0:0:0:0:
64,192,4067,128,0,4164:0:0:0:0:
192,192,4261,128,0,4551:0:0:0:0:
320,192,4261,128,0,4551:0:0:0:0:
64,192,4648,128,0,4938:0:0:0:0:
192,192,4648,128,0,4938:0:0:0:0:
448,192,5035,1,0,0:0:0:0:
192,192,5132,1,0,0:0:0:0:
64,192,5229,1,0,0:0:0:0:
448,192,5229,128,0,5325:0:0:0:0:
320,192,5325,128,0,5422:0:0:0:0:
192,192,5422,128,0,5519:0:0:0:0:
64,192,5519,128,0,5616:0:0:0:0:
448,192,5616,128,0,5713:0:0:0:0:
64,192,5809,128,0,6100:0:0:0:0:
192,192,5809,128,0,6100:0:0:0:0:
320,192,5809,128,0,6100:0:0:0:0:
64,192,6196,128,0,6680:0:0:0:0:
320,192,6196,128,0,6680:0:0:0:0:
448,192,6196,128,0,6680:0:0:0:0:
192,192,6390,128,0,6680:0:0:0:0:
64,192,6777,1,0,0:0:0:50:kick.wav
192,192,6777,1,0,0:0:0:50:finish.wav
320,192,6777,1,0,0:0:0:0:
448,192,6777,1,0,0:0:0:0:
192,192,6874,128,0,6971:0:0:0:0:
320,192,6971,128,0,7067:0:0:0:0:
448,192,7067,128,0,7164:0:0:0:0:
64,192,7164,128,0,7261:0:0:0:50:snare.wav
192,192,7164,1,0,0:0:0:0:
320,192,7164,1,0,0:0:0:0:
64,192,7358,128,0,7551:0:0:0:0:
192,192,7358,128,0,7551:0:0:0:0:
320,192,7551,1,0,0:0:0:50:kick.wav
448,192,7551,1,0,0:0:0:0:
320,192,7745,128,0,7938:0:0:0:0:
448,192,7745,128,0,7938:0:0:0:0:
64,192,7938,1,0,0:0:0:50:snare.wav
192,192,7938,1,0,0:0:0:0:
320,192,8132,1,0,0:0:0:0:
192,192,8229,1,0,0:0:0:0:
64,192,8325,128,0,8422:0:0:0:50:kick.wav
448,192,8325,1,0,0:0:0:0:
192,192,8422,128,0,8519:0:0:0:0:
320,192,8519,128,0,8616:0:0:0:0:
448,192,8616,128,0,8713:0:0:0:0:
64,192,8713,128,0,8809:0:0:0:50:snare.wav
192,192,8713,1,0,0:0:0:0:
320,192,8713,1,0,0:0:0:0:
64,192,8906,128,0,9100:0:0:0:0:
192,192,8906,128,0,9100:0:0:0:0:
320,192,9100,1,0,0:0:0:50:kick.wav
448,192,9100,1,0,0:0:0:0:
320,192,9293,128,0,9487:0:0:0:0:
448,192,9293,128,0,9487:0:0:0:0:
64,192,9487,1,0,0:0:0:50:snare.wav
192,192,9487,1,0,0:0:0:0:
320,192,9680,1,0,0:0:0:0:
192,192,9777,1,0,0:0:0:0:
64,192,9874,128,0,9971:0:0:0:50:kick.wav
448,192,9874,1,0,0:0:0:0:
192,192,9971,128,0,10067:0:0:0:0:
320,192,10067,128,0,10164:0:0:0:0:
448,192,10164,128,0,10261:0:0:0:0:
64,192,10261,128,0,10358:0:0:0:50:snare.wav
192,192,10261,1,0,0:0:0:0:
320,192,10261,1,0,0:0:0:0:
64,192,10454,128,0,10648:0:0:0:0:
320,192,10454,128,0,10648:0:0:0:0:
192,192,10648,1,0,0:0:0:50:kick.wav
448,192,10648,1,0,0:0:0:0:
192,192,10842,128,0,11035:0:0:0:0:
448,192,10842,128,0,11035:0:0:0:0:
64,192,11035,1,0,0:0:0:50:snare.wav
320,192,11035,1,0,0:0:0:0:
320,192,11229,1,0,0:0:0:0:
192,192,11325,1,0,0:0:0:0:
64,192,11422,1,0,0:0:0:50:kick.wav
448,192,11422,128,0,11519:0:0:0:0:
320,192,11519,128,0,11616:0:0:0:0:
192,192,11616,128,0,11713:0:0:0:0:
64,192,11713,128,0,11809:0:0:0:0:
192,192,11809,1,0,0:0:0:50:snare.wav
320,192,11809,1,0,0:0:0:0:
448,192,11809,128,0,11906:0:0:0:0:
320,192,12003,128,0,12196:0:0:0:0:
448,192,12003,128,0,12196:0:0:0:0:
64,192,12196,1,0,0:0:0:50:kick.wav
192,192,12196,1,0,0:0:0:0:
320,192,12293,1,0,0:0:0:50:snare.wav
448,192,12293,1,0,0:0:0:0:
64,192,12390,1,0,0:0:0:50:snare.wav
192,192,12390,1,0,0:0:0:0:
64,192,12583,1,0,0:0:0:50:snare.wav
448,192,12583,1,0,0:0:0:0:
192,192,12777,1,0,0:0:0:50:snare.wav
320,192,12777,1,0,0:0:0:0:
192,192,12874,1,0,0:0:0:50:snare.wav
320,192,12874,1,0,0:0:0:0:
64,192,12971,1,0,0:0:0:50:kick.wav
448,192,12971,128,0,13067:0:0:0:50:finish.wav
320,192,13067,128,0,13164:0:0:0:0:
192,192,13164,128,0,13261:0:0:0:0:
64,192,13261,128,0,13358:0:0:0:0:
192,192,13358,1,0,0:0:0:50:snare.wav
320,192,13358,1,0,0:0:0:0:
448,192,13358,128,0,13454:0:0:0:0:
320,192,13551,128,0,13745:0:0:0:0:
448,192,13551,128,0,13745:0:0:0:0:
64,192,13745,1,0,0:0:0:50:kick.wav
192,192,13745,1,0,0:0:0:0:
64,192,13938,128,0,14132:0:0:0:0:
192,192,13938,128,0,14132:0:0:0:0:
320,192,14132,1,0,0:0:0:50:snare.wav
448,192,14132,1,0,0:0:0:0:
192,192,14325,1,0,0:0:0:0:
320,192,14422,1,0,0:0:0:0:
64,192,14519,1,0,0:0:0:50:kick.wav
448,192,14519,128,0,14616:0:0:0:0:
320,192,14616,128,0,14713:0:0:0:0:
192,192,14713,128,0,14809:0:0:0:0:
64,192,14809,128,0,14906:0:0:0:0:
192,192,14906,1,0,0:0:0:50:snare.wav
320,192,14906,1,0,0:0:0:0:
448,192,14906,128,0,15003:0:0:0:0:
320,192,15100,128,0,15293:0:0:0:0:
448,192,15100,128,0,15293:0:0:0:0:
64,192,15293,1,0,0:0:0:50:kick.wav
192,192,15293,1,0,0:0:0:0:
64,192,15487,128,0,15680:0:0:0:0:
192,192,15487,128,0,15680:0:0:0:0:
320,192,15680,1,0,0:0:0:50:snare.wav
448,192,15680,1,0,0:0:0:0:
192,192,15874,1,0,0:0:0:0:
320,192,15971,1,0,0:0:0:0:
64,192,16067,1,0,0:0:0:50:kick.wav
448,192,16067,128,0,16164:0:0:0:0:
320,192,16164,128,0,16261:0:0:0:0:
192,192,16261,128,0,16358:0:0:0:0:
64,192,16358,128,0,16454:0:0:0:0:
192,192,16454,1,0,0:0:0:50:snare.wav
320,192,16454,1,0,0:0:0:0:
448,192,16454,128,0,16551:0:0:0:0:
192,192,16648,128,0,16842:0:0:0:0:
448,192,16648,128,0,16842:0:0:0:0:
64,192,16842,1,0,0:0:0:50:kick.wav
320,192,16842,1,0,0:0:0:0:
64,192,17035,128,0,17229:0:0:0:0:
320,192,17035,128,0,17229:0:0:0:0:
192,192,17229,1,0,0:0:0:50:snare.wav
448,192,17229,1,0,0:0:0:0:
320,192,17422,1,0,0:0:0:50:kick.wav
64,192,17519,1,0,0:0:0:50:snare.wav
192,192,17519,1,0,0:0:0:0:
320,192,17616,1,0,0:0:0:50:kick.wav
448,192,17616,1,0,0:0:0:50:finish.wav
192,192,17713,1,0,0:0:0:0:
64,192,17809,1,0,0:0:0:50:snare.wav
448,192,17809,1,0,0:0:0:0:
320,192,17906,1,0,0:0:0:50:snare.wav
64,192,18003,1,0,0:0:0:50:kick.wav
192,192,18003,1,0,0:0:0:0:
320,192,18100,1,0,0:0:0:50:snare.wav
448,192,18100,1,0,0:0:0:0:
64,192,18196,1,0,0:0:0:50:snare.wav
192,192,18196,1,0,0:0:0:0:
64,192,18390,1,0,0:0:0:50:kick.wav
448,192,18390,1,0,0:0:0:0:
192,192,18487,1,0,0:0:0:50:kick.wav
320,192,18487,1,0,0:0:0:0:
64,192,18583,1,0,0:0:0:50:snare.wav
448,192,18583,1,0,0:0:0:0:
192,192,18680,1,0,0:0:0:50:snare.wav
320,192,18680,1,0,0:0:0:0:
64,192,18777,1,0,0:0:0:50:snare.wav
448,192,18777,1,0,0:0:0:0:
192,192,18874,1,0,0:0:0:50:snare.wav
320,192,18874,1,0,0:0:0:0:
64,192,18971,1,0,0:0:0:50:snare.wav
448,192,18971,1,0,0:0:0:0:
192,192,19067,1,0,0:0:0:50:snare.wav
320,192,19067,1,0,0:0:0:0:
64,192,19164,1,0,0:0:0:50:kick.wav
448,192,19164,128,0,19261:0:0:0:50:finish.wav
448,192,19454,128,0,19551:0:0:0:0:
448,192,19745,128,0,19842:0:0:0:0:
64,192,20713,128,0,20809:0:0:0:0:
320,192,20906,1,0,0:0:0:0:
64,192,21003,128,0,21100:0:0:0:0:
448,192,21100,1,0,0:0:0:0:
64,192,21293,128,0,21390:0:0:0:0:
320,192,22261,128,0,22358:0:0:0:0:
192,192,22454,1,0,0:0:0:0:
320,192,22551,128,0,22648:0:0:0:0:
64,192,22648,1,0,0:0:0:0:
320,192,22842,128,0,22938:0:0:0:0:
192,192,23809,128,0,23906:0:0:0:0:
320,192,24003,1,0,0:0:0:0:
192,192,24100,128,0,24196:0:0:0:0:
448,192,24196,1,0,0:0:0:0:
192,192,24390,128,0,24487:0:0:0:0:
448,192,25358,128,0,25454:0:0:0:0:
192,192,25551,1,0,0:0:0:0:
448,192,25648,128,0,25745:0:0:0:0:
64,192,25745,1,0,0:0:0:0:
448,192,25938,128,0,26035:0:0:0:0:
64,192,26906,128,0,27003:0:0:0:0:
320,192,27100,1,0,0:0:0:0:
64,192,27196,128,0,27293:0:0:0:0:
448,192,27293,1,0,0:0:0:0:
64,192,27487,128,0,27583:0:0:0:0:
192,192,28454,1,0,0:0:0:0:
320,192,28454,128,0,28551:0:0:0:0:
320,192,28745,128,0,28842:0:0:0:0:
320,192,29035,128,0,29132:0:0:0:0:
64,192,30003,1,0,0:0:0:50:dclap.wav
192,192,30003,1,0,0:0:0:70:finish.wav
320,192,30100,1,0,0:0:0:50:snare.wav
448,192,30100,1,0,0:0:0:0:
64,192,30196,1,0,0:0:0:50:dclap.wav
192,192,30196,1,0,0:0:0:0:
320,192,30293,1,0,0:0:0:50:dclap.wav
448,192,30293,1,0,0:0:0:0:
64,192,30390,1,0,0:0:0:70:kick.wav
192,192,30390,1,0,0:0:0:0:
320,192,30487,1,0,0:0:0:50:dfinish.wav
448,192,30487,1,0,0:0:0:0:
64,192,30583,128,0,31454:0:0:0:70:kick.wav
192,192,30583,128,0,31454:0:0:0:70:finish.wav
448,192,30971,128,0,31454:0:0:0:0:
64,192,31551,1,0,0:0:0:50:kick.wav
192,192,31551,1,0,0:0:0:50:finish.wav
448,192,31551,1,0,0:0:0:0:
64,192,31938,1,0,0:0:0:50:snare.wav
320,192,31938,1,0,0:0:0:0:
448,192,31938,1,0,0:0:0:0:
192,192,32132,128,0,32325:0:0:0:0:
320,192,32325,1,0,0:0:0:50:kick.wav
448,192,32325,128,0,32713:0:0:0:0:
64,192,32422,1,0,0:0:0:20:snare.wav
192,192,32422,1,0,0:0:0:0:
320,192,32519,128,0,32713:0:0:0:0:
64,192,32713,1,0,0:0:0:50:snare.wav
192,192,32713,128,0,32906:0:0:0:0:
448,192,32906,128,0,33293:0:0:0:0:
192,192,33100,1,0,0:0:0:50:kick.wav
320,192,33100,1,0,0:0:0:0:
64,192,33293,128,0,33487:0:0:0:0:
192,192,33487,128,0,33680:0:0:0:50:snare.wav
320,192,33487,1,0,0:0:0:0:
448,192,33487,1,0,0:0:0:0:
320,192,33680,128,0,33874:0:0:0:0:
64,192,33874,1,0,0:0:0:50:kick.wav
192,192,33874,1,0,0:0:0:0:
320,192,33971,1,0,0:0:0:20:snare.wav
448,192,33971,1,0,0:0:0:0:
192,192,34067,128,0,34261:0:0:0:0:
64,192,34261,128,0,34648:0:0:0:50:snare.wav
320,192,34261,1,0,0:0:0:0:
448,192,34261,1,0,0:0:0:0:
320,192,34454,128,0,34842:0:0:0:0:
448,192,34648,1,0,0:0:0:50:kick.wav
192,192,34842,128,0,35035:0:0:0:0:
64,192,35035,1,0,0:0:0:50:snare.wav
320,192,35035,1,0,0:0:0:0:
448,192,35035,128,0,35422:0:0:0:0:
64,192,35229,128,0,35422:0:0:0:0:
192,192,35422,1,0,0:0:0:50:kick.wav
320,192,35422,1,0,0:0:0:0:
64,192,35519,1,0,0:0:0:50:snare.wav
448,192,35519,1,0,0:0:0:0:
192,192,35616,128,0,35809:0:0:0:50:kick.wav
64,192,35809,1,0,0:0:0:50:snare.wav
320,192,35809,128,0,36003:0:0:0:0:
448,192,35809,1,0,0:0:0:0:
448,192,36003,128,0,36390:0:0:0:0:
192,192,36196,1,0,0:0:0:50:kick.wav
320,192,36196,1,0,0:0:0:0:
64,192,36293,1,0,0:0:0:20:snare.wav
320,192,36390,1,0,0:0:0:0:
64,192,36583,1,0,0:0:0:50:snare.wav
192,192,36583,1,0,0:0:0:0:
448,192,36583,1,0,0:0:0:0:
320,192,36777,1,0,0:0:0:0:
64,192,36971,1,0,0:0:0:50:kick.wav
192,192,36971,1,0,0:0:0:0:
320,192,37067,1,0,0:0:0:50:snare.wav
448,192,37067,1,0,0:0:0:0:
64,192,37164,128,0,37358:0:0:0:50:kick.wav
192,192,37358,1,0,0:0:0:50:snare.wav
320,192,37358,128,0,37551:0:0:0:0:
448,192,37358,1,0,0:0:0:0:
448,192,37551,128,0,37938:0:0:0:0:
64,192,37745,1,0,0:0:0:50:kick.wav
192,192,37745,1,0,0:0:0:0:
192,192,37938,128,0,38325:0:0:0:0:
64,192,38132,1,0,0:0:0:50:snare.wav
320,192,38132,128,0,38325:0:0:0:0:
448,192,38132,1,0,0:0:0:0:
64,192,38325,128,0,38713:0:0:0:0:
192,192,38519,128,0,38713:0:0:0:50:kick.wav
320,192,38519,1,0,0:0:0:0:
448,192,38616,1,0,0:0:0:20:snare.wav
320,192,38713,1,0,0:0:0:0:
64,192,38906,1,0,0:0:0:50:snare.wav
192,192,38906,128,0,39100:0:0:0:0:
448,192,38906,1,0,0:0:0:0:
448,192,39100,128,0,39487:0:0:0:0:
320,192,39293,1,0,0:0:0:50:kick.wav
64,192,39390,1,0,0:0:0:20:snare.wav
192,192,39390,1,0,0:0:0:0:
320,192,39487,128,0,39680:0:0:0:0:
64,192,39680,1,0,0:0:0:50:snare.wav
192,192,39680,1,0,0:0:0:0:
448,192,39680,1,0,0:0:0:0:
64,192,39874,128,0,40067:0:0:0:0:
192,192,40067,1,0,0:0:0:50:kick.wav
320,192,40067,1,0,0:0:0:0:
448,192,40261,128,0,40454:0:0:0:0:
64,192,40454,1,0,0:0:0:50:snare.wav
192,192,40454,1,0,0:0:0:0:
320,192,40454,1,0,0:0:0:0:
64,192,40648,1,0,0:0:0:50:snare.wav
448,192,40648,1,0,0:0:0:0:
192,192,40745,1,0,0:0:0:50:snare.wav
320,192,40745,1,0,0:0:0:0:
64,192,40842,1,0,0:0:0:50:kick.wav
448,192,40842,128,0,41035:0:0:0:50:finish.wav
64,192,41132,1,0,0:0:0:50:snare.wav
192,192,41132,1,0,0:0:0:0:
320,192,41229,1,0,0:0:0:50:dfinish.wav
448,192,41229,1,0,0:0:0:0:
64,192,41422,128,0,41616:0:0:0:50:kick.wav
192,192,41422,1,0,0:0:0:50:finish.wav
448,192,41422,1,0,0:0:0:0:
320,192,41616,1,0,0:0:0:50:kick.wav
192,192,41713,1,0,0:0:0:50:snare.wav
448,192,41713,1,0,0:0:0:0:
64,192,41809,1,0,0:0:0:50:snare.wav
320,192,41809,1,0,0:0:0:0:
64,192,42003,1,0,0:0:0:50:snare.wav
192,192,42003,128,0,42196:0:0:0:50:finish.wav
320,192,42003,1,0,0:0:0:0:
64,192,42293,1,0,0:0:0:50:dclap.wav
448,192,42293,1,0,0:0:0:0:
192,192,42390,1,0,0:0:0:50:dfinish.wav
320,192,42390,1,0,0:0:0:0:
64,192,42583,128,0,42777:0:0:0:50:snare.wav
192,192,42583,1,0,0:0:0:0:
448,192,42583,1,0,0:0:0:0:
320,192,42777,1,0,0:0:0:50:dfinish.wav
448,192,42777,1,0,0:0:0:0:
64,192,42874,1,0,0:0:0:50:kick.wav
192,192,42874,1,0,0:0:0:0:
64,192,43164,1,0,0:0:0:50:kick.wav
192,192,43164,1,0,0:0:0:0:
448,192,43164,128,0,43358:0:0:0:0:
320,192,43454,1,0,0:0:0:50:kick.wav
64,192,43551,1,0,0:0:0:50:kick.wav
192,192,43551,1,0,0:0:0:0:
320,192,43648,1,0,0:0:0:50:dfinish.wav
448,192,43648,1,0,0:0:0:0:
64,192,43745,1,0,0:0:0:50:kick.wav
192,192,43938,1,0,0:0:0:50:kick.wav
320,192,43938,1,0,0:0:0:50:finish.wav
448,192,43938,128,0,44519:0:0:0:0:
64,192,44519,128,0,44713:0:0:0:0:
192,192,44713,128,0,44906:0:0:0:0:
320,192,44906,128,0,45100:0:0:0:0:
448,192,45100,1,0,0:0:0:0:
448,192,45293,128,0,45680:0:0:0:0:
64,192,45487,128,0,47035:0:0:0:0:
192,192,45680,128,0,45874:0:0:0:0:
448,192,45874,128,0,46067:0:0:0:0:
320,192,46067,128,0,46261:0:0:0:0:
192,192,46454,128,0,46648:0:0:0:0:
320,192,46648,128,0,46842:0:0:0:0:
448,192,46842,128,0,47422:0:0:0:0:
192,192,47035,128,0,48583:0:0:0:0:
64,192,47422,128,0,47616:0:0:0:0:
448,192,47616,128,0,48003:0:0:0:0:
320,192,48003,128,0,48390:0:0:0:0:
64,192,48390,128,0,49358:0:0:0:0:
448,192,48583,128,0,50035:0:0:0:0:
320,192,49164,1,0,0:0:0:0:
64,192,49551,1,0,0:0:0:70:snare.wav
192,192,49551,1,0,0:0:0:0:
320,192,49551,1,0,0:0:0:0:
320,192,49842,1,0,0:0:0:50:dfinish.wav
64,192,49938,1,0,0:0:0:0:
192,192,50035,1,0,0:0:0:50:kick.wav
64,192,50132,128,0,50519:0:0:0:50:kick.wav
320,192,50132,1,0,0:0:0:50:finish.wav
448,192,50132,1,0,0:0:0:0:
192,192,50325,1,0,0:0:0:0:
320,192,50519,1,0,0:0:0:50:kick.wav
448,192,50519,128,0,50713:0:0:0:0:
192,192,50713,128,0,50906:0:0:0:0:
64,192,50906,1,0,0:0:0:50:kick.wav
448,192,50906,1,0,0:0:0:0:
64,192,51100,128,0,51487:0:0:0:0:
320,192,51293,1,0,0:0:0:50:kick.wav
448,192,51293,1,0,0:0:0:0:
320,192,51487,128,0,51874:0:0:0:0:
64,192,51680,1,0,0:0:0:50:kick.wav
448,192,51680,1,0,0:0:0:0:
192,192,51874,1,0,0:0:0:0:
64,192,52067,1,0,0:0:0:50:kick.wav
448,192,52067,1,0,0:0:0:0:
320,192,52261,128,0,52454:0:0:0:0:
64,192,52454,1,0,0:0:0:50:kick.wav
192,192,52454,128,0,52842:0:0:0:0:
320,192,52648,1,0,0:0:0:0:
64,192,52842,1,0,0:0:0:50:kick.wav
448,192,52842,128,0,53035:0:0:0:0:
320,192,53035,128,0,53229:0:0:0:0:
64,192,53229,1,0,0:0:0:50:kick.wav
192,192,53229,1,0,0:0:0:50:finish.wav
448,192,53229,1,0,0:0:0:0:
64,192,53422,1,0,0:0:0:40:snare.wav
448,192,53422,1,0,0:0:0:0:
192,192,53519,1,0,0:0:0:42:snare.wav
320,192,53519,1,0,0:0:0:0:
64,192,53616,1,0,0:0:0:44:snare.wav
448,192,53616,1,0,0:0:0:0:
320,192,53713,1,0,0:0:0:46:snare.wav
64,192,53809,1,0,0:0:0:48:snare.wav
192,192,53809,1,0,0:0:0:0:
320,192,53906,1,0,0:0:0:50:snare.wav
448,192,53906,1,0,0:0:0:0:
64,192,54003,1,0,0:0:0:52:snare.wav
192,192,54003,1,0,0:0:0:0:
448,192,54100,1,0,0:0:0:54:snare.wav
192,192,54196,1,0,0:0:0:56:snare.wav
320,192,54196,1,0,0:0:0:0:
64,192,54293,1,0,0:0:0:58:snare.wav
448,192,54293,1,0,0:0:0:0:
192,192,54390,1,0,0:0:0:60:snare.wav
320,192,54390,1,0,0:0:0:0:
448,192,54487,1,0,0:0:0:62:snare.wav
64,192,54583,1,0,0:0:0:64:snare.wav
192,192,54583,1,0,0:0:0:0:
320,192,54680,1,0,0:0:0:66:snare.wav
448,192,54680,1,0,0:0:0:0:
192,192,54777,128,0,56035:0:0:0:0:
192,192,56132,1,0,0:0:0:0:
64,192,56325,128,0,56713:0:0:0:70:kick.wav
320,192,56325,128,0,56616:0:0:0:70:finish.wav
448,192,56325,128,0,56616:0:0:0:0:
192,192,56519,128,0,56713:0:0:0:70:hihat.wav
320,192,56713,1,0,0:0:0:70:snare.wav
448,192,56713,1,0,0:0:0:0:
320,192,56906,128,0,57100:0:0:0:70:hihat.wav
64,192,57100,128,0,57487:0:0:0:70:kick.wav
448,192,57100,1,0,0:0:0:0:
192,192,57293,1,0,0:0:0:70:hihat.wav
320,192,57390,128,0,57583:0:0:0:0:
192,192,57487,1,0,0:0:0:70:snare.wav
448,192,57487,1,0,0:0:0:0:
320,192,57680,128,0,57777:0:0:0:70:hihat.wav
64,192,57874,128,0,58261:0:0:0:70:kick.wav
320,192,57874,1,0,0:0:0:0:
192,192,58067,1,0,0:0:0:70:hihat.wav
448,192,58164,128,0,58454:0:0:0:0:
192,192,58261,1,0,0:0:0:70:snare.wav
320,192,58261,1,0,0:0:0:0:
64,192,58454,128,0,58551:0:0:0:70:hihat.wav
64,192,58648,1,0,0:0:0:70:kick.wav
320,192,58648,128,0,59035:0:0:0:0:
192,192,58842,1,0,0:0:0:70:hihat.wav
448,192,58938,1,0,0:0:0:0:
64,192,59035,1,0,0:0:0:70:snare.wav
192,192,59035,1,0,0:0:0:0:
448,192,59229,128,0,59325:0:0:0:70:hihat.wav
64,192,59422,128,0,59809:0:0:0:70:kick.wav
448,192,59422,1,0,0:0:0:0:
192,192,59616,1,0,0:0:0:70:hihat.wav
320,192,59713,1,0,0:0:0:0:
192,192,59809,1,0,0:0:0:70:snare.wav
448,192,59809,1,0,0:0:0:0:
320,192,60003,128,0,60100:0:0:0:70:hihat.wav
192,192,60196,128,0,60583:0:0:0:70:kick.wav
320,192,60196,1,0,0:0:0:0:
448,192,60390,1,0,0:0:0:70:hihat.wav
320,192,60487,128,0,60583:0:0:0:0:
64,192,60583,1,0,0:0:0:70:snare.wav
448,192,60583,1,0,0:0:0:0:
192,192,60777,128,0,60874:0:0:0:70:hihat.wav
192,192,60971,1,0,0:0:0:70:kick.wav
320,192,60971,128,0,61358:0:0:0:0:
448,192,61164,1,0,0:0:0:70:hihat.wav
64,192,61261,128,0,61551:0:0:0:0:
192,192,61358,1,0,0:0:0:70:snare.wav
448,192,61358,1,0,0:0:0:0:
320,192,61551,128,0,61648:0:0:0:70:hihat.wav
192,192,61745,128,0,62132:0:0:0:70:kick.wav
320,192,61745,1,0,0:0:0:0:
448,192,61938,1,0,0:0:0:70:hihat.wav
320,192,62035,1,0,0:0:0:0:
64,192,62132,1,0,0:0:0:70:snare.wav
448,192,62132,1,0,0:0:0:0:
320,192,62325,128,0,62422:0:0:0:70:hihat.wav
320,192,62519,128,0,62906:0:0:0:70:finish.wav
448,192,62519,128,0,62809:0:0:0:0:
64,192,62519,1,0,0:0:0:70:kick.wav
192,192,62713,128,0,62906:0:0:0:70:hihat.wav
64,192,62906,1,0,0:0:0:70:snare.wav
448,192,62906,1,0,0:0:0:0:
64,192,63100,128,0,63293:0:0:0:70:hihat.wav
320,192,63293,1,0,0:0:0:70:kick.wav
448,192,63293,128,0,63680:0:0:0:0:
192,192,63487,1,0,0:0:0:70:hihat.wav
64,192,63583,128,0,63777:0:0:0:0:
192,192,63680,1,0,0:0:0:70:snare.wav
320,192,63680,1,0,0:0:0:0:
64,192,63874,128,0,63971:0:0:0:70:hihat.wav
64,192,64067,1,0,0:0:0:70:kick.wav
320,192,64067,128,0,64454:0:0:0:0:
448,192,64261,1,0,0:0:0:70:hihat.wav
192,192,64358,128,0,64648:0:0:0:0:
64,192,64454,1,0,0:0:0:70:snare.wav
448,192,64454,1,0,0:0:0:0:
320,192,64648,128,0,64745:0:0:0:70:hihat.wav
64,192,64842,128,0,65229:0:0:0:70:kick.wav
320,192,64842,1,0,0:0:0:0:
192,192,65035,1,0,0:0:0:70:hihat.wav
448,192,65132,1,0,0:0:0:0:
192,192,65229,1,0,0:0:0:70:snare.wav
320,192,65229,1,0,0:0:0:0:
448,192,65422,128,0,65519:0:0:0:70:hihat.wav
64,192,65616,128,0,66003:0:0:0:70:kick.wav
448,192,65616,1,0,0:0:0:0:
192,192,65809,1,0,0:0:0:70:hihat.wav
320,192,65906,128,0,66003:0:0:0:0:
192,192,66003,1,0,0:0:0:70:snare.wav
448,192,66003,1,0,0:0:0:0:
320,192,66196,128,0,66293:0:0:0:70:hihat.wav
192,192,66390,128,0,66777:0:0:0:70:kick.wav
320,192,66390,1,0,0:0:0:0:
64,192,66583,1,0,0:0:0:70:hihat.wav
448,192,66680,128,0,66777:0:0:0:0:
64,192,66777,1,0,0:0:0:70:snare.wav
320,192,66777,1,0,0:0:0:0:
192,192,66971,128,0,67067:0:0:0:70:hihat.wav
64,192,67164,1,0,0:0:0:70:kick.wav
192,192,67164,1,0,0:0:0:70:finish.wav
448,192,67164,1,0,0:0:0:0:
320,192,67358,1,0,0:0:0:70:snare.wav
448,192,67358,1,0,0:0:0:0:
64,192,67454,1,0,0:0:0:70:snare.wav
192,192,67454,1,0,0:0:0:0:
320,192,67551,1,0,0:0:0:70:kick.wav
448,192,67551,1,0,0:0:0:0:
64,192,67648,1,0,0:0:0:70:dclap.wav
192,192,67648,1,0,0:0:0:0:
320,192,67745,128,0,67842:0:0:0:70:dclap.wav
448,192,67745,128,0,67842:0:0:0:0:
64,192,67938,128,0,68229:0:0:0:70:kick.wav
320,192,67938,128,0,68229:0:0:0:0:
192,192,68229,1,0,0:0:0:70:snare.wav
448,192,68229,1,0,0:0:0:0:
64,192,68325,1,0,0:0:0:70:snare.wav
320,192,68325,1,0,0:0:0:0:
192,192,68422,1,0,0:0:0:70:dclap.wav
448,192,68422,1,0,0:0:0:0:
64,192,68519,1,0,0:0:0:70:dclap.wav
320,192,68519,1,0,0:0:0:0:
192,192,68616,1,0,0:0:0:70:dclap.wav
64,192,68713,128,0,69293:0:0:0:70:kick.wav
320,192,68713,128,0,69003:0:0:0:70:finish.wav
448,192,68713,128,0,69487:0:0:0:0:
192,192,69100,1,0,0:0:0:70:snare.wav
320,192,69100,1,0,0:0:0:0:
192,192,69293,1,0,0:0:0:70:hihat.wav
64,192,69487,1,0,0:0:0:70:kick.wav
320,192,69487,1,0,0:0:0:0:
192,192,69680,128,0,69777:0:0:0:70:hihat.wav
64,192,69874,1,0,0:0:0:70:snare.wav
192,192,69874,128,0,70261:0:0:0:0:
448,192,69874,1,0,0:0:0:0:
448,192,70067,128,0,70454:0:0:0:70:hihat.wav
320,192,70261,128,0,70454:0:0:0:70:kick.wav
64,192,70454,1,0,0:0:0:70:hihat.wav
64,192,70648,1,0,0:0:0:70:snare.wav
192,192,70648,128,0,71035:0:0:0:0:
448,192,70648,1,0,0:0:0:0:
448,192,70842,128,0,71229:0:0:0:70:hihat.wav
64,192,71035,1,0,0:0:0:70:kick.wav
320,192,71035,1,0,0:0:0:0:
192,192,71229,128,0,71422:0:0:0:70:hihat.wav
64,192,71422,1,0,0:0:0:70:snare.wav
320,192,71422,1,0,0:0:0:0:
448,192,71422,1,0,0:0:0:0:
320,192,71616,128,0,72390:0:0:0:70:snare.wav
64,192,71713,1,0,0:0:0:70:snare.wav
448,192,71713,1,0,0:0:0:0:
192,192,71809,1,0,0:0:0:70:kick.wav
448,192,72003,1,0,0:0:0:70:hihat.wav
64,192,72196,1,0,0:0:0:70:snare.wav
192,192,72196,1,0,0:0:0:0:
192,192,72390,1,0,0:0:0:70:hihat.wav
64,192,72583,1,0,0:0:0:70:kick.wav
448,192,72583,1,0,0:0:0:0:
320,192,72777,128,0,72874:0:0:0:70:hihat.wav
64,192,72971,1,0,0:0:0:70:snare.wav
320,192,72971,128,0,73164:0:0:0:0:
448,192,72971,1,0,0:0:0:0:
64,192,73164,128,0,73551:0:0:0:70:hihat.wav
192,192,73358,128,0,73551:0:0:0:70:kick.wav
320,192,73358,128,0,73454:0:0:0:70:finish.wav
448,192,73358,128,0,73454:0:0:0:0:
448,192,73551,1,0,0:0:0:70:snare.wav
192,192,73648,1,0,0:0:0:70:snare.wav
320,192,73648,1,0,0:0:0:0:
64,192,73745,1,0,0:0:0:70:kick.wav
448,192,73745,1,0,0:0:0:0:
320,192,73842,1,0,0:0:0:70:snare.wav
64,192,73938,1,0,0:0:0:70:dclap.wav
192,192,73938,1,0,0:0:0:0:
320,192,74035,1,0,0:0:0:70:dclap.wav
448,192,74035,1,0,0:0:0:0:
64,192,74132,1,0,0:0:0:70:kick.wav
192,192,74132,1,0,0:0:0:0:
192,192,74325,1,0,0:0:0:70:snare.wav
320,192,74325,1,0,0:0:0:0:
64,192,74422,1,0,0:0:0:70:snare.wav
448,192,74422,1,0,0:0:0:0:
192,192,74519,1,0,0:0:0:70:kick.wav
320,192,74519,1,0,0:0:0:0:
64,192,74616,1,0,0:0:0:70:snare.wav
320,192,74713,1,0,0:0:0:70:snare.wav
448,192,74713,1,0,0:0:0:0:
192,192,74809,1,0,0:0:0:70:dclap.wav
64,192,74906,1,0,0:0:0:70:kick.wav
320,192,74906,128,0,75293:0:0:0:70:finish.wav
448,192,74906,128,0,75293:0:0:0:0:
64,192,75293,1,0,0:0:0:45:snare.wav
192,192,75293,1,0,0:0:0:0:
320,192,75390,1,0,0:0:0:47:snare.wav
64,192,75487,1,0,0:0:0:49:snare.wav
448,192,75487,1,0,0:0:0:0:
192,192,75583,1,0,0:0:0:51:snare.wav
320,192,75583,1,0,0:0:0:0:
64,192,75680,1,0,0:0:0:70:kick.wav
448,192,75680,1,0,0:0:0:53:snare.wav
192,192,75777,1,0,0:0:0:55:snare.wav
320,192,75874,1,0,0:0:0:57:snare.wav
448,192,75874,1,0,0:0:0:0:
64,192,75971,1,0,0:0:0:59:snare.wav
192,192,75971,1,0,0:0:0:0:
320,192,76067,1,0,0:0:0:70:kick.wav
448,192,76067,1,0,0:0:0:61:snare.wav
64,192,76164,1,0,0:0:0:63:snare.wav
192,192,76261,1,0,0:0:0:65:snare.wav
320,192,76261,1,0,0:0:0:0:
64,192,76358,1,0,0:0:0:67:snare.wav
448,192,76358,1,0,0:0:0:0:
192,192,76454,128,0,76551:0:0:0:70:kick.wav
320,192,76454,128,0,76551:0:0:0:0:
64,192,78003,128,0,78100:0:0:0:50:kick.wav
320,192,78003,1,0,0:0:0:50:finish.wav
448,192,78003,1,0,0:0:0:0:
192,192,78100,128,0,78196:0:0:0:0:
320,192,78196,128,0,78293:0:0:0:0:
448,192,78293,128,0,78390:0:0:0:0:
64,192,78390,128,0,78487:0:0:0:50:snare.wav
192,192,78390,1,0,0:0:0:0:
320,192,78390,1,0,0:0:0:0:
64,192,78583,128,0,78874:0:0:0:0:
192,192,78583,128,0,78874:0:0:0:0:
320,192,78583,128,0,78874:0:0:0:0:
448,192,78777,1,0,0:0:0:50:kick.wav
192,192,78971,1,0,0:0:0:0:
320,192,78971,128,0,79261:0:0:0:0:
448,192,78971,128,0,79261:0:0:0:0:
64,192,79164,1,0,0:0:0:50:snare.wav
192,192,79164,1,0,0:0:0:0:
448,192,79358,1,0,0:0:0:0:
192,192,79454,1,0,0:0:0:0:
64,192,79551,1,0,0:0:0:50:kick.wav
448,192,79551,128,0,79648:0:0:0:0:
320,192,79648,128,0,79745:0:0:0:0:
192,192,79745,128,0,79842:0:0:0:0:
64,192,79842,128,0,79938:0:0:0:0:
192,192,79938,1,0,0:0:0:50:snare.wav
320,192,79938,1,0,0:0:0:0:
448,192,79938,128,0,80035:0:0:0:0:
192,192,80132,128,0,80422:0:0:0:0:
320,192,80132,128,0,80422:0:0:0:0:
448,192,80132,128,0,80422:0:0:0:0:
64,192,80325,1,0,0:0:0:50:kick.wav
64,192,80519,128,0,80809:0:0:0:0:
192,192,80519,128,0,80809:0:0:0:0:
320,192,80519,1,0,0:0:0:0:
320,192,80713,1,0,0:0:0:50:snare.wav
448,192,80713,1,0,0:0:0:0:
64,192,80906,1,0,0:0:0:0:
320,192,81003,1,0,0:0:0:0:
64,192,81100,128,0,81196:0:0:0:50:kick.wav
448,192,81100,1,0,0:0:0:0:
192,192,81196,128,0,81293:0:0:0:0:
320,192,81293,128,0,81390:0:0:0:0:
448,192,81390,128,0,81487:0:0:0:0:
64,192,81487,128,0,81583:0:0:0:50:snare.wav
192,192,81487,1,0,0:0:0:0:
320,192,81487,1,0,0:0:0:0:
64,192,81680,128,0,81971:0:0:0:0:
192,192,81680,128,0,81971:0:0:0:0:
448,192,81680,128,0,81971:0:0:0:0:
320,192,81874,1,0,0:0:0:50:kick.wav
64,192,82067,128,0,82358:0:0:0:0:
320,192,82067,128,0,82358:0:0:0:0:
448,192,82067,1,0,0:0:0:0:
192,192,82261,1,0,0:0:0:50:snare.wav
448,192,82261,1,0,0:0:0:0:
320,192,82454,1,0,0:0:0:0:
64,192,82551,1,0,0:0:0:0:
192,192,82648,1,0,0:0:0:50:kick.wav
320,192,82648,128,0,82745:0:0:0:0:
448,192,82745,128,0,82842:0:0:0:0:
64,192,82842,128,0,82938:0:0:0:0:
192,192,82938,128,0,83035:0:0:0:0:
64,192,83035,1,0,0:0:0:50:snare.wav
320,192,83035,1,0,0:0:0:0:
448,192,83035,128,0,83132:0:0:0:0:
64,192,83229,128,0,83422:0:0:0:0:
192,192,83229,1,0,0:0:0:0:
448,192,83229,128,0,83422:0:0:0:0:
192,192,83422,1,0,0:0:0:50:kick.wav
320,192,83422,1,0,0:0:0:0:
64,192,83519,1,0,0:0:0:50:snare.wav
448,192,83519,1,0,0:0:0:0:
192,192,83616,1,0,0:0:0:50:snare.wav
320,192,83616,1,0,0:0:0:0:
64,192,83809,1,0,0:0:0:50:snare.wav
320,192,83809,1,0,0:0:0:0:
448,192,83809,1,0,0:0:0:0:
64,192,84003,1,0,0:0:0:50:snare.wav
448,192,84003,1,0,0:0:0:0:
64,192,84100,1,0,0:0:0:50:snare.wav
448,192,84100,1,0,0:0:0:0:
192,192,84196,128,0,84293:0:0:0:50:kick.wav
320,192,84196,1,0,0:0:0:50:finish.wav
64,192,84293,128,0,84390:0:0:0:0:
448,192,84390,128,0,84487:0:0:0:0:
320,192,84487,128,0,84583:0:0:0:0:
64,192,84583,1,0,0:0:0:50:snare.wav
192,192,84583,128,0,84680:0:0:0:0:
448,192,84583,1,0,0:0:0:0:
64,192,84777,128,0,85067:0:0:0:0:
192,192,84777,128,0,85067:0:0:0:0:
448,192,84777,128,0,85067:0:0:0:0:
320,192,84971,1,0,0:0:0:50:kick.wav
192,192,85164,1,0,0:0:0:0:
320,192,85164,128,0,85454:0:0:0:0:
448,192,85164,128,0,85454:0:0:0:0:
64,192,85358,1,0,0:0:0:50:snare.wav
192,192,85358,1,0,0:0:0:0:
448,192,85551,1,0,0:0:0:0:
192,192,85648,1,0,0:0:0:0:
64,192,85745,1,0,0:0:0:50:kick.wav
448,192,85745,128,0,85842:0:0:0:0:
320,192,85842,128,0,85938:0:0:0:0:
192,192,85938,128,0,86035:0:0:0:0:
64,192,86035,128,0,86132:0:0:0:0:
192,192,86132,1,0,0:0:0:50:snare.wav
320,192,86132,1,0,0:0:0:0:
448,192,86132,128,0,86229:0:0:0:0:
192,192,86325,128,0,86616:0:0:0:0:
320,192,86325,128,0,86616:0:0:0:0:
448,192,86325,128,0,86616:0:0:0:0:
64,192,86519,1,0,0:0:0:50:kick.wav
64,192,86713,128,0,87003:0:0:0:0:
192,192,86713,128,0,87003:0:0:0:0:
320,192,86713,1,0,0:0:0:0:
320,192,86906,1,0,0:0:0:50:snare.wav
448,192,86906,1,0,0:0:0:0:
64,192,87100,1,0,0:0:0:0:
320,192,87196,1,0,0:0:0:0:
64,192,87293,128,0,87390:0:0:0:50:kick.wav
448,192,87293,1,0,0:0:0:0:
192,192,87390,128,0,87487:0:0:0:0:
320,192,87487,128,0,87583:0:0:0:0:
448,192,87583,128,0,87680:0:0:0:0:
64,192,87680,128,0,87777:0:0:0:50:snare.wav
192,192,87680,1,0,0:0:0:0:
320,192,87680,1,0,0:0:0:0:
64,192,87874,128,0,88164:0:0:0:0:
192,192,87874,128,0,88164:0:0:0:0:
448,192,87874,128,0,88164:0:0:0:0:
320,192,88067,1,0,0:0:0:50:kick.wav
64,192,88261,1,0,0:0:0:0:
320,192,88261,128,0,88551:0:0:0:0:
448,192,88261,128,0,88551:0:0:0:0:
64,192,88454,1,0,0:0:0:50:snare.wav
192,192,88454,1,0,0:0:0:0:
448,192,88648,1,0,0:0:0:0:
192,192,88745,1,0,0:0:0:0:
64,192,88842,1,0,0:0:0:50:kick.wav
448,192,88842,128,0,88938:0:0:0:0:
320,192,88938,128,0,89035:0:0:0:0:
192,192,89035,128,0,89132:0:0:0:0:
64,192,89132,128,0,89229:0:0:0:0:
192,192,89229,1,0,0:0:0:50:snare.wav
320,192,89229,1,0,0:0:0:0:
448,192,89229,128,0,89325:0:0:0:0:
64,192,89422,1,0,0:0:0:0:
320,192,89422,128,0,89616:0:0:0:0:
448,192,89422,128,0,89616:0:0:0:0:
64,192,89616,1,0,0:0:0:50:kick.wav
192,192,89616,1,0,0:0:0:0:
320,192,89713,1,0,0:0:0:50:snare.wav
448,192,89713,1,0,0:0:0:0:
64,192,89809,1,0,0:0:0:50:snare.wav
192,192,89809,1,0,0:0:0:0:
320,192,89906,1,0,0:0:0:0:
64,192,90003,1,0,0:0:0:50:snare.wav
448,192,90003,1,0,0:0:0:0:
192,192,90100,1,0,0:0:0:50:snare.wav
320,192,90100,1,0,0:0:0:0:
64,192,90196,1,0,0:0:0:50:snare.wav
448,192,90196,1,0,0:0:0:0:
192,192,90293,1,0,0:0:0:50:snare.wav
320,192,90293,1,0,0:0:0:0:
448,192,90390,128,0,90487:0:0:0:0:
64,192,90487,128,0,90583:0:0:0:0:
192,192,90583,128,0,90680:0:0:0:0:
320,192,90680,128,0,90777:0:0:0:0:
64,192,90777,128,0,90874:0:0:0:0:
448,192,90777,128,0,90874:0:0:0:0:
64,192,90971,128,0,91358:0:0:0:0:
192,192,90971,1,0,0:0:0:0:
320,192,91358,1,0,0:0:0:0:
448,192,91358,128,0,91745:0:0:0:0:
192,192,91745,128,0,91938:0:0:0:0:
448,192,91842,128,0,91938:0:0:0:0:
64,192,91938,128,0,92035:0:0:0:0:
320,192,92035,128,0,92132:0:0:0:0:
192,192,92132,128,0,92229:0:0:0:0:
64,192,92229,128,0,92325:0:0:0:0:
320,192,92325,128,0,92422:0:0:0:0:
448,192,92325,128,0,92422:0:0:0:0:
192,192,92422,128,0,92519:0:0:0:0:
64,192,92519,128,0,93196:0:0:0:50:snare.wav
320,192,92519,128,0,92809:0:0:0:50:finish.wav
448,192,92519,128,0,92809:0:0:0:0:
192,192,92906,128,0,93196:0:0:0:50:dclap.wav
320,192,92906,128,0,93196:0:0:0:50:finish.wav
448,192,92906,128,0,96583:0:0:0:0:
64,192,93293,128,0,96583:0:0:0:50:kick.wav
192,192,93293,128,0,96583:0:0:0:50:finish.wav
320,192,93293,128,0,96583:0:0:0:0:
