osu file format v14

[General]
AudioFilename: audio.ogg
AudioLeadIn: 0
PreviewTime: 56035
Countdown: 0
SampleSet: Soft
StackLeniency: 0.7
Mode: 3
LetterboxInBreaks: 0
SpecialStyle: 0
WidescreenStoryboard: 1

[Editor]
Bookmarks: 708,6901,13095,19288,31675,44062,78127
DistanceSpacing: 0.1
BeatDivisor: 4
GridSize: 4
TimelineZoom: 1.9

[Metadata]
Title:Harutoki ~Spring Moment~
TitleUnicode:ハルトキ ~Spring Moment~
Artist:Yonekura Chihiro
ArtistUnicode:米倉千尋
Creator:Nabi-
Version:DH's Normal
Source:9-nine-はるいろはるこいはるのかぜ
Tags:Paran dudehacker drum-hitnormal affirmation 香坂 春風 Kousaka Haruka ぱれっと palette haruiro harukoi harunokaze eroge visual novel galgame episode 3 opening pop jpop j-pop japanese Short cut version ver
BeatmapID:3872885
BeatmapSetID:1619670

[Difficulty]
HPDrainRate:7
CircleSize:4
OverallDifficulty:7
ApproachRate:5
SliderMultiplier:1.4
SliderTickRate:1

[Events]
//Background and Video events
Video,-124,"Harutoki.mp4"
0,0,"BG1.jpg",0,0
//Break Periods
//Storyboard Layer 0 (Background)
//Storyboard Layer 1 (Fail)
//Storyboard Layer 2 (Pass)
//Storyboard Layer 3 (Foreground)
//Storyboard Layer 4 (Overlay)
//Storyboard Sound Samples
Sample,19164,0,"finish.wav",50
Sample,68713,0,"finish.wav",70
Sample,71616,0,"hihat.wav",70
Sample,75680,0,"snare.wav",53
Sample,76067,0,"snare.wav",61

[TimingPoints]
584,387.096774193548,4,2,1,50,1,0
56325,-100,4,2,1,50,0,1
68713,-100,4,2,1,50,0,0

[HitObjects]
64,192,584,5,0,0:0:0:0:
448,192,777,1,0,0:0:0:0:
192,192,971,1,0,0:0:0:0:
320,192,1164,128,0,1551:0:0:0:0:
64,192,1551,128,0,1938:0:0:0:0:
192,192,1938,1,0,0:0:0:0:
448,192,2132,1,0,0:0:0:0:
64,192,2325,1,0,0:0:0:0:
320,192,2519,1,0,0:0:0:0:
192,192,2713,128,0,3100:0:0:0:0:
448,192,3100,128,0,3487:0:0:0:0:
64,192,3487,1,0,0:0:0:0:
320,192,3680,1,0,0:0:0:0:
192,192,3874,1,0,0:0:0:0:
64,192,4067,1,0,0:0:0:0:
448,192,4261,128,0,4648:0:0:0:0:
320,192,4648,128,0,5035:0:0:0:0:
192,192,5035,1,0,0:0:0:0:
448,192,5229,1,0,0:0:0:0:
64,192,5422,1,0,0:0:0:0:
192,192,5616,1,0,0:0:0:0:
320,192,5809,128,0,6196:0:0:0:0:
64,192,6196,128,0,6680:0:0:0:0:
192,192,6390,128,0,6680:0:0:0:0:
64,192,6777,1,0,0:0:0:50:kick.wav
448,192,6777,1,0,0:0:0:50:finish.wav
320,192,6971,1,0,0:0:0:0:
192,192,7164,1,0,0:0:0:50:snare.wav
448,192,7358,128,0,7551:0:0:0:0:
192,192,7551,1,0,0:0:0:50:kick.wav
64,192,7745,128,0,7938:0:0:0:0:
320,192,7938,1,0,0:0:0:50:snare.wav
192,192,8132,1,0,0:0:0:0:
448,192,8325,1,0,0:0:0:50:kick.wav
64,192,8519,1,0,0:0:0:0:
320,192,8713,1,0,0:0:0:50:snare.wav
448,192,8906,128,0,9100:0:0:0:0:
192,192,9100,1,0,0:0:0:50:kick.wav
64,192,9293,128,0,9487:0:0:0:0:
320,192,9487,1,0,0:0:0:50:snare.wav
448,192,9680,1,0,0:0:0:0:
192,192,9874,1,0,0:0:0:50:kick.wav
320,192,10067,1,0,0:0:0:0:
64,192,10261,1,0,0:0:0:50:snare.wav
192,192,10454,128,0,10648:0:0:0:0:
320,192,10648,1,0,0:0:0:50:kick.wav
448,192,10842,128,0,11035:0:0:0:0:
64,192,11035,1,0,0:0:0:50:snare.wav
320,192,11229,1,0,0:0:0:0:
192,192,11422,1,0,0:0:0:50:kick.wav
448,192,11616,1,0,0:0:0:0:
64,192,11809,1,0,0:0:0:50:snare.wav
320,192,12003,128,0,12196:0:0:0:0:
64,192,12196,1,0,0:0:0:50:kick.wav
448,192,12293,1,0,0:0:0:50:snare.wav
192,192,12390,128,0,12583:0:0:0:50:snare.wav
448,192,12583,1,0,0:0:0:50:snare.wav
64,192,12777,1,0,0:0:0:50:snare.wav
320,192,12874,1,0,0:0:0:50:snare.wav
64,192,12971,1,0,0:0:0:50:kick.wav
192,192,12971,1,0,0:0:0:50:finish.wav
448,192,13164,1,0,0:0:0:0:
64,192,13358,1,0,0:0:0:50:snare.wav
320,192,13551,128,0,13745:0:0:0:0:
448,192,13745,1,0,0:0:0:50:kick.wav
64,192,13938,128,0,14132:0:0:0:0:
192,192,14132,1,0,0:0:0:50:snare.wav
448,192,14325,1,0,0:0:0:0:
192,192,14519,1,0,0:0:0:50:kick.wav
320,192,14713,1,0,0:0:0:0:
64,192,14906,1,0,0:0:0:50:snare.wav
320,192,15100,128,0,15293:0:0:0:0:
192,192,15293,1,0,0:0:0:50:kick.wav
64,192,15487,128,0,15680:0:0:0:0:
448,192,15680,1,0,0:0:0:50:snare.wav
192,192,15874,1,0,0:0:0:0:
320,192,16067,1,0,0:0:0:50:kick.wav
64,192,16261,1,0,0:0:0:0:
192,192,16454,1,0,0:0:0:50:snare.wav
448,192,16648,128,0,16842:0:0:0:0:
64,192,16842,1,0,0:0:0:50:kick.wav
192,192,17035,128,0,17229:0:0:0:0:
320,192,17229,1,0,0:0:0:50:snare.wav
448,192,17422,1,0,0:0:0:50:kick.wav
64,192,17616,1,0,0:0:0:50:kick.wav
192,192,17616,1,0,0:0:0:50:finish.wav
448,192,17809,1,0,0:0:0:50:snare.wav
192,192,17906,1,0,0:0:0:50:snare.wav
320,192,18003,1,0,0:0:0:50:kick.wav
64,192,18196,128,0,18583:0:0:0:50:snare.wav
320,192,18390,1,0,0:0:0:50:kick.wav
448,192,18583,128,0,18971:0:0:0:50:snare.wav
192,192,18777,1,0,0:0:0:50:snare.wav
64,192,18971,1,0,0:0:0:50:snare.wav
320,192,19067,1,0,0:0:0:50:snare.wav
192,192,19164,1,0,0:0:0:50:kick.wav
448,192,19454,1,0,0:0:0:0:
192,192,19745,1,0,0:0:0:0:
320,192,20713,1,0,0:0:0:0:
64,192,21003,1,0,0:0:0:0:
320,192,21293,1,0,0:0:0:0:
64,192,22261,1,0,0:0:0:0:
320,192,22551,1,0,0:0:0:0:
64,192,22842,1,0,0:0:0:0:
448,192,23809,1,0,0:0:0:0:
192,192,24100,1,0,0:0:0:0:
448,192,24390,1,0,0:0:0:0:
192,192,25358,1,0,0:0:0:0:
320,192,25648,1,0,0:0:0:0:
192,192,25938,1,0,0:0:0:0:
320,192,26906,1,0,0:0:0:0:
64,192,27196,1,0,0:0:0:0:
320,192,27487,1,0,0:0:0:0:
64,192,28454,1,0,0:0:0:0:
448,192,28454,1,0,0:0:0:0:
320,192,28745,1,0,0:0:0:0:
64,192,29035,1,0,0:0:0:0:
64,192,30003,1,0,0:0:0:50:dclap.wav
448,192,30003,1,0,0:0:0:70:finish.wav
320,192,30196,1,0,0:0:0:50:dclap.wav
192,192,30390,1,0,0:0:0:70:kick.wav
320,192,30583,1,0,0:0:0:70:kick.wav
448,192,30583,128,0,31551:0:0:0:70:finish.wav
64,192,31551,1,0,0:0:0:50:kick.wav
192,192,31551,1,0,0:0:0:50:finish.wav
320,192,31938,1,0,0:0:0:50:snare.wav
448,192,31938,1,0,0:0:0:0:
192,192,32132,1,0,0:0:0:0:
64,192,32325,1,0,0:0:0:50:kick.wav
320,192,32519,1,0,0:0:0:0:
192,192,32713,1,0,0:0:0:50:snare.wav
448,192,32713,1,0,0:0:0:0:
64,192,32906,1,0,0:0:0:0:
320,192,33100,1,0,0:0:0:50:kick.wav
64,192,33487,1,0,0:0:0:50:snare.wav
192,192,33487,1,0,0:0:0:0:
448,192,33680,1,0,0:0:0:0:
320,192,33874,1,0,0:0:0:50:kick.wav
64,192,34067,1,0,0:0:0:0:
192,192,34261,1,0,0:0:0:50:snare.wav
448,192,34261,1,0,0:0:0:0:
320,192,34454,1,0,0:0:0:0:
64,192,34648,1,0,0:0:0:50:kick.wav
192,192,34842,1,0,0:0:0:0:
320,192,35035,1,0,0:0:0:50:snare.wav
448,192,35035,1,0,0:0:0:0:
64,192,35229,1,0,0:0:0:0:
448,192,35422,1,0,0:0:0:50:kick.wav
192,192,35616,1,0,0:0:0:50:kick.wav
320,192,35809,1,0,0:0:0:50:snare.wav
448,192,35809,1,0,0:0:0:0:
192,192,36003,1,0,0:0:0:0:
64,192,36196,1,0,0:0:0:50:kick.wav
320,192,36583,1,0,0:0:0:50:snare.wav
448,192,36583,1,0,0:0:0:0:
192,192,36971,1,0,0:0:0:50:kick.wav
320,192,37164,1,0,0:0:0:50:kick.wav
64,192,37358,1,0,0:0:0:50:snare.wav
448,192,37358,1,0,0:0:0:0:
192,192,37551,1,0,0:0:0:0:
448,192,37745,1,0,0:0:0:50:kick.wav
64,192,37938,1,0,0:0:0:0:
320,192,38132,1,0,0:0:0:50:snare.wav
448,192,38132,1,0,0:0:0:0:
192,192,38325,1,0,0:0:0:0:
320,192,38519,1,0,0:0:0:50:kick.wav
64,192,38906,1,0,0:0:0:50:snare.wav
192,192,38906,1,0,0:0:0:0:
320,192,39100,1,0,0:0:0:0:
448,192,39293,1,0,0:0:0:50:kick.wav
192,192,39487,1,0,0:0:0:0:
64,192,39680,1,0,0:0:0:50:snare.wav
320,192,39680,1,0,0:0:0:0:
448,192,39874,1,0,0:0:0:0:
64,192,40067,1,0,0:0:0:50:kick.wav
320,192,40261,1,0,0:0:0:0:
64,192,40454,1,0,0:0:0:50:snare.wav
192,192,40454,1,0,0:0:0:0:
448,192,40648,1,0,0:0:0:50:snare.wav
192,192,40745,1,0,0:0:0:50:snare.wav
320,192,40842,1,0,0:0:0:50:kick.wav
448,192,40842,1,0,0:0:0:50:finish.wav
64,192,41132,1,0,0:0:0:50:snare.wav
192,192,41229,1,0,0:0:0:50:dfinish.wav
320,192,41229,1,0,0:0:0:0:
64,192,41422,1,0,0:0:0:50:kick.wav
448,192,41422,1,0,0:0:0:50:finish.wav
192,192,41616,1,0,0:0:0:50:kick.wav
320,192,41713,1,0,0:0:0:50:snare.wav
64,192,41809,1,0,0:0:0:50:snare.wav
448,192,41809,1,0,0:0:0:0:
192,192,42003,1,0,0:0:0:50:snare.wav
320,192,42003,1,0,0:0:0:50:finish.wav
448,192,42293,1,0,0:0:0:50:dclap.wav
64,192,42390,1,0,0:0:0:50:dfinish.wav
192,192,42390,1,0,0:0:0:0:
320,192,42583,1,0,0:0:0:50:snare.wav
448,192,42583,1,0,0:0:0:0:
64,192,42777,1,0,0:0:0:50:dfinish.wav
192,192,42874,1,0,0:0:0:50:kick.wav
448,192,42874,1,0,0:0:0:0:
64,192,43164,1,0,0:0:0:50:kick.wav
320,192,43164,1,0,0:0:0:0:
192,192,43454,1,0,0:0:0:50:kick.wav
448,192,43551,1,0,0:0:0:50:kick.wav
320,192,43648,1,0,0:0:0:50:dfinish.wav
192,192,43745,1,0,0:0:0:50:kick.wav
64,192,43938,128,0,45487:0:0:0:50:kick.wav
448,192,43938,1,0,0:0:0:50:finish.wav
448,192,44519,1,0,0:0:0:0:
192,192,45487,1,0,0:0:0:0:
320,192,45487,128,0,47035:0:0:0:0:
192,192,46067,1,0,0:0:0:0:
192,192,47035,128,0,48583:0:0:0:0:
448,192,47035,1,0,0:0:0:0:
448,192,47616,1,0,0:0:0:0:
64,192,48583,1,0,0:0:0:0:
448,192,48583,128,0,49551:0:0:0:0:
64,192,49164,1,0,0:0:0:0:
192,192,49551,1,0,0:0:0:70:snare.wav
320,192,49551,1,0,0:0:0:0:
64,192,49842,1,0,0:0:0:50:dfinish.wav
448,192,49938,1,0,0:0:0:0:
320,192,50035,1,0,0:0:0:50:kick.wav
64,192,50132,1,0,0:0:0:50:kick.wav
192,192,50132,1,0,0:0:0:50:finish.wav
448,192,50325,1,0,0:0:0:0:
192,192,50519,1,0,0:0:0:50:kick.wav
448,192,50713,1,0,0:0:0:0:
64,192,50906,1,0,0:0:0:50:kick.wav
320,192,51100,1,0,0:0:0:0:
64,192,51293,1,0,0:0:0:50:kick.wav
320,192,51487,1,0,0:0:0:0:
448,192,51680,1,0,0:0:0:50:kick.wav
192,192,51874,1,0,0:0:0:0:
448,192,52067,1,0,0:0:0:50:kick.wav
192,192,52261,1,0,0:0:0:0:
320,192,52454,1,0,0:0:0:50:kick.wav
64,192,52648,1,0,0:0:0:0:
320,192,52842,1,0,0:0:0:50:kick.wav
64,192,53035,1,0,0:0:0:0:
320,192,53229,1,0,0:0:0:50:kick.wav
448,192,53229,1,0,0:0:0:50:finish.wav
192,192,53422,128,0,53616:0:0:0:40:snare.wav
64,192,53616,128,0,53809:0:0:0:44:snare.wav
320,192,53809,128,0,54003:0:0:0:48:snare.wav
448,192,54003,128,0,54196:0:0:0:52:snare.wav
64,192,54196,128,0,54390:0:0:0:56:snare.wav
192,192,54390,128,0,54583:0:0:0:60:snare.wav
320,192,54583,1,0,0:0:0:64:snare.wav
64,192,54680,128,0,55938:0:0:0:66:snare.wav
448,192,54680,1,0,0:0:0:0:
192,192,56132,1,0,0:0:0:0:
320,192,56325,1,0,0:0:0:70:kick.wav
448,192,56325,128,0,56713:0:0:0:70:finish.wav
64,192,56713,1,0,0:0:0:70:snare.wav
320,192,56906,128,0,57100:0:0:0:70:hihat.wav
192,192,57100,128,0,57390:0:0:0:70:kick.wav
448,192,57390,128,0,57680:0:0:0:0:
64,192,57680,128,0,57874:0:0:0:70:hihat.wav
320,192,57874,128,0,58164:0:0:0:70:kick.wav
192,192,58164,128,0,58454:0:0:0:0:
448,192,58454,128,0,58648:0:0:0:70:hihat.wav
64,192,58648,128,0,59035:0:0:0:70:kick.wav
320,192,59035,1,0,0:0:0:70:snare.wav
192,192,59229,128,0,59422:0:0:0:70:hihat.wav
448,192,59422,128,0,59809:0:0:0:70:kick.wav
64,192,59809,1,0,0:0:0:70:snare.wav
320,192,60003,128,0,60196:0:0:0:70:hihat.wav
192,192,60196,128,0,60487:0:0:0:70:kick.wav
448,192,60487,128,0,60777:0:0:0:0:
64,192,60777,128,0,60971:0:0:0:70:hihat.wav
320,192,60971,128,0,61261:0:0:0:70:kick.wav
192,192,61261,128,0,61551:0:0:0:0:
448,192,61551,128,0,61745:0:0:0:70:hihat.wav
64,192,61745,128,0,62132:0:0:0:70:kick.wav
448,192,62132,1,0,0:0:0:70:snare.wav
320,192,62325,128,0,62519:0:0:0:70:hihat.wav
64,192,62519,1,0,0:0:0:70:kick.wav
192,192,62519,128,0,62906:0:0:0:70:finish.wav
448,192,62906,1,0,0:0:0:70:snare.wav
64,192,63100,128,0,63293:0:0:0:70:hihat.wav
320,192,63293,128,0,63583:0:0:0:70:kick.wav
192,192,63583,128,0,63874:0:0:0:0:
448,192,63874,128,0,64067:0:0:0:70:hihat.wav
64,192,64067,128,0,64358:0:0:0:70:kick.wav
320,192,64358,128,0,64648:0:0:0:0:
192,192,64648,128,0,64842:0:0:0:70:hihat.wav
448,192,64842,128,0,65229:0:0:0:70:kick.wav
64,192,65229,1,0,0:0:0:70:snare.wav
320,192,65422,128,0,65616:0:0:0:70:hihat.wav
192,192,65616,128,0,65906:0:0:0:70:kick.wav
448,192,65906,128,0,66196:0:0:0:0:
64,192,66196,128,0,66390:0:0:0:70:hihat.wav
320,192,66390,128,0,66680:0:0:0:70:kick.wav
192,192,66680,128,0,66971:0:0:0:0:
448,192,66971,128,0,67164:0:0:0:70:hihat.wav
64,192,67164,1,0,0:0:0:70:kick.wav
192,192,67164,1,0,0:0:0:70:finish.wav
320,192,67358,1,0,0:0:0:70:snare.wav
64,192,67454,1,0,0:0:0:70:snare.wav
320,192,67648,1,0,0:0:0:70:dclap.wav
192,192,67745,128,0,67938:0:0:0:70:dclap.wav
448,192,67938,128,0,68325:0:0:0:70:kick.wav
192,192,68325,1,0,0:0:0:70:snare.wav
64,192,68422,1,0,0:0:0:70:dclap.wav
448,192,68519,1,0,0:0:0:70:dclap.wav
320,192,68616,1,0,0:0:0:70:dclap.wav
192,192,68713,128,0,69100:0:0:0:70:kick.wav
320,192,69100,1,0,0:0:0:70:snare.wav
64,192,69487,1,0,0:0:0:70:kick.wav
448,192,69680,128,0,69874:0:0:0:70:hihat.wav
192,192,69874,128,0,70067:0:0:0:70:snare.wav
320,192,70067,128,0,70648:0:0:0:70:hihat.wav
64,192,70261,1,0,0:0:0:70:kick.wav
448,192,70454,1,0,0:0:0:70:hihat.wav
64,192,70648,128,0,70842:0:0:0:70:snare.wav
448,192,70842,128,0,71035:0:0:0:70:hihat.wav
192,192,71035,1,0,0:0:0:70:kick.wav
320,192,71229,128,0,71422:0:0:0:70:hihat.wav
448,192,71422,1,0,0:0:0:70:snare.wav
192,192,71616,128,0,72196:0:0:0:70:snare.wav
64,192,71809,1,0,0:0:0:70:kick.wav
448,192,72196,1,0,0:0:0:70:snare.wav
320,192,72583,1,0,0:0:0:70:kick.wav
64,192,72777,128,0,72971:0:0:0:70:hihat.wav
448,192,72971,128,0,73164:0:0:0:70:snare.wav
192,192,73164,128,0,73358:0:0:0:70:hihat.wav
64,192,73358,1,0,0:0:0:70:kick.wav
448,192,73358,1,0,0:0:0:70:finish.wav
320,192,73551,128,0,73745:0:0:0:70:snare.wav
64,192,73745,128,0,74132:0:0:0:70:kick.wav
448,192,73938,128,0,74132:0:0:0:70:dclap.wav
192,192,74132,1,0,0:0:0:70:kick.wav
320,192,74325,128,0,74519:0:0:0:70:snare.wav
192,192,74519,128,0,74713:0:0:0:70:kick.wav
448,192,74713,128,0,75293:0:0:0:70:snare.wav
64,192,74906,1,0,0:0:0:70:kick.wav
192,192,74906,1,0,0:0:0:70:finish.wav
320,192,75293,128,0,75487:0:0:0:45:snare.wav
64,192,75487,128,0,75680:0:0:0:49:snare.wav
192,192,75680,128,0,75874:0:0:0:70:kick.wav
448,192,75874,128,0,76067:0:0:0:57:snare.wav
320,192,76067,128,0,76261:0:0:0:70:kick.wav
64,192,76261,1,0,0:0:0:65:snare.wav
192,192,76261,1,0,0:0:0:0:
320,192,76454,1,0,0:0:0:70:kick.wav
448,192,76454,1,0,0:0:0:0:
64,192,78003,1,0,0:0:0:50:kick.wav
448,192,78003,1,0,0:0:0:50:finish.wav
320,192,78196,1,0,0:0:0:0:
192,192,78390,1,0,0:0:0:50:snare.wav
448,192,78583,128,0,78971:0:0:0:0:
64,192,78971,128,0,79358:0:0:0:0:
192,192,79164,1,0,0:0:0:50:snare.wav
320,192,79358,1,0,0:0:0:0:
64,192,79551,1,0,0:0:0:50:kick.wav
192,192,79745,1,0,0:0:0:0:
320,192,79938,1,0,0:0:0:50:snare.wav
448,192,80132,128,0,80519:0:0:0:0:
64,192,80519,128,0,80906:0:0:0:0:
192,192,80713,1,0,0:0:0:50:snare.wav
320,192,80906,1,0,0:0:0:0:
192,192,81100,1,0,0:0:0:50:kick.wav
448,192,81293,1,0,0:0:0:0:
64,192,81487,1,0,0:0:0:50:snare.wav
320,192,81680,128,0,82067:0:0:0:0:
192,192,82067,128,0,82454:0:0:0:0:
64,192,82261,1,0,0:0:0:50:snare.wav
448,192,82454,1,0,0:0:0:0:
64,192,82648,1,0,0:0:0:50:kick.wav
320,192,82842,1,0,0:0:0:0:
192,192,83035,1,0,0:0:0:50:snare.wav
320,192,83229,128,0,83422:0:0:0:0:
448,192,83422,1,0,0:0:0:50:kick.wav
192,192,83519,1,0,0:0:0:50:snare.wav
64,192,83616,1,0,0:0:0:50:snare.wav
448,192,83809,1,0,0:0:0:50:snare.wav
64,192,84003,1,0,0:0:0:50:snare.wav
192,192,84100,1,0,0:0:0:50:snare.wav
320,192,84196,1,0,0:0:0:50:kick.wav
448,192,84196,1,0,0:0:0:50:finish.wav
192,192,84390,1,0,0:0:0:0:
448,192,84583,1,0,0:0:0:50:snare.wav
64,192,84777,128,0,85164:0:0:0:0:
320,192,85164,128,0,85551:0:0:0:0:
448,192,85358,1,0,0:0:0:50:snare.wav
192,192,85551,1,0,0:0:0:0:
448,192,85745,1,0,0:0:0:50:kick.wav
64,192,85938,1,0,0:0:0:0:
320,192,86132,1,0,0:0:0:50:snare.wav
64,192,86325,128,0,86713:0:0:0:0:
320,192,86713,128,0,87100:0:0:0:0:
448,192,86906,1,0,0:0:0:50:snare.wav
192,192,87100,1,0,0:0:0:0:
448,192,87293,1,0,0:0:0:50:kick.wav
64,192,87487,1,0,0:0:0:0:
320,192,87680,1,0,0:0:0:50:snare.wav
192,192,87874,128,0,88261:0:0:0:0:
448,192,88261,128,0,88648:0:0:0:0:
320,192,88454,1,0,0:0:0:50:snare.wav
64,192,88648,1,0,0:0:0:0:
320,192,88842,1,0,0:0:0:50:kick.wav
192,192,89035,1,0,0:0:0:0:
448,192,89229,1,0,0:0:0:50:snare.wav
192,192,89422,128,0,89616:0:0:0:0:
320,192,89616,1,0,0:0:0:50:kick.wav
64,192,89713,1,0,0:0:0:50:snare.wav
448,192,89809,128,0,90003:0:0:0:50:snare.wav
320,192,90003,1,0,0:0:0:50:snare.wav
192,192,90100,1,0,0:0:0:50:snare.wav
64,192,90196,1,0,0:0:0:50:snare.wav
448,192,90293,1,0,0:0:0:50:snare.wav
320,192,90390,1,0,0:0:0:0:
192,192,90583,1,0,0:0:0:0:
64,192,90777,1,0,0:0:0:0:
320,192,90971,1,0,0:0:0:0:
192,192,91358,1,0,0:0:0:0:
448,192,91745,1,0,0:0:0:0:
64,192,91938,1,0,0:0:0:0:
320,192,92132,1,0,0:0:0:0:
192,192,92325,1,0,0:0:0:0:
320,192,92519,1,0,0:0:0:50:snare.wav
448,192,92519,1,0,0:0:0:50:finish.wav
192,192,92906,1,0,0:0:0:50:dclap.wav
320,192,92906,1,0,0:0:0:50:finish.wav
64,192,93293,128,0,96583:0:0:0:50:kick.wav
192,192,93293,128,0,96583:0:0:0:50:finish.wav
