osu file format v14

[General]
AudioFilename: audio.mp3
AudioLeadIn: 0
PreviewTime: 56896
Countdown: 0
SampleSet: Soft
StackLeniency: 0.3
Mode: 0
LetterboxInBreaks: 0
EpilepsyWarning: 1
WidescreenStoryboard: 1

[Editor]
Bookmarks: 646,29788,57217,88074,94931,122360,149788,177217,190931,204646,228646
DistanceSpacing: 0.2
BeatDivisor: 4
GridSize: 4
TimelineZoom: 3.299998

[Metadata]
Title:DEAR MY WAKER
TitleUnicode:DEAR MY WAKER
Artist:Yonekura Chihiro
ArtistUnicode:米倉千尋
Creator:Skystar
Version:Overdrive
Source:9-nine-ゆきいろゆきはなゆきのあと
Tags:collab captin1 nathan sukinathan ttmnzk tt mouse kuse ぱれっと palette yukiiro yukihana yukinoato eroge galgame visual novel flyingtuna japanese rock pop opening op KuBsNia_ZhoYL_ 堀江晶太 Amateurre Shizuku- shikibe mayu vahn10 Kazato Asa
BeatmapID:3224533
BeatmapSetID:1579180

[Difficulty]
HPDrainRate:5
CircleSize:4.1
OverallDifficulty:8.5
ApproachRate:9.7
SliderMultiplier:3.2
SliderTickRate:1

[Events]
//Background and Video events
0,0,"SPOILER_large_ev414a.jpg",0,0
//Break Periods
2,163703,175606
//Storyboard Layer 0 (Background)
//Storyboard Layer 1 (Fail)
//Storyboard Layer 2 (Pass)
//Storyboard Layer 3 (Foreground)
Sprite,Foreground,Centre,"sb/block.jpg",154,191 V,0,14360,,0.5,30 F,2,14360,14960,0.4,0 P,0,14360,14960,A
Sprite,Foreground,Centre,"sb/block.jpg",136,276 V,0,14467,,0.5,30 F,2,14467,15067,0.4,0 P,0,14467,15067,A
Sprite,Foreground,Centre,"sb/block.jpg",126,280 V,0,14574,,0.5,30 F,2,14574,15174,0.4,0 P,0,14574,15174,A
Sprite,Foreground,Centre,"sb/block.jpg",131,290 V,0,14681,,0.5,30 F,2,14681,15281,0.4,0 P,0,14681,15281,A
Sprite,Foreground,Centre,"sb/block.jpg",119,299 V,0,14788,,0.5,30 F,2,14788,15388,0.4,0 P,0,14788,15388,A
Sprite,Foreground,Centre,"sb/block.jpg",125,313 V,0,14896,,0.5,30 F,2,14896,15496,0.4,0 P,0,14896,15496,A
Sprite,Foreground,Centre,"sb/block.jpg",108,319 V,0,15003,,0.5,30 F,2,15003,15603,0.4,0 P,0,15003,15603,A
Sprite,Foreground,Centre,"sb/block.jpg",112,338 V,0,15110,,0.5,30 F,2,15110,15710,0.4,0 P,0,15110,15710,A
Sprite,Foreground,Centre,"sb/block.jpg",91,341 V,0,15217,,0.5,30 F,2,15217,15817,0.4,0 P,0,15217,15817,A
Sprite,Foreground,Centre,"sb/block.jpg",85,198 V,0,15431,,0.5,30 F,2,15431,16031,0.4,0 P,0,15431,16031,A
Sprite,Foreground,Centre,"sb/block.jpg",80,189 V,0,15538,,0.5,30 F,2,15538,16138,0.4,0 P,0,15538,16138,A
Sprite,Foreground,Centre,"sb/block.jpg",80,179 V,0,15645,,0.5,30 F,2,15645,16245,0.4,0 P,0,15645,16245,A
Sprite,Foreground,Centre,"sb/block.jpg",126,79 V,0,16074,,0.5,30 F,2,16074,16674,0.4,0 P,0,16074,16674,A
Sprite,Foreground,Centre,"sb/bubble.png",476,192 S,1,84646,84766,0.1,0.16 F,2,84646,85346,0.1,0 P,0,84646,85246,A
Sprite,Foreground,Centre,"sb/bubble.png",526,151 S,1,84753,84873,0.1,0.16 F,2,84753,85453,0.1,0 P,0,84753,85353,A
Sprite,Foreground,Centre,"sb/bubble.png",576,179 S,1,84860,84980,0.1,0.16 F,2,84860,85560,0.1,0 P,0,84860,85460,A
Sprite,Foreground,Centre,"sb/bubble.png",532,122 S,1,84967,85087,0.1,0.16 F,2,84967,85667,0.1,0 P,0,84967,85567,A
Sprite,Foreground,Centre,"sb/bubble.png",488,58 S,1,85074,85194,0.1,0.16 F,2,85074,85774,0.1,0 P,0,85074,85674,A
Sprite,Foreground,Centre,"sb/bubble.png",412,88 S,1,85181,85301,0.1,0.16 F,2,85181,85881,0.1,0 P,0,85181,85781,A
Sprite,Foreground,Centre,"sb/bubble.png",372,164 S,1,85288,85408,0.1,0.16 F,2,85288,85988,0.1,0 P,0,85288,85888,A
Sprite,Foreground,Centre,"sb/bubble.png",380,248 S,1,85396,85516,0.1,0.16 F,2,85396,86096,0.1,0 P,0,85396,85996,A
Sprite,Foreground,Centre,"sb/bubble.png",326,305 S,1,85503,85623,0.1,0.16 F,2,85503,86203,0.1,0 P,0,85503,86103,A
Sprite,Foreground,Centre,"sb/bubble.png",267,276 S,1,85610,85730,0.1,0.16 F,2,85610,86310,0.1,0 P,0,85610,86210,A
Sprite,Foreground,Centre,"sb/bubble.png",218,289 S,1,85717,85837,0.1,0.16 F,2,85717,86417,0.1,0 P,0,85717,86317,A
Sprite,Foreground,Centre,"sb/bubble.png",218,289 S,1,85931,86051,0.1,0.16 F,2,85931,86631,0.1,0 P,0,85931,86531,A
Sprite,Foreground,Centre,"sb/bubble.png",262,356 S,1,86038,86158,0.1,0.16 F,2,86038,86738,0.1,0 P,0,86038,86638,A
Sprite,Foreground,Centre,"sb/bubble.png",357,354 S,1,86146,86266,0.1,0.16 F,2,86146,86846,0.1,0 P,0,86146,86746,A
Sprite,Foreground,Centre,"sb/bubble.png",407,264 S,1,86253,86373,0.1,0.16 F,2,86253,86953,0.1,0 P,0,86253,86853,A
Sprite,Foreground,Centre,"sb/bubble.png",372,164 S,1,86360,86480,0.1,0.16 F,2,86360,87060,0.1,0 P,0,86360,86960,A
Sprite,Foreground,Centre,"sb/f/intro\0053.png",157.2,0 S,0,1463,,0.45 F,7,863,1463,0,0.8 MY,7,863,1463,291.425,266.425 MY,0,1463,3145,266.425,259.425 MY,7,3145,3745,258.425,246.425 F,7,3145,3745,0.8,0
Sprite,Foreground,Centre,"sb/f/intro\006b.png",172.5,0 S,0,1496,,0.45 F,7,896,1496,0,0.8 MY,7,896,1496,291.2,266.2 MY,0,1496,3145,266.2,259.2 MY,7,3145,3745,258.2,246.2 F,7,3145,3745,0.8,0
Sprite,Foreground,Centre,"sb/f/intro\0079.png",186.45,0 S,0,1529,,0.45 F,7,929,1529,0,0.8 MY,7,929,1529,298.175,273.175 MY,0,1529,3145,273.175,266.175 MY,7,3145,3745,265.175,253.175 F,7,3145,3745,0.8,0
Sprite,Foreground,Centre,"sb/f/intro\0073.png",198.15,0 S,0,1562,,0.45 F,7,962,1562,0,0.8 MY,7,962,1562,295.25,270.25 MY,0,1562,3145,270.25,263.25 MY,7,3145,3745,262.25,250.25 F,7,3145,3745,0.8,0
Sprite,Foreground,Centre,"sb/f/intro\0074.png",207.6,0 S,0,1595,,0.45 F,7,995,1595,0,0.8 MY,7,995,1595,293.225,268.225 MY,0,1595,3145,268.225,261.225 MY,7,3145,3745,260.225,248.225 F,7,3145,3745,0.8,0
Sprite,Foreground,Centre,"sb/f/intro\0061.png",218.175,0 S,0,1628,,0.45 F,7,1028,1628,0,0.8 MY,7,1028,1628,295.25,270.25 MY,0,1628,3145,270.25,263.25 MY,7,3145,3745,262.25,250.25 F,7,3145,3745,0.8,0
Sprite,Foreground,Centre,"sb/f/intro\0072.png",230.1,0 S,0,1661,,0.45 F,7,1061,1661,0,0.8 MY,7,1061,1661,295.25,270.25 MY,0,1661,3145,270.25,263.25 MY,7,3145,3745,262.25,250.25 F,7,3145,3745,0.8,0
Sprite,Foreground,Centre,"sb/f/intro\0063.png",249.225,0 S,0,1727,,0.45 F,7,1127,1727,0,0.8 MY,7,1127,1727,295.25,270.25 MY,0,1727,3145,270.25,263.25 MY,7,3145,3745,262.25,250.25 F,7,3145,3745,0.8,0
Sprite,Foreground,Centre,"sb/f/intro\0061.png",262.275,0 S,0,1760,,0.45 F,7,1160,1760,0,0.8 MY,7,1160,1760,295.25,270.25 MY,0,1760,3145,270.25,263.25 MY,7,3145,3745,262.25,250.25 F,7,3145,3745,0.8,0
Sprite,Foreground,Centre,"sb/f/intro\0070.png",276.45,0 S,0,1793,,0.45 F,7,1193,1793,0,0.8 MY,7,1193,1793,297.95,272.95 MY,0,1793,3145,272.95,265.95 MY,7,3145,3745,264.95,252.95 F,7,3145,3745,0.8,0
Sprite,Foreground,Centre,"sb/f/intro\0074.png",288.6,0 S,0,1826,,0.45 F,7,1226,1826,0,0.8 MY,7,1226,1826,293.225,268.225 MY,0,1826,3145,268.225,261.225 MY,7,3145,3745,260.225,248.225 F,7,3145,3745,0.8,0
Sprite,Foreground,Centre,"sb/f/intro\0069.png",296.25,0 S,0,1859,,0.45 F,7,1259,1859,0,0.8 MY,7,1259,1859,291.2,266.2 MY,0,1859,3145,266.2,259.2 MY,7,3145,3745,258.2,246.2 F,7,3145,3745,0.8,0
Sprite,Foreground,Centre,"sb/f/intro\006e.png",308.175,0 S,0,1892,,0.45 F,7,1292,1892,0,0.8 MY,7,1292,1892,295.25,270.25 MY,0,1892,3145,270.25,263.25 MY,7,3145,3745,262.25,250.25 F,7,3145,3745,0.8,0
Sprite,Foreground,Centre,"sb/f/intro\0031.png",323.25,0 S,0,1925,,0.45 F,7,1325,1925,0,0.8 MY,7,1325,1925,291.425,266.425 MY,0,1925,3145,266.425,259.425 MY,7,3145,3745,258.425,246.425 F,7,3145,3745,0.8,0
Sprite,Foreground,Centre,"sb/f/intro\0026.png",191.85,0 S,0,1463,,0.45 F,7,863,1463,0,0.8 MY,7,863,1463,331.425,306.425 MY,0,1463,3145,306.425,299.425 MY,7,3145,3745,298.425,286.425 F,7,3145,3745,0.8,0
Sprite,Foreground,Centre,"sb/f/intro\004e.png",220.875,0 S,0,1529,,0.45 F,7,929,1529,0,0.8 MY,7,929,1529,331.425,306.425 MY,0,1529,3145,306.425,299.425 MY,7,3145,3745,298.425,286.425 F,7,3145,3745,0.8,0
Sprite,Foreground,Centre,"sb/f/intro\0061.png",239.1,0 S,0,1562,,0.45 F,7,962,1562,0,0.8 MY,7,962,1562,335.25,310.25 MY,0,1562,3145,310.25,303.25 MY,7,3145,3745,302.25,290.25 F,7,3145,3745,0.8,0
Sprite,Foreground,Centre,"sb/f/intro\0074.png",249.675,0 S,0,1595,,0.45 F,7,995,1595,0,0.8 MY,7,995,1595,333.225,308.225 MY,0,1595,3145,308.225,301.225 MY,7,3145,3745,300.225,288.225 F,7,3145,3745,0.8,0
Sprite,Foreground,Centre,"sb/f/intro\0068.png",261.6,0 S,0,1628,,0.45 F,7,1028,1628,0,0.8 MY,7,1028,1628,331.2,306.2 MY,0,1628,3145,306.2,299.2 MY,7,3145,3745,298.2,286.2 F,7,3145,3745,0.8,0
Sprite,Foreground,Centre,"sb/f/intro\0061.png",276,0 S,0,1661,,0.45 F,7,1061,1661,0,0.8 MY,7,1061,1661,335.25,310.25 MY,0,1661,3145,310.25,303.25 MY,7,3145,3745,302.25,290.25 F,7,3145,3745,0.8,0
Sprite,Foreground,Centre,"sb/f/intro\006e.png",290.4,0 S,0,1694,,0.45 F,7,1094,1694,0,0.8 MY,7,1094,1694,335.25,310.25 MY,0,1694,3145,310.25,303.25 MY,7,3145,3745,302.25,290.25 F,7,3145,3745,0.8,0
Sprite,Foreground,Centre,"sb/f/lastSection/ja\0042.png",-25.45001,0 S,0,228645,,0.3 C,0,228645,,45,45,45 F,7,228645,229245,0,0.8 MY,7,228645,229245,205.2,222.2 MY,0,229245,234138,222.2,230.2 MY,7,234138,234738,230.2,247.2 F,7,234138,234738,0.8,0
Sprite,Foreground,Centre,"sb/f/lastSection/ja\0065.png",-14.20001,0 S,0,228678,,0.3 C,0,228678,,45,45,45 F,7,228678,229278,0,0.8 MY,7,228678,229278,207.45,224.45 MY,0,229278,234171,224.45,232.45 MY,7,234171,234771,232.45,249.45 F,7,234171,234771,0.8,0
Sprite,Foreground,Centre,"sb/f/lastSection/ja\0061.png",-4.450005,0 S,0,228711,,0.3 C,0,228711,,45,45,45 F,7,228711,229311,0,0.8 MY,7,228711,229311,207.45,224.45 MY,0,229311,234204,224.45,232.45 MY,7,234204,234804,232.45,249.45 F,7,234204,234804,0.8,0
Sprite,Foreground,Centre,"sb/f/lastSection/ja\0074.png",3.199995,0 S,0,228744,,0.3 C,0,228744,,45,45,45 F,7,228744,229344,0,0.8 MY,7,228744,229344,205.95,222.95 MY,0,229344,234237,222.95,230.95 MY,7,234237,234837,230.95,247.95 F,7,234237,234837,0.8,0
Sprite,Foreground,Centre,"sb/f/lastSection/ja\006d.png",14.15,0 S,0,228777,,0.3 C,0,228777,,45,45,45 F,7,228777,229377,0,0.8 MY,7,228777,229377,207.3,224.3 MY,0,229377,234270,224.3,232.3 MY,7,234270,234870,232.3,249.3 F,7,234270,234870,0.8,0
Sprite,Foreground,Centre,"sb/f/lastSection/ja\0061.png",26.15,0 S,0,228810,,0.3 C,0,228810,,45,45,45 F,7,228810,229410,0,0.8 MY,7,228810,229410,207.45,224.45 MY,0,229410,234303,224.45,232.45 MY,7,234303,234903,232.45,249.45 F,7,234303,234903,0.8,0
Sprite,Foreground,Centre,"sb/f/lastSection/ja\0070.png",35.3,0 S,0,228843,,0.3 C,0,228843,,45,45,45 F,7,228843,229443,0,0.8 MY,7,228843,229443,208.65,225.65 MY,0,229443,234336,225.65,233.65 MY,7,234336,234936,233.65,250.65 F,7,234336,234936,0.8,0
Sprite,Foreground,Centre,"sb/f/lastSection/ja\003a.png",43.7,0 S,0,228876,,0.3 C,0,228876,,45,45,45 F,7,228876,229476,0,0.8 MY,7,228876,229476,207.3,224.3 MY,0,229476,234369,224.3,232.3 MY,7,234369,234969,232.3,249.3 F,7,234369,234969,0.8,0
Sprite,Foreground,Centre,"sb/f/lastSection/ja\0053.png",58.39999,0 S,0,228942,,0.3 C,0,228942,,45,45,45 F,7,228942,229542,0,0.8 MY,7,228942,229542,205.2,222.2 MY,0,229542,234435,222.2,230.2 MY,7,234435,235035,230.2,247.2 F,7,234435,235035,0.8,0
Sprite,Foreground,Centre,"sb/f/lastSection/ja\006b.png",68.45,0 S,0,228975,,0.3 C,0,228975,,45,45,45 F,7,228975,229575,0,0.8 MY,7,228975,229575,204.9,221.9 MY,0,229575,234468,221.9,229.9 MY,7,234468,235068,229.9,246.9 F,7,234468,235068,0.8,0
Sprite,Foreground,Centre,"sb/f/lastSection/ja\0079.png",78.2,0 S,0,229008,,0.3 C,0,229008,,45,45,45 F,7,229008,229608,0,0.8 MY,7,229008,229608,208.95,225.95 MY,0,229608,234501,225.95,233.95 MY,7,234501,235101,233.95,250.95 F,7,234501,235101,0.8,0
Sprite,Foreground,Centre,"sb/f/lastSection/ja\0073.png",87.05,0 S,0,229041,,0.3 C,0,229041,,45,45,45 F,7,229041,229641,0,0.8 MY,7,229041,229641,207.45,224.45 MY,0,229641,234534,224.45,232.45 MY,7,234534,235134,232.45,249.45 F,7,234534,235134,0.8,0
Sprite,Foreground,Centre,"sb/f/lastSection/ja\0074.png",94.7,0 S,0,229074,,0.3 C,0,229074,,45,45,45 F,7,229074,229674,0,0.8 MY,7,229074,229674,205.95,222.95 MY,0,229674,234567,222.95,230.95 MY,7,234567,235167,230.95,247.95 F,7,234567,235167,0.8,0
Sprite,Foreground,Centre,"sb/f/lastSection/ja\0061.png",103.55,0 S,0,229107,,0.3 C,0,229107,,45,45,45 F,7,229107,229707,0,0.8 MY,7,229107,229707,207.45,224.45 MY,0,229707,234600,224.45,232.45 MY,7,234600,235200,232.45,249.45 F,7,234600,235200,0.8,0
Sprite,Foreground,Centre,"sb/f/lastSection/ja\0072.png",111.65,0 S,0,229140,,0.3 C,0,229140,,45,45,45 F,7,229140,229740,0,0.8 MY,7,229140,229740,207.3,224.3 MY,0,229740,234633,224.3,232.3 MY,7,234633,235233,232.3,249.3 F,7,234633,235233,0.8,0
Sprite,Foreground,Centre,"sb/f/lastSection/ja\002f.png",120.35,0 S,0,229173,,0.3 C,0,229173,,45,45,45 F,7,229173,229773,0,0.8 MY,7,229173,229773,205.2,222.2 MY,0,229773,234666,222.2,230.2 MY,7,234666,235266,230.2,247.2 F,7,234666,235266,0.8,0
Sprite,Foreground,Centre,"sb/f/lastSection/ja\0063.png",131.1,0 S,0,228645,,0.3 C,0,228645,,45,45,45 F,7,228645,229245,0,0.8 MY,7,228645,229245,207.45,224.45 MY,0,229245,234138,224.45,232.45 MY,7,234138,234738,232.45,249.45 F,7,234138,234738,0.8,0
Sprite,Foreground,Centre,"sb/f/lastSection/ja\0061.png",140.55,0 S,0,228678,,0.3 C,0,228678,,45,45,45 F,7,228678,229278,0,0.8 MY,7,228678,229278,207.45,224.45 MY,0,229278,234171,224.45,232.45 MY,7,234171,234771,232.45,249.45 F,7,234171,234771,0.8,0
Sprite,Foreground,Centre,"sb/f/lastSection/ja\0070.png",149.7,0 S,0,228711,,0.3 C,0,228711,,45,45,45 F,7,228711,229311,0,0.8 MY,7,228711,229311,208.65,225.65 MY,0,229311,234204,225.65,233.65 MY,7,234204,234804,233.65,250.65 F,7,234204,234804,0.8,0
Sprite,Foreground,Centre,"sb/f/lastSection/ja\0074.png",158.4,0 S,0,228744,,0.3 C,0,228744,,45,45,45 F,7,228744,229344,0,0.8 MY,7,228744,229344,205.95,222.95 MY,0,229344,234237,222.95,230.95 MY,7,234237,234837,230.95,247.95 F,7,234237,234837,0.8,0
Sprite,Foreground,Centre,"sb/f/lastSection/ja\0069.png",164.85,0 S,0,228777,,0.3 C,0,228777,,45,45,45 F,7,228777,229377,0,0.8 MY,7,228777,229377,205.2,222.2 MY,0,229377,234270,222.2,230.2 MY,7,234270,234870,230.2,247.2 F,7,234270,234870,0.8,0
Sprite,Foreground,Centre,"sb/f/lastSection/ja\006e.png",172.5,0 S,0,228810,,0.3 C,0,228810,,45,45,45 F,7,228810,229410,0,0.8 MY,7,228810,229410,207.3,224.3 MY,0,229410,234303,224.3,232.3 MY,7,234303,234903,232.3,249.3 F,7,234303,234903,0.8,0
Sprite,Foreground,Centre,"sb/f/lastSection/ja\0031.png",182.7,0 S,0,228843,,0.3 C,0,228843,,45,45,45 F,7,228843,229443,0,0.8 MY,7,228843,229443,205.05,222.05 MY,0,229443,234336,222.05,230.05 MY,7,234336,234936,230.05,247.05 F,7,234336,234936,0.8,0
Sprite,Foreground,Centre,"sb/f/lastSection/ja\002f.png",192.75,0 S,0,228876,,0.3 C,0,228876,,45,45,45 F,7,228876,229476,0,0.8 MY,7,228876,229476,205.2,222.2 MY,0,229476,234369,222.2,230.2 MY,7,234369,234969,230.2,247.2 F,7,234369,234969,0.8,0
Sprite,Foreground,Centre,"sb/f/lastSection/ja\004e.png",204.6,0 S,0,228909,,0.3 C,0,228909,,45,45,45 F,7,228909,229509,0,0.8 MY,7,228909,229509,205.2,222.2 MY,0,229509,234402,222.2,230.2 MY,7,234402,235002,230.2,247.2 F,7,234402,235002,0.8,0
Sprite,Foreground,Centre,"sb/f/lastSection/ja\0061.png",216.45,0 S,0,228942,,0.3 C,0,228942,,45,45,45 F,7,228942,229542,0,0.8 MY,7,228942,229542,207.45,224.45 MY,0,229542,234435,224.45,232.45 MY,7,234435,235035,232.45,249.45 F,7,234435,235035,0.8,0
Sprite,Foreground,Centre,"sb/f/lastSection/ja\0074.png",224.1,0 S,0,228975,,0.3 C,0,228975,,45,45,45 F,7,228975,229575,0,0.8 MY,7,228975,229575,205.95,222.95 MY,0,229575,234468,222.95,230.95 MY,7,234468,235068,230.95,247.95 F,7,234468,235068,0.8,0
Sprite,Foreground,Centre,"sb/f/lastSection/ja\0068.png",232.95,0 S,0,229008,,0.3 C,0,229008,,45,45,45 F,7,229008,229608,0,0.8 MY,7,229008,229608,204.9,221.9 MY,0,229608,234501,221.9,229.9 MY,7,234501,235101,229.9,246.9 F,7,234501,235101,0.8,0
Sprite,Foreground,Centre,"sb/f/lastSection/ja\0061.png",243.15,0 S,0,229041,,0.3 C,0,229041,,45,45,45 F,7,229041,229641,0,0.8 MY,7,229041,229641,207.45,224.45 MY,0,229641,234534,224.45,232.45 MY,7,234534,235134,232.45,249.45 F,7,234534,235134,0.8,0
Sprite,Foreground,Centre,"sb/f/lastSection/ja\006e.png",252.6,0 S,0,229074,,0.3 C,0,229074,,45,45,45 F,7,229074,229674,0,0.8 MY,7,229074,229674,207.3,224.3 MY,0,229674,234567,224.3,232.3 MY,7,234567,235167,232.3,249.3 F,7,234567,235167,0.8,0
Sprite,Foreground,Centre,"sb/f/lastSection/ja\0042.png",-27.45001,0 S,0,228645,,0.3 F,7,228645,229245,0,0.8 MY,7,228645,229245,203.2,220.2 MY,0,229245,234138,220.2,228.2 MY,7,234138,234738,228.2,245.2 F,7,234138,234738,0.8,0
Sprite,Foreground,Centre,"sb/f/lastSection/ja\0065.png",-16.2,0 S,0,228678,,0.3 F,7,228678,229278,0,0.8 MY,7,228678,229278,205.45,222.45 MY,0,229278,234171,222.45,230.45 MY,7,234171,234771,230.45,247.45 F,7,234171,234771,0.8,0
Sprite,Foreground,Centre,"sb/f/lastSection/ja\0061.png",-6.450005,0 S,0,228711,,0.3 F,7,228711,229311,0,0.8 MY,7,228711,229311,205.45,222.45 MY,0,229311,234204,222.45,230.45 MY,7,234204,234804,230.45,247.45 F,7,234204,234804,0.8,0
Sprite,Foreground,Centre,"sb/f/lastSection/ja\0074.png",1.199995,0 S,0,228744,,0.3 F,7,228744,229344,0,0.8 MY,7,228744,229344,203.95,220.95 MY,0,229344,234237,220.95,228.95 MY,7,234237,234837,228.95,245.95 F,7,234237,234837,0.8,0
Sprite,Foreground,Centre,"sb/f/lastSection/ja\006d.png",12.15,0 S,0,228777,,0.3 F,7,228777,229377,0,0.8 MY,7,228777,229377,205.3,222.3 MY,0,229377,234270,222.3,230.3 MY,7,234270,234870,230.3,247.3 F,7,234270,234870,0.8,0
Sprite,Foreground,Centre,"sb/f/lastSection/ja\0061.png",24.15,0 S,0,228810,,0.3 F,7,228810,229410,0,0.8 MY,7,228810,229410,205.45,222.45 MY,0,229410,234303,222.45,230.45 MY,7,234303,234903,230.45,247.45 F,7,234303,234903,0.8,0
Sprite,Foreground,Centre,"sb/f/lastSection/ja\0070.png",33.3,0 S,0,228843,,0.3 F,7,228843,229443,0,0.8 MY,7,228843,229443,206.65,223.65 MY,0,229443,234336,223.65,231.65 MY,7,234336,234936,231.65,248.65 F,7,234336,234936,0.8,0
Sprite,Foreground,Centre,"sb/f/lastSection/ja\003a.png",41.7,0 S,0,228876,,0.3 F,7,228876,229476,0,0.8 MY,7,228876,229476,205.3,222.3 MY,0,229476,234369,222.3,230.3 MY,7,234369,234969,230.3,247.3 F,7,234369,234969,0.8,0
Sprite,Foreground,Centre,"sb/f/lastSection/ja\0053.png",56.39999,0 S,0,228942,,0.3 F,7,228942,229542,0,0.8 MY,7,228942,229542,203.2,220.2 MY,0,229542,234435,220.2,228.2 MY,7,234435,235035,228.2,245.2 F,7,234435,235035,0.8,0
Sprite,Foreground,Centre,"sb/f/lastSection/ja\006b.png",66.45,0 S,0,228975,,0.3 F,7,228975,229575,0,0.8 MY,7,228975,229575,202.9,219.9 MY,0,229575,234468,219.9,227.9 MY,7,234468,235068,227.9,244.9 F,7,234468,235068,0.8,0
Sprite,Foreground,Centre,"sb/f/lastSection/ja\0079.png",76.2,0 S,0,229008,,0.3 F,7,229008,229608,0,0.8 MY,7,229008,229608,206.95,223.95 MY,0,229608,234501,223.95,231.95 MY,7,234501,235101,231.95,248.95 F,7,234501,235101,0.8,0
Sprite,Foreground,Centre,"sb/f/lastSection/ja\0073.png",85.05,0 S,0,229041,,0.3 F,7,229041,229641,0,0.8 MY,7,229041,229641,205.45,222.45 MY,0,229641,234534,222.45,230.45 MY,7,234534,235134,230.45,247.45 F,7,234534,235134,0.8,0
Sprite,Foreground,Centre,"sb/f/lastSection/ja\0074.png",92.7,0 S,0,229074,,0.3 F,7,229074,229674,0,0.8 MY,7,229074,229674,203.95,220.95 MY,0,229674,234567,220.95,228.95 MY,7,234567,235167,228.95,245.95 F,7,234567,235167,0.8,0
Sprite,Foreground,Centre,"sb/f/lastSection/ja\0061.png",101.55,0 S,0,229107,,0.3 F,7,229107,229707,0,0.8 MY,7,229107,229707,205.45,222.45 MY,0,229707,234600,222.45,230.45 MY,7,234600,235200,230.45,247.45 F,7,234600,235200,0.8,0
Sprite,Foreground,Centre,"sb/f/lastSection/ja\0072.png",109.65,0 S,0,229140,,0.3 F,7,229140,229740,0,0.8 MY,7,229140,229740,205.3,222.3 MY,0,229740,234633,222.3,230.3 MY,7,234633,235233,230.3,247.3 F,7,234633,235233,0.8,0
Sprite,Foreground,Centre,"sb/f/lastSection/ja\002f.png",118.35,0 S,0,229173,,0.3 F,7,229173,229773,0,0.8 MY,7,229173,229773,203.2,220.2 MY,0,229773,234666,220.2,228.2 MY,7,234666,235266,228.2,245.2 F,7,234666,235266,0.8,0
Sprite,Foreground,Centre,"sb/f/lastSection/ja\0063.png",129.1,0 S,0,228645,,0.3 F,7,228645,229245,0,0.8 MY,7,228645,229245,205.45,222.45 MY,0,229245,234138,222.45,230.45 MY,7,234138,234738,230.45,247.45 F,7,234138,234738,0.8,0
Sprite,Foreground,Centre,"sb/f/lastSection/ja\0061.png",138.55,0 S,0,228678,,0.3 F,7,228678,229278,0,0.8 MY,7,228678,229278,205.45,222.45 MY,0,229278,234171,222.45,230.45 MY,7,234171,234771,230.45,247.45 F,7,234171,234771,0.8,0
Sprite,Foreground,Centre,"sb/f/lastSection/ja\0070.png",147.7,0 S,0,228711,,0.3 F,7,228711,229311,0,0.8 MY,7,228711,229311,206.65,223.65 MY,0,229311,234204,223.65,231.65 MY,7,234204,234804,231.65,248.65 F,7,234204,234804,0.8,0
Sprite,Foreground,Centre,"sb/f/lastSection/ja\0074.png",156.4,0 S,0,228744,,0.3 F,7,228744,229344,0,0.8 MY,7,228744,229344,203.95,220.95 MY,0,229344,234237,220.95,228.95 MY,7,234237,234837,228.95,245.95 F,7,234237,234837,0.8,0
Sprite,Foreground,Centre,"sb/f/lastSection/ja\0069.png",162.85,0 S,0,228777,,0.3 F,7,228777,229377,0,0.8 MY,7,228777,229377,203.2,220.2 MY,0,229377,234270,220.2,228.2 MY,7,234270,234870,228.2,245.2 F,7,234270,234870,0.8,0
Sprite,Foreground,Centre,"sb/f/lastSection/ja\006e.png",170.5,0 S,0,228810,,0.3 F,7,228810,229410,0,0.8 MY,7,228810,229410,205.3,222.3 MY,0,229410,234303,222.3,230.3 MY,7,234303,234903,230.3,247.3 F,7,234303,234903,0.8,0
Sprite,Foreground,Centre,"sb/f/lastSection/ja\0031.png",180.7,0 S,0,228843,,0.3 F,7,228843,229443,0,0.8 MY,7,228843,229443,203.05,220.05 MY,0,229443,234336,220.05,228.05 MY,7,234336,234936,228.05,245.05 F,7,234336,234936,0.8,0
Sprite,Foreground,Centre,"sb/f/lastSection/ja\002f.png",190.75,0 S,0,228876,,0.3 F,7,228876,229476,0,0.8 MY,7,228876,229476,203.2,220.2 MY,0,229476,234369,220.2,228.2 MY,7,234369,234969,228.2,245.2 F,7,234369,234969,0.8,0
Sprite,Foreground,Centre,"sb/f/lastSection/ja\004e.png",202.6,0 S,0,228909,,0.3 F,7,228909,229509,0,0.8 MY,7,228909,229509,203.2,220.2 MY,0,229509,234402,220.2,228.2 MY,7,234402,235002,228.2,245.2 F,7,234402,235002,0.8,0
Sprite,Foreground,Centre,"sb/f/lastSection/ja\0061.png",214.45,0 S,0,228942,,0.3 F,7,228942,229542,0,0.8 MY,7,228942,229542,205.45,222.45 MY,0,229542,234435,222.45,230.45 MY,7,234435,235035,230.45,247.45 F,7,234435,235035,0.8,0
Sprite,Foreground,Centre,"sb/f/lastSection/ja\0074.png",222.1,0 S,0,228975,,0.3 F,7,228975,229575,0,0.8 MY,7,228975,229575,203.95,220.95 MY,0,229575,234468,220.95,228.95 MY,7,234468,235068,228.95,245.95 F,7,234468,235068,0.8,0
Sprite,Foreground,Centre,"sb/f/lastSection/ja\0068.png",230.95,0 S,0,229008,,0.3 F,7,229008,229608,0,0.8 MY,7,229008,229608,202.9,219.9 MY,0,229608,234501,219.9,227.9 MY,7,234501,235101,227.9,244.9 F,7,234501,235101,0.8,0
Sprite,Foreground,Centre,"sb/f/lastSection/ja\0061.png",241.15,0 S,0,229041,,0.3 F,7,229041,229641,0,0.8 MY,7,229041,229641,205.45,222.45 MY,0,229641,234534,222.45,230.45 MY,7,234534,235134,230.45,247.45 F,7,234534,235134,0.8,0
Sprite,Foreground,Centre,"sb/f/lastSection/ja\006e.png",250.6,0 S,0,229074,,0.3 F,7,229074,229674,0,0.8 MY,7,229074,229674,205.3,222.3 MY,0,229674,234567,222.3,230.3 MY,7,234567,235167,230.3,247.3 F,7,234567,235167,0.8,0
Sprite,Foreground,Centre,"sb/block.jpg",326,402 V,0,235503,,0.5,30 F,2,235503,236103,0.4,0 P,0,235503,236103,A
Sprite,Foreground,Centre,"sb/block.jpg",334,397 V,0,235610,,0.5,30 F,2,235610,236210,0.4,0 P,0,235610,236210,A
Sprite,Foreground,Centre,"sb/block.jpg",343,400 V,0,235717,,0.5,30 F,2,235717,236317,0.4,0 P,0,235717,236317,A
Sprite,Foreground,Centre,"sb/block.jpg",353,400 V,0,235824,,0.5,30 F,2,235824,236424,0.4,0 P,0,235824,236424,A
Sprite,Foreground,Centre,"sb/block.jpg",357,391 V,0,235931,,0.5,30 F,2,235931,236531,0.4,0 P,0,235931,236531,A
Sprite,Foreground,Centre,"sb/block.jpg",368,397 V,0,236038,,0.5,30 F,2,236038,236638,0.4,0 P,0,236038,236638,A
Sprite,Foreground,Centre,"sb/block.jpg",378,398 V,0,236146,,0.5,30 F,2,236146,236746,0.4,0 P,0,236146,236746,A
Sprite,Foreground,Centre,"sb/block.jpg",388,391 V,0,236253,,0.5,30 F,2,236253,236853,0.4,0 P,0,236253,236853,A
Sprite,Foreground,Centre,"sb/block.jpg",398,396 V,0,236360,,0.5,30 F,2,236360,236960,0.4,0 P,0,236360,236960,A
Sprite,Foreground,Centre,"sb/block.jpg",499,294 V,0,236574,,0.5,30 F,2,236574,237174,0.4,0 P,0,236574,237174,A
Sprite,Foreground,Centre,"sb/block.jpg",489,296 V,0,236681,,0.5,30 F,2,236681,237281,0.4,0 P,0,236681,237281,A
//Storyboard Sound Samples
Sample,122360,0,"storyboarded_hs/G#6.wav",90
Sample,127074,0,"storyboarded_hs/C7.wav",70
Sample,136074,0,"storyboarded_hs/G#6.wav",90
Sample,140896,0,"storyboarded_hs/C7.wav",66
Sample,190931,0,"storyboarded_hs/G#6.wav",90
Sample,195646,0,"storyboarded_hs/C7.wav",76
Sample,204646,0,"storyboarded_hs/G#6.wav",90
Sample,209360,0,"storyboarded_hs/C7.wav",76

[TimingPoints]
646,428.571428571429,4,2,3,28,1,0
646,-217.391304347826,4,2,3,28,0,0
7503,-90.0900900900901,4,1,2,70,0,0
7824,-312.5,4,1,2,70,0,0
8146,-69.9300699300699,4,1,2,70,0,0
8467,-128.205128205128,4,1,2,70,0,0
9217,-81.3008130081301,4,1,2,70,0,0
9538,-312.5,4,1,2,70,0,0
9860,-100,4,1,2,70,0,0
10181,-128.205128205128,4,1,2,70,0,0
10610,-100,4,1,2,70,0,0
10931,-90.0900900900901,4,1,2,70,0,0
11252,-312.5,4,1,2,70,0,0
11574,-69.9300699300699,4,1,2,70,0,0
11895,-128.205128205128,4,1,2,70,0,0
12645,-81.3008130081301,4,1,2,70,0,0
13609,-128.205128205128,4,1,2,70,0,0
13717,-128.205128205128,4,1,2,60,0,0
13931,-128.205128205128,4,1,2,75,0,0
14038,-100,4,1,2,75,0,0
14146,-100,4,1,2,90,0,0
14360,-100,4,1,2,70,0,0
14467,-100,4,2,3,50,0,0
29360,-588.235294117647,4,2,4,50,0,0
29788,-83.3333333333333,4,2,24,70,0,0
30217,-111.111111111111,4,2,24,70,0,0
30431,-71.4285714285714,4,2,24,70,0,0
30753,-71.4285714285714,4,2,4,70,0,0
31074,-71.4285714285714,4,2,34,70,0,0
31181,-71.4285714285714,4,2,36,70,0,0
31288,-71.4285714285714,4,2,37,70,0,0
31396,-71.4285714285714,4,2,34,70,0,0
31503,-83.3333333333333,4,2,26,70,0,0
31931,-111.111111111111,4,2,4,70,0,0
32146,-71.4285714285714,4,2,22,70,0,0
32467,-71.4285714285714,4,2,41,80,0,0
32574,-71.4285714285714,4,2,42,80,0,0
32681,-71.4285714285714,4,2,43,80,0,0
32788,-71.4285714285714,4,2,36,70,0,0
32896,-111.111111111111,4,2,37,70,0,0
33003,-111.111111111111,4,2,38,55,0,0
33110,-111.111111111111,4,2,36,70,0,0
33217,-83.3333333333333,4,2,37,70,0,0
33646,-111.111111111111,4,2,4,70,0,0
33860,-71.4285714285714,4,2,4,70,0,0
34503,-71.4285714285714,4,2,37,80,0,0
34610,-71.4285714285714,4,2,36,80,0,0
34717,-71.4285714285714,4,2,38,70,0,0
34824,-71.4285714285714,4,2,37,70,0,0
34931,-83.3333333333333,4,2,36,70,0,0
35360,-111.111111111111,4,2,4,70,0,0
35574,-71.4285714285714,4,2,50,70,0,0
35896,-71.4285714285714,4,2,37,70,0,0
36003,-71.4285714285714,4,2,32,55,0,0
36110,-71.4285714285714,4,2,32,70,0,0
36217,-71.4285714285714,4,2,32,85,0,0
36324,-71.4285714285714,4,2,34,80,0,0
36431,-71.4285714285714,4,2,32,70,0,0
36538,-71.4285714285714,4,2,30,70,0,0
36646,-83.3333333333333,4,2,37,70,0,0
36967,-83.3333333333333,4,2,36,70,0,0
37074,-111.111111111111,4,2,37,70,0,0
37288,-71.4285714285714,4,2,27,70,0,0
37931,-71.4285714285714,4,2,36,70,0,0
38038,-71.4285714285714,4,2,27,70,0,0
38360,-83.3333333333333,4,2,39,70,0,0
38574,-83.3333333333333,4,2,37,70,0,0
38681,-83.3333333333333,4,2,36,70,0,0
38788,-111.111111111111,4,2,52,70,0,0
39003,-71.4285714285714,4,2,28,70,0,0
39324,-100,4,2,4,70,0,0
39431,-100,4,2,55,85,0,0
39646,-83.3333333333333,4,2,28,85,0,0
39860,-71.4285714285714,4,2,27,85,0,0
40074,-71.4285714285714,4,2,26,85,0,0
40288,-71.4285714285714,4,2,56,85,0,0
40396,-100,4,2,4,85,0,0
40503,-100,4,2,32,85,0,0
40717,-100,4,2,57,85,0,0
40824,-71.4285714285714,4,2,4,85,0,0
41146,-100,4,2,58,85,0,0
41360,-100,4,2,34,85,0,0
41467,-100,4,2,64,85,0,0
41574,-100,4,2,32,85,0,0
41681,-100,4,2,34,85,0,0
41788,-71.4285714285714,4,2,59,85,0,0
42110,-71.4285714285714,4,2,32,85,0,0
42217,-71.4285714285714,4,2,60,85,0,0
42431,-71.4285714285714,4,2,61,85,0,0
43503,-71.4285714285714,4,3,26,89,0,0
43610,-71.4285714285714,4,3,2,5,0,0
44574,-71.4285714285714,4,3,24,89,0,0
45217,-71.4285714285714,4,3,58,89,0,0
46074,-71.4285714285714,4,3,41,89,0,0
46181,-71.4285714285714,4,3,42,89,0,0
46288,-71.4285714285714,4,3,62,89,0,0
46503,-71.4285714285714,4,3,63,89,0,0
46610,-71.4285714285714,4,3,26,89,0,0
46931,-100,4,3,22,89,0,0
47574,-100,4,3,41,75,0,0
47646,-100,4,3,42,75,0,0
47717,-100,4,3,43,75,0,0
47788,-100,4,3,41,75,0,0
47860,-100,4,3,42,75,0,0
48217,-500,4,3,2,89,0,0
48646,-125,4,3,61,89,0,0
49503,-125,4,3,61,75,0,0
49610,-125,4,3,61,40,0,0
49717,-125,4,3,61,55,0,0
49931,-125,4,3,2,45,0,0
50038,-125,4,3,2,50,0,0
50146,-125,4,3,2,55,0,0
50253,-125,4,3,2,60,0,0
50360,-83.3333333333333,4,2,4,70,0,0
50788,-100,4,2,4,70,0,0
51003,-83.3333333333333,4,2,4,70,0,0
52503,-100,4,2,4,70,0,0
52717,-83.3333333333333,4,2,4,70,0,0
53360,-71.4285714285714,4,2,4,70,0,0
53681,-71.4285714285714,4,2,4,45,0,0
53788,-71.4285714285714,4,2,4,75,0,0
53896,-71.4285714285714,4,2,4,45,0,0
54003,-71.4285714285714,4,2,4,55,0,0
54110,-71.4285714285714,4,2,4,65,0,0
54217,-71.4285714285714,4,2,4,75,0,0
54324,-71.4285714285714,4,2,4,55,0,0
54431,-100,4,2,4,55,0,0
54753,-100,4,2,4,75,0,0
54860,-100,4,2,4,45,0,0
55074,-100,4,2,4,75,0,0
55288,-100,4,2,4,55,0,0
55396,-100,4,2,4,45,0,0
55503,-100,4,2,4,35,0,0
56896,-100,4,2,0,5,0,0
57003,-303.030303030303,4,2,10,45,0,0
57110,-303.030303030303,4,2,0,5,0,0
57217,-60.2409638554217,4,2,68,80,0,1
57646,-64.5161290322581,4,2,70,80,0,1
58503,-60.2409638554217,4,2,70,80,0,1
58717,-60.2409638554217,4,2,70,80,0,1
58931,-60.2409638554217,4,2,72,80,0,1
59253,-60.2409638554217,4,2,70,80,0,1
59574,-78.7401574803149,4,2,70,80,0,1
59788,-78.7401574803149,4,2,70,80,0,1
59896,-72.463768115942,4,2,70,80,0,1
60217,-72.463768115942,4,2,70,80,0,1
60324,-90.9090909090909,4,2,70,80,0,1
60538,-90.9090909090909,4,2,70,60,0,1
60646,-68.0272108843537,4,2,78,80,0,1
60967,-68.0272108843537,4,2,70,80,0,1
61288,-68.0272108843537,4,2,103,80,0,1
61610,-81.9672131147541,4,2,70,80,0,1
61717,-81.9672131147541,4,2,70,80,0,1
61931,-81.9672131147541,4,2,70,80,0,1
62360,-68.0272108843537,4,2,80,80,0,1
62574,-68.0272108843537,4,2,70,80,0,1
63003,-86.2068965517241,4,2,70,80,0,1
63217,-86.2068965517241,4,2,17,80,0,1
63324,-86.2068965517241,4,2,70,80,0,1
63646,-86.2068965517241,4,2,18,80,0,1
63753,-86.2068965517241,4,2,70,80,0,1
63860,-303.030303030303,4,2,70,55,0,1
63967,-303.030303030303,4,2,0,5,0,1
64074,-60.2409638554217,4,2,66,80,0,1
64503,-64.5161290322581,4,2,70,80,0,1
64931,-64.5161290322581,4,2,70,80,0,1
65253,-303.030303030303,4,2,70,80,0,1
65360,-64.5161290322581,4,2,70,80,0,1
65788,-60.2409638554217,4,2,85,80,0,1
66217,-60.2409638554217,4,2,70,80,0,1
66431,-78.7401574803149,4,2,70,80,0,1
66646,-78.7401574803149,4,2,19,80,0,1
66753,-72.463768115942,4,2,70,80,0,1
67181,-90.9090909090909,4,2,70,80,0,1
67503,-68.0272108843537,4,2,90,80,0,1
67931,-60.2409638554217,4,2,70,80,0,1
68146,-75.187969924812,4,2,70,80,0,1
68360,-55.5555555555556,4,2,70,80,0,1
69217,-55.5555555555556,4,2,76,80,0,1
69324,-60.2409638554217,4,2,70,80,0,1
70074,-60.2409638554217,4,2,79,80,0,1
70181,-60.2409638554217,4,2,70,80,0,1
70931,-60.2409638554217,4,2,68,80,0,1
71360,-64.5161290322581,4,2,70,80,0,1
72217,-60.2409638554217,4,2,70,80,0,1
72646,-60.2409638554217,4,2,72,80,0,1
72967,-60.2409638554217,4,2,70,80,0,1
73288,-78.7401574803149,4,2,70,80,0,1
73610,-72.463768115942,4,2,70,80,0,1
74038,-90.9090909090909,4,2,70,80,0,1
74360,-68.0272108843537,4,2,78,80,0,1
74574,-68.0272108843537,4,2,70,80,0,1
75003,-68.0272108843537,4,2,103,80,0,1
75324,-81.9672131147541,4,2,70,80,0,1
76074,-68.0272108843537,4,2,80,80,0,1
76288,-68.0272108843537,4,2,70,80,0,1
76717,-78.125,4,2,70,80,0,1
76931,-78.125,4,2,17,80,0,1
77038,-78.125,4,2,70,80,0,1
77360,-78.125,4,2,18,80,0,1
77467,-78.125,4,2,70,80,0,1
77574,-303.030303030303,4,2,70,55,0,1
77681,-303.030303030303,4,2,0,5,0,1
77788,-60.2409638554217,4,2,92,80,0,1
78217,-56.4971751412429,4,2,70,80,0,1
78645,-64.5161290322581,4,2,70,80,0,1
78967,-303.030303030303,4,2,70,80,0,1
79074,-56.4971751412429,4,2,70,80,0,1
79502,-53.1914893617021,4,2,94,80,0,1
79717,-53.1914893617021,4,2,70,80,0,1
80145,-50.251256281407,4,2,70,80,0,1
80467,-72.463768115942,4,2,70,80,0,1
80895,-90.9090909090909,4,2,70,80,0,1
81217,-68.0272108843537,4,2,97,80,0,1
81645,-60.2409638554217,4,2,70,80,0,1
81860,-75.187969924812,4,2,70,80,0,1
82074,-55.5555555555556,4,2,70,80,0,1
82717,-303.030303030303,4,2,70,55,0,1
82824,-303.030303030303,4,2,0,5,0,1
82931,-60.2409638554217,4,2,98,80,0,1
83360,-85.4700854700855,4,2,70,80,0,1
84217,-85.4700854700855,4,2,21,80,0,1
84324,-85.4700854700855,4,2,70,60,0,1
84431,-85.4700854700855,4,2,70,80,0,1
84538,-85.4700854700855,4,2,70,60,0,1
84646,-85.4700854700855,4,2,67,80,0,1
84753,-85.4700854700855,4,2,70,60,0,1
84860,-85.4700854700855,4,2,70,75,0,1
84967,-85.4700854700855,4,2,70,85,0,1
85074,-85.4700854700855,4,2,70,90,0,1
85181,-85.4700854700855,4,2,70,60,0,1
85288,-85.4700854700855,4,2,70,90,0,1
85396,-85.4700854700855,4,2,70,60,0,1
85503,-85.4700854700855,4,2,70,90,0,1
85610,-85.4700854700855,4,2,70,80,0,1
85717,-85.4700854700855,4,2,70,70,0,1
85931,-85.4700854700855,4,2,70,80,0,1
86038,-85.4700854700855,4,2,70,60,0,1
86146,-85.4700854700855,4,2,70,70,0,1
86253,-85.4700854700855,4,2,70,80,0,1
86360,-303.030303030303,4,2,99,80,0,0
87003,-303.030303030303,4,2,3,80,0,0
87110,-303.030303030303,4,2,3,5,0,0
87217,-303.030303030303,4,2,3,80,0,0
87324,-303.030303030303,4,2,3,5,0,0
87431,-303.030303030303,4,2,3,80,0,0
87538,-303.030303030303,4,2,3,5,0,0
87646,-303.030303030303,4,2,3,80,0,0
87753,-303.030303030303,4,2,3,5,0,0
87860,-303.030303030303,4,2,3,80,0,0
87967,-303.030303030303,4,2,3,5,0,0
88074,-83.3333333333333,4,1,2,70,0,0
88503,-500,4,1,2,70,0,0
88717,-62.5,4,1,2,70,0,0
89146,-100,4,1,2,70,0,0
89788,-76.9230769230769,4,1,2,70,0,0
90217,-333.333333333333,4,1,2,70,0,0
90431,-100,4,1,2,70,0,0
91181,-76.9230769230769,4,1,2,70,0,0
91503,-100,4,1,2,70,0,0
91931,-500,4,1,2,70,0,0
92146,-71.4285714285714,4,1,2,70,0,0
92467,-100,4,1,2,70,0,0
93217,-76.9230769230769,4,1,2,70,0,0
93538,-250,4,1,2,70,0,0
93860,-100,4,1,2,70,0,0
94181,-100,4,1,2,50,0,0
94503,-100,4,1,2,70,0,0
94931,-85.4700854700855,4,2,24,70,0,0
95360,-114.942528735632,4,2,4,70,0,0
95574,-70.4225352112676,4,2,24,70,0,0
96217,-70.4225352112676,4,2,34,70,0,0
96324,-70.4225352112676,4,2,36,70,0,0
96431,-70.4225352112676,4,2,37,80,0,0
96538,-70.4225352112676,4,2,34,85,0,0
96646,-81.3008130081301,4,2,36,70,0,0
97074,-114.942528735632,4,2,4,70,0,0
97288,-69.9300699300699,4,2,22,70,0,0
97610,-69.9300699300699,4,2,41,80,0,0
97717,-69.9300699300699,4,2,42,80,0,0
97824,-69.9300699300699,4,2,43,80,0,0
97931,-69.9300699300699,4,2,36,70,0,0
98038,-69.9300699300699,4,2,37,70,0,0
98146,-107.52688172043,4,2,38,70,0,0
98253,-107.52688172043,4,2,36,70,0,0
98360,-81.3008130081301,4,2,37,70,0,0
98788,-81.3008130081301,4,2,4,70,0,0
99003,-71.4285714285714,4,2,4,70,0,0
99646,-71.4285714285714,4,2,37,80,0,0
99753,-71.4285714285714,4,2,36,80,0,0
99860,-71.4285714285714,4,2,38,70,0,0
99967,-71.4285714285714,4,2,37,70,0,0
100074,-85.4700854700855,4,2,36,70,0,0
100503,-114.942528735632,4,2,4,70,0,0
100717,-72.463768115942,4,2,50,70,0,0
101038,-72.463768115942,4,2,37,70,0,0
101146,-72.463768115942,4,2,32,70,0,0
101253,-72.463768115942,4,2,32,70,0,0
101360,-72.463768115942,4,2,32,70,0,0
101467,-72.463768115942,4,2,34,70,0,0
101574,-72.463768115942,4,2,32,70,0,0
101681,-72.463768115942,4,2,30,70,0,0
101788,-72.463768115942,4,2,37,70,0,0
102110,-81.3008130081301,4,2,36,70,0,0
102217,-114.942528735632,4,2,37,70,0,0
102431,-70.9219858156028,4,2,27,70,0,0
102860,-89.2857142857143,4,2,4,70,0,0
103074,-70.9219858156028,4,2,36,80,0,0
103288,-70.9219858156028,4,2,27,80,0,0
103503,-85.4700854700855,4,2,39,85,0,0
103717,-85.4700854700855,4,2,37,85,0,0
103824,-85.4700854700855,4,2,36,85,0,0
103931,-114.942528735632,4,2,52,85,0,0
104146,-73.5294117647059,4,2,28,85,0,0
104467,-95.2380952380952,4,2,4,70,0,0
104574,-95.2380952380952,4,2,55,85,0,0
104788,-83.3333333333333,4,2,28,85,0,0
105003,-74.0740740740741,4,2,27,85,0,0
105217,-74.0740740740741,4,2,26,85,0,0
105431,-74.0740740740741,4,2,56,85,0,0
105646,-95.2380952380952,4,2,32,85,0,0
105860,-95.2380952380952,4,2,57,50,0,0
105967,-73.5294117647059,4,2,4,85,0,0
106288,-105.263157894737,4,2,58,85,0,0
106503,-105.263157894737,4,2,34,85,0,0
106610,-105.263157894737,4,2,64,85,0,0
106717,-105.263157894737,4,2,32,45,0,0
106824,-105.263157894737,4,2,34,60,0,0
106931,-73.5294117647059,4,2,59,85,0,0
107253,-73.5294117647059,4,2,32,85,0,0
107360,-73.5294117647059,4,2,60,85,0,0
107574,-73.5294117647059,4,2,61,85,0,0
108110,-73.5294117647059,4,2,4,50,0,0
108217,-73.5294117647059,4,2,4,85,0,0
108646,-73.5294117647059,4,3,26,85,0,0
108860,-73.5294117647059,4,3,2,5,0,0
109717,-73.5294117647059,4,3,24,85,0,0
110360,-73.5294117647059,4,3,58,85,0,0
111217,-73.5294117647059,4,3,42,85,0,0
111324,-73.5294117647059,4,3,43,85,0,0
111431,-73.5294117647059,4,3,62,85,0,0
111646,-73.5294117647059,4,3,63,85,0,0
111753,-73.5294117647059,4,3,26,85,0,0
112074,-105.263157894737,4,3,22,85,0,0
112396,-105.263157894737,4,3,2,5,0,0
112824,-105.263157894737,4,3,41,85,0,0
112931,-294.117647058824,4,3,43,85,0,0
113146,-105.263157894737,4,3,58,85,0,0
113360,-75.187969924812,4,3,43,85,0,0
113467,-75.187969924812,4,3,22,85,0,0
113788,-113.636363636364,4,3,61,85,0,0
114431,-113.636363636364,4,3,2,45,0,0
114646,-113.636363636364,4,3,2,65,0,0
115074,-113.636363636364,4,3,2,45,0,0
115181,-113.636363636364,4,3,2,50,0,0
115289,-113.636363636364,4,3,2,55,0,0
115396,-113.636363636364,4,3,2,60,0,0
115503,-80.6451612903226,4,2,4,70,0,0
115931,-108.695652173913,4,2,4,70,0,0
116146,-80.6451612903226,4,2,4,70,0,0
117646,-108.695652173913,4,2,4,70,0,0
117860,-80.6451612903226,4,2,4,70,0,0
118396,-80.6451612903226,4,2,4,55,0,0
118503,-65.359477124183,4,2,4,70,0,0
118931,-65.359477124183,4,2,4,45,0,0
119360,-65.359477124183,4,2,4,70,0,0
119467,-65.359477124183,4,2,4,45,0,0
119574,-108.695652173913,4,2,4,45,0,0
119896,-108.695652173913,4,2,4,75,0,0
120003,-108.695652173913,4,2,4,45,0,0
120217,-108.695652173913,4,2,4,85,0,0
120324,-108.695652173913,4,2,4,75,0,0
120431,-108.695652173913,4,2,4,60,0,0
121610,-108.695652173913,4,2,0,5,0,0
121717,-222.222222222222,4,3,2,70,0,0
122146,-303.030303030303,4,2,70,35,0,0
122253,-303.030303030303,4,2,0,5,0,0
122360,-50,4,2,68,80,0,1
122788,-66.6666666666667,4,2,70,80,0,1
123217,-76.9230769230769,4,2,70,80,0,1
123646,-55.5555555555556,4,2,70,80,0,1
123860,-55.5555555555556,4,2,71,80,0,1
124074,-58.8235294117647,4,2,72,80,0,1
124396,-58.8235294117647,4,2,73,80,0,1
124503,-58.8235294117647,4,2,70,80,0,1
124717,-76.9230769230769,4,2,74,80,0,1
124931,-76.9230769230769,4,2,71,80,0,1
125038,-71.4285714285714,4,2,75,80,0,1
125146,-71.4285714285714,4,2,70,80,0,1
125360,-71.4285714285714,4,2,102,80,0,1
125467,-100,4,2,77,80,0,1
125681,-100,4,2,77,60,0,1
125788,-76.9230769230769,4,2,78,80,0,1
126110,-66.6666666666667,4,2,75,80,0,1
126431,-66.6666666666667,4,2,79,80,0,1
126860,-71.4285714285714,4,2,74,80,0,1
127074,-71.4285714285714,4,2,70,80,0,1
127503,-66.6666666666667,4,2,80,80,0,1
127931,-66.6666666666667,4,2,70,80,0,1
128146,-83.3333333333333,4,2,70,80,0,1
128360,-83.3333333333333,4,2,70,80,0,1
128788,-83.3333333333333,4,2,70,80,0,1
129003,-333.333333333333,4,2,74,55,0,1
129110,-333.333333333333,4,2,0,5,0,1
129217,-37.037037037037,4,2,72,80,0,1
129538,-37.037037037037,4,2,81,80,0,1
129646,-55.5555555555556,4,2,101,80,0,1
129967,-55.5555555555556,4,2,82,80,0,1
130074,-55.5555555555556,4,2,72,80,0,1
130396,-100,4,2,83,80,0,1
130503,-66.6666666666667,4,2,84,80,0,1
130931,-50,4,2,85,80,0,1
131253,-50,4,2,86,80,0,1
131360,-50,4,2,82,80,0,1
131467,-50,4,2,87,80,0,1
131574,-76.9230769230769,4,2,88,80,0,1
131896,-71.4285714285714,4,2,70,80,0,1
132324,-90.9090909090909,4,2,89,80,0,1
132646,-66.6666666666667,4,2,90,80,0,1
132967,-66.6666666666667,4,2,89,80,0,1
133074,-58.8235294117647,4,2,70,80,0,1
133288,-76.9230769230769,4,2,91,80,0,1
133503,-76.9230769230769,4,2,89,80,0,1
133610,-76.9230769230769,4,2,91,80,0,1
133717,-76.9230769230769,4,2,89,80,0,1
133931,-55.5555555555556,4,2,70,80,0,1
134360,-55.5555555555556,4,2,76,80,0,1
134467,-62.5,4,2,70,80,0,1
134681,-62.5,4,2,75,80,0,1
135003,-62.5,4,2,74,80,0,1
135110,-62.5,4,2,70,70,0,1
135217,-62.5,4,2,79,80,0,1
135324,-62.5,4,2,70,70,0,1
135431,-62.5,4,2,70,80,0,1
135646,-62.5,4,2,84,80,0,1
135753,-62.5,4,2,70,80,0,1
136074,-58.8235294117647,4,2,68,80,0,1
136503,-66.6666666666667,4,2,70,80,0,1
137360,-62.5,4,2,70,80,0,1
137574,-62.5,4,2,71,80,0,1
137788,-55.5555555555556,4,2,72,80,0,1
138110,-55.5555555555556,4,2,73,80,0,1
138217,-55.5555555555556,4,2,70,80,0,1
138431,-76.9230769230769,4,2,74,80,0,1
138646,-76.9230769230769,4,2,71,80,0,1
138753,-76.9230769230769,4,2,75,80,0,1
138860,-66.6666666666667,4,2,70,80,0,1
138967,-66.6666666666667,4,2,70,80,0,1
139074,-66.6666666666667,4,2,102,80,0,1
139181,-66.6666666666667,4,2,77,80,0,1
139503,-66.6666666666667,4,2,78,80,0,1
139824,-66.6666666666667,4,2,75,80,0,1
140146,-83.3333333333333,4,2,79,80,0,1
140574,-83.3333333333333,4,2,74,80,0,1
140788,-83.3333333333333,4,2,70,80,0,1
140896,-71.4285714285714,4,2,80,80,0,1
141217,-66.6666666666667,4,2,70,80,0,1
141646,-55.5555555555556,4,2,70,80,0,1
141860,-66.6666666666667,4,2,70,80,0,1
142717,-333.333333333333,4,2,74,55,0,1
142824,-333.333333333333,4,2,0,5,0,1
142931,-50,4,2,92,80,0,1
143253,-50,4,2,71,80,0,1
143360,-66.6666666666667,4,2,74,80,0,1
143574,-66.6666666666667,4,2,79,80,0,1
143788,-66.6666666666667,4,2,70,80,0,1
143896,-66.6666666666667,4,2,75,80,0,1
144110,-200,4,2,70,80,0,1
144217,-55.5555555555556,4,2,93,80,0,1
144646,-41.6666666666667,4,2,94,80,0,1
144860,-41.6666666666667,4,2,95,80,0,1
145074,-41.6666666666667,4,2,70,80,0,1
145288,-52.6315789473684,4,2,96,80,0,1
145610,-66.6666666666667,4,2,70,80,0,1
146038,-76.9230769230769,4,2,70,80,0,1
146360,-66.6666666666667,4,2,97,80,0,1
146788,-66.6666666666667,4,2,70,80,0,1
147003,-76.9230769230769,4,2,70,80,0,1
147431,-500,4,2,70,80,0,1
147646,-76.9230769230769,4,2,79,80,0,1
147753,-76.9230769230769,4,2,70,80,0,1
147860,-500,4,2,70,80,0,1
148074,-83.3333333333333,4,2,98,80,0,1
148288,-62.5,4,2,70,80,0,1
149146,-62.5,4,2,70,75,0,1
149253,-62.5,4,2,70,85,0,1
149360,-62.5,4,2,70,80,0,1
149467,-62.5,4,2,70,80,0,1
149788,-64.1025641025641,4,2,10,92,0,0
150217,-90.0900900900901,4,2,70,92,0,0
150431,-64.1025641025641,4,2,11,92,0,0
150860,-81.3008130081301,4,2,70,92,0,0
151074,-64.1025641025641,4,2,12,92,0,0
151503,-81.3008130081301,4,2,13,92,0,0
151931,-90.0900900900901,4,2,70,92,0,0
152146,-59.8802395209581,4,2,11,92,0,0
152574,-90.0900900900901,4,2,70,92,0,0
152788,-90.0900900900901,4,2,12,92,0,0
152896,-74.6268656716418,4,2,70,92,0,0
153217,-81.3008130081301,4,2,75,92,0,0
153860,-81.3008130081301,4,2,75,92,0,0
154181,-64.1025641025641,4,2,70,92,0,0
154288,-64.1025641025641,4,2,14,92,0,0
154503,-64.1025641025641,4,2,75,92,0,0
154610,-56.1797752808989,4,2,73,92,0,0
154931,-100,4,2,15,92,0,0
155146,-74.6268656716418,4,2,75,92,0,0
155360,-74.6268656716418,4,2,14,92,0,0
155574,-64.1025641025641,4,2,100,92,0,0
156003,-64.1025641025641,4,2,6,92,0,0
156110,-64.1025641025641,4,2,7,92,0,0
156217,-64.1025641025641,4,2,8,92,0,0
156324,-64.1025641025641,4,2,9,92,0,0
156431,-64.1025641025641,4,2,8,92,0,0
156538,-64.1025641025641,4,2,5,92,0,0
156646,-64.1025641025641,4,2,13,92,0,0
157288,-64.1025641025641,4,2,11,92,0,0
157931,-74.6268656716418,4,2,12,92,0,0
158360,-74.6268656716418,4,2,13,92,0,0
158788,-222.222222222222,4,2,70,92,0,0
159003,-68.9655172413793,4,2,11,92,0,0
159431,-64.1025641025641,4,2,70,92,0,0
159646,-178.571428571429,4,2,71,92,0,0
159753,-178.571428571429,4,2,83,92,0,0
159860,-178.571428571429,4,2,14,92,0,0
160074,-59.8802395209581,4,2,100,92,0,0
160503,-89.2857142857143,4,2,70,92,0,0
160717,-64.1025641025641,4,2,11,92,0,0
161146,-112.359550561798,4,2,70,92,0,0
161360,-112.359550561798,4,2,100,65,0,0
161467,-112.359550561798,4,2,70,65,0,0
161574,-112.359550561798,4,2,70,80,0,0
161681,-112.359550561798,4,2,70,80,0,0
161788,-112.359550561798,4,2,16,65,0,0
161896,-112.359550561798,4,2,70,65,0,0
162003,-112.359550561798,4,2,70,70,0,0
162110,-112.359550561798,4,2,70,75,0,0
162217,-112.359550561798,4,2,70,80,0,0
162324,-112.359550561798,4,2,70,75,0,0
162431,-112.359550561798,4,2,11,70,0,0
162753,-112.359550561798,4,2,70,70,0,0
162860,-112.359550561798,4,2,70,92,0,0
162967,-112.359550561798,4,2,70,70,0,0
163181,-112.359550561798,4,2,70,70,0,0
163288,-112.359550561798,4,2,70,65,0,0
163396,-112.359550561798,4,2,70,55,0,0
163503,-112.359550561798,4,2,70,45,0,0
176146,-100,4,3,2,50,0,0
176360,-66.6666666666667,4,3,2,50,0,0
176431,-66.6666666666667,4,3,2,5,0,0
176503,-66.6666666666667,4,3,2,50,0,0
176574,-66.6666666666667,4,3,2,5,0,0
176646,-66.6666666666667,4,3,2,50,0,0
176717,-66.6666666666667,4,3,2,5,0,0
176788,-66.6666666666667,4,3,2,70,0,0
176860,-66.6666666666667,4,3,2,5,0,0
176896,-66.6666666666667,4,3,2,60,0,0
177003,-66.6666666666667,4,3,2,5,0,0
177056,-66.6666666666667,4,3,2,45,0,0
177146,-66.6666666666667,4,3,2,5,0,0
177217,-303.030303030303,4,3,2,80,0,0
178074,-66.6666666666667,4,3,2,80,0,0
178931,-303.030303030303,4,3,2,80,0,0
179788,-66.6666666666667,4,3,2,80,0,0
180646,-303.030303030303,4,3,2,80,0,0
181503,-66.6666666666667,4,3,2,80,0,0
182360,-303.030303030303,4,3,2,80,0,0
183217,-50,4,3,2,80,0,0
183646,-50,4,3,2,60,0,0
183753,-50,4,3,2,65,0,0
183860,-50,4,3,2,70,0,0
183967,-50,4,3,2,75,0,0
184074,-83.3333333333333,4,2,4,90,0,0
185146,-66.6666666666667,4,2,4,80,0,0
185467,-50,4,2,4,80,0,0
185896,-66.6666666666667,4,2,4,80,0,0
186967,-55.5555555555556,4,2,4,80,0,0
187288,-50,4,2,4,80,0,0
187931,-66.6666666666667,4,2,4,80,0,0
188574,-66.6666666666667,4,2,4,65,0,0
188788,-66.6666666666667,4,2,4,80,0,0
188896,-66.6666666666667,4,2,4,75,0,0
189003,-66.6666666666667,4,2,4,65,0,0
189217,-66.6666666666667,4,2,4,80,0,0
190717,-200,4,2,4,45,0,0
190824,-200,4,2,0,5,0,0
190931,-58.8235294117647,4,2,68,80,0,1
191360,-58.8235294117647,4,2,70,80,0,1
191896,-66.6666666666667,4,2,70,80,0,1
192217,-60.2409638554217,4,2,70,80,0,1
192431,-62.5,4,2,71,80,0,1
192646,-62.5,4,2,72,80,0,1
192967,-62.5,4,2,73,80,0,1
193074,-62.5,4,2,70,80,0,1
193288,-71.4285714285714,4,2,74,80,0,1
193503,-71.4285714285714,4,2,71,80,0,1
193610,-71.4285714285714,4,2,75,80,0,1
193931,-71.4285714285714,4,2,76,80,0,1
194038,-83.3333333333333,4,2,77,80,0,1
194360,-76.9230769230769,4,2,78,80,0,1
194681,-76.9230769230769,4,2,75,80,0,1
195003,-76.9230769230769,4,2,103,80,0,1
195324,-76.9230769230769,4,2,70,80,0,1
195431,-76.9230769230769,4,2,74,80,0,1
195646,-66.6666666666667,4,2,70,80,0,1
196074,-66.6666666666667,4,2,80,80,0,1
196396,-66.6666666666667,4,2,70,80,0,1
196931,-66.6666666666667,4,2,17,80,0,1
197038,-66.6666666666667,4,2,70,80,0,1
197360,-66.6666666666667,4,2,18,80,0,1
197467,-66.6666666666667,4,2,70,80,0,1
197574,-303.030303030303,4,2,74,55,0,1
197681,-303.030303030303,4,2,0,5,0,1
197788,-55.8659217877095,4,2,66,80,0,1
198110,-55.8659217877095,4,2,81,80,0,1
198217,-60.6060606060606,4,2,101,80,0,1
198538,-60.6060606060606,4,2,82,80,0,1
198646,-60.6060606060606,4,2,72,80,0,1
198753,-60.6060606060606,4,2,70,80,0,1
198967,-60.6060606060606,4,2,83,80,0,1
199074,-47.6190476190476,4,2,84,80,0,1
199503,-58.8235294117647,4,2,85,80,0,1
199824,-58.8235294117647,4,2,86,80,0,1
199931,-58.8235294117647,4,2,82,80,0,1
200038,-58.8235294117647,4,2,87,80,0,1
200146,-75.187969924812,4,2,88,80,0,1
200360,-75.187969924812,4,2,19,80,0,1
200467,-75.187969924812,4,2,70,80,0,1
200788,-83.3333333333333,4,2,70,80,0,1
200896,-83.3333333333333,4,2,89,70,0,1
201217,-64.1025641025641,4,2,90,80,0,1
201538,-64.1025641025641,4,2,89,80,0,1
201646,-58.8235294117647,4,2,70,80,0,1
201860,-76.9230769230769,4,2,91,80,0,1
202074,-76.9230769230769,4,2,89,80,0,1
202181,-76.9230769230769,4,2,91,80,0,1
202288,-76.9230769230769,4,2,89,80,0,1
202503,-76.9230769230769,4,2,70,80,0,1
202610,-55.5555555555556,4,2,70,80,0,1
202931,-60.2409638554217,4,2,90,80,0,1
203038,-60.2409638554217,4,2,70,80,0,1
203253,-60.2409638554217,4,2,76,80,0,1
203360,-60.2409638554217,4,2,70,80,0,1
203574,-60.2409638554217,4,2,75,80,0,1
203788,-60.2409638554217,4,2,79,80,0,1
203896,-60.2409638554217,4,2,70,60,0,1
204003,-60.2409638554217,4,2,70,65,0,1
204110,-60.2409638554217,4,2,70,75,0,1
204217,-60.2409638554217,4,2,84,80,0,1
204646,-60.2409638554217,4,2,68,90,0,1
204967,-60.2409638554217,4,2,70,90,0,1
205074,-60.2409638554217,4,2,70,90,0,1
205610,-64.5161290322581,4,2,70,90,0,1
205931,-64.5161290322581,4,2,70,90,0,1
206146,-60.2409638554217,4,2,71,90,0,1
206360,-60.2409638554217,4,2,72,90,0,1
206681,-60.2409638554217,4,2,73,90,0,1
206788,-60.2409638554217,4,2,70,90,0,1
207003,-78.7401574803149,4,2,74,90,0,1
207217,-72.463768115942,4,2,71,90,0,1
207324,-72.463768115942,4,2,75,90,0,1
207646,-72.463768115942,4,2,102,90,0,1
207753,-90.9090909090909,4,2,77,90,0,1
207860,-90.9090909090909,4,2,70,90,0,1
208074,-68.0272108843537,4,2,78,90,0,1
208396,-68.0272108843537,4,2,75,90,0,1
208717,-68.0272108843537,4,2,103,95,0,1
209039,-81.9672131147541,4,2,74,90,0,1
209146,-81.9672131147541,4,2,70,90,0,1
209360,-81.9672131147541,4,2,93,90,0,1
209467,-56.1797752808989,4,2,70,90,0,1
209788,-51.8134715025907,4,2,80,90,0,1
210217,-64.9350649350649,4,2,70,90,0,1
210431,-64.9350649350649,4,2,70,90,0,1
210646,-78.125,4,2,17,90,0,1
210753,-78.125,4,2,70,90,0,1
211074,-78.125,4,2,18,90,0,1
211181,-78.125,4,2,70,90,0,1
211288,-303.030303030303,4,2,74,65,0,1
211396,-303.030303030303,4,2,0,5,0,1
211503,-56.4971751412429,4,2,92,90,0,1
211824,-56.4971751412429,4,2,71,90,0,1
211931,-53.1914893617021,4,2,74,90,0,1
212146,-53.1914893617021,4,2,79,90,0,1
212360,-60.2409638554217,4,2,70,90,0,1
212467,-60.2409638554217,4,2,75,90,0,1
212682,-303.030303030303,4,2,70,90,0,1
212788,-56.4971751412429,4,2,93,90,0,1
213217,-53.1914893617021,4,2,94,90,0,1
213431,-53.1914893617021,4,2,95,90,0,1
213538,-53.1914893617021,4,2,70,90,0,1
213860,-57.8034682080925,4,2,96,95,0,1
214182,-72.463768115942,4,2,70,90,0,1
214610,-90.9090909090909,4,2,70,90,0,1
214931,-68.0272108843537,4,2,97,90,0,1
215360,-60.2409638554217,4,2,70,90,0,1
215574,-60.2409638554217,4,2,70,90,0,1
215789,-55.5555555555556,4,2,70,90,0,1
216217,-55.5555555555556,4,2,79,90,0,1
216324,-55.5555555555556,4,2,70,90,0,1
216431,-303.030303030303,4,2,70,65,0,1
216538,-303.030303030303,4,2,0,5,0,1
216646,-105.263157894737,4,2,98,90,0,1
218038,-105.263157894737,4,2,70,90,0,1
218146,-105.263157894737,4,2,70,90,0,1
218360,-105.263157894737,4,3,93,90,0,1
218467,-105.263157894737,4,2,70,65,0,1
218574,-105.263157894737,4,2,70,75,0,1
218681,-105.263157894737,4,2,70,83,0,1
218788,-105.263157894737,4,2,70,89,0,1
218896,-105.263157894737,4,2,70,89,0,1
219003,-105.263157894737,4,2,70,89,0,1
219110,-105.263157894737,4,2,70,64,0,1
219217,-105.263157894737,4,2,70,68,0,1
219324,-105.263157894737,4,2,70,72,0,1
219431,-105.263157894737,4,2,70,76,0,1
219538,-105.263157894737,4,2,70,76,0,1
219646,-105.263157894737,4,2,84,80,0,1
219753,-105.263157894737,4,2,84,70,0,1
219860,-105.263157894737,4,2,84,60,0,1
219967,-105.263157894737,4,2,84,50,0,1
220074,-105.263157894737,4,2,99,76,0,0
220717,-303.030303030303,4,2,3,80,0,0
220824,-303.030303030303,4,2,0,5,0,0
220931,-303.030303030303,4,2,3,80,0,0
221038,-303.030303030303,4,2,0,5,0,0
221146,-303.030303030303,4,2,3,80,0,0
221253,-303.030303030303,4,2,0,5,0,0
221360,-303.030303030303,4,2,100,80,0,0
221467,-303.030303030303,4,2,100,50,0,0
221788,-69.4444444444444,4,1,2,70,0,0
222109,-312.5,4,1,2,70,0,0
222431,-57.8034682080925,4,1,2,70,0,0
222752,-128.205128205128,4,1,2,70,0,0
223502,-65.359477124183,4,1,2,70,0,0
223823,-312.5,4,1,2,70,0,0
224145,-76.9230769230769,4,1,2,70,0,0
224466,-128.205128205128,4,1,2,70,0,0
224895,-76.9230769230769,4,1,2,70,0,0
225216,-69.4444444444444,4,1,2,70,0,0
225537,-312.5,4,1,2,70,0,0
225859,-57.8034682080925,4,1,2,70,0,0
226180,-128.205128205128,4,1,2,70,0,0
226930,-65.359477124183,4,1,2,70,0,0
227253,-270.27027027027,4,1,2,70,0,0
227574,-65.359477124183,4,1,2,70,0,0
228646,-65.359477124183,4,1,44,75,0,0
228860,-65.359477124183,4,1,45,83,0,0
229074,-250,4,1,2,70,0,0
229181,-250,4,1,46,83,0,0
229288,-55.5555555555556,4,1,47,83,0,0
229717,-83.3333333333333,4,1,2,70,0,0
229931,-133.333333333333,4,1,2,70,0,0
230360,-76.9230769230769,4,1,2,70,0,0
230788,-250,4,1,2,70,0,0
231003,-66.6666666666667,4,1,2,70,0,0
231753,-55.5555555555556,4,1,2,70,0,0
232503,-250,4,1,2,70,0,0
232717,-55.5555555555556,4,1,2,70,0,0
233038,-133.333333333333,4,1,2,70,0,0
233788,-50,4,1,2,70,0,0
234110,-66.6666666666667,4,1,2,70,0,0
234431,-55.5555555555556,4,1,2,70,0,0
234753,-55.5555555555556,4,1,2,50,0,0
235074,-55.5555555555556,4,1,2,70,0,0
235503,-55.5555555555556,4,2,3,40,0,0
237003,-55.5555555555556,4,3,2,40,0,0
237217,-500,4,2,2,40,0,0
237646,-500,4,2,1,36,0,0
238074,-500,4,2,2,31,0,0
238503,-500,4,2,1,28,0,0
238931,-500,4,2,2,25,0,0
239360,-500,4,2,1,22,0,0
239788,-500,4,2,2,19,0,0
240217,-500,4,2,1,16,0,0
240646,-500,4,2,2,13,0,0
241074,-500,4,2,1,8,0,0
241503,-500,4,2,2,5,0,0

[Colours]
Combo1 : 252,78,177
Combo2 : 255,190,125
Combo3 : 188,188,188
Combo4 : 149,149,255

[HitObjects]
346,97,646,5,0,0:0:0:0:
461,253,967,1,0,0:0:0:0:
330,167,1288,1,2,0:0:0:0:
271,208,1717,5,0,0:0:0:0:
200,199,1931,2,0,L|183:220,2,18.3999993823242
153,144,2146,1,2,0:0:0:0:
156,72,2360,5,0,0:0:0:0:
21,15,2681,1,0,0:0:0:0:
207,22,3003,1,2,0:0:0:0:
279,18,3431,5,0,0:0:0:0:
334,65,3645,1,0,0:0:0:0:
353,136,3859,1,0,0:0:0:0:
351,209,4073,5,0,0:0:0:0:
484,348,4396,1,0,0:0:0:0:
329,279,4717,1,2,0:0:0:0:
285,337,5146,5,0,0:0:0:0:
220,369,5360,2,0,L|213:343,2,18.3999993823242
148,370,5574,1,2,0:0:0:0:
220,369,5788,6,0,P|235:308|222:253,2,110.399996293945,0|0|2,0:0|0:0|0:0,0:0:0:0:
291,92,7503,6,0,B|205:66|213:153|123:123,1,177.600004335938,4|0,0:0|0:0,0:0:0:0:
14,283,7824,5,0,0:0:0:0:
105,260,7931,2,0,L|112:224,1,25.6,8|0,0:0|0:0,0:0:0:0:
160,52,8146,6,0,B|197:2|255:27|287:72|289:141|236:196,1,228.80000314209
104,271,8467,5,8,0:0:0:0:
37,203,8574,2,0,B|31:172|31:172|62:168,1,62.4000020947266
364,264,8788,5,2,1:1:0:0:
364,264,8842,1,2,1:1:0:0:
364,264,8896,2,0,B|360:295|360:295|357:299|357:299|351:350,2,62.4000020947266,2|0|0,1:1|0:0|0:0,0:0:0:0:
482,92,9217,6,0,B|521:86|521:86|482:190|482:190|428:199,1,196.80000300293,8|0,1:3|0:0,0:0:0:0:
419,35,9538,1,8,1:3:0:0:
351,121,9646,2,0,L|395:115,1,25.6,8|0,0:0|0:0,0:0:0:0:
341,134,9860,6,0,L|161:156,1,160,8|0,1:3|0:0,0:0:0:0:
99,57,10181,5,0,0:0:0:0:
94,183,10288,2,0,B|99:151|99:151|71:142,1,62.4000020947266
247,215,10503,5,8,0:0:0:0:
272,20,10610,2,0,B|248:22|221:43|221:43|249:57|268:84|268:84|256:100|258:140,1,160
182,153,10931,6,0,P|125:187|169:295,1,177.600004335938
328,281,11253,5,0,0:0:0:0:
272,373,11360,2,0,L|276:346,1,25.6,8|0,0:0|0:0,0:0:0:0:
191,160,11574,6,0,B|169:167|169:167|150:346|150:346|171:364,1,228.80000314209
269,338,11896,5,8,0:0:0:0:
352,360,12003,2,0,B|375:356|375:356|384:360|384:360|430:354,1,62.4000020947266
491,179,12217,5,10,1:1:0:0:
491,167,12271,1,2,1:1:0:0:
501,174,12324,2,0,P|509:203|498:244,1,62.4000020947266,2|0,1:1|0:0,0:0:0:0:
431,275,12538,1,0,0:0:0:0:
426,125,12646,5,8,1:3:0:0:
365,176,12753,2,0,L|264:154,1,98.4000015014649,8|0,0:0|0:0,0:0:0:0:
194,72,12967,5,8,1:3:0:0:
116,65,13074,2,0,L|148:163,1,98.4000015014649,8|0,0:0|0:0,0:0:0:0:
269,333,13288,1,8,1:3:0:0:
208,380,13396,6,0,L|278:303,1,98.4000015014649,8|0,0:0|0:0,0:0:0:0:
332,252,13610,5,8,0:0:0:0:
395,187,13717,1,8,0:0:0:0:
383,105,13824,1,8,0:0:0:0:
309,74,13931,1,8,0:0:0:0:
243,98,14038,1,8,0:0:0:0:
228,168,14146,1,8,0:0:0:0:
154,195,14253,1,8,0:0:0:0:
90,135,14360,1,0,1:2:0:0:
72,220,14467,5,0,0:0:0:0:
62,224,14574,1,0,0:0:0:0:
67,234,14681,5,0,0:0:0:0:
55,243,14788,1,0,0:0:0:0:
61,257,14896,5,0,0:0:0:0:
44,263,15003,1,0,0:0:0:0:
48,282,15110,5,0,0:0:0:0:
27,285,15217,1,2,0:0:0:0:
21,142,15431,5,0,0:0:0:0:
16,133,15538,1,0,0:0:0:0:
16,123,15645,1,2,0:0:0:0:
62,23,16074,5,2,0:0:0:0:
143,39,17788,1,2,0:0:0:0:
191,105,19503,1,2,0:0:0:0:
181,186,20360,1,2,0:0:0:0:
118,238,21217,1,2,0:0:0:0:
36,233,22074,1,0,0:0:0:0:
476,59,22931,5,2,0:0:0:0:
393,60,24645,1,2,0:0:0:0:
335,117,25503,1,0,0:0:0:0:
330,199,26360,1,2,0:0:0:0:
383,261,28074,1,2,0:0:0:0:
253,326,29360,6,0,L|258:290,1,27.2000001660156,8|0,0:0|0:0,0:0:0:0:
342,261,29788,6,0,B|331:229|331:229|204:214|204:214|173:255,1,191.999994140625,6|0,0:0|0:0,0:0:0:0:
68,292,30110,1,2,0:0:0:0:
17,227,30217,2,0,B|25:194|25:194|23:190|23:190|33:148,1,71.9999978027344,8|0,0:0|0:0,0:0:0:0:
176,251,30431,6,0,L|418:212,1,223.999993164063,2|0,0:0|0:0,0:0:0:0:
460,80,30753,1,8,0:0:0:0:
485,156,30860,1,0,0:0:0:0:
328,116,31074,5,10,0:0:0:0:
312,110,31181,1,2,0:0:0:0:
305,27,31288,5,2,0:0:0:0:
202,60,31396,1,2,0:0:0:0:
99,93,31503,6,0,B|111:40|111:40|137:206,1,191.999994140625,2|0,0:0|0:0,0:0:0:0:
17,227,31824,1,2,0:0:0:0:
68,292,31931,2,0,B|60:324|60:324|61:328|61:328|52:370,1,71.9999978027344,8|0,0:0|0:0,0:0:0:0:
224,343,32146,6,0,B|267:330|267:330|288:184|288:184|256:211,1,223.999993164063,2|0,0:0|0:0,0:0:0:0:
192,256,32467,1,2,0:0:0:0:
192,256,32574,1,2,0:0:0:0:
192,256,32681,1,2,0:0:0:0:
307,342,32788,5,10,0:0:0:0:
363,279,32896,2,0,B|395:287|395:287|399:285|399:285|441:295,1,71.9999978027344,2|2,0:0|0:0,0:0:0:0:
493,235,33110,1,2,0:0:0:0:
458,371,33217,6,0,L|436:181,1,191.999994140625,2|0,0:0|0:0,0:0:0:0:
322,170,33538,1,0,0:0:0:0:
380,111,33646,2,0,B|376:77|376:77|378:73|378:73|373:31,1,71.9999978027344,8|0,0:0|0:0,0:0:0:0:
465,87,33860,6,0,P|384:89|239:47,1,223.999993164063
67,29,34181,2,0,B|127:27|170:88|136:86|177:148|240:151,1,223.999993164063,8|0,0:0|0:0,0:0:0:0:
332,196,34503,5,10,0:0:0:0:
316,276,34610,1,2,0:0:0:0:
231,296,34717,5,2,0:0:0:0:
238,318,34824,1,2,0:0:0:0:
164,369,34931,6,0,B|175:337|175:337|302:322|302:322|333:363,1,191.999994140625,2|0,0:0|0:0,0:0:0:0:
442,225,35253,1,0,0:0:0:0:
391,290,35360,2,0,B|399:322|399:322|397:326|397:326|407:368,1,71.9999978027344,8|0,0:0|0:0,0:0:0:0:
489,162,35574,6,0,B|512:129|512:129|478:324,1,223.999993164063,2|0,0:0|0:0,0:0:0:0:
321,222,35896,5,2,0:0:0:0:
316,248,36003,1,2,0:0:0:0:
296,231,36110,1,2,0:0:0:0:
283,154,36217,5,10,0:0:0:0:
355,110,36324,1,2,0:0:0:0:
425,66,36431,5,2,0:0:0:0:
419,49,36538,1,2,0:0:0:0:
414,32,36646,6,0,L|201:12,1,191.999994140625,2|0,0:0|0:0,0:0:0:0:
182,180,36967,1,2,0:0:0:0:
131,115,37074,2,0,B|139:82|139:82|137:78|137:78|147:36,1,71.9999978027344,10|0,0:0|0:0,0:0:0:0:
262,165,37288,6,0,B|237:263|237:263|242:275|242:275|213:400,1,223.999993164063,2|0,0:0|0:0,0:0:0:0:
348,375,37610,1,8,0:0:0:0:
325,296,37717,1,0,0:0:0:0:
24,260,37931,5,10,0:0:0:0:
4,338,38038,2,0,B|31:294|31:294|148:273|148:273|200:313,1,223.999993164063,2|0,0:0|0:0,0:0:0:0:
348,375,38360,6,0,B|306:332|306:332|340:181,1,191.999994140625,2|2,0:0|0:0,0:0:0:0:
432,296,38681,1,2,0:0:0:0:
475,225,38788,2,0,B|467:192|467:192|468:188|468:188|459:146,1,71.9999978027344,10|0,0:0|0:0,0:0:0:0:
287,142,39003,6,0,B|336:98|325:36|325:36|336:98|405:132,1,223.999993164063,2|0,0:0|0:0,0:0:0:0:
475,73,39324,1,0,0:0:0:0:
479,64,39431,6,0,P|453:32|398:47,1,80,2|0,0:0|0:0,0:0:0:0:
287,142,39646,6,0,P|248:173|266:239,1,95.9999970703126,10|0,0:0|0:0,0:0:0:0:
365,334,39860,6,0,P|398:374|468:355,1,111.999996582031,2|0,0:0|0:0,0:0:0:0:
432,296,40074,6,0,P|330:330|196:344,1,223.999993164063,2|2,0:0|0:0,0:0:0:0:
35,366,40396,1,0,0:0:0:0:
91,294,40503,2,0,B|82:257|82:257|84:253|84:253|73:207,1,80,10|0,0:0|0:0,0:0:0:0:
222,98,40717,5,2,0:0:0:0:
178,41,40824,2,0,B|151:7|151:7|123:143|123:143|150:185,1,223.999993164063
26,144,41146,2,0,B|34:107|34:107|32:103|32:103|43:57,1,80,2|0,0:0|0:0,0:0:0:0:
271,154,41360,5,10,0:0:0:0:
296,146,41467,1,2,0:0:0:0:
309,73,41574,5,2,0:0:0:0:
396,102,41681,1,2,0:0:0:0:
476,46,41788,6,0,B|456:16|456:16|422:219,1,223.999993164063,6|0,0:0|0:0,0:0:0:0:
348,241,42110,1,2,0:0:0:0:
399,348,42217,1,10,0:0:0:0:
131,298,42431,6,0,B|149:341|149:341|276:364|276:364|320:332,1,223.999993164063,6|0,0:0|0:0,0:0:0:0:
512,275,42753,2,0,B|503:234|503:234|447:279,1,111.999996582031,8|0,0:0|0:0,0:0:0:0:
214,266,42967,1,0,0:0:0:0:
234,277,43074,5,8,0:0:0:0:
210,179,43181,1,0,0:0:0:0:
312,70,43288,5,8,0:0:0:0:
288,168,43395,1,8,0:0:0:0:
139,224,43503,6,0,B|127:176|127:176|130:171|130:171|116:111,1,111.999996582031,10|0,3:2|0:0,0:0:0:0:
448,114,44574,6,0,B|459:66|459:66|456:61|456:61|470:1,1,111.999996582031,10|0,3:2|0:0,0:0:0:0:
385,176,44789,1,0,0:0:0:0:
496,220,44896,2,0,P|433:217|396:275,1,111.999996582031,8|0,3:2|0:0,0:0:0:0:
64,316,45217,6,0,B|111:327|111:327|116:324|116:324|176:338,1,111.999996582031,10|0,3:2|0:0,0:0:0:0:
115,46,46074,5,2,3:2:0:0:
122,72,46181,1,2,3:2:0:0:
26,119,46288,2,0,P|89:116|126:174,1,111.999996582031,10|0,3:2|0:0,0:0:0:0:
305,238,46503,5,2,3:2:0:0:
276,345,46610,2,0,B|264:297|264:297|267:292|267:292|253:232,1,111.999996582031,10|0,3:2|0:0,0:0:0:0:
497,214,46931,6,0,B|428:239|374:181|406:164|340:105|267:139,1,240,6|0,3:2|0:0,0:0:0:0:
31,294,47574,5,2,3:2:0:0:
36,303,47646,1,2,3:2:0:0:
41,312,47718,1,2,3:2:0:0:
45,321,47788,5,2,3:2:0:0:
113,345,47896,1,2,3:2:0:0:
465,139,48217,6,0,L|453:88,1,48
371,63,48646,6,0,B|379:-11|492:-44|587:61|504:211|448:257,1,384,6|0,3:2|0:0,0:0:0:0:
258,343,49503,5,8,3:2:0:0:
252,327,49610,1,8,0:0:0:0:
194,278,49717,5,0,0:0:0:0:
216,202,49824,1,0,0:0:0:0:
288,179,49931,5,8,3:2:0:0:
253,99,50038,1,8,3:2:0:0:
200,45,50146,5,8,3:2:0:0:
185,57,50253,1,8,3:2:0:0:
128,0,50360,6,0,B|142:31|142:31|275:54|275:54|298:28,1,191.999994140625,4|0,0:0|0:0,0:0:0:0:
469,118,50681,1,0,0:0:0:0:
472,44,50788,2,0,B|435:53|435:53|431:51|431:51|385:62,1,80,8|0,0:0|0:0,0:0:0:0:
298,201,51003,6,0,L|89:169,1,191.999994140625
44,205,51324,1,8,0:0:0:0:
5,122,51431,1,0,0:0:0:0:
274,176,51646,6,0,B|225:138|225:138|268:360,1,287.999991210938,8|0,0:0|0:0,0:0:0:0:
472,328,52074,6,0,B|426:350|379:314|395:307|358:263|290:287,1,191.999994140625
189,364,52396,1,0,0:0:0:0:
144,287,52503,2,0,B|107:278|107:278|103:280|103:280|57:269,1,80,8|0,0:0|0:0,0:0:0:0:
342,366,52717,6,0,L|373:151,1,191.999994140625
322,120,53038,1,0,0:0:0:0:
422,83,53146,1,0,0:0:0:0:
54,22,53360,6,0,P|121:52|275:65,1,223.999993164063,8|0,0:0|0:0,0:0:0:0:
457,56,53681,5,10,0:3:0:0:
453,32,53788,1,12,0:0:0:0:
433,46,53896,1,8,0:0:0:0:
348,25,54003,5,8,0:0:0:0:
370,105,54110,1,8,0:0:0:0:
445,157,54217,5,8,0:0:0:0:
412,234,54324,1,8,0:0:0:0:
372,307,54431,6,0,B|408:319|408:319|410:323|410:323|459:337,1,80,8|0,0:3|0:0,0:0:0:0:
301,273,54646,5,8,0:3:0:0:
219,301,54753,1,8,0:3:0:0:
133,326,54860,1,8,0:3:0:0:
139,312,54967,1,8,0:3:0:0:
52,257,55074,5,8,0:0:0:0:
131,222,55181,1,8,0:0:0:0:
210,288,55288,5,8,0:0:0:0:
305,350,55395,1,8,0:0:0:0:
372,307,55503,5,8,0:0:0:0:
256,192,55610,12,0,56896,0:0:0:0:
256,192,57003,6,0,L|250:236,1,26.3999999194336
304,374,57217,6,0,B|285:341|309:310|327:306|327:306|419:286|419:286|439:280|454:257|437:224|407:230|408:261,1,265.600003850098,12|0,2:3|0:0,0:0:0:0:
406,148,57538,1,0,0:0:0:0:
486,190,57646,6,0,P|372:180|342:291,1,248.00000189209,8|0,0:0|0:0,0:0:0:0:
410,334,57967,1,0,0:0:0:0:
250,208,58074,5,0,0:0:0:0:
219,361,58181,2,0,B|206:311|206:311|179:330|179:330|183:355|183:355|211:364,1,124.000000946045,8|0,0:0|0:0,0:0:0:0:
0,285,58396,5,0,0:0:0:0:
39,355,58503,2,0,B|62:365|87:351|99:322|101:303|101:303|111:207|111:207|113:187|98:172|74:180|71:210,1,265.600003850098,8|0,0:0|2:3,0:0:0:0:
123,289,58824,1,0,0:0:0:0:
181,349,58931,6,0,B|177:372|202:400|249:382|263:347|261:298|221:283|221:283|303:307|285:243|357:230|405:255|395:319|347:297,1,398.400005775147,8|0,2:3|2:3,0:0:0:0:
323,380,59360,5,8,0:0:0:0:
340,302,59467,1,0,0:0:0:0:
438,211,59574,2,0,B|443:193|443:193|279:169|279:169|276:187,1,203.199998449707,0|0,2:3|2:3,0:0:0:0:
228,326,59896,5,8,2:2:0:0:
127,196,60003,2,0,B|163:179|196:189|196:189|198:168|176:146,1,110.400000168457,8|0,0:3|0:0,0:0:0:0:
182,153,60217,5,8,2:0:0:0:
171,267,60324,2,0,B|139:293|147:348|147:348|129:295|66:280,1,176.000005371094,8|0,2:3|2:3,0:0:0:0:
26,351,60646,6,0,P|80:342|88:288,1,117.599994526978,8|0,2:3|0:0,0:0:0:0:
39,214,60860,1,0,0:0:0:0:
171,267,60967,5,8,0:3:0:0:
248,255,61074,2,0,L|372:237,1,117.599994526978,8|0,0:0|0:0,0:0:0:0:
456,350,61288,2,0,B|430:328|430:328|400:129,1,235.199989053956,8|0,2:3|0:0,0:0:0:0:
329,102,61610,5,8,0:0:0:0:
349,0,61717,2,0,P|320:38|320:86,1,97.5999959790041,0|0,2:3|0:0,0:0:0:0:
406,111,61931,1,8,2:0:0:0:
298,182,62038,6,0,B|398:205|376:115|495:137,1,195.199991958008,8|0,0:3|0:0,0:0:0:0:
432,355,62360,6,0,P|470:309|366:318,1,235.199989053956,8|0,0:3|0:0,0:0:0:0:
294,384,62681,1,0,0:0:0:0:
197,349,62788,2,0,B|220:338|220:338|286:364|286:364|294:384,1,117.599994526978,8|0,0:0|0:0,0:0:0:0:
298,182,63003,2,0,L|291:277,1,92.8000028320313
102,359,63217,5,8,0:3:0:0:
140,278,63324,1,8,0:0:0:0:
60,204,63431,1,8,0:2:0:0:
477,185,63646,5,8,0:3:0:0:
423,378,63753,1,8,0:0:0:0:
372,278,63860,6,0,L|402:273,1,26.3999999194336,4|0,0:0|0:0,0:0:0:0:
477,185,64074,6,0,B|480:203|472:214|440:220|423:208|420:190|420:190|404:97|404:97|400:78|412:62|444:56|455:64|458:82,1,265.600003850098,12|0,0:3|0:0,0:0:0:0:
327,9,64396,1,0,0:0:0:0:
481,0,64503,6,0,P|401:-5|341:143,1,248.00000189209,8|0,0:0|0:0,0:0:0:0:
294,215,64824,1,0,0:0:0:0:
129,166,64931,5,0,0:0:0:0:
207,116,65038,2,0,B|253:104|253:104|254:131|254:131|191:151,1,124.000000946045,8|0,0:0|0:0,0:0:0:0:
235,292,65253,6,0,L|238:309,1,13.1999999597168
232,380,65360,2,0,B|265:367|265:367|283:315|283:315|243:262|243:262|261:211|261:211|295:198,1,248.00000189209,8|0,0:0|0:0,0:0:0:0:
387,203,65681,1,0,0:0:0:0:
468,169,65788,6,0,B|499:181|523:147|500:115|464:116|450:136|450:136|365:92|301:162|301:162|280:148|247:160|236:198|270:221|295:199,1,398.400005775147,8|0,0:3|0:0,0:0:0:0:
373,281,66217,5,8,0:0:0:0:
387,203,66324,1,0,0:0:0:0:
189,147,66431,2,0,P|199:244|289:280,1,203.199998449707,8|8,0:3|0:3,0:0:0:0:
145,220,66753,5,8,0:0:0:0:
202,286,66860,2,0,P|200:340|162:378,1,110.400000168457
61,372,67074,5,8,0:0:0:0:
5,296,67181,2,0,B|23:261|23:261|71:248|118:270|118:270|128:307,1,176.000005371094,8|0,0:3|0:0,0:0:0:0:
247,359,67503,6,0,B|302:383|302:383|278:185,1,235.199989053956,8|0,0:3|0:0,0:0:0:0:
235,69,67824,5,0,0:0:0:0:
333,132,67931,2,0,B|308:127|308:127|245:171|245:171|214:165,1,132.800001925049,8|0,0:0|0:0,0:0:0:0:
126,55,68146,2,0,B|135:71|135:71|249:88,1,106.399995616455,8|0,0:3|0:0,0:0:0:0:
486,86,68360,5,8,0:3:0:0:
411,176,68467,1,8,0:0:0:0:
467,260,68574,1,8,0:0:0:0:
238,341,68788,5,8,0:0:0:0:
311,174,68896,2,0,B|370:129|360:15|251:-19|175:65|223:168|296:178|296:178|306:211|306:211|338:219,1,431.999986816407,8|8,0:3|0:3,0:0:0:0:
295,285,69324,6,0,B|318:312|317:345|317:345|323:313|357:295,1,132.800001925049,8|0,0:0|0:0,0:0:0:0:
164,304,69538,5,8,0:3:0:0:
238,341,69646,2,0,B|174:321|182:391|110:366,1,132.800001925049,8|0,0:0|0:0,0:0:0:0:
30,205,69860,5,8,0:0:0:0:
84,186,69967,1,0,0:0:0:0:
137,205,70074,5,8,0:3:0:0:
208,184,70181,1,8,0:0:0:0:
296,225,70288,5,8,0:0:0:0:
381,194,70396,1,8,0:0:0:0:
471,233,70503,5,8,0:3:0:0:
501,159,70610,5,8,0:0:0:0:
465,79,70717,5,8,0:0:0:0:
373,60,70824,5,8,0:0:0:0:
302,135,70931,6,0,B|281:152|259:147|259:147|173:127|173:127|156:123|145:104|140:68|178:41|217:63|194:105,1,265.600003850098,12|0,0:3|0:0,0:0:0:0:
328,299,71252,1,0,0:0:0:0:
319,221,71360,6,0,B|313:174|313:174|343:151|343:151|341:79|341:79|296:67|296:67|285:21,1,248.00000189209,8|0,0:0|0:0,0:0:0:0:
104,34,71681,1,0,0:0:0:0:
197,99,71788,5,0,0:0:0:0:
236,174,71896,2,0,B|230:193|230:193|148:184|148:184|140:204,1,124.000000946045,8|0,0:0|0:0,0:0:0:0:
37,233,72110,5,0,0:0:0:0:
0,62,72217,2,0,B|6:22|53:4|93:36|86:75|86:75|80:119|80:119|73:158|56:164|42:153|47:122,1,265.600003850098,8|0,0:0|0:0,0:0:0:0:
52,115,72538,1,0,0:0:0:0:
197,99,72646,6,0,B|223:70|297:84|307:187|208:219|163:164|170:115|170:115|183:33|183:33|186:12|211:-4|238:5,1,398.400005775147,8|0,0:3|0:0,0:0:0:0:
353,17,73074,5,8,0:0:0:0:
339,92,73181,1,0,0:0:0:0:
471,180,73288,2,0,B|401:139|329:185|329:185|316:246,1,203.199998449707,8|0,0:3|0:0,0:0:0:0:
304,322,73610,5,8,0:0:0:0:
422,353,73717,2,0,B|449:360|449:360|466:277,1,110.400000168457,8|0,0:3|0:0,0:0:0:0:
415,123,73931,5,8,0:0:0:0:
388,275,74038,2,0,B|313:287|313:287|311:295|311:295|205:314,1,176.000005371094,8|0,0:3|0:0,0:0:0:0:
162,368,74360,6,0,B|112:360|112:360|110:354|110:354|50:343,1,117.599994526978,8|0,0:3|0:0,0:0:0:0:
36,257,74574,1,0,0:0:0:0:
195,216,74681,5,0,0:0:0:0:
144,278,74788,2,0,B|120:271|120:271|105:205|105:205|121:186,1,117.599994526978,8|0,0:0|0:0,0:0:0:0:
65,56,75003,2,0,P|12:120|84:78,1,235.199989053956,8|0,0:3|0:0,0:0:0:0:
235,56,75324,5,8,0:0:0:0:
300,107,75431,2,0,P|302:154|273:192,1,97.5999959790041,8|0,0:3|0:0,0:0:0:0:
364,294,75646,5,8,0:0:0:0:
441,320,75753,2,0,P|405:285|395:130,1,195.199991958008,8|0,0:3|0:0,0:0:0:0:
473,17,76074,6,0,P|428:104|300:61,1,235.199989053956,8|0,0:3|0:0,0:0:0:0:
298,0,76396,1,0,0:0:0:0:
168,74,76503,2,0,B|204:63|233:82|233:82|239:53|209:16,1,117.599994526978,8|0,0:0|0:0,0:0:0:0:
97,21,76717,2,0,B|72:29|72:29|65:78|65:78|85:96,1,102.4,8|0,0:3|0:0,0:0:0:0:
139,290,76931,5,8,0:3:0:0:
183,158,77038,1,8,0:0:0:0:
214,243,77146,1,8,0:2:0:0:
401,109,77360,5,8,0:3:0:0:
442,291,77467,1,8,0:0:0:0:
371,220,77574,6,0,L|380:175,1,26.3999999194336,4|0,0:0|0:0,0:0:0:0:
454,171,77788,6,0,P|410:122|304:248,1,265.600003850098,12|0,0:3|0:0,0:0:0:0:
194,350,78110,1,0,0:0:0:0:
98,328,78217,6,0,B|46:342|46:342|45:309|85:297|85:297|181:269|181:269|217:260|240:285,1,283.20000918274,8|0,0:0|0:0,0:0:0:0:
417,374,78538,1,0,0:0:0:0:
438,269,78646,5,0,0:0:0:0:
272,375,78753,2,0,B|337:360|337:360|343:327|367:314,1,124.000000946045,8|0,0:0|0:0,0:0:0:0:
420,115,78967,6,0,B|414:127,1,13.1999999597168
486,149,79074,2,0,B|522:62|439:-7|351:17|301:107|337:181|396:197|396:197|375:211|375:211|360:240,1,424.800013774109,8|0,0:0|0:0,0:0:0:0:
295,284,79503,6,0,B|284:312|293:345|293:345|262:278|214:304|197:235|197:235|188:232|188:232|203:189|254:187,1,300.799995410156,8|0,0:3|0:0,0:0:0:0:
269,114,79824,5,0,0:0:0:0:
214,367,79931,1,8,0:0:0:0:
22,192,80038,1,0,0:0:0:0:
101,128,80146,6,0,B|114:77|60:60|21:104|48:212|107:222|117:199|117:199|97:245|131:249|111:297,1,318.400007894898,8|0,0:3|0:0,0:0:0:0:
69,364,80467,5,8,0:0:0:0:
69,364,80574,2,0,P|35:323|39:270,1,110.400000168457,8|0,0:3|0:0,0:0:0:0:
179,145,80788,5,8,0:0:0:0:
190,231,80896,2,0,P|211:161|338:126,1,176.000005371094,8|0,0:3|0:0,0:0:0:0:
339,44,81217,6,0,B|394:20|394:20|370:218,1,235.199989053956,12|0,0:3|0:0,0:0:0:0:
327,334,81538,5,0,0:0:0:0:
425,271,81646,2,0,B|400:276|400:276|337:232|337:232|306:238,1,132.800001925049,8|0,0:0|0:0,0:0:0:0:
218,348,81860,2,0,B|227:332|227:332|341:315,1,106.399995616455
489,157,82074,5,0,0:0:0:0:
430,105,82181,1,8,0:0:0:0:
330,130,82288,1,8,0:3:0:0:
232,249,82503,5,8,0:0:0:0:
206,325,82610,1,8,0:3:0:0:
104,357,82717,6,0,L|69:362,1,26.3999999194336
39,295,82931,6,0,B|51:236|51:236|193:201|193:201|206:142|206:142|151:93|151:93|163:35,1,398.400005775147,12|0,0:3|0:0,0:0:0:0:
243,20,83360,1,8,0:0:0:0:
490,67,83574,6,0,B|308:111,1,187.200000714111
370,51,83896,1,8,0:0:0:0:
416,124,84003,1,8,0:3:0:0:
413,328,84217,5,8,0:3:0:0:
485,356,84324,1,8,0:0:0:0:
508,283,84431,1,8,0:3:0:0:
434,219,84538,5,8,0:0:0:0:
412,136,84646,5,8,0:3:0:0:
462,95,84753,1,0,0:0:0:0:
512,123,84860,1,8,0:0:0:0:
468,66,84967,1,8,0:0:0:0:
424,2,85074,1,8,0:0:0:0:
348,32,85181,1,8,0:0:0:0:
308,108,85288,5,8,0:0:0:0:
316,192,85396,1,8,0:0:0:0:
262,249,85503,1,8,0:0:0:0:
203,220,85610,1,8,0:0:0:0:
154,233,85717,1,8,0:0:0:0:
154,233,85931,5,8,0:0:0:0:
198,300,86038,1,8,0:0:0:0:
293,298,86146,1,8,0:0:0:0:
343,208,86253,1,8,0:0:0:0:
308,108,86360,1,12,0:3:0:0:
308,108,87003,6,0,P|309:121|304:133,1,26.3999999194336
343,208,87217,6,0,P|335:218|323:224,1,26.3999999194336
273,303,87431,6,0,P|260:305|247:301,1,26.3999999194336
147,325,87646,6,0,P|136:317|129:306,1,26.3999999194336
26,252,87860,6,0,P|22:239|25:226,1,26.3999999194336
84,169,88074,6,0,B|106:187|106:187|89:319|89:319|48:337,1,191.999994140625,4|0,0:0|0:0,0:0:0:0:
246,378,88396,5,0,0:0:0:0:
188,257,88503,2,0,L|191:234,1,16,8|0,0:0|0:0,0:0:0:0:
17,121,88717,6,0,B|7:98|21:73|50:61|69:59|69:59|165:49|165:49|185:47|200:62|192:86|162:89,1,256
409,161,89038,5,8,0:0:0:0:
477,86,89146,2,0,B|488:45|488:45|432:51,1,80
281,21,89360,5,10,0:0:0:0:
281,21,89413,1,2,0:0:0:0:
281,21,89467,2,0,B|275:51|275:51|277:57|277:57|265:104,2,80,2|0|0,0:0|0:0|0:0,0:0:0:0:
449,257,89788,6,0,B|483:228|483:228|349:253|349:253|314:300,1,207.999990478516,8|0,1:3|0:0,0:0:0:0:
328,359,90110,1,8,1:3:0:0:
476,345,90217,2,0,L|453:339,1,23.9999992675781,8|0,0:0|0:0,0:0:0:0:
253,257,90431,6,0,L|73:291,1,160,8|0,1:3|0:0,0:0:0:0:
20,252,90753,5,8,0:0:0:0:
110,366,90860,2,0,B|75:384|75:384|42:350,1,80
161,231,91074,5,8,0:0:0:0:
111,29,91181,2,0,B|105:69|105:69|131:88|131:88|129:150|129:150|91:160|91:160|81:199,1,207.999990478516
245,218,91503,6,0,P|287:266|382:238,1,160
491,89,91824,5,0,0:0:0:0:
408,26,91931,2,0,L|412:45,1,16,8|0,0:0|0:0,0:0:0:0:
395,254,92146,6,0,B|378:231|378:231|417:75|417:75|450:62,1,223.999993164063
224,9,92467,5,8,0:0:0:0:
310,61,92574,2,0,B|317:97|317:97|314:101|314:101|323:159,1,80
420,327,92788,5,10,0:0:0:0:
427,340,92842,1,2,0:0:0:0:
414,347,92896,2,0,P|374:357|341:328,1,80,2|0,0:0|0:0,0:0:0:0:
311,261,93110,1,0,0:0:0:0:
70,323,93217,6,0,B|31:329|31:329|32:305|62:299|62:299|134:285|134:285|160:281|179:303,1,207.999990478516,8|0,1:3|0:0,0:0:0:0:
257,323,93538,6,0,L|252:361,1,32,8|8,1:3|0:0,0:0:0:0:
138,374,93753,1,0,0:0:0:0:
225,193,93860,6,0,L|64:225,1,160,8|0,0:3|0:0,0:0:0:0:
10,148,94181,5,8,3:3:0:0:
10,148,94235,1,8,3:3:0:0:
10,148,94288,1,8,3:3:0:0:
49,70,94396,5,8,3:3:0:0:
192,111,94503,1,8,0:0:0:0:
157,79,94610,5,8,0:0:0:0:
256,54,94717,1,8,0:0:0:0:
356,30,94824,1,8,0:0:0:0:
426,67,94931,6,0,L|403:294,1,187.200000714111,2|0,0:0|0:0,0:0:0:0:
485,315,95253,1,2,0:0:0:0:
420,367,95360,2,0,B|393:345|393:345|375:376,1,69.6000005841065,8|0,0:0|0:0,0:0:0:0:
335,178,95574,6,0,B|338:154|338:154|332:145|332:145|260:133|260:133|247:139|247:139|236:211|236:211|274:217,1,228.80000314209,2|0,0:0|0:0,0:0:0:0:
317,276,95896,1,8,0:0:0:0:
292,350,96003,1,0,0:0:0:0:
49,353,96217,5,10,0:0:0:0:
72,345,96324,1,2,0:0:0:0:
146,376,96431,5,2,0:0:0:0:
133,291,96538,1,2,0:0:0:0:
194,227,96646,6,0,P|123:242|76:110,1,196.80000300293,2|0,0:0|0:0,0:0:0:0:
78,33,96967,1,2,0:0:0:0:
138,78,97074,2,0,B|153:110|153:110|140:152,1,69.6000005841065,8|0,0:0|0:0,0:0:0:0:
133,291,97288,6,0,P|218:253|350:296,1,228.80000314209,2|0,0:0|0:0,0:0:0:0:
411,340,97610,1,2,0:0:0:0:
414,329,97717,1,2,0:0:0:0:
424,333,97824,1,2,0:0:0:0:
475,264,97931,5,10,0:0:0:0:
435,164,98038,2,0,B|404:155|404:155|387:170|387:170|445:185,1,114.400001571045,2|2,0:0|0:0,0:0:0:0:
488,95,98253,1,2,0:0:0:0:
445,185,98360,6,0,B|380:192|380:192|376:199|376:199|195:217,1,196.80000300293,2|0,0:0|0:0,0:0:0:0:
175,221,98681,1,0,0:0:0:0:
13,239,98788,2,0,B|23:222|47:224|47:224|62:239|62:239|119:230,1,98.4000015014649,8|0,0:0|0:0,0:0:0:0:
253,211,99003,6,0,B|282:209|305:228|308:264|308:264|314:343|314:343|314:305|352:288,1,223.999993164063
449,272,99324,2,0,B|466:243|466:243|477:313|477:313|481:335|464:367|420:377|391:352,1,223.999993164063,8|0,0:0|0:0,0:0:0:0:
341,293,99646,5,10,0:0:0:0:
361,197,99753,1,2,0:0:0:0:
438,154,99860,5,2,0:0:0:0:
431,132,99967,1,2,0:0:0:0:
458,47,100074,6,0,P|370:31|316:102,1,187.200000714111,2|0,0:0|0:0,0:0:0:0:
176,52,100396,1,0,0:0:0:0:
210,152,100503,2,0,P|229:143|223:82,1,69.6000005841065,8|0,0:0|0:0,0:0:0:0:
10,65,100717,6,0,P|109:101|130:205,1,220.800000336914,2|0,0:0|0:0,0:0:0:0:
254,267,101038,1,2,0:0:0:0:
249,281,101146,1,2,0:0:0:0:
239,272,101253,1,2,0:0:0:0:
285,190,101360,5,10,0:0:0:0:
362,180,101467,1,2,0:0:0:0:
423,242,101574,5,2,0:0:0:0:
417,260,101681,1,2,0:0:0:0:
499,299,101788,6,0,L|482:74,1,220.800000336914,2|0,0:0|0:0,0:0:0:0:
257,29,102110,1,2,0:0:0:0:
224,105,102217,2,0,L|338:113,1,69.6000005841065,10|0,0:0|0:0,0:0:0:0:
308,102,102431,1,2,0:0:0:0:
230,200,102538,5,2,0:0:0:0:
322,247,102646,2,0,P|304:202|221:210,1,112.799994234009,2|8,0:3|0:0,0:0:0:0:
44,288,102860,6,0,B|39:244|39:244|83:238,1,89.60000109375
249,280,103074,2,0,B|191:266|204:318|131:300,1,112.799994234009,10|0,0:0|0:0,0:0:0:0:
356,321,103288,6,0,B|374:351|350:372|350:372|310:358|319:324,1,112.799994234009,2|0,0:0|0:0,0:0:0:0:
349,166,103503,6,0,P|431:163|445:282,1,187.200000714111,2|2,0:0|0:0,0:0:0:0:
461,260,103824,1,2,0:0:0:0:
323,244,103931,2,0,P|320:215|350:171,1,69.6000005841065,10|0,0:0|0:0,0:0:0:0:
497,121,104146,6,0,P|514:163|389:225,1,217.600001328125,2|0,0:0|0:0,0:0:0:0:
257,101,104467,5,8,0:0:0:0:
314,49,104574,2,0,B|316:19|316:19|292:7|292:7|269:24,1,83.9999974365235,2|0,0:0|0:0,0:0:0:0:
131,62,104788,6,0,B|160:44|194:50|194:50|196:35|166:8,1,95.9999970703126,10|0,0:0|0:0,0:0:0:0:
68,11,105003,6,0,B|54:0|30:5|19:22|26:45|26:45|41:95,1,108.000000411987,2|0,0:0|0:0,0:0:0:0:
0,187,105217,6,0,B|16:202|16:202|153:176|153:176|176:196|176:196|164:227,1,216.000000823975,2|2,0:0|0:0,0:0:0:0:
96,374,105538,1,0,0:0:0:0:
104,266,105646,2,0,B|86:279|86:279|92:295|92:295|148:298,1,83.9999974365235,10|0,0:0|0:0,0:0:0:0:
323,267,105860,5,10,3:2:0:0:
312,346,105967,2,0,B|308:358|308:358|277:363|277:363|249:330|249:330|264:260|264:260|302:243|302:243|312:256,1,217.600001328125,8|0,0:0|0:0,0:0:0:0:
468,307,106288,2,0,B|446:310|446:310|429:313|433:298|417:302|417:302|396:306,1,75.9999979705811,2|0,0:0|0:0,0:0:0:0:
356,175,106503,6,0,L|368:67,1,75.9999979705811,10|2,0:0|0:0,0:0:0:0:
466,0,106717,5,10,0:0:0:0:
456,76,106824,1,10,0:0:0:0:
355,86,106931,6,0,B|253:99|253:99|245:96|245:96|123:112,1,217.600001328125,10|0,0:0|0:0,0:0:0:0:
0,58,107253,1,10,0:0:0:0:
70,29,107360,1,10,0:0:0:0:
81,293,107574,6,0,B|74:312|74:312|28:290|28:290|12:225|12:225|47:183|47:183|63:202,1,217.600001328125,6|0,0:0|0:0,0:0:0:0:
177,297,107896,2,0,B|224:302|224:302|221:310|221:310|307:319,1,108.800000664063,8|0,0:0|0:0,0:0:0:0:
290,318,108110,1,8,2:3:0:0:
363,292,108217,5,8,0:0:0:0:
385,366,108324,1,0,0:0:0:0:
468,251,108431,5,8,0:0:0:0:
304,221,108538,1,8,0:0:0:0:
419,93,108646,6,0,P|438:178|359:142,1,217.600001328125,10|0,3:2|0:0,0:0:0:0:
61,81,109717,6,0,B|124:89|124:89|200:100|214:149|172:143|187:193|262:203|262:203|326:212,2,326.400001992188,10|8|10,3:2|3:2|3:2,0:0:0:0:
85,347,111217,5,2,3:2:0:0:
104,349,111324,1,2,3:2:0:0:
21,293,111431,6,0,B|77:298|77:298|82:301|82:301|101:294|101:294|161:300|161:300|165:303|165:303|275:314,1,217.600001328125,10|0,3:2|0:0,0:0:0:0:
314,364,111753,2,0,B|291:308|345:277|345:277|346:279|346:279|345:276|345:276|403:243|384:186,1,217.600001328125,10|0,3:2|0:0,0:0:0:0:
287,94,112074,6,0,B|278:54|278:54|252:133|252:133|267:192|267:192|308:206,1,227.999993911743,14|0,3:2|0:0,0:0:0:0:
22,306,112824,5,2,3:2:0:0:
69,213,112931,6,0,L|63:256,1,27.2000001660156,2|0,3:2|0:0,0:0:0:0:
65,239,113146,6,0,P|95:259|80:331,1,75.9999979705811,10|0,3:2|0:0,0:0:0:0:
217,377,113360,5,2,3:2:0:0:
259,253,113467,6,0,P|275:325|181:284,1,212.799991232911,10|0,3:2|0:0,0:0:0:0:
179,299,113788,6,0,P|277:294|363:367,1,211.200006445313,14|0,3:2|0:0,0:0:0:0:
500,320,114217,2,0,B|520:289|492:250|429:259|426:321,1,140.800004296875,0|8,0:0|0:0,0:0:0:0:
426,321,114538,1,8,0:0:0:0:
430,326,114646,5,8,3:2:0:0:
503,304,114753,1,8,3:2:0:0:
512,239,114860,1,8,3:2:0:0:
476,202,114967,1,8,3:2:0:0:
442,193,115074,5,8,3:2:0:0:
372,204,115181,1,8,3:2:0:0:
299,190,115288,1,8,3:2:0:0:
228,205,115396,1,8,3:2:0:0:
154,192,115503,6,0,P|81:205|91:91,1,198.399992128907,4|0,0:0|0:0,0:0:0:0:
165,23,115824,1,0,0:0:0:0:
241,30,115931,2,0,B|256:64|256:64|242:121,1,73.599997529297,8|0,0:0|0:0,0:0:0:0:
230,173,116146,6,0,L|240:377,1,198.399992128907
317,384,116467,1,8,0:0:0:0:
329,310,116574,1,0,0:0:0:0:
483,231,116788,6,0,B|476:266|476:266|451:273|451:273|485:123|485:123|468:101|426:128|437:159,1,297.59998819336,8|0,0:0|0:0,0:0:0:0:
379,216,117217,6,0,B|278:245|296:154|195:177,1,198.399992128907
123,207,117538,1,0,0:0:0:0:
61,162,117646,2,0,P|26:173|21:233,1,73.599997529297,8|0,0:0|0:0,0:0:0:0:
120,364,117860,6,0,P|197:358|203:244,1,198.399992128907,4|0,0:0|0:0,0:0:0:0:
218,155,118181,2,0,B|203:118|203:118|194:177,1,99.1999960644533,8|0,0:0|0:0,0:0:0:0:
414,266,118396,5,8,2:3:0:0:
340,273,118503,2,0,P|304:253|324:170,1,122.400005509644,12|0,0:0|0:0,0:0:0:0:
390,139,118717,5,8,0:0:0:0:
412,69,118824,1,8,0:0:0:0:
355,21,118931,5,12,0:0:0:0:
335,17,119038,1,8,2:3:0:0:
267,52,119146,1,8,2:3:0:0:
247,48,119253,1,8,2:3:0:0:
171,92,119360,1,8,0:0:0:0:
151,88,119467,1,8,0:0:0:0:
90,27,119574,5,8,2:3:0:0:
37,78,119681,1,8,2:3:0:0:
74,141,119788,1,8,2:3:0:0:
140,174,119896,1,8,0:0:0:0:
152,246,120003,1,8,2:3:0:0:
97,295,120110,5,8,2:3:0:0:
94,310,120217,1,8,0:0:0:0:
161,345,120324,5,8,0:0:0:0:
241,328,120431,1,8,0:3:0:0:
322,312,120538,1,8,0:3:0:0:
408,271,120646,6,0,B|458:255|437:218|484:204|484:204|483:179|456:172|456:172|363:201|313:143|313:143|291:154|266:153|266:153|244:225|147:239|147:239|125:255|135:278|135:278|183:272|180:315|233:306,1,662.399977763673,4|0,0:0|0:0,0:0:0:0:
322,312,121717,6,0,L|327:274,3,23.9999992675781
202,62,122146,6,0,L|207:100,1,26.3999999194336
330,143,122360,6,0,B|303:166|316:233|409:242|438:152|388:112|344:118|344:118|270:130|270:130|255:168,1,320,4|0,2:3|0:0,0:0:0:0:
208,206,122681,1,0,0:0:0:0:
347,43,122788,6,0,P|435:71|462:217,1,240.000009155274,8|0,0:0|0:0,0:0:0:0:
281,257,123110,1,0,0:0:0:0:
270,363,123217,5,0,0:0:0:0:
394,336,123324,2,0,B|416:300|416:300|346:319,1,103.999995239258,8|0,0:0|0:0,0:0:0:0:
171,369,123538,1,0,0:0:0:0:
85,308,123646,6,1,B|75:290|59:284|59:284|72:214|72:214|76:194|103:182|127:202|123:223|123:223|102:336,1,287.999991210938,8|2,0:0|0:2,0:0:0:0:
28,354,123967,1,0,0:0:0:0:
189,267,124074,6,1,B|284:245|288:154|262:89|183:169|186:77|199:50|199:50|198:81|163:132|110:97,1,408.000007781983,2|2,0:3|0:3,0:0:0:0:
45,40,124503,5,8,0:0:0:0:
126,16,124610,1,0,0:0:0:0:
298,66,124717,2,0,B|317:94|317:94|454:111|454:111|486:88,1,207.999990478516,2|2,0:0|0:2,0:0:0:0:
400,31,125038,5,10,0:2:0:0:
409,162,125146,2,0,B|428:187|448:185|448:185|422:202|417:254,1,111.999996582031,0|0,0:3|0:0,0:0:0:0:
343,256,125360,5,10,2:3:0:0:
468,298,125467,2,0,B|434:325|400:317|400:317|434:325|470:378,1,160,2|2,0:3|0:3,0:0:0:0:
276,309,125788,6,0,P|307:255|360:267,1,103.999995239258,2|0,0:3|0:0,0:0:0:0:
400,31,126003,1,0,0:0:0:0:
285,131,126110,5,2,0:2:0:0:
200,115,126217,2,0,L|80:92,1,120.000004577637,8|0,0:0|0:0,0:0:0:0:
1,300,126431,2,0,B|42:277|42:277|248:318,1,240.000009155274,2|0,0:3|0:0,0:0:0:0:
367,92,126753,5,0,0:0:0:0:
376,226,126860,2,0,L|390:115,1,111.999996582031,2|0,0:0|0:0,0:0:0:0:
287,26,127074,1,8,0:0:0:0:
269,104,127181,6,0,B|248:159|294:228|324:174|364:241|341:312,1,223.999993164063
148,376,127503,6,0,P|145:272|232:326,1,240.000009155274
225,334,127824,1,0,0:0:0:0:
46,270,127931,2,0,B|22:192|22:192|60:229,1,120.000004577637,8|0,0:0|0:0,0:0:0:0:
231,175,128146,2,0,L|103:160,1,95.9999970703126
22,35,128360,5,8,0:3:0:0:
80,98,128467,1,8,0:0:0:0:
212,47,128574,1,8,0:0:0:0:
484,148,128788,5,8,0:2:0:0:
288,105,128896,1,8,0:3:0:0:
426,34,129003,6,0,L|430:68,1,23.9999992675781,6|0,0:0|0:0,0:0:0:0:
399,192,129217,6,1,B|376:224|400:263|400:263|435:306|455:374|358:465|235:391|250:266|346:247,1,432,6|0,0:3|0:0,0:0:0:0:
353,317,129538,1,2,0:3:0:0:
129,294,129646,6,0,B|76:280|76:280|75:313|116:326|116:326|213:354|213:354|250:363|274:338,1,287.999991210938,10|0,0:3|0:0,0:0:0:0:
229,270,129967,1,2,0:0:0:0:
282,52,130074,5,2,0:3:0:0:
352,143,130181,2,0,B|366:158|366:158|333:179|333:179|352:86,1,143.999995605469
146,12,130396,6,0,L|156:65,1,40,2|0,0:3|0:0,0:0:0:0:
189,133,130503,2,0,B|220:111|220:111|52:75|52:75|68:101,1,240.000009155274,10|0,0:2|0:0,0:0:0:0:
24,234,130824,1,0,0:0:0:0:
117,340,130931,6,1,B|155:363|242:347|271:222|173:166|91:195|111:268|111:268|74:216|7:248|3:314|65:334,1,480,2|2,0:3|0:3,0:0:0:0:
269,384,131360,5,10,0:0:0:0:
292,308,131467,1,2,0:3:0:0:
512,280,131574,6,0,P|438:271|353:382,1,207.999990478516,2|0,0:3|0:0,0:0:0:0:
259,164,131896,1,8,0:0:0:0:
334,122,132003,2,0,P|384:138|394:195,1,111.999996582031
480,149,132217,5,8,0:0:0:0:
499,3,132324,2,0,B|461:-7|461:-7|392:20|414:116,1,176.000005371094,2|0,0:3|0:3,0:0:0:0:
315,234,132646,6,0,B|255:246|255:246|194:345|194:345|119:361,1,240.000009155274,2|0,0:3|0:0,0:0:0:0:
25,250,132967,5,2,0:3:0:0:
56,346,133074,2,0,B|41:362|41:362|70:233,1,136.000002593994,8|0,0:0|0:0,0:0:0:0:
25,62,133288,2,0,B|17:82|17:82|37:182,1,103.999995239258,2|0,0:3|0:0,0:0:0:0:
155,218,133503,5,2,0:3:0:0:
204,108,133610,1,2,0:3:0:0:
293,134,133717,1,10,0:3:0:0:
488,213,133931,5,8,0:0:0:0:
504,51,134038,2,1,B|517:33|497:12|472:22|467:53|492:64|492:64|519:77|559:149|504:252|364:241|338:129|376:81,1,431.999986816407,8|2,0:3|0:3,0:0:0:0:
342,12,134467,6,0,B|310:13|295:5|295:5|309:45|285:87,1,128,8|0,0:0|0:0,0:0:0:0:
352,312,134681,5,2,0:2:0:0:
414,374,134788,2,0,B|434:365|434:365|445:286|445:286|421:260,1,128,8|0,0:0|0:0,0:0:0:0:
274,343,135003,5,2,0:0:0:0:
235,351,135110,1,8,0:0:0:0:
176,298,135217,5,2,0:3:0:0:
85,280,135324,1,8,0:0:0:0:
23,224,135431,5,8,0:0:0:0:
31,197,135538,1,8,0:0:0:0:
105,172,135646,5,10,0:2:0:0:
200,185,135753,5,8,0:0:0:0:
268,116,135860,5,8,0:0:0:0:
249,21,135967,5,8,0:0:0:0:
131,94,136074,6,0,B|106:95|100:65|134:47|157:63|163:83|163:83|184:177|184:177|188:196|220:220|253:201,1,272.000005187988,4|0,2:3|0:0,0:0:0:0:
436,92,136396,1,0,0:0:0:0:
507,142,136503,6,0,B|506:170|486:195|486:195|359:175|359:175|326:193|326:240,1,240.000009155274,8|0,0:0|0:0,0:0:0:0:
395,272,136824,1,0,0:0:0:0:
244,364,136931,5,0,0:0:0:0:
176,315,137038,2,0,B|187:298|187:298|267:281|267:281|287:295,1,120.000004577637,8|0,0:0|0:0,0:0:0:0:
353,343,137253,1,0,0:0:0:0:
512,288,137360,6,0,B|501:250|501:250|449:232|449:232|395:272|395:272|344:254|344:254|327:212,1,256,8|2,0:0|0:2,0:0:0:0:
323,197,137681,1,0,0:3:0:0:
220,73,137788,6,1,B|184:82|176:154|291:187|268:83|351:122|351:122|295:94|298:35|344:-18|429:17|385:74,1,431.999986816407,2|2,0:3|0:3,0:0:0:0:
476,82,138217,5,8,0:0:0:0:
464,164,138324,1,0,0:0:0:0:
329,217,138431,2,0,B|379:207|379:207|436:259|412:356,1,207.999990478516,2|2,0:0|0:2,0:0:0:0:
259,360,138753,5,10,0:2:0:0:
191,269,138860,2,0,B|176:246|176:246|75:264,1,120.000004577637,0|0,0:3|0:0,0:0:0:0:
36,357,139074,5,10,0:3:0:0:
113,249,139181,1,2,0:3:0:0:
47,197,139288,1,0,0:0:0:0:
80,122,139396,1,0,0:0:0:0:
13,10,139503,6,0,B|8:42|8:42|10:46|10:46|-1:136,1,120.000004577637,2|0,0:3|0:0,0:0:0:0:
145,172,139717,1,0,0:0:0:0:
206,12,139824,5,2,0:2:0:0:
283,91,139931,2,0,B|263:76|263:76|149:98,1,120.000004577637,8|0,0:0|0:0,0:0:0:0:
499,34,140146,2,0,B|476:57|476:57|346:37|346:37|322:1,1,191.999994140625,2|0,0:3|0:0,0:0:0:0:
236,170,140467,5,0,0:0:0:0:
316,200,140574,2,0,P|348:226|343:294,1,95.9999970703126,2|0,0:0|0:0,0:0:0:0:
447,316,140788,1,8,0:0:0:0:
436,157,140896,6,0,P|405:218|357:384,1,223.999993164063,0|0,0:2|0:0,0:0:0:0:
62,314,141217,6,0,P|157:346|249:237,1,240.000009155274
108,74,141538,1,0,0:0:0:0:
175,135,141646,2,0,B|187:178|169:224|169:224|186:189|224:175,1,143.999995605469,8|0,0:0|0:0,0:0:0:0:
348,59,141860,2,0,P|316:45|264:127,1,120.000004577637
359,289,142074,5,8,0:3:0:0:
429,194,142181,1,8,0:0:0:0:
507,228,142288,1,8,0:0:0:0:
308,358,142503,5,8,0:0:0:0:
167,314,142610,1,8,0:3:0:0:
65,363,142717,6,0,L|94:354,1,23.9999992675781,6|0,0:0|0:0,0:0:0:0:
260,267,142931,6,1,B|253:237|261:222|276:210|276:210|322:187|329:124|294:54|173:69|175:154|188:186|213:203,1,320,6|0,0:3|0:0,0:0:0:0:
203,182,143253,1,2,0:2:0:0:
123,113,143360,6,0,P|201:35|348:70,1,240.000009155274,10|2,0:0|0:3,0:0:0:0:
450,95,143681,1,0,0:0:0:0:
308,141,143788,5,8,0:3:0:0:
424,9,143896,2,0,B|407:61|407:61|423:87|428:138,1,120.000004577637,10|0,0:2|0:3,0:0:0:0:
335,328,144110,6,0,L|355:332,1,20,0|0,0:2|0:0,0:0:0:0:
486,345,144217,2,0,B|499:295|459:267|413:280|413:280|205:340|205:340|238:313|263:262,1,431.999986816407,10|0,0:2|0:0,0:0:0:0:
129,240,144646,6,0,B|88:293|-15:284|-46:185|29:116|123:159|132:226|132:226|162:235|162:235|169:264,1,383.99998828125,2|2,0:3|0:3,0:0:0:0:
250,384,144967,5,0,0:0:0:0:
199,129,145074,1,8,0:0:0:0:
442,207,145181,1,0,0:0:0:0:
380,263,145288,6,0,B|372:292|385:323|385:323|346:261|302:292|276:226|276:226|267:224|267:224|277:179|327:171,1,303.999991882324,2|0,0:3|0:0,0:0:0:0:
296,98,145610,5,8,0:0:0:0:
296,98,145717,2,0,P|353:95|399:148,1,120.000004577637
119,34,145931,5,8,0:0:0:0:
52,70,146038,2,0,P|131:68|285:6,1,207.999990478516,0|0,0:0|0:3,0:0:0:0:
324,171,146360,6,0,B|354:227|354:227|160:171,1,240.000009155274,6|0,0:3|0:0,0:0:0:0:
9,200,146681,5,0,0:0:0:0:
78,147,146788,2,0,B|92:165|92:165|78:243|78:243|90:258,1,120.000004577637,8|0,0:0|0:0,0:0:0:0:
36,373,147003,2,0,B|23:365|23:365|45:262,1,103.999995239258
184,178,147217,5,0,0:0:0:0:
243,277,147324,1,8,0:0:0:0:
329,258,147431,2,0,L|325:239,1,16,8|0,0:3|0:0,0:0:0:0:
505,378,147646,5,2,0:3:0:0:
405,310,147753,1,8,0:3:0:0:
317,337,147860,2,0,L|321:356,1,16,8|0,0:0|0:0,0:0:0:0:
492,278,148074,6,0,B|484:232|484:232|479:228|479:228|467:165,1,95.9999970703126,2|0,0:3|0:0,0:0:0:0:
250,133,148288,2,0,B|226:113|226:113|334:143,1,128,8|0,0:0|0:0,0:0:0:0:
484,67,148503,6,0,B|520:44|488:9|460:17|460:17|355:45|355:45|389:52|405:91,1,256,8|8,0:0|0:3,0:0:0:0:
340,234,148824,1,8,0:0:0:0:
241,340,148931,2,0,B|254:275|254:275|249:265|249:265|258:216,1,128,8|0,0:3|0:0,0:0:0:0:
126,353,149146,5,8,0:0:0:0:
91,340,149253,1,0,0:0:0:0:
134,259,149360,5,8,0:3:0:0:
24,214,149467,1,8,0:0:0:0:
90,150,149574,5,8,0:0:0:0:
83,115,149681,1,8,0:0:0:0:
119,41,149788,6,0,B|156:45|156:45|171:89|171:89|138:126|138:126|54:98|54:98|62:15|62:15|131:3,1,374.40001256836,6|0,0:2|2:3,0:0:0:0:
246,51,150217,6,0,B|263:69|263:69|259:106|259:106|237:121,1,88.8000021679688,8|0,0:0|0:0,0:0:0:0:
191,184,150431,6,0,B|342:152|342:152|285:164|273:219,1,249.600008378907,10|0,0:3|0:0,0:0:0:0:
352,231,150753,1,8,0:0:0:0:
296,290,150860,2,0,P|326:316|397:293,1,98.4000015014649,0|0,0:3|0:0,0:0:0:0:
422,128,151074,5,10,0:2:0:0:
431,249,151181,2,0,B|439:209|439:209|512:190|512:190|521:149|521:149|501:111|501:111|510:65,1,249.600008378907
443,17,151503,6,0,B|359:27|359:27|355:29|355:29|232:44|232:44|229:41|229:41|151:50,1,295.200004504395,2|0,0:2|0:0,0:0:0:0:
41,0,151931,2,0,B|25:5|25:5|11:58|11:58|24:69,1,88.8000021679688,8|0,0:0|0:0,0:0:0:0:
108,296,152146,6,0,B|50:287|39:239|65:195|118:201|118:201|150:153|150:153|136:173|107:174,1,267.199991641846,2|0,0:3|0:0,0:0:0:0:
92,102,152467,1,8,0:0:0:0:
230,133,152574,2,0,B|243:144|243:144|229:197|229:197|213:202,1,88.8000021679688
281,364,152788,5,10,0:2:0:0:
190,339,152896,2,0,B|200:289|200:289|312:270|312:270|345:315,1,214.399989858399
429,359,153217,5,2,0:2:0:0:
467,321,153324,1,0,0:0:0:0:
452,269,153431,1,0,0:0:0:0:
387,231,153538,5,0,0:0:0:0:
382,155,153646,5,8,0:0:0:0:
456,113,153753,1,0,0:0:0:0:
472,29,153860,2,0,B|459:19|459:19|414:30|414:30|406:52|406:52|337:70|337:70|305:30,1,196.80000300293,2|0,0:2|0:0,0:0:0:0:
190,32,154181,5,8,0:0:0:0:
303,144,154288,2,0,B|283:129|283:129|180:139|180:139|172:148|172:148|136:169|119:137|126:101|163:100|183:122,1,249.600008378907,2|10,0:2|0:2,0:0:0:0:
40,83,154610,2,0,B|16:67|-16:75|-16:75|42:24|108:42|108:42|55:75|54:129,1,284.800000217285,10|0,2:3|0:0,0:0:0:0:
175,115,154931,6,0,L|202:199,1,80,2|0,0:3|0:0,0:0:0:0:
116,314,155146,6,0,B|58:314|72:279|13:279,1,107.199994929199,2|0,0:2|0:0,0:0:0:0:
8,253,155360,2,0,B|-2:181|-2:181|30:194,1,107.199994929199,10|0,0:2|0:0,0:0:0:0:
120,230,155574,6,0,B|237:204|241:301|357:274,1,249.600008378907,2|0,0:2|0:0,0:0:0:0:
407,216,155896,1,8,0:0:0:0:
478,245,156003,5,2,2:3:0:0:
495,283,156110,1,2,2:3:0:0:
469,330,156217,1,10,2:2:0:0:
397,341,156324,5,2,2:3:0:0:
358,274,156431,1,2,2:2:0:0:
282,235,156538,1,2,2:3:0:0:
197,268,156646,6,0,B|112:284|112:284|83:289|31:280|4:232|30:156|94:139|157:158|186:228|142:278|100:286,1,374.40001256836,6|0,0:2|0:0,0:0:0:0:
131,333,157074,1,8,0:0:0:0:
292,188,157288,6,0,B|331:177|359:194|359:194|386:138|302:32|148:125|210:241|254:257|254:257|273:321|273:321|285:355|323:363|355:336|345:303|345:303|334:264,1,624.000020947266,2|0,0:3|0:0,0:0:0:0:
326,258,157931,1,10,0:2:0:0:
417,257,158038,6,0,B|441:251|441:251|465:86|465:86|444:75,1,214.399989858399,0|0,0:3|0:0,0:0:0:0:
392,15,158360,6,0,B|330:25|330:25|315:116|315:116|374:107,1,214.399989858399,2|0,0:2|0:0,0:0:0:0:
252,172,158681,5,0,0:0:0:0:
242,162,158788,2,0,L|248:217,1,35.9999989013672,8|0,0:0|0:0,0:0:0:0:
349,356,159003,6,0,B|410:372|410:372|420:367|420:367|458:289|458:289|453:278|453:278|319:242|319:242|345:298,1,348.000010620118,2|8,0:3|0:0,0:0:0:0:
233,330,159431,2,0,B|187:338|187:338|183:343|183:343|161:351|139:337|152:314|182:320,1,124.800004189453,8|0,2:3|0:0,0:0:0:0:
98,271,159646,5,10,2:2:0:0:
61,205,159753,1,2,0:3:0:0:
96,138,159860,1,2,0:2:0:0:
150,86,159967,6,0,L|180:95,1,22.4000002734375
92,38,160074,2,0,B|27:49|27:49|19:73|19:73|46:118|39:174|39:174|57:185|57:185|99:159|149:168|149:168|159:152|159:152|137:120|156:67,1,400.799987462769,6|0,0:2|0:0,0:0:0:0:
294,49,160503,6,0,B|322:54|322:54|329:35|329:35|290:26,1,89.60000109375,8|0,0:0|0:0,0:0:0:0:
372,115,160717,2,0,B|354:136|354:136|159:110|159:110|150:86,1,249.600008378907,10|0,2:3|0:0,0:0:0:0:
229,103,161038,5,8,0:0:0:0:
243,181,161146,2,0,L|257:268,1,71.2000000543213,8|0,2:3|0:0,0:0:0:0:
385,356,161360,5,10,0:2:0:0:
457,368,161467,1,8,2:3:0:0:
469,296,161574,5,8,0:0:0:0:
440,217,161681,1,8,0:0:0:0:
496,155,161788,1,14,0:3:0:0:
440,91,161896,5,8,2:3:0:0:
383,68,162003,1,8,2:3:0:0:
351,121,162110,1,8,2:3:0:0:
372,179,162217,1,8,0:0:0:0:
333,227,162324,1,8,2:3:0:0:
273,209,162431,1,10,2:3:0:0:
265,134,162538,6,0,L|274:46,1,71.2000000543213,8|8,0:0|2:3,0:0:0:0:
272,63,162753,5,8,2:3:0:0:
193,29,162860,5,8,0:0:0:0:
134,79,162967,5,8,0:0:0:0:
127,151,163074,5,8,0:0:0:0:
161,197,163181,5,8,0:3:0:0:
158,244,163288,5,8,2:3:0:0:
129,264,163396,5,8,0:3:0:0:
105,257,163503,5,8,0:0:0:0:
18,172,176146,6,0,P|5:157|8:138,1,40,8|0,0:0|0:0,0:0:0:0:
36,166,176253,2,0,P|39:147|27:132,1,40,8|0,0:0|0:0,0:0:0:0:
77,231,176360,6,0,B|86:243|86:243|104:249|104:249|96:226|105:203,1,80.0000030517579,8|0,3:2|0:0,0:0:0:0:
210,169,176503,2,0,B|195:170|195:170|180:183|180:183|204:187|217:205,1,80.0000030517579
159,305,176646,2,0,B|183:302|199:283|199:283|202:302|202:302|197:316,1,80.0000030517579,8|0,3:2|0:0,0:0:0:0:
272,376,176788,6,0,B|265:363|265:363|269:343|269:343|284:362|309:365,1,80.0000030517579,8|0,3:2|0:0,0:0:0:0:
385,377,176931,2,0,P|422:367|440:333,1,80.0000030517579,8|0,0:0|0:0,0:0:0:0:
493,271,177074,2,0,P|497:232|471:203,1,80.0000030517579,8|0,0:0|0:0,0:0:0:0:
331,152,177217,6,0,P|327:112|379:70,1,105.599999677734,4|0,3:1|2:0,0:0:0:0:
455,105,177860,1,0,0:0:0:0:
350,193,178074,6,1,B|271:153|285:25|434:-26|517:93|480:162|433:200|433:200|398:237|416:276,1,480,8|0,3:2|2:0,0:0:0:0:
448,343,178717,1,0,0:0:0:0:
248,207,178931,6,0,L|134:225,1,105.599999677734,0|0,0:0|2:0,0:0:0:0:
86,273,179574,1,0,0:0:0:0:
219,321,179681,1,0,0:0:0:0:
330,307,179788,6,0,B|278:285|256:235|256:235|122:256|122:256|121:274|121:274|104:262|104:262|28:273|28:273|95:272|147:310,1,480.000018310548,8|0,3:2|2:0,0:0:0:0:
60,359,180431,1,0,0:0:0:0:
32,78,180646,6,0,B|71:83|71:83|89:98|89:98|140:104,1,105.599999677734,0|0,0:0|2:0,0:0:0:0:
205,162,181288,1,0,0:0:0:0:
84,16,181503,6,0,B|3:3|3:3|26:60|26:60|70:66|70:66|95:81|95:81|176:90|176:90|232:10|232:10|326:20,1,480.000018310548,8|0,3:2|2:0,0:0:0:0:
348,127,182146,1,0,0:0:0:0:
465,154,182253,1,0,0:0:0:0:
412,76,182360,6,0,L|433:-7,2,79.1999997583008,0|0|8,0:0|0:0|3:2,0:0:0:0:
290,179,183110,5,8,3:2:0:0:
290,179,183217,2,0,B|372:192|372:192|417:199|408:270|360:261|360:261|205:234|205:234|155:225|166:158|218:165|218:165|290:179,1,480.000018310548,8|0,3:2|0:0,0:0:0:0:
270,107,183646,5,8,0:2:0:0:
225,48,183753,1,8,0:2:0:0:
131,36,183860,1,8,0:2:0:0:
58,109,183967,1,8,0:2:0:0:
91,229,184074,6,0,B|210:257|210:257|169:260|134:301,1,191.999994140625,4|0,2:1|0:0,0:0:0:0:
214,345,184396,1,0,0:0:0:0:
281,292,184503,2,0,P|300:321|291:384,1,95.9999970703126,8|0,0:0|0:0,0:0:0:0:
494,315,184717,5,8,0:3:0:0:
443,257,184824,1,0,0:0:0:0:
369,277,184931,2,0,B|355:247|355:247|380:170,1,95.9999970703126
481,45,185146,6,0,B|509:23|509:23|404:44,1,120.000004577637,8|0,0:3|0:0,0:0:0:0:
347,19,185360,1,8,0:0:0:0:
507,174,185467,6,0,B|451:164|451:164|417:117|417:117|358:106|358:106|295:161|295:161|209:145,1,320
163,30,185788,5,8,0:0:0:0:
269,50,185896,2,0,B|189:64|189:64|155:103,1,120.000004577637,8|0,0:0|0:0,0:0:0:0:
60,170,186110,1,8,0:3:0:0:
16,53,186217,1,8,0:0:0:0:
16,53,186431,5,8,0:3:0:0:
83,95,186538,1,0,0:0:0:0:
37,251,186646,6,0,B|56:287|56:287|185:317|185:317|240:273,1,240.000009155274,8|0,1:3|0:0,0:0:0:0:
383,306,186967,6,0,B|404:322|430:321|430:321|368:383|284:356|284:356|326:330|330:282,1,287.999991210938,8|0,1:3|0:0,0:0:0:0:
170,202,187288,6,0,B|51:208|28:52|123:-4|248:9|257:70|242:158|285:196|359:205|405:173|429:139|428:89|400:40|347:35|306:81,1,640,12|8,1:2|0:0,0:0:0:0:
297,79,187931,6,0,L|317:204,1,120.000004577637,8|0,0:0|0:0,0:0:0:0:
400,286,188146,1,0,0:0:0:0:
480,216,188253,6,0,P|409:180|295:285,1,240.000009155274,8|0,0:0|0:0,0:0:0:0:
227,350,188574,5,8,0:3:0:0:
203,345,188681,1,0,0:3:0:0:
168,268,188788,5,8,3:2:0:0:
19,310,188896,1,8,3:3:0:0:
99,365,189003,5,8,3:3:0:0:
97,352,189074,1,8,3:3:0:0:
99,338,189146,1,8,3:3:0:0:
104,329,189217,1,8,0:0:0:0:
22,51,189538,5,8,0:0:0:0:
309,142,189860,5,8,0:0:0:0:
309,142,190717,6,0,L|299:77,1,40
95,206,190931,6,0,B|73:240|73:240|173:284|246:192|246:192|212:180,1,272.000005187988,12|0,0:3|0:0,0:0:0:0:
180,96,191253,1,0,0:0:0:0:
49,114,191360,6,0,B|114:111|170:160|89:222|139:285|282:280,1,272.000005187988,8|0,0:0|0:0,0:0:0:0:
324,228,191681,1,0,0:0:0:0:
507,285,191788,5,0,0:0:0:0:
437,319,191896,2,0,B|456:311|456:311|471:234|471:234|458:218,1,120.000004577637,8|0,0:0|0:0,0:0:0:0:
414,25,192110,1,0,0:0:0:0:
499,27,192217,6,0,B|518:60|494:91|476:95|476:95|384:115|384:115|364:121|349:144|366:177|396:171|395:140,1,265.600003850098,8|2,0:0|0:0,0:0:0:0:
300,321,192538,1,0,0:0:0:0:
383,253,192646,6,0,B|296:247|249:151|305:66|305:66|246:133|289:207,1,384,10|2,0:3|0:3,0:0:0:0:
220,297,193074,1,8,0:0:0:0:
132,151,193181,1,0,0:0:0:0:
2,240,193288,6,0,B|21:258|21:258|187:220|187:220|197:195,1,223.999993164063,2|2,0:0|0:0,0:0:0:0:
316,72,193610,5,10,0:0:0:0:
248,131,193717,2,0,B|226:114|202:116|202:116|201:77|237:49,1,111.999996582031,8|0,0:3|0:0,0:0:0:0:
308,264,193931,5,2,0:3:0:0:
469,205,194038,2,0,B|480:161|433:139|433:139|427:194|390:239,1,191.999994140625,10|0,0:3|0:0,0:0:0:0:
200,357,194360,6,0,P|189:312|241:271,1,103.999995239258,10|0,0:3|0:0,0:0:0:0:
326,176,194574,1,0,0:0:0:0:
462,289,194681,5,2,0:0:0:0:
393,332,194788,2,0,P|331:323|270:319,1,103.999995239258,8|0,0:0|0:0,0:0:0:0:
47,161,195003,2,0,B|113:130|160:185|160:185|219:163|188:105,1,207.999990478516,10|0,0:3|0:0,0:0:0:0:
271,92,195324,5,8,0:0:0:0:
379,88,195431,2,0,B|374:45|335:44|335:44|349:65|351:95,1,103.999995239258,2|0,0:0|0:0,0:0:0:0:
201,41,195646,5,8,0:0:0:0:
407,167,195753,2,0,B|512:152|498:32|498:32|446:79,1,240.000009155274
327,159,196074,6,0,B|291:183|242:175|242:175|243:219|256:252|256:252|304:242|304:189,1,240.000009155274,8|0,0:3|0:0,0:0:0:0:
274,339,196396,1,0,0:0:0:0:
440,279,196503,2,0,B|405:251|377:254|377:254|368:286|343:303,1,120.000004577637,8|0,0:0|0:0,0:0:0:0:
117,333,196717,2,0,P|192:333|184:281,1,120.000004577637
107,185,196931,5,8,0:3:0:0:
42,244,197038,1,8,0:2:0:0:
102,101,197146,1,8,0:0:0:0:
470,244,197360,5,8,0:3:0:0:
410,101,197468,1,8,0:3:0:0:
401,191,197574,6,0,P|388:195|375:197,1,26.3999999194336,6|0,0:0|0:0,0:0:0:0:
237,221,197788,6,0,B|209:227|179:199|179:199|267:193|333:139|333:139|310:123|285:117,1,286.400003933105,14|0,0:3|0:0,0:0:0:0:
206,112,198110,1,10,0:3:0:0:
315,275,198217,2,0,P|248:138|213:10,1,264.0000025177,10|0,0:3|0:0,0:0:0:0:
124,1,198538,1,2,0:2:0:0:
59,133,198646,5,2,0:3:0:0:
44,52,198753,2,0,B|60:22|97:25|97:25|134:46|127:84,1,132.00000125885,8|0,0:0|0:0,0:0:0:0:
192,286,198967,6,0,B|159:273|159:273|178:239,1,66.0000006294251,2|0,0:3|0:0,0:0:0:0:
138,169,199074,2,0,B|115:214|59:228|59:228|181:191|331:178,1,335.999989746094,10|0,0:0|0:0,0:0:0:0:
423,217,199396,1,0,0:0:0:0:
310,72,199503,6,0,B|277:147|350:208|350:208|439:198|466:103|466:103|391:87|403:168,1,408.000007781983,10|2,0:3|0:3,0:0:0:0:
335,286,199931,5,10,0:0:0:0:
423,217,200038,1,2,0:3:0:0:
288,182,200146,2,0,P|208:224|205:343,1,212.799991232911,10|8,0:3|0:3,0:0:0:0:
122,200,200467,5,8,0:0:0:0:
63,264,200574,2,0,B|28:246|28:246|47:173,1,106.399995616455,8|0,0:3|0:0,0:0:0:0:
110,23,200788,1,8,0:0:0:0:
27,58,200896,2,0,B|21:81|37:96|37:96|149:114|149:114|169:99|171:71,1,191.999994140625,10|0,0:3|0:3,0:0:0:0:
312,82,201217,2,0,B|289:59|271:16|271:16|259:105|215:182,1,249.600008378907,10|0,0:3|0:0,0:0:0:0:
217,358,201538,5,2,0:3:0:0:
167,246,201646,2,0,B|160:268|140:294|140:294|200:269|265:265,1,136.000002593994,8|0,0:0|0:0,0:0:0:0:
406,195,201860,2,0,B|424:163|424:163|341:192,1,103.999995239258,2|0,0:3|0:0,0:0:0:0:
362,274,202074,5,2,0:3:0:0:
491,216,202181,1,10,0:3:0:0:
393,88,202288,1,10,0:3:0:0:
104,172,202503,5,8,0:0:0:0:
264,176,202610,2,0,B|261:243|197:251|197:251|191:190|128:168|128:168|176:127|157:75|157:75|215:57|250:113,1,431.999986816407,8|10,0:3|0:3,0:0:0:0:
331,79,203038,6,0,B|353:101|390:104|390:104|359:124|347:159,1,132.800001925049,8|0,0:0|0:0,0:0:0:0:
425,286,203253,5,2,0:3:0:0:
494,223,203360,2,0,B|502:212|500:196|500:196|469:169|469:169|430:181|430:181|420:191|422:202,1,132.800001925049,8|0,0:0|0:0,0:0:0:0:
338,381,203574,5,10,0:0:0:0:
329,329,203681,1,8,0:3:0:0:
216,314,203788,5,10,0:3:0:0:
229,236,203895,1,8,0:0:0:0:
304,181,204003,5,8,0:0:0:0:
292,90,204110,5,8,0:0:0:0:
206,55,204217,5,10,0:0:0:0:
134,115,204324,5,8,0:0:0:0:
148,207,204431,5,8,0:0:0:0:
229,236,204538,5,8,0:0:0:0:
229,141,204646,6,0,B|222:114|232:92|232:92|117:50|117:50|92:41|64:48|46:69|49:92,1,265.600003850098,12|0,0:3|0:0,0:0:0:0:
20,215,204967,5,0,0:0:0:0:
192,214,205074,2,0,B|182:281|115:312|51:275|41:194|101:158,1,265.600003850098,8|0,0:0|0:0,0:0:0:0:
306,125,205396,1,0,0:0:0:0:
371,301,205503,5,8,0:3:0:0:
442,345,205610,2,0,B|464:319|497:316|497:316|498:288|465:269,1,124.000000946045,8|0,0:0|0:0,0:0:0:0:
461,135,205824,5,0,0:0:0:0:
506,72,205931,2,0,P|434:41|383:172,1,248.00000189209,8|2,0:0|0:0,0:0:0:0:
387,178,206253,1,0,0:0:0:0:
275,214,206360,6,0,B|222:203|192:268|215:324|290:340|338:305|344:241|289:196|289:196|274:118|274:118|261:137,1,398.400005775147,10|2,0:3|0:3,0:0:0:0:
189,162,206788,5,8,0:0:0:0:
204,47,206896,1,0,0:0:0:0:
134,4,207003,2,0,B|106:22|106:22|90:155|90:155|112:186,1,203.199998449707,2|2,0:0|0:0,0:0:0:0:
171,241,207324,5,10,0:0:0:0:
255,211,207431,1,0,0:0:0:0:
320,249,207538,1,0,0:0:0:0:
371,218,207646,1,10,0:3:0:0:
409,240,207753,1,2,0:3:0:0:
482,204,207860,6,0,P|491:246|472:285,1,88.000002685547
400,324,208074,2,0,P|348:297|346:211,1,117.599994526978,10|0,0:3|0:0,0:0:0:0:
426,36,208288,5,0,0:0:0:0:
388,107,208396,1,2,0:0:0:0:
242,126,208503,2,0,L|98:136,1,117.599994526978,8|0,0:0|0:0,0:0:0:0:
44,174,208717,6,0,B|27:178|12:166|12:166|30:39|30:39|54:28|77:41|77:41|74:64,1,235.199989053956,10|0,0:3|0:0,0:0:0:0:
195,211,209038,5,10,0:0:0:0:
125,134,209146,2,0,B|140:183|104:180|120:231,1,97.5999959790041,8|0,0:3|0:0,0:0:0:0:
400,340,209360,5,8,0:0:0:0:
366,265,209467,2,0,B|356:241|370:211|370:211|346:187|346:187|330:268|330:268|324:298|287:309|256:285|265:247,1,284.800000217285,8|0,0:3|0:0,0:0:0:0:
195,211,209788,6,0,B|207:181|254:180|273:221|268:267|217:292|175:279|175:279|178:293|178:293|205:303|233:333|219:378,1,308.799992578736,8|0,0:3|0:0,0:0:0:0:
474,305,210110,5,0,0:0:0:0:
450,163,210217,2,0,B|418:162|398:193|398:193|429:202|439:237,1,123.199997556152,8|0,0:0|0:0,0:0:0:0:
366,265,210431,2,0,P|330:270|341:349,1,123.199997556152
338,350,210646,5,8,0:3:0:0:
373,278,210753,1,8,0:0:0:0:
350,178,210860,1,8,0:0:0:0:
157,286,211074,5,8,0:3:0:0:
187,107,211181,1,8,0:2:0:0:
263,73,211288,6,0,L|259:47,1,26.3999999194336,6|0,0:0|0:0,0:0:0:0:
255,27,211503,6,0,P|165:12|166:186,1,283.20000918274,14|0,0:3|0:0,0:0:0:0:
273,291,211824,1,2,0:0:0:0:
328,178,211931,6,0,B|362:176|372:141|372:141|340:111|289:126|289:126|260:95|210:95|191:139|208:184|261:176,1,300.799995410156,10|2,0:0|0:3,0:0:0:0:
272,305,212253,1,0,0:0:0:0:
437,226,212360,5,0,0:0:0:0:
415,348,212467,2,0,B|394:356|394:356|383:310|383:310|428:313|428:313|423:330,1,132.800001925049,10|0,0:0|0:0,0:0:0:0:
459,104,212681,5,0,0:0:0:0:
437,226,212788,2,0,B|406:217|406:217|395:151|395:151|390:145|390:145|286:133|286:133|280:137|280:137|256:241|256:241|328:237|328:237|336:196,1,424.800013774109,10|0,0:0|0:0,0:0:0:0:
384,68,213217,6,0,B|423:78|423:78|450:300|450:300|416:314,1,300.799995410156,10|2,0:3|0:3,0:0:0:0:
221,201,213538,5,0,0:0:0:0:
269,347,213646,1,8,0:0:0:0:
284,152,213753,1,0,0:0:0:0:
125,326,213860,6,0,B|32:340|32:340|61:264|61:264|10:200|10:200|164:176|164:176|196:172|225:203|204:244|177:247|177:247|148:250,1,553.600013515625,2|8,0:3|0:3,0:0:0:0:
19,24,214503,5,8,0:0:0:0:
96,30,214610,2,0,B|183:36|149:107|243:110,1,176.000005371094,8|0,0:3|0:0,0:0:0:0:
316,82,214931,6,0,P|360:19|375:119,1,235.199989053956,10|0,0:3|0:0,0:0:0:0:
332,177,215253,5,0,0:0:0:0:
209,222,215360,2,0,B|187:230|187:230|178:278|178:278|282:249,1,132.800001925049,8|0,0:0|0:0,0:0:0:0:
488,273,215574,2,0,B|456:282|456:282|432:326|432:326|384:339,1,132.800001925049
284,384,215788,5,8,0:3:0:0:
304,307,215896,1,8,0:0:0:0:
382,254,216003,1,8,0:0:0:0:
435,126,216217,5,2,0:3:0:0:
420,50,216324,1,8,0:3:0:0:
327,106,216431,6,0,L|331:135,1,26.3999999194336,4|0,0:0|0:0,0:0:0:0:
325,147,216646,6,0,B|177:166|177:166|144:170|104:132|130:83|165:77|165:77|391:51|391:51|418:47|443:61|449:91|449:91|463:178|463:178|426:169|377:189|360:253|395:308|479:331|541:247|478:186,1,987.999973617554,14|8,0:3|0:2,0:0:0:0:
411,145,218146,5,8,0:3:0:0:
341,151,218253,1,0,0:3:0:0:
308,219,218360,1,14,0:3:0:0:
316,245,218467,5,8,0:0:0:0:
238,194,218574,1,8,0:0:0:0:
157,214,218681,1,8,0:0:0:0:
118,284,218788,1,8,0:0:0:0:
134,356,218896,1,8,0:0:0:0:
63,333,219003,5,8,0:0:0:0:
118,284,219110,1,8,0:0:0:0:
198,279,219217,1,8,0:0:0:0:
269,323,219324,1,8,0:0:0:0:
346,287,219431,5,8,0:0:0:0:
351,273,219538,1,8,0:0:0:0:
437,263,219646,5,10,0:0:0:0:
489,206,219753,1,8,0:0:0:0:
494,126,219860,1,8,0:3:0:0:
444,58,219967,1,8,0:3:0:0:
357,45,220074,1,10,0:3:0:0:
357,45,220717,6,0,L|351:11,1,26.3999999194336
444,58,220931,6,0,L|449:83,1,26.3999999194336
355,190,221146,6,0,L|359:165,1,26.3999999194336
471,280,221360,6,0,L|445:275,1,26.3999999194336,2|0,2:0|0:0,0:0:0:0:
254,372,221574,6,0,L|279:367,1,26.3999999194336,0|0,0:3|0:0,0:0:0:0:
369,183,221788,6,0,B|391:170|391:170|422:185|438:249|406:315|370:320|370:320|352:304,1,230.400005625,4|0,0:0|0:0,0:0:0:0:
231,223,222110,5,0,0:0:0:0:
242,216,222217,2,0,L|248:173,1,25.6,8|0,0:0|0:0,0:0:0:0:
74,11,222431,6,0,B|37:17|37:17|21:110|21:110|57:141|57:141|106:124|106:124|114:79,1,276.800006757813
245,190,222753,5,8,0:0:0:0:
251,116,222860,2,0,B|242:104|242:104|211:112|211:112|208:128,1,62.4000020947266
167,283,223074,5,10,0:0:0:0:
160,289,223128,1,2,0:0:0:0:
153,295,223181,2,0,B|149:326|149:326|146:330|146:330|140:381,2,62.4000020947266,2|0|0,0:0|0:0|0:0,0:0:0:0:
47,376,223503,6,0,B|212:357|212:357|219:348|219:348|318:337,1,244.800011019288,8|0,1:3|0:0,0:0:0:0:
388,384,223824,1,8,1:3:0:0:
439,274,223931,2,0,L|414:277,1,25.6,8|0,0:0|0:0,0:0:0:0:
400,277,224146,6,0,B|426:270|436:247|428:215|428:215|416:163|416:163|408:129|420:106|443:98,1,207.999990478516,8|0,1:3|0:0,0:0:0:0:
300,5,224467,5,8,0:0:0:0:
336,131,224574,2,0,P|313:112|314:57,1,62.4000020947266
29,84,224788,5,8,0:0:0:0:
232,54,224896,2,0,B|190:32|137:87|165:118|109:172|71:149,1,207.999990478516
35,320,225217,6,0,P|139:322|143:218,1,230.400005625
71,149,225538,5,0,0:0:0:0:
86,141,225646,2,0,L|80:188,1,25.6,8|0,0:0|0:0,0:0:0:0:
90,268,225860,6,0,B|27:304|47:401|120:424|193:358|164:293,1,276.800006757813
266,228,226181,5,8,0:0:0:0:
209,175,226288,2,0,L|216:113,1,62.4000020947266
399,106,226503,5,10,0:0:0:0:
407,109,226556,1,2,0:0:0:0:
410,117,226610,2,0,L|403:179,1,62.4000020947266,2|0,0:0|0:0,0:0:0:0:
391,369,226824,1,0,0:0:0:0:
451,302,226931,6,0,B|449:270|409:258|386:265|386:265|300:299|300:299|334:285|342:248,1,244.800011019288,8|0,1:3|0:0,0:0:0:0:
329,70,227253,6,0,L|301:78,1,29.6000007226563,8|8,1:3|0:0,0:0:0:0:
266,228,227467,1,8,1:3:0:0:
202,271,227574,6,0,P|119:266|166:118,1,244.800011019288,0|0,3:0|0:0,0:0:0:0:
223,86,227896,5,8,0:0:0:0:
210,158,228003,1,8,0:0:0:0:
334,192,228110,5,8,0:0:0:0:
320,121,228217,1,8,0:0:0:0:
432,144,228324,5,8,0:0:0:0:
469,206,228431,1,8,0:0:0:0:
435,271,228538,1,8,0:0:0:0:
353,276,228646,6,0,B|211:320|211:320|262:317|316:351,1,244.800011019288,6|0,0:0|0:0,0:0:0:0:
159,374,228967,1,2,0:0:0:0:
190,220,229074,2,0,L|183:257,1,32,8|2,0:0|0:0,0:0:0:0:
38,346,229288,6,0,B|53:270|53:270|116:232|116:232|128:160|128:160|105:142|105:142|115:88,1,287.999991210938,2|0,0:0|0:0,0:0:0:0:
48,58,229610,5,8,0:0:0:0:
194,104,229717,2,0,B|237:92|237:92|241:87|241:87|290:73,1,95.9999970703126
495,11,229931,5,10,0:0:0:0:
495,11,229985,1,2,0:0:0:0:
495,11,230038,2,0,P|475:40|482:74,2,60.0000022888184,2|0|0,0:0|0:0|0:0,0:0:0:0:
360,22,230360,6,0,B|389:34|389:34|366:182|366:182|339:189,1,207.999990478516,8|0,1:3|0:0,0:0:0:0:
428,351,230681,1,8,1:3:0:0:
465,281,230788,2,0,L|423:267,1,32,8|0,0:0|0:0,0:0:0:0:
420,250,231003,6,0,B|349:234|303:300|334:311|286:372|208:347,1,240.000009155274,8|0,1:3|0:0,0:0:0:0:
24,360,231324,5,8,0:0:0:0:
39,282,231431,1,0,0:0:0:0:
186,273,231538,1,0,0:0:0:0:
120,377,231646,5,8,0:0:0:0:
24,191,231753,2,0,B|-7:160|-7:160|192:175|192:175|144:204,1,287.999991210938
246,54,232074,6,0,P|161:3|97:142,1,287.999991210938,8|0,0:0|0:0,0:0:0:0:
183,119,232396,5,0,0:0:0:0:
274,262,232503,2,0,L|267:308,1,32,8|0,0:0|0:0,0:0:0:0:
337,315,232717,6,0,B|322:393|198:371|191:261|265:151,1,287.999991210938
483,132,233038,5,8,0:0:0:0:
444,58,233146,2,0,B|447:87|447:87|452:90|452:90|457:125,1,60.0000022888184
354,234,233360,5,10,0:0:0:0:
354,234,233413,1,2,0:0:0:0:
354,234,233467,2,0,B|357:205|357:205|362:202|362:202|367:167,2,60.0000022888184,2|0|0,0:0|0:0|0:0,0:0:0:0:
512,297,233788,6,0,B|507:326|507:326|502:370|436:359|443:314|443:314|453:256|453:256|461:207|396:196|388:245|388:245|383:277,1,320,8|0,1:3|0:0,0:0:0:0:
298,382,234110,2,0,B|287:331|287:331|279:324|279:324|263:249,1,120.000004577637,8|8,1:3|0:0,0:0:0:0:
212,76,234324,5,8,1:3:0:0:
373,117,234431,2,0,B|427:102|427:102|428:136|386:149|386:149|286:178|286:178|249:187|225:161,1,287.999991210938,0|0,3:0|0:0,0:0:0:0:
129,92,234753,5,8,3:3:0:0:
116,97,234806,1,8,3:3:0:0:
103,102,234860,1,8,3:3:0:0:
26,64,234967,5,8,3:3:0:0:
109,186,235074,1,8,0:0:0:0:
41,254,235181,5,8,0:0:0:0:
91,329,235288,1,8,0:0:0:0:
173,296,235396,1,8,0:0:0:0:
262,346,235503,5,0,0:0:0:0:
270,341,235610,1,0,0:0:0:0:
279,344,235717,5,0,0:0:0:0:
289,344,235824,1,0,0:0:0:0:
293,335,235931,5,0,0:0:0:0:
304,341,236038,1,0,0:0:0:0:
314,342,236146,5,0,0:0:0:0:
324,335,236253,1,0,0:0:0:0:
334,340,236360,1,0,0:0:0:0:
435,238,236574,5,0,0:0:0:0:
425,240,236681,1,0,0:0:0:0:
416,234,236788,1,0,0:0:0:0:
323,133,237003,5,0,0:0:0:0:
323,133,237074,5,0,0:0:0:0:
323,133,237146,5,0,0:0:0:0:
323,133,237217,6,0,B|336:214|228:292|91:187|160:33|284:43|317:115|317:115|318:117|318:117|347:191|325:304|259:330|197:326,1,704,4|0,0:0|0:0,0:0:0:0:
