osu file format v14

[General]
AudioFilename: audio.mp3
AudioLeadIn: 0
PreviewTime: 56896
Countdown: 0
SampleSet: Drum
StackLeniency: 0.4
Mode: 0
LetterboxInBreaks: 0
EpilepsyWarning: 1
WidescreenStoryboard: 1

[Editor]
DistanceSpacing: 0.3
BeatDivisor: 4
GridSize: 4
TimelineZoom: 1.8

[Metadata]
Title:DEAR MY WAKER
TitleUnicode:DEAR MY WAKER
Artist:Yonekura Chihiro
ArtistUnicode:米倉千尋
Creator:Skystar
Version:Insane
Source:9-nine-ゆきいろゆきはなゆきのあと
Tags:collab captin1 nathan sukinathan ttmnzk tt mouse kuse ぱれっと palette yukiiro yukihana yukinoato eroge galgame visual novel flyingtuna japanese rock pop opening op KuBsNia_ZhoYL_ 堀江晶太 Amateurre Shizuku- shikibe mayu vahn10 Kazato Asa
BeatmapID:3224532
BeatmapSetID:1579180

[Difficulty]
HPDrainRate:4
CircleSize:4
OverallDifficulty:7
ApproachRate:8
SliderMultiplier:2.2
SliderTickRate:1

[Events]
//Background and Video events
0,0,"SPOILER_large_ev414a.jpg",0,0
//Break Periods
2,17788,29038
2,88274,94181
2,163703,175396
//Storyboard Layer 0 (Background)
//Storyboard Layer 1 (Fail)
//Storyboard Layer 2 (Pass)
//Storyboard Layer 3 (Foreground)
Sprite,Foreground,Centre,"sb/block.jpg",209,73 V,0,14360,,0.5,30 F,2,14360,15495,0.4,0 P,0,14360,15495,A
Sprite,Foreground,Centre,"sb/block.jpg",309,112 V,0,15003,,0.5,30 F,2,15003,15817,0.4,0 P,0,15003,15817,A
Sprite,Foreground,Centre,"sb/block.jpg",469,129 V,0,15431,,0.5,30 F,2,15431,16031,0.4,0 P,0,15431,16031,A
Sprite,Foreground,Centre,"sb/block.jpg",469,129 V,0,15538,,0.5,30 F,2,15538,16138,0.4,0 P,0,15538,16138,A
Sprite,Foreground,Centre,"sb/block.jpg",469,129 V,0,15646,,0.5,30 F,2,15646,16567,0.4,0 P,0,15646,16567,A
Sprite,Foreground,Centre,"sb/block.jpg",395,277 V,0,16074,,0.5,30 F,2,16074,16674,0.4,0 P,0,16074,16674,A
Sprite,Foreground,Centre,"sb/bubble.png",452,147 S,1,84646,84766,0.1,0.16 F,2,84646,85453,0.1,0 P,0,84646,85353,A
Sprite,Foreground,Centre,"sb/bubble.png",553,199 S,1,84860,84980,0.1,0.16 F,2,84860,85667,0.1,0 P,0,84860,85567,A
Sprite,Foreground,Centre,"sb/bubble.png",518,411 S,1,85074,85194,0.1,0.16 F,2,85074,85881,0.1,0 P,0,85074,85781,A
Sprite,Foreground,Centre,"sb/bubble.png",435,283 S,1,85288,85408,0.1,0.16 F,2,85288,85988,0.1,0 P,0,85288,85888,A
Sprite,Foreground,Centre,"sb/bubble.png",392,280 S,1,85395,85515,0.1,0.16 F,2,85395,86095,0.1,0 P,0,85395,85995,A
Sprite,Foreground,Centre,"sb/bubble.png",351,291 S,1,85502,85622,0.1,0.16 F,2,85502,86202,0.1,0 P,0,85502,86102,A
Sprite,Foreground,Centre,"sb/bubble.png",315,314 S,1,85609,85729,0.1,0.16 F,2,85609,86309,0.1,0 P,0,85609,86209,A
Sprite,Foreground,Centre,"sb/bubble.png",289,348 S,1,85716,85836,0.1,0.16 F,2,85716,86416,0.1,0 P,0,85716,86316,A
Sprite,Foreground,Centre,"sb/bubble.png",311,428 S,1,85931,86051,0.1,0.16 F,2,85931,86631,0.1,0 P,0,85931,86531,A
Sprite,Foreground,Centre,"sb/bubble.png",364,432 S,1,86038,86158,0.1,0.16 F,2,86038,86738,0.1,0 P,0,86038,86638,A
Sprite,Foreground,Centre,"sb/bubble.png",414,419 S,1,86145,86265,0.1,0.16 F,2,86145,86845,0.1,0 P,0,86145,86745,A
Sprite,Foreground,Centre,"sb/bubble.png",458,391 S,1,86252,86372,0.1,0.16 F,2,86252,86952,0.1,0 P,0,86252,86852,A
Sprite,Foreground,Centre,"sb/bubble.png",490,349 S,1,86359,86479,0.1,0.16 F,2,86359,87059,0.1,0 P,0,86359,86959,A
Sprite,Foreground,Centre,"sb/f/lastSection/ja\0042.png",44.64999,0 S,0,228645,,0.3 C,0,228645,,45,45,45 F,7,228645,229245,0,0.8 MY,7,228645,229245,205.2,222.2 MY,0,229245,234138,222.2,230.2 MY,7,234138,234738,230.2,247.2 F,7,234138,234738,0.8,0
Sprite,Foreground,Centre,"sb/f/lastSection/ja\0065.png",55.89999,0 S,0,228678,,0.3 C,0,228678,,45,45,45 F,7,228678,229278,0,0.8 MY,7,228678,229278,207.45,224.45 MY,0,229278,234171,224.45,232.45 MY,7,234171,234771,232.45,249.45 F,7,234171,234771,0.8,0
Sprite,Foreground,Centre,"sb/f/lastSection/ja\0061.png",65.64999,0 S,0,228711,,0.3 C,0,228711,,45,45,45 F,7,228711,229311,0,0.8 MY,7,228711,229311,207.45,224.45 MY,0,229311,234204,224.45,232.45 MY,7,234204,234804,232.45,249.45 F,7,234204,234804,0.8,0
Sprite,Foreground,Centre,"sb/f/lastSection/ja\0074.png",73.3,0 S,0,228744,,0.3 C,0,228744,,45,45,45 F,7,228744,229344,0,0.8 MY,7,228744,229344,205.95,222.95 MY,0,229344,234237,222.95,230.95 MY,7,234237,234837,230.95,247.95 F,7,234237,234837,0.8,0
Sprite,Foreground,Centre,"sb/f/lastSection/ja\006d.png",84.25,0 S,0,228777,,0.3 C,0,228777,,45,45,45 F,7,228777,229377,0,0.8 MY,7,228777,229377,207.3,224.3 MY,0,229377,234270,224.3,232.3 MY,7,234270,234870,232.3,249.3 F,7,234270,234870,0.8,0
Sprite,Foreground,Centre,"sb/f/lastSection/ja\0061.png",96.24999,0 S,0,228810,,0.3 C,0,228810,,45,45,45 F,7,228810,229410,0,0.8 MY,7,228810,229410,207.45,224.45 MY,0,229410,234303,224.45,232.45 MY,7,234303,234903,232.45,249.45 F,7,234303,234903,0.8,0
Sprite,Foreground,Centre,"sb/f/lastSection/ja\0070.png",105.4,0 S,0,228843,,0.3 C,0,228843,,45,45,45 F,7,228843,229443,0,0.8 MY,7,228843,229443,208.65,225.65 MY,0,229443,234336,225.65,233.65 MY,7,234336,234936,233.65,250.65 F,7,234336,234936,0.8,0
Sprite,Foreground,Centre,"sb/f/lastSection/ja\003a.png",113.8,0 S,0,228876,,0.3 C,0,228876,,45,45,45 F,7,228876,229476,0,0.8 MY,7,228876,229476,207.3,224.3 MY,0,229476,234369,224.3,232.3 MY,7,234369,234969,232.3,249.3 F,7,234369,234969,0.8,0
Sprite,Foreground,Centre,"sb/f/lastSection/ja\0053.png",128.5,0 S,0,228942,,0.3 C,0,228942,,45,45,45 F,7,228942,229542,0,0.8 MY,7,228942,229542,205.2,222.2 MY,0,229542,234435,222.2,230.2 MY,7,234435,235035,230.2,247.2 F,7,234435,235035,0.8,0
Sprite,Foreground,Centre,"sb/f/lastSection/ja\006b.png",138.55,0 S,0,228975,,0.3 C,0,228975,,45,45,45 F,7,228975,229575,0,0.8 MY,7,228975,229575,204.9,221.9 MY,0,229575,234468,221.9,229.9 MY,7,234468,235068,229.9,246.9 F,7,234468,235068,0.8,0
Sprite,Foreground,Centre,"sb/f/lastSection/ja\0079.png",148.3,0 S,0,229008,,0.3 C,0,229008,,45,45,45 F,7,229008,229608,0,0.8 MY,7,229008,229608,208.95,225.95 MY,0,229608,234501,225.95,233.95 MY,7,234501,235101,233.95,250.95 F,7,234501,235101,0.8,0
Sprite,Foreground,Centre,"sb/f/lastSection/ja\0073.png",157.15,0 S,0,229041,,0.3 C,0,229041,,45,45,45 F,7,229041,229641,0,0.8 MY,7,229041,229641,207.45,224.45 MY,0,229641,234534,224.45,232.45 MY,7,234534,235134,232.45,249.45 F,7,234534,235134,0.8,0
Sprite,Foreground,Centre,"sb/f/lastSection/ja\0074.png",164.8,0 S,0,229074,,0.3 C,0,229074,,45,45,45 F,7,229074,229674,0,0.8 MY,7,229074,229674,205.95,222.95 MY,0,229674,234567,222.95,230.95 MY,7,234567,235167,230.95,247.95 F,7,234567,235167,0.8,0
Sprite,Foreground,Centre,"sb/f/lastSection/ja\0061.png",173.65,0 S,0,229107,,0.3 C,0,229107,,45,45,45 F,7,229107,229707,0,0.8 MY,7,229107,229707,207.45,224.45 MY,0,229707,234600,224.45,232.45 MY,7,234600,235200,232.45,249.45 F,7,234600,235200,0.8,0
Sprite,Foreground,Centre,"sb/f/lastSection/ja\0072.png",181.75,0 S,0,229140,,0.3 C,0,229140,,45,45,45 F,7,229140,229740,0,0.8 MY,7,229140,229740,207.3,224.3 MY,0,229740,234633,224.3,232.3 MY,7,234633,235233,232.3,249.3 F,7,234633,235233,0.8,0
Sprite,Foreground,Centre,"sb/f/lastSection/ja\0042.png",42.64999,0 S,0,228645,,0.3 F,7,228645,229245,0,0.8 MY,7,228645,229245,203.2,220.2 MY,0,229245,234138,220.2,228.2 MY,7,234138,234738,228.2,245.2 F,7,234138,234738,0.8,0
Sprite,Foreground,Centre,"sb/f/lastSection/ja\0065.png",53.89999,0 S,0,228678,,0.3 F,7,228678,229278,0,0.8 MY,7,228678,229278,205.45,222.45 MY,0,229278,234171,222.45,230.45 MY,7,234171,234771,230.45,247.45 F,7,234171,234771,0.8,0
Sprite,Foreground,Centre,"sb/f/lastSection/ja\0061.png",63.65,0 S,0,228711,,0.3 F,7,228711,229311,0,0.8 MY,7,228711,229311,205.45,222.45 MY,0,229311,234204,222.45,230.45 MY,7,234204,234804,230.45,247.45 F,7,234204,234804,0.8,0
Sprite,Foreground,Centre,"sb/f/lastSection/ja\0074.png",71.3,0 S,0,228744,,0.3 F,7,228744,229344,0,0.8 MY,7,228744,229344,203.95,220.95 MY,0,229344,234237,220.95,228.95 MY,7,234237,234837,228.95,245.95 F,7,234237,234837,0.8,0
Sprite,Foreground,Centre,"sb/f/lastSection/ja\006d.png",82.25,0 S,0,228777,,0.3 F,7,228777,229377,0,0.8 MY,7,228777,229377,205.3,222.3 MY,0,229377,234270,222.3,230.3 MY,7,234270,234870,230.3,247.3 F,7,234270,234870,0.8,0
Sprite,Foreground,Centre,"sb/f/lastSection/ja\0061.png",94.24999,0 S,0,228810,,0.3 F,7,228810,229410,0,0.8 MY,7,228810,229410,205.45,222.45 MY,0,229410,234303,222.45,230.45 MY,7,234303,234903,230.45,247.45 F,7,234303,234903,0.8,0
Sprite,Foreground,Centre,"sb/f/lastSection/ja\0070.png",103.4,0 S,0,228843,,0.3 F,7,228843,229443,0,0.8 MY,7,228843,229443,206.65,223.65 MY,0,229443,234336,223.65,231.65 MY,7,234336,234936,231.65,248.65 F,7,234336,234936,0.8,0
Sprite,Foreground,Centre,"sb/f/lastSection/ja\003a.png",111.8,0 S,0,228876,,0.3 F,7,228876,229476,0,0.8 MY,7,228876,229476,205.3,222.3 MY,0,229476,234369,222.3,230.3 MY,7,234369,234969,230.3,247.3 F,7,234369,234969,0.8,0
Sprite,Foreground,Centre,"sb/f/lastSection/ja\0053.png",126.5,0 S,0,228942,,0.3 F,7,228942,229542,0,0.8 MY,7,228942,229542,203.2,220.2 MY,0,229542,234435,220.2,228.2 MY,7,234435,235035,228.2,245.2 F,7,234435,235035,0.8,0
Sprite,Foreground,Centre,"sb/f/lastSection/ja\006b.png",136.55,0 S,0,228975,,0.3 F,7,228975,229575,0,0.8 MY,7,228975,229575,202.9,219.9 MY,0,229575,234468,219.9,227.9 MY,7,234468,235068,227.9,244.9 F,7,234468,235068,0.8,0
Sprite,Foreground,Centre,"sb/f/lastSection/ja\0079.png",146.3,0 S,0,229008,,0.3 F,7,229008,229608,0,0.8 MY,7,229008,229608,206.95,223.95 MY,0,229608,234501,223.95,231.95 MY,7,234501,235101,231.95,248.95 F,7,234501,235101,0.8,0
Sprite,Foreground,Centre,"sb/f/lastSection/ja\0073.png",155.15,0 S,0,229041,,0.3 F,7,229041,229641,0,0.8 MY,7,229041,229641,205.45,222.45 MY,0,229641,234534,222.45,230.45 MY,7,234534,235134,230.45,247.45 F,7,234534,235134,0.8,0
Sprite,Foreground,Centre,"sb/f/lastSection/ja\0074.png",162.8,0 S,0,229074,,0.3 F,7,229074,229674,0,0.8 MY,7,229074,229674,203.95,220.95 MY,0,229674,234567,220.95,228.95 MY,7,234567,235167,228.95,245.95 F,7,234567,235167,0.8,0
Sprite,Foreground,Centre,"sb/f/lastSection/ja\0061.png",171.65,0 S,0,229107,,0.3 F,7,229107,229707,0,0.8 MY,7,229107,229707,205.45,222.45 MY,0,229707,234600,222.45,230.45 MY,7,234600,235200,230.45,247.45 F,7,234600,235200,0.8,0
Sprite,Foreground,Centre,"sb/f/lastSection/ja\0072.png",179.75,0 S,0,229140,,0.3 F,7,229140,229740,0,0.8 MY,7,229140,229740,205.3,222.3 MY,0,229740,234633,222.3,230.3 MY,7,234633,235233,230.3,247.3 F,7,234633,235233,0.8,0
Sprite,Foreground,Centre,"sb/f/intro\0053.png",204.9,0 S,0,1463,,0.45 F,7,863,1463,0,0.8 MY,7,863,1463,291.425,266.425 MY,0,1463,3145,266.425,259.425 MY,7,3145,3745,258.425,246.425 F,7,3145,3745,0.8,0
Sprite,Foreground,Centre,"sb/f/intro\006b.png",220.2,0 S,0,1496,,0.45 F,7,896,1496,0,0.8 MY,7,896,1496,291.2,266.2 MY,0,1496,3145,266.2,259.2 MY,7,3145,3745,258.2,246.2 F,7,3145,3745,0.8,0
Sprite,Foreground,Centre,"sb/f/intro\0079.png",234.15,0 S,0,1529,,0.45 F,7,929,1529,0,0.8 MY,7,929,1529,298.175,273.175 MY,0,1529,3145,273.175,266.175 MY,7,3145,3745,265.175,253.175 F,7,3145,3745,0.8,0
Sprite,Foreground,Centre,"sb/f/intro\0073.png",245.85,0 S,0,1562,,0.45 F,7,962,1562,0,0.8 MY,7,962,1562,295.25,270.25 MY,0,1562,3145,270.25,263.25 MY,7,3145,3745,262.25,250.25 F,7,3145,3745,0.8,0
Sprite,Foreground,Centre,"sb/f/intro\0074.png",255.3,0 S,0,1595,,0.45 F,7,995,1595,0,0.8 MY,7,995,1595,293.225,268.225 MY,0,1595,3145,268.225,261.225 MY,7,3145,3745,260.225,248.225 F,7,3145,3745,0.8,0
Sprite,Foreground,Centre,"sb/f/intro\0061.png",265.875,0 S,0,1628,,0.45 F,7,1028,1628,0,0.8 MY,7,1028,1628,295.25,270.25 MY,0,1628,3145,270.25,263.25 MY,7,3145,3745,262.25,250.25 F,7,3145,3745,0.8,0
Sprite,Foreground,Centre,"sb/f/intro\0072.png",277.8,0 S,0,1661,,0.45 F,7,1061,1661,0,0.8 MY,7,1061,1661,295.25,270.25 MY,0,1661,3145,270.25,263.25 MY,7,3145,3745,262.25,250.25 F,7,3145,3745,0.8,0
//Storyboard Sound Samples
Sample,122360,0,"storyboarded_hs\G#6.wav",90
Sample,127074,0,"storyboarded_hs\C7.wav",70
Sample,136074,0,"storyboarded_hs\G#6.wav",90
Sample,140896,0,"storyboarded_hs\C7.wav",66
Sample,190931,0,"storyboarded_hs\G#6.wav",90
Sample,195646,0,"storyboarded_hs\C7.wav",76
Sample,204646,0,"storyboarded_hs\G#6.wav",90
Sample,209360,0,"storyboarded_hs\C7.wav",76

[TimingPoints]
646,428.571428571429,4,2,3,28,1,0
646,-142.857142857143,4,2,3,28,0,0
7503,-83.3333333333333,4,1,2,70,0,0
13717,-83.3333333333333,4,1,2,60,0,0
13931,-83.3333333333333,4,1,2,75,0,0
14146,-83.3333333333333,4,1,2,90,0,0
14360,-142.857142857143,4,1,2,70,0,0
14467,-142.857142857143,4,2,3,50,0,0
29360,-142.857142857143,4,2,4,50,0,0
29788,-100,4,2,24,70,0,0
30753,-100,4,2,4,70,0,0
31074,-100,4,2,34,70,0,0
31181,-100,4,2,36,70,0,0
31288,-100,4,2,37,70,0,0
31396,-100,4,2,34,70,0,0
31503,-100,4,2,26,70,0,0
31931,-100,4,2,4,70,0,0
32146,-100,4,2,22,70,0,0
32467,-100,4,2,41,80,0,0
32574,-100,4,2,42,80,0,0
32681,-100,4,2,43,80,0,0
32788,-100,4,2,36,70,0,0
32896,-100,4,2,37,70,0,0
33003,-100,4,2,38,55,0,0
33110,-100,4,2,36,70,0,0
33217,-100,4,2,37,70,0,0
33646,-100,4,2,4,70,0,0
34503,-100,4,2,37,80,0,0
34610,-100,4,2,36,80,0,0
34717,-100,4,2,38,70,0,0
34824,-100,4,2,37,70,0,0
34931,-100,4,2,36,70,0,0
35360,-100,4,2,4,70,0,0
35574,-100,4,2,50,70,0,0
35896,-100,4,2,37,70,0,0
36003,-100,4,2,32,55,0,0
36110,-100,4,2,32,70,0,0
36217,-100,4,2,32,85,0,0
36324,-100,4,2,34,80,0,0
36431,-100,4,2,32,70,0,0
36538,-100,4,2,30,70,0,0
36646,-100,4,2,37,70,0,0
36967,-100,4,2,36,70,0,0
37074,-100,4,2,37,70,0,0
37288,-100,4,2,27,70,0,0
37931,-100,4,2,36,70,0,0
38038,-100,4,2,27,70,0,0
38360,-100,4,2,39,70,0,0
38574,-100,4,2,37,70,0,0
38681,-100,4,2,36,70,0,0
38788,-100,4,2,52,70,0,0
39003,-100,4,2,28,70,0,0
39324,-100,4,2,4,70,0,0
39431,-100,4,2,55,85,0,0
39646,-100,4,2,28,85,0,0
39860,-100,4,2,27,85,0,0
40074,-100,4,2,26,85,0,0
40288,-100,4,2,56,85,0,0
40396,-100,4,2,4,85,0,0
40503,-100,4,2,32,85,0,0
40717,-100,4,2,57,85,0,0
40824,-100,4,2,4,85,0,0
41146,-100,4,2,58,85,0,0
41360,-100,4,2,34,85,0,0
41467,-100,4,2,64,85,0,0
41574,-100,4,2,32,85,0,0
41681,-100,4,2,34,85,0,0
41788,-83.3333333333333,4,2,59,85,0,0
42110,-83.3333333333333,4,2,32,85,0,0
42217,-83.3333333333333,4,2,60,85,0,0
42431,-66.6666666666667,4,2,61,85,0,0
42753,-83.3333333333333,4,2,61,85,0,0
43503,-83.3333333333333,4,3,26,89,0,0
43610,-83.3333333333333,4,3,2,5,0,0
44574,-83.3333333333333,4,3,24,89,0,0
45217,-83.3333333333333,4,3,58,89,0,0
46074,-83.3333333333333,4,3,41,89,0,0
46181,-83.3333333333333,4,3,42,89,0,0
46288,-83.3333333333333,4,3,62,89,0,0
46503,-83.3333333333333,4,3,63,89,0,0
46610,-83.3333333333333,4,3,26,89,0,0
46931,-83.3333333333333,4,3,22,89,0,0
47574,-83.3333333333333,4,3,41,75,0,0
47646,-83.3333333333333,4,3,42,75,0,0
47717,-83.3333333333333,4,3,43,75,0,0
47788,-83.3333333333333,4,3,41,75,0,0
47860,-83.3333333333333,4,3,42,75,0,0
48217,-83.3333333333333,4,3,2,89,0,0
48646,-133.333333333333,4,3,61,89,0,0
49503,-133.333333333333,4,3,61,75,0,0
49610,-133.333333333333,4,3,61,40,0,0
49717,-100,4,3,61,55,0,0
49931,-100,4,3,2,45,0,0
50038,-100,4,3,2,50,0,0
50146,-100,4,3,2,55,0,0
50253,-100,4,3,2,60,0,0
50360,-100,4,2,4,70,0,0
53681,-100,4,2,4,45,0,0
53788,-100,4,2,4,75,0,0
53896,-100,4,2,4,45,0,0
54003,-100,4,2,4,55,0,0
54110,-100,4,2,4,65,0,0
54217,-100,4,2,4,75,0,0
54324,-100,4,2,4,55,0,0
54753,-100,4,2,4,75,0,0
54860,-100,4,2,4,45,0,0
55074,-100,4,2,4,75,0,0
55288,-100,4,2,4,55,0,0
55396,-100,4,2,4,45,0,0
55503,-100,4,2,4,35,0,0
56896,-100,4,2,0,5,0,0
57003,-100,4,2,10,45,0,0
57110,-100,4,2,0,5,0,0
57217,-76.9230769230769,4,2,68,80,0,1
57646,-76.9230769230769,4,2,70,80,0,1
58931,-76.9230769230769,4,2,72,80,0,1
59253,-76.9230769230769,4,2,70,80,0,1
60538,-76.9230769230769,4,2,70,60,0,1
60646,-76.9230769230769,4,2,78,80,0,1
60967,-76.9230769230769,4,2,70,80,0,1
61288,-76.9230769230769,4,2,103,80,0,1
61610,-76.9230769230769,4,2,70,80,0,1
62360,-76.9230769230769,4,2,80,80,0,1
62574,-76.9230769230769,4,2,70,80,0,1
63217,-76.9230769230769,4,2,17,80,0,1
63324,-76.9230769230769,4,2,70,80,0,1
63646,-76.9230769230769,4,2,18,80,0,1
63753,-76.9230769230769,4,2,70,80,0,1
63860,-76.9230769230769,4,2,70,55,0,1
63967,-76.9230769230769,4,2,0,5,0,1
64074,-76.9230769230769,4,2,66,80,0,1
64503,-76.9230769230769,4,2,70,80,0,1
65788,-76.9230769230769,4,2,85,80,0,1
66217,-76.9230769230769,4,2,70,80,0,1
66646,-76.9230769230769,4,2,19,80,0,1
66753,-76.9230769230769,4,2,70,80,0,1
67503,-76.9230769230769,4,2,90,80,0,1
67931,-76.9230769230769,4,2,70,80,0,1
69217,-76.9230769230769,4,2,76,80,0,1
69324,-76.9230769230769,4,2,70,80,0,1
70074,-76.9230769230769,4,2,79,80,0,1
70181,-76.9230769230769,4,2,70,80,0,1
70931,-76.9230769230769,4,2,68,80,0,1
71360,-76.9230769230769,4,2,70,80,0,1
72646,-76.9230769230769,4,2,72,80,0,1
72967,-76.9230769230769,4,2,70,80,0,1
74360,-76.9230769230769,4,2,78,80,0,1
74574,-76.9230769230769,4,2,70,80,0,1
75003,-76.9230769230769,4,2,103,80,0,1
75324,-76.9230769230769,4,2,70,80,0,1
76074,-76.9230769230769,4,2,80,80,0,1
76288,-76.9230769230769,4,2,70,80,0,1
76931,-76.9230769230769,4,2,17,80,0,1
77038,-76.9230769230769,4,2,70,80,0,1
77360,-76.9230769230769,4,2,18,80,0,1
77467,-76.9230769230769,4,2,70,80,0,1
77574,-76.9230769230769,4,2,70,55,0,1
77681,-76.9230769230769,4,2,0,5,0,1
77788,-76.9230769230769,4,2,92,80,0,1
78217,-76.9230769230769,4,2,70,80,0,1
79502,-76.9230769230769,4,2,94,80,0,1
79717,-76.9230769230769,4,2,70,80,0,1
81217,-76.9230769230769,4,2,97,80,0,1
81645,-76.9230769230769,4,2,70,80,0,1
82717,-76.9230769230769,4,2,70,55,0,1
82824,-76.9230769230769,4,2,0,5,0,1
82931,-76.9230769230769,4,2,98,80,0,1
83360,-76.9230769230769,4,2,70,80,0,1
84217,-76.9230769230769,4,2,21,80,0,1
84324,-76.9230769230769,4,2,70,60,0,1
84431,-76.9230769230769,4,2,70,80,0,1
84538,-76.9230769230769,4,2,70,60,0,1
84646,-76.9230769230769,4,2,67,80,0,1
84753,-76.9230769230769,4,2,70,60,0,1
84860,-76.9230769230769,4,2,70,75,0,1
84967,-76.9230769230769,4,2,70,85,0,1
85074,-76.9230769230769,4,2,70,90,0,1
85181,-76.9230769230769,4,2,70,60,0,1
85288,-76.9230769230769,4,2,70,90,0,1
85396,-76.9230769230769,4,2,70,60,0,1
85503,-76.9230769230769,4,2,70,90,0,1
85610,-76.9230769230769,4,2,70,80,0,1
85717,-76.9230769230769,4,2,70,70,0,1
85931,-76.9230769230769,4,2,70,80,0,1
86038,-76.9230769230769,4,2,70,60,0,1
86146,-76.9230769230769,4,2,70,70,0,1
86253,-76.9230769230769,4,2,70,80,0,1
86360,-76.9230769230769,4,2,99,80,0,0
87003,-133.333333333333,4,2,3,80,0,0
87110,-133.333333333333,4,2,3,5,0,0
87217,-133.333333333333,4,2,3,80,0,0
87324,-133.333333333333,4,2,3,5,0,0
87431,-133.333333333333,4,2,3,80,0,0
87538,-133.333333333333,4,2,3,5,0,0
87646,-133.333333333333,4,2,3,80,0,0
87753,-133.333333333333,4,2,3,5,0,0
87860,-133.333333333333,4,2,3,80,0,0
87967,-133.333333333333,4,2,3,5,0,0
88074,-133.333333333333,4,1,2,70,0,0
94181,-133.333333333333,4,1,2,50,0,0
94503,-133.333333333333,4,1,2,70,0,0
94931,-100,4,2,24,70,0,0
95360,-100,4,2,4,70,0,0
95574,-100,4,2,24,70,0,0
96217,-100,4,2,34,70,0,0
96324,-100,4,2,36,70,0,0
96431,-100,4,2,37,80,0,0
96538,-100,4,2,34,85,0,0
96646,-100,4,2,36,70,0,0
97074,-100,4,2,4,70,0,0
97288,-100,4,2,22,70,0,0
97610,-100,4,2,41,80,0,0
97717,-100,4,2,42,80,0,0
97824,-100,4,2,43,80,0,0
97931,-100,4,2,36,70,0,0
98038,-100,4,2,37,70,0,0
98146,-100,4,2,38,70,0,0
98253,-100,4,2,36,70,0,0
98360,-100,4,2,37,70,0,0
98788,-100,4,2,4,70,0,0
99646,-100,4,2,37,80,0,0
99753,-100,4,2,36,80,0,0
99860,-100,4,2,38,70,0,0
99967,-100,4,2,37,70,0,0
100074,-100,4,2,36,70,0,0
100503,-100,4,2,4,70,0,0
100717,-100,4,2,50,70,0,0
101038,-100,4,2,37,70,0,0
101146,-100,4,2,32,70,0,0
101467,-100,4,2,34,70,0,0
101574,-100,4,2,32,70,0,0
101681,-100,4,2,30,70,0,0
101788,-100,4,2,37,70,0,0
102110,-100,4,2,36,70,0,0
102217,-100,4,2,37,70,0,0
102431,-100,4,2,27,70,0,0
102860,-100,4,2,4,70,0,0
103074,-100,4,2,36,80,0,0
103288,-100,4,2,27,80,0,0
103503,-100,4,2,39,85,0,0
103717,-100,4,2,37,85,0,0
103824,-100,4,2,36,85,0,0
103931,-100,4,2,52,85,0,0
104146,-100,4,2,28,85,0,0
104467,-100,4,2,4,70,0,0
104574,-100,4,2,55,85,0,0
104788,-100,4,2,28,85,0,0
105003,-100,4,2,27,85,0,0
105217,-100,4,2,26,85,0,0
105431,-100,4,2,56,85,0,0
105646,-100,4,2,32,85,0,0
105860,-100,4,2,57,50,0,0
105967,-100,4,2,4,85,0,0
106288,-100,4,2,58,85,0,0
106503,-100,4,2,34,85,0,0
106610,-100,4,2,64,85,0,0
106717,-100,4,2,32,45,0,0
106824,-100,4,2,34,60,0,0
106931,-83.3333333333333,4,2,59,85,0,0
107253,-83.3333333333333,4,2,32,85,0,0
107360,-83.3333333333333,4,2,60,85,0,0
107574,-66.6666666666667,4,2,61,85,0,0
107896,-83.3333333333333,4,2,61,85,0,0
108110,-83.3333333333333,4,2,4,50,0,0
108217,-83.3333333333333,4,2,4,85,0,0
108646,-83.3333333333333,4,3,26,85,0,0
108860,-83.3333333333333,4,3,2,5,0,0
109717,-83.3333333333333,4,3,24,85,0,0
110360,-83.3333333333333,4,3,58,85,0,0
111217,-83.3333333333333,4,3,42,85,0,0
111324,-83.3333333333333,4,3,43,85,0,0
111431,-83.3333333333333,4,3,62,85,0,0
111646,-83.3333333333333,4,3,63,85,0,0
111753,-83.3333333333333,4,3,26,85,0,0
112074,-83.3333333333333,4,3,22,85,0,0
112396,-83.3333333333333,4,3,2,5,0,0
112717,-83.3333333333333,4,3,41,85,0,0
112931,-83.3333333333333,4,3,43,85,0,0
113146,-83.3333333333333,4,3,58,85,0,0
113360,-83.3333333333333,4,3,43,85,0,0
113467,-83.3333333333333,4,3,22,85,0,0
113789,-133.333333333333,4,3,61,85,0,0
114431,-133.333333333333,4,3,2,45,0,0
114646,-83.3333333333333,4,3,2,65,0,0
115074,-83.3333333333333,4,3,2,45,0,0
115181,-83.3333333333333,4,3,2,50,0,0
115289,-83.3333333333333,4,3,2,55,0,0
115396,-83.3333333333333,4,3,2,60,0,0
115503,-83.3333333333333,4,2,4,70,0,0
118396,-83.3333333333333,4,2,4,55,0,0
118503,-83.3333333333333,4,2,4,70,0,0
118931,-83.3333333333333,4,2,4,45,0,0
119360,-83.3333333333333,4,2,4,70,0,0
119467,-83.3333333333333,4,2,4,45,0,0
119896,-83.3333333333333,4,2,4,75,0,0
120003,-83.3333333333333,4,2,4,45,0,0
120217,-83.3333333333333,4,2,4,85,0,0
120324,-83.3333333333333,4,2,4,75,0,0
120431,-83.3333333333333,4,2,4,60,0,0
120646,-303.030303030303,4,2,4,60,0,0
121610,-303.030303030303,4,2,0,5,0,0
121717,-100,4,3,2,70,0,0
122146,-76.9230769230769,4,2,70,35,0,0
122253,-76.9230769230769,4,2,0,5,0,0
122360,-76.9230769230769,4,2,68,80,0,1
122788,-76.9230769230769,4,2,70,80,0,1
123860,-76.9230769230769,4,2,71,80,0,1
124074,-76.9230769230769,4,2,72,80,0,1
124396,-76.9230769230769,4,2,73,80,0,1
124503,-76.9230769230769,4,2,70,80,0,1
124717,-76.9230769230769,4,2,74,80,0,1
124931,-76.9230769230769,4,2,71,80,0,1
125038,-76.9230769230769,4,2,75,80,0,1
125146,-76.9230769230769,4,2,70,80,0,1
125360,-76.9230769230769,4,2,102,80,0,1
125467,-76.9230769230769,4,2,77,80,0,1
125681,-76.9230769230769,4,2,77,60,0,1
125788,-76.9230769230769,4,2,78,80,0,1
126110,-76.9230769230769,4,2,75,80,0,1
126431,-76.9230769230769,4,2,79,80,0,1
126860,-76.9230769230769,4,2,74,80,0,1
127074,-76.9230769230769,4,2,70,80,0,1
127503,-76.9230769230769,4,2,80,80,0,1
127931,-76.9230769230769,4,2,70,80,0,1
129003,-76.9230769230769,4,2,74,55,0,1
129110,-76.9230769230769,4,2,0,5,0,1
129217,-76.9230769230769,4,2,72,80,0,1
129538,-76.9230769230769,4,2,81,80,0,1
129646,-76.9230769230769,4,2,101,80,0,1
129967,-76.9230769230769,4,2,82,80,0,1
130074,-76.9230769230769,4,2,72,80,0,1
130396,-76.9230769230769,4,2,83,80,0,1
130503,-76.9230769230769,4,2,84,80,0,1
130931,-76.9230769230769,4,2,85,80,0,1
131253,-76.9230769230769,4,2,86,80,0,1
131360,-76.9230769230769,4,2,82,80,0,1
131467,-76.9230769230769,4,2,87,80,0,1
131574,-76.9230769230769,4,2,88,80,0,1
131896,-76.9230769230769,4,2,70,80,0,1
132324,-76.9230769230769,4,2,89,80,0,1
132646,-76.9230769230769,4,2,90,80,0,1
132967,-76.9230769230769,4,2,89,80,0,1
133074,-76.9230769230769,4,2,70,80,0,1
133288,-76.9230769230769,4,2,91,80,0,1
133503,-76.9230769230769,4,2,89,80,0,1
133610,-76.9230769230769,4,2,91,80,0,1
133717,-76.9230769230769,4,2,89,80,0,1
133931,-76.9230769230769,4,2,70,80,0,1
134360,-76.9230769230769,4,2,76,80,0,1
134467,-76.9230769230769,4,2,70,80,0,1
134681,-76.9230769230769,4,2,75,80,0,1
135003,-76.9230769230769,4,2,74,80,0,1
135110,-76.9230769230769,4,2,70,70,0,1
135217,-76.9230769230769,4,2,79,80,0,1
135324,-76.9230769230769,4,2,70,70,0,1
135431,-76.9230769230769,4,2,70,80,0,1
135646,-76.9230769230769,4,2,84,80,0,1
135753,-76.9230769230769,4,2,70,80,0,1
136074,-76.9230769230769,4,2,68,80,0,1
136503,-76.9230769230769,4,2,70,80,0,1
137574,-76.9230769230769,4,2,71,80,0,1
137788,-76.9230769230769,4,2,72,80,0,1
138110,-76.9230769230769,4,2,73,80,0,1
138217,-76.9230769230769,4,2,70,80,0,1
138431,-76.9230769230769,4,2,74,80,0,1
138646,-76.9230769230769,4,2,71,80,0,1
138753,-76.9230769230769,4,2,75,80,0,1
138860,-76.9230769230769,4,2,70,80,0,1
139074,-76.9230769230769,4,2,102,80,0,1
139181,-76.9230769230769,4,2,77,80,0,1
139503,-76.9230769230769,4,2,78,80,0,1
139824,-76.9230769230769,4,2,75,80,0,1
140146,-76.9230769230769,4,2,79,80,0,1
140574,-76.9230769230769,4,2,74,80,0,1
140788,-76.9230769230769,4,2,70,80,0,1
140896,-76.9230769230769,4,2,80,80,0,1
141217,-76.9230769230769,4,2,70,80,0,1
142717,-76.9230769230769,4,2,74,55,0,1
142824,-76.9230769230769,4,2,0,5,0,1
142931,-76.9230769230769,4,2,92,80,0,1
143253,-76.9230769230769,4,2,71,80,0,1
143360,-76.9230769230769,4,2,74,80,0,1
143574,-76.9230769230769,4,2,79,80,0,1
143788,-76.9230769230769,4,2,70,80,0,1
143896,-76.9230769230769,4,2,75,80,0,1
144110,-76.9230769230769,4,2,70,80,0,1
144217,-76.9230769230769,4,2,93,80,0,1
144646,-76.9230769230769,4,2,94,80,0,1
144860,-76.9230769230769,4,2,95,80,0,1
145074,-76.9230769230769,4,2,70,80,0,1
145288,-76.9230769230769,4,2,96,80,0,1
145610,-76.9230769230769,4,2,70,80,0,1
146360,-76.9230769230769,4,2,97,80,0,1
146788,-76.9230769230769,4,2,70,80,0,1
147646,-76.9230769230769,4,2,79,80,0,1
147753,-76.9230769230769,4,2,70,80,0,1
148074,-76.9230769230769,4,2,98,80,0,1
148288,-76.9230769230769,4,2,70,80,0,1
149146,-76.9230769230769,4,2,70,75,0,1
149253,-76.9230769230769,4,2,70,85,0,1
149360,-76.9230769230769,4,2,70,80,0,1
149788,-76.9230769230769,4,2,10,92,0,0
150217,-76.9230769230769,4,2,70,92,0,0
150431,-76.9230769230769,4,2,11,92,0,0
150860,-76.9230769230769,4,2,70,92,0,0
151074,-76.9230769230769,4,2,12,92,0,0
151503,-76.9230769230769,4,2,13,92,0,0
151931,-76.9230769230769,4,2,70,92,0,0
152146,-76.9230769230769,4,2,11,92,0,0
152574,-76.9230769230769,4,2,70,92,0,0
152788,-76.9230769230769,4,2,12,92,0,0
152896,-76.9230769230769,4,2,70,92,0,0
153217,-76.9230769230769,4,2,75,92,0,0
154181,-76.9230769230769,4,2,70,92,0,0
154288,-76.9230769230769,4,2,14,92,0,0
154503,-76.9230769230769,4,2,75,92,0,0
154610,-76.9230769230769,4,2,73,92,0,0
154931,-76.9230769230769,4,2,15,92,0,0
155146,-76.9230769230769,4,2,75,92,0,0
155360,-76.9230769230769,4,2,14,92,0,0
155574,-76.9230769230769,4,2,100,92,0,0
156003,-76.9230769230769,4,2,6,92,0,0
156110,-76.9230769230769,4,2,7,92,0,0
156217,-76.9230769230769,4,2,8,92,0,0
156324,-76.9230769230769,4,2,9,92,0,0
156431,-76.9230769230769,4,2,8,92,0,0
156538,-76.9230769230769,4,2,5,92,0,0
156646,-76.9230769230769,4,2,13,92,0,0
157288,-76.9230769230769,4,2,11,92,0,0
157931,-76.9230769230769,4,2,12,92,0,0
158360,-76.9230769230769,4,2,13,92,0,0
158788,-76.9230769230769,4,2,70,92,0,0
159003,-76.9230769230769,4,2,11,92,0,0
159431,-76.9230769230769,4,2,70,92,0,0
159646,-76.9230769230769,4,2,71,92,0,0
159753,-76.9230769230769,4,2,83,92,0,0
159860,-76.9230769230769,4,2,14,92,0,0
160074,-76.9230769230769,4,2,100,92,0,0
160503,-76.9230769230769,4,2,70,92,0,0
160717,-76.9230769230769,4,2,11,92,0,0
161146,-76.9230769230769,4,2,70,92,0,0
161360,-76.9230769230769,4,2,100,65,0,0
161467,-76.9230769230769,4,2,70,65,0,0
161574,-76.9230769230769,4,2,70,80,0,0
161788,-76.9230769230769,4,2,16,65,0,0
161896,-76.9230769230769,4,2,70,65,0,0
162003,-76.9230769230769,4,2,70,70,0,0
162110,-76.9230769230769,4,2,70,75,0,0
162217,-76.9230769230769,4,2,70,80,0,0
162324,-76.9230769230769,4,2,70,75,0,0
162431,-76.9230769230769,4,2,11,70,0,0
162753,-76.9230769230769,4,2,70,70,0,0
162860,-76.9230769230769,4,2,70,92,0,0
162967,-76.9230769230769,4,2,70,70,0,0
163288,-76.9230769230769,4,2,70,65,0,0
163396,-76.9230769230769,4,2,70,55,0,0
163503,-76.9230769230769,4,2,70,45,0,0
176146,-100,4,3,2,50,0,0
176431,-100,4,3,2,5,0,0
176503,-100,4,3,2,50,0,0
176574,-100,4,3,2,5,0,0
176646,-100,4,3,2,50,0,0
176717,-100,4,3,2,5,0,0
176788,-100,4,3,2,70,0,0
176860,-100,4,3,2,5,0,0
176896,-100,4,3,2,60,0,0
177003,-100,4,3,2,5,0,0
177056,-100,4,3,2,45,0,0
177146,-100,4,3,2,5,0,0
177217,-100,4,3,2,80,0,0
183217,-83.3333333333333,4,3,2,80,0,0
183646,-83.3333333333333,4,3,2,60,0,0
183753,-83.3333333333333,4,3,2,65,0,0
183860,-83.3333333333333,4,3,2,70,0,0
183967,-83.3333333333333,4,3,2,75,0,0
184074,-83.3333333333333,4,2,4,90,0,0
185146,-83.3333333333333,4,2,4,80,0,0
188574,-83.3333333333333,4,2,4,65,0,0
188788,-83.3333333333333,4,2,4,80,0,0
188896,-83.3333333333333,4,2,4,75,0,0
189003,-83.3333333333333,4,2,4,65,0,0
189217,-83.3333333333333,4,2,4,80,0,0
190717,-83.3333333333333,4,2,4,45,0,0
190824,-83.3333333333333,4,2,0,5,0,0
190931,-76.9230769230769,4,2,68,80,0,1
191360,-76.9230769230769,4,2,70,80,0,1
192431,-76.9230769230769,4,2,71,80,0,1
192646,-76.9230769230769,4,2,72,80,0,1
192967,-76.9230769230769,4,2,73,80,0,1
193074,-76.9230769230769,4,2,70,80,0,1
193288,-76.9230769230769,4,2,74,80,0,1
193503,-76.9230769230769,4,2,71,80,0,1
193610,-76.9230769230769,4,2,75,80,0,1
193931,-76.9230769230769,4,2,76,80,0,1
194038,-76.9230769230769,4,2,77,80,0,1
194360,-76.9230769230769,4,2,78,80,0,1
194681,-76.9230769230769,4,2,75,80,0,1
195003,-76.9230769230769,4,2,103,80,0,1
195324,-76.9230769230769,4,2,70,80,0,1
195431,-76.9230769230769,4,2,74,80,0,1
195646,-76.9230769230769,4,2,70,80,0,1
196074,-76.9230769230769,4,2,80,80,0,1
196396,-76.9230769230769,4,2,70,80,0,1
196931,-76.9230769230769,4,2,17,80,0,1
197038,-76.9230769230769,4,2,70,80,0,1
197360,-76.9230769230769,4,2,18,80,0,1
197467,-76.9230769230769,4,2,70,80,0,1
197574,-76.9230769230769,4,2,74,55,0,1
197681,-76.9230769230769,4,2,0,5,0,1
197788,-76.9230769230769,4,2,66,80,0,1
198110,-76.9230769230769,4,2,81,80,0,1
198217,-76.9230769230769,4,2,101,80,0,1
198538,-76.9230769230769,4,2,82,80,0,1
198646,-76.9230769230769,4,2,72,80,0,1
198753,-76.9230769230769,4,2,70,80,0,1
198967,-76.9230769230769,4,2,83,80,0,1
199074,-76.9230769230769,4,2,84,80,0,1
199503,-76.9230769230769,4,2,85,80,0,1
199824,-76.9230769230769,4,2,86,80,0,1
199931,-76.9230769230769,4,2,82,80,0,1
200038,-76.9230769230769,4,2,87,80,0,1
200146,-76.9230769230769,4,2,88,80,0,1
200360,-76.9230769230769,4,2,19,80,0,1
200467,-76.9230769230769,4,2,70,80,0,1
200896,-76.9230769230769,4,2,89,70,0,1
201217,-76.9230769230769,4,2,90,80,0,1
201538,-76.9230769230769,4,2,89,80,0,1
201646,-76.9230769230769,4,2,70,80,0,1
201860,-76.9230769230769,4,2,91,80,0,1
202074,-76.9230769230769,4,2,89,80,0,1
202181,-76.9230769230769,4,2,91,80,0,1
202288,-76.9230769230769,4,2,89,80,0,1
202503,-76.9230769230769,4,2,70,80,0,1
202931,-76.9230769230769,4,2,90,80,0,1
203038,-76.9230769230769,4,2,70,80,0,1
203253,-76.9230769230769,4,2,76,80,0,1
203360,-76.9230769230769,4,2,70,80,0,1
203574,-76.9230769230769,4,2,75,80,0,1
203788,-76.9230769230769,4,2,79,80,0,1
203896,-76.9230769230769,4,2,70,60,0,1
204003,-76.9230769230769,4,2,70,65,0,1
204110,-76.9230769230769,4,2,70,75,0,1
204217,-76.9230769230769,4,2,84,80,0,1
204646,-76.9230769230769,4,2,68,90,0,1
204967,-76.9230769230769,4,2,70,90,0,1
206146,-76.9230769230769,4,2,71,90,0,1
206360,-76.9230769230769,4,2,72,90,0,1
206681,-76.9230769230769,4,2,73,90,0,1
206788,-76.9230769230769,4,2,70,90,0,1
207003,-76.9230769230769,4,2,74,90,0,1
207217,-76.9230769230769,4,2,71,90,0,1
207324,-76.9230769230769,4,2,75,90,0,1
207646,-76.9230769230769,4,2,102,90,0,1
207753,-76.9230769230769,4,2,77,90,0,1
207860,-76.9230769230769,4,2,70,90,0,1
208074,-76.9230769230769,4,2,78,90,0,1
208396,-76.9230769230769,4,2,75,90,0,1
208717,-76.9230769230769,4,2,103,95,0,1
209039,-76.9230769230769,4,2,74,90,0,1
209146,-76.9230769230769,4,2,70,90,0,1
209360,-76.9230769230769,4,2,93,90,0,1
209467,-76.9230769230769,4,2,70,90,0,1
209788,-76.9230769230769,4,2,80,90,0,1
210217,-76.9230769230769,4,2,70,90,0,1
210646,-76.9230769230769,4,2,17,90,0,1
210753,-76.9230769230769,4,2,70,90,0,1
211074,-76.9230769230769,4,2,18,90,0,1
211181,-76.9230769230769,4,2,70,90,0,1
211288,-76.9230769230769,4,2,74,65,0,1
211396,-76.9230769230769,4,2,0,5,0,1
211503,-76.9230769230769,4,2,92,90,0,1
211824,-76.9230769230769,4,2,71,90,0,1
211931,-76.9230769230769,4,2,74,90,0,1
212146,-76.9230769230769,4,2,79,90,0,1
212360,-76.9230769230769,4,2,70,90,0,1
212467,-76.9230769230769,4,2,75,90,0,1
212682,-76.9230769230769,4,2,70,90,0,1
212788,-76.9230769230769,4,2,93,90,0,1
213217,-76.9230769230769,4,2,94,90,0,1
213431,-76.9230769230769,4,2,95,90,0,1
213538,-76.9230769230769,4,2,70,90,0,1
213860,-76.9230769230769,4,2,96,95,0,1
214182,-76.9230769230769,4,2,70,90,0,1
214931,-76.9230769230769,4,2,97,90,0,1
215360,-76.9230769230769,4,2,70,90,0,1
216217,-76.9230769230769,4,2,79,90,0,1
216324,-76.9230769230769,4,2,70,90,0,1
216431,-76.9230769230769,4,2,70,65,0,1
216538,-76.9230769230769,4,2,0,5,0,1
216646,-133.333333333333,4,2,98,90,0,1
218038,-133.333333333333,4,2,70,90,0,1
218146,-76.9230769230769,4,2,70,90,0,1
218360,-76.9230769230769,4,3,93,90,0,1
218467,-76.9230769230769,4,2,70,65,0,1
218574,-76.9230769230769,4,2,70,75,0,1
218681,-76.9230769230769,4,2,70,83,0,1
218788,-76.9230769230769,4,2,70,89,0,1
219110,-76.9230769230769,4,2,70,64,0,1
219217,-76.9230769230769,4,2,70,68,0,1
219324,-76.9230769230769,4,2,70,72,0,1
219431,-76.9230769230769,4,2,70,76,0,1
219646,-76.9230769230769,4,2,84,80,0,1
219753,-76.9230769230769,4,2,84,70,0,1
219860,-76.9230769230769,4,2,84,60,0,1
219967,-76.9230769230769,4,2,84,50,0,1
220074,-76.9230769230769,4,2,99,76,0,0
220717,-76.9230769230769,4,2,3,80,0,0
220824,-76.9230769230769,4,2,0,5,0,0
220931,-76.9230769230769,4,2,3,80,0,0
221038,-76.9230769230769,4,2,0,5,0,0
221146,-76.9230769230769,4,2,3,80,0,0
221253,-76.9230769230769,4,2,0,5,0,0
221360,-76.9230769230769,4,2,100,80,0,0
221467,-76.9230769230769,4,2,100,50,0,0
221788,-76.9230769230769,4,1,2,70,0,0
228646,-76.9230769230769,4,1,44,75,0,0
228860,-76.9230769230769,4,1,45,83,0,0
229074,-76.9230769230769,4,1,2,70,0,0
229181,-76.9230769230769,4,1,46,83,0,0
229288,-76.9230769230769,4,1,47,83,0,0
229717,-76.9230769230769,4,1,2,70,0,0
234753,-76.9230769230769,4,1,2,50,0,0
235074,-76.9230769230769,4,1,2,70,0,0
235503,-76.9230769230769,4,2,3,40,0,0
237003,-76.9230769230769,4,3,2,40,0,0
237217,-76.9230769230769,4,2,2,40,0,0
237646,-76.9230769230769,4,2,1,36,0,0
238074,-76.9230769230769,4,2,2,31,0,0
238503,-76.9230769230769,4,2,1,28,0,0
238931,-76.9230769230769,4,2,2,25,0,0
239360,-76.9230769230769,4,2,1,22,0,0
239788,-76.9230769230769,4,2,2,19,0,0
240217,-76.9230769230769,4,2,1,16,0,0
240646,-76.9230769230769,4,2,2,13,0,0
241074,-76.9230769230769,4,2,1,8,0,0
241503,-76.9230769230769,4,2,2,5,0,0

[Colours]
Combo1 : 252,78,177
Combo2 : 255,190,125
Combo3 : 188,188,188
Combo4 : 149,149,255

[HitObjects]
156,219,646,6,0,P|169:152|167:95,2,115.49999647522,0|0|2,0:0|0:0|0:0,0:0:0:0:
356,343,1717,1,0,0:0:0:0:
282,319,1931,2,0,L|218:327,2,38.4999988250733,0|0|2,0:0|0:0|0:0,0:0:0:0:
365,216,2360,6,0,P|352:149|354:92,2,115.49999647522,0|0|2,0:0|0:0|0:0,0:0:0:0:
211,36,3431,1,0,0:0:0:0:
293,59,3646,1,0,0:0:0:0:
166,108,3860,1,0,0:0:0:0:
166,108,4074,6,0,L|29:101,2,115.49999647522,0|0|2,0:0|0:0|0:0,0:0:0:0:
387,273,5146,1,0,0:0:0:0:
428,208,5360,2,0,P|430:190|424:154,2,38.4999988250733,0|0|2,0:0|0:0|0:0,0:0:0:0:
368,119,5788,6,0,L|505:112,2,115.49999647522,0|0|2,0:0|0:0|0:0,0:0:0:0:
493,304,7503,6,0,P|490:228|379:182,1,197.99999395752,4|0,0:0|0:0,0:0:0:0:
390,179,7931,1,8,0:0:0:0:
321,7,8146,2,0,P|324:72|309:167,1,131.99999597168
260,198,8467,1,8,0:0:0:0:
260,198,8574,1,0,0:0:0:0:
424,37,8788,1,2,1:1:0:0:
424,37,8896,1,2,1:1:0:0:
424,37,9003,1,0,0:0:0:0:
245,78,9217,6,0,P|183:87|113:93,1,131.99999597168,8|0,1:3|0:0,0:0:0:0:
114,93,9538,1,8,1:3:0:0:
114,93,9646,1,8,0:0:0:0:
45,289,9860,2,0,P|100:210|195:205,1,197.99999395752,8|0,1:3|0:0,0:0:0:0:
195,205,10288,1,0,0:0:0:0:
295,347,10503,1,8,0:0:0:0:
295,347,10610,2,0,P|233:312|167:313,1,131.99999597168
158,324,10931,5,0,0:0:0:0:
315,252,11146,1,0,0:0:0:0:
334,251,11253,1,0,0:0:0:0:
352,245,11360,1,8,0:0:0:0:
286,28,11574,2,0,P|292:95|300:188,1,131.99999597168
298,159,11896,1,8,0:0:0:0:
298,159,12003,1,0,0:0:0:0:
447,87,12217,1,10,1:1:0:0:
447,87,12324,1,2,1:1:0:0:
447,87,12431,1,0,0:0:0:0:
423,202,12646,5,8,1:3:0:0:
423,202,12753,2,0,P|366:220|323:307,1,131.99999597168,8|8,0:0|1:3,0:0:0:0:
275,347,13074,6,0,P|276:298|242:220,1,131.99999597168,8|8,0:0|1:3,0:0:0:0:
206,195,13396,1,8,0:0:0:0:
159,192,13503,1,0,0:0:0:0:
125,223,13610,1,8,0:0:0:0:
78,221,13717,1,8,0:0:0:0:
48,185,13824,1,8,0:0:0:0:
58,140,13931,1,8,0:0:0:0:
96,115,14038,1,8,0:0:0:0:
141,103,14146,1,8,0:0:0:0:
161,61,14253,1,8,0:0:0:0:
145,17,14360,6,0,L|103:11,5,38.4999988250733,0|0|0|0|0|0,1:2|0:0|0:0|0:0|0:0|0:0,0:0:0:0:
245,56,15003,6,0,L|272:28,2,38.4999988250733,0|0|2,0:0|0:0|0:0,0:0:0:0:
405,73,15431,5,0,0:0:0:0:
405,73,15538,1,0,0:0:0:0:
405,73,15646,2,0,P|359:91|317:177,1,115.49999647522,2|0,0:0|0:0,0:0:0:0:
331,221,16074,5,2,0:0:0:0:
46,182,29788,6,0,P|94:168|188:241,1,165,6|2,0:0|0:0,0:0:0:0:
186,239,30217,1,8,0:0:0:0:
275,367,30431,2,0,P|284:311|262:222,1,110,2|0,0:0|0:0,0:0:0:0:
276,258,30753,1,8,0:0:0:0:
276,258,30860,5,0,0:0:0:0:
196,331,31074,1,10,0:0:0:0:
266,163,31288,1,2,0:0:0:0:
450,299,31503,6,0,P|389:278|372:167,1,165,2|2,0:0|0:0,0:0:0:0:
376,178,31931,1,8,0:0:0:0:
168,238,32146,2,0,P|224:252|298:249,1,110,2|0,0:0|0:0,0:0:0:0:
289,242,32467,1,2,0:0:0:0:
287,258,32574,6,0,L|280:329,1,55,2|2,0:0|0:0,0:0:0:0:
207,373,32788,1,10,0:0:0:0:
110,184,33003,2,0,L|115:130,1,55,2|2,0:0|0:0,0:0:0:0:
91,165,33217,6,0,L|77:305,1,110,2|0,0:0|0:0,0:0:0:0:
67,284,33538,1,0,0:0:0:0:
50,286,33646,1,8,0:0:0:0:
187,237,33860,1,0,0:0:0:0:
317,378,34074,5,0,0:0:0:0:
317,378,34181,2,0,P|285:340|214:319,1,110,8|0,0:0|0:0,0:0:0:0:
230,320,34503,1,10,0:0:0:0:
363,112,34717,1,2,0:0:0:0:
363,112,34824,1,2,0:0:0:0:
363,112,34931,6,0,P|383:184|350:292,1,165,2|0,0:0|0:0,0:0:0:0:
349,275,35360,1,8,0:0:0:0:
472,226,35574,1,2,0:0:0:0:
291,162,35788,5,0,0:0:0:0:
255,144,35896,1,2,0:0:0:0:
217,148,36003,1,2,0:0:0:0:
188,173,36110,1,2,0:0:0:0:
178,210,36217,1,10,0:0:0:0:
258,278,36431,1,2,0:0:0:0:
82,297,36646,6,0,P|88:247|95:156,1,110,2|0,0:0|0:0,0:0:0:0:
118,88,36967,1,2,0:0:0:0:
118,88,37074,2,0,P|76:109|-2:101,1,110,10|2,0:0|0:0,0:0:0:0:
29,17,37396,1,0,0:0:0:0:
29,17,37503,6,0,L|84:8,1,55,0|8,0:0|0:0,0:0:0:0:
202,108,37717,2,0,L|195:162,1,55
235,234,37931,1,10,0:0:0:0:
284,157,38146,1,0,0:0:0:0:
222,352,38360,6,0,P|150:321|165:229,1,165,2|2,0:0|0:0,0:0:0:0:
144,231,38788,1,10,0:0:0:0:
297,293,39003,2,0,P|353:297|414:316,1,110,2|0,0:0|0:0,0:0:0:0:
404,311,39324,1,0,0:0:0:0:
404,311,39431,5,2,0:0:0:0:
366,208,39646,1,10,0:0:0:0:
281,278,39860,1,2,0:0:0:0:
232,148,40074,5,2,0:0:0:0:
133,326,40288,5,2,0:0:0:0:
191,246,40503,1,10,0:0:0:0:
94,222,40717,2,0,P|87:175|94:88,1,110,2|0,0:0|0:0,0:0:0:0:
89,112,41038,1,0,0:0:0:0:
89,112,41146,5,2,0:0:0:0:
191,246,41360,1,10,0:0:0:0:
258,65,41574,1,2,0:0:0:0:
175,144,41788,6,0,P|235:159|328:147,1,131.99999597168,6|0,0:0|0:0,0:0:0:0:
437,78,42217,1,10,0:0:0:0:
481,329,42431,2,0,P|425:275|289:310,1,165.000006294251,6|0,0:0|0:0,0:0:0:0:
288,334,42753,2,0,L|302:175,1,131.99999597168,8|0,0:0|0:0,0:0:0:0:
250,142,43074,5,8,0:0:0:0:
206,128,43181,1,0,0:0:0:0:
160,134,43288,1,8,0:0:0:0:
122,160,43395,1,8,0:0:0:0:
99,199,43502,1,10,3:2:0:0:
126,310,44574,6,0,P|190:299|248:327,1,131.99999597168,10|0,3:2|0:0,0:0:0:0:
318,380,44896,2,0,P|332:321|333:229,1,131.99999597168,8|0,3:2|0:0,0:0:0:0:
430,216,45217,2,0,P|421:248|419:281,1,65.9999979858399,10|0,3:2|0:0,0:0:0:0:
422,48,46074,5,2,3:2:0:0:
422,48,46181,1,2,3:2:0:0:
422,48,46288,2,0,P|361:49|269:35,1,131.99999597168,10|2,3:2|3:2,0:0:0:0:
311,126,46610,2,0,P|250:127|160:141,1,131.99999597168,10|0,3:2|0:0,0:0:0:0:
42,45,46931,2,0,P|100:11|93:101,1,197.99999395752,6|0,3:2|0:0,0:0:0:0:
132,299,47574,6,0,L|127:250,2,43.9999986572266,2|2|2,3:2|3:2|3:2,0:0:0:0:
146,282,47788,2,0,L|157:195,1,65.9999979858399,2|2,3:2|3:2,0:0:0:0:
178,69,48646,6,0,P|128:23|96:179,1,330.000012588501,6|8,3:2|3:2,0:0:0:0:
201,197,49717,1,0,0:0:0:0:
197,213,49824,1,0,0:0:0:0:
193,229,49931,1,8,3:2:0:0:
189,245,50038,1,8,3:2:0:0:
186,261,50146,1,8,3:2:0:0:
183,277,50253,1,8,3:2:0:0:
180,293,50360,6,0,L|34:310,1,110,4|0,0:0|0:0,0:0:0:0:
70,305,50681,1,0,0:0:0:0:
70,305,50788,1,8,0:0:0:0:
270,123,51003,2,0,P|253:171|276:268,1,110
262,243,51324,1,8,0:0:0:0:
275,252,51431,1,0,0:0:0:0:
329,320,51646,2,0,L|475:303,1,110,8|0,0:0|0:0,0:0:0:0:
388,168,52074,5,0,0:0:0:0:
498,232,52288,1,0,0:0:0:0:
498,232,52396,1,0,0:0:0:0:
498,232,52503,2,0,P|515:184|492:87,1,110,8|0,0:0|0:0,0:0:0:0:
368,62,52931,1,0,0:0:0:0:
368,62,53038,1,0,0:0:0:0:
368,62,53146,1,0,0:0:0:0:
274,180,53360,1,8,0:0:0:0:
164,100,53574,1,0,0:0:0:0:
164,100,53681,1,10,0:3:0:0:
164,100,53788,6,0,L|172:164,1,55,12|8,0:0|0:0,0:0:0:0:
131,239,54003,2,0,L|77:245,1,55,8|8,0:0|0:0,0:0:0:0:
217,325,54217,6,0,L|224:270,1,55,8|8,0:0|0:0,0:0:0:0:
85,31,54431,6,0,L|79:85,1,55,8|0,0:3|0:0,0:0:0:0:
192,185,54646,5,8,0:3:0:0:
229,195,54753,1,8,0:3:0:0:
267,188,54860,1,8,0:3:0:0:
298,165,54967,1,8,0:3:0:0:
314,130,55074,1,8,0:0:0:0:
347,99,55181,1,8,0:0:0:0:
390,89,55288,1,8,0:0:0:0:
431,106,55396,1,8,0:0:0:0:
457,141,55503,1,8,0:0:0:0:
256,192,55610,12,0,56788,0:0:0:0:
176,187,57003,5,0,0:0:0:0:
280,359,57217,2,0,P|293:302|286:203,1,142.99999345398,12|0,2:3|0:0,0:0:0:0:
140,111,57538,1,0,0:0:0:0:
140,111,57646,2,0,P|127:168|134:267,1,142.99999345398,8|0,0:0|0:0,0:0:0:0:
194,372,57967,1,0,0:0:0:0:
194,372,58074,6,0,L|204:302,1,71.4999967269899,0|8,0:0|0:0,0:0:0:0:
277,204,58288,2,0,P|311:200|347:194,1,71.4999967269899
485,342,58503,2,0,P|438:291|337:306,1,142.99999345398,8|0,0:0|2:3,0:0:0:0:
282,287,58824,1,0,0:0:0:0:
288,296,58931,6,0,P|208:294|229:160,1,214.49999018097,8|0,2:3|2:3,0:0:0:0:
290,61,59360,1,8,0:0:0:0:
290,61,59467,1,0,0:0:0:0:
290,61,59574,2,0,P|280:136|276:227,1,142.99999345398,0|0,2:3|2:3,0:0:0:0:
450,132,59896,1,8,2:2:0:0:
450,132,60003,6,0,P|410:133|362:138,1,71.4999967269899,8|0,0:3|0:0,0:0:0:0:
185,79,60217,1,8,2:0:0:0:
185,79,60324,1,8,2:3:0:0:
185,79,60431,1,0,0:0:0:0:
206,359,60646,6,0,P|234:316|219:209,1,142.99999345398,8|0,2:3|0:0,0:0:0:0:
229,227,60967,1,8,0:3:0:0:
229,227,61074,1,8,0:0:0:0:
341,57,61288,6,0,P|313:100|328:207,1,142.99999345398,8|0,2:3|0:0,0:0:0:0:
317,188,61610,1,8,0:0:0:0:
317,188,61717,1,0,2:3:0:0:
217,127,61931,5,8,2:0:0:0:
217,127,62038,2,0,B|142:131|173:84|75:79,1,142.99999345398,8|0,0:3|0:0,0:0:0:0:
58,88,62360,5,8,0:3:0:0:
224,43,62574,1,0,0:0:0:0:
244,36,62681,1,0,0:0:0:0:
265,33,62788,1,8,0:0:0:0:
102,172,63003,5,0,0:0:0:0:
250,207,63217,1,8,0:3:0:0:
270,211,63324,1,8,0:0:0:0:
291,211,63431,1,8,0:2:0:0:
364,57,63646,5,8,0:3:0:0:
364,57,63753,2,0,P|417:66|461:166,1,142.99999345398,8|0,0:0|0:0,0:0:0:0:
388,165,64074,6,0,P|369:233|372:304,1,142.99999345398,12|0,0:3|0:0,0:0:0:0:
431,374,64396,1,0,0:0:0:0:
431,374,64503,2,0,P|363:356|292:359,1,142.99999345398,8|0,0:0|0:0,0:0:0:0:
293,277,64824,1,0,0:0:0:0:
293,277,64931,6,0,P|256:280|205:282,1,71.4999967269899,0|8,0:0|0:0,0:0:0:0:
84,380,65146,2,0,P|93:344|101:293,1,71.4999967269899
160,153,65360,2,0,P|92:156|70:220,1,142.99999345398,8|0,0:0|0:0,0:0:0:0:
153,242,65681,1,0,0:0:0:0:
153,242,65788,6,0,B|271:263|227:153|352:175,1,214.49999018097,8|0,0:3|0:0,0:0:0:0:
427,131,66217,1,8,0:0:0:0:
427,131,66324,1,0,0:0:0:0:
427,131,66431,2,0,P|405:67|319:81,1,142.99999345398,8|8,0:3|0:3,0:0:0:0:
272,128,66753,1,8,0:0:0:0:
272,128,66860,6,0,P|260:171|273:227,1,71.4999967269899
375,261,67074,1,8,0:0:0:0:
375,261,67181,1,8,0:3:0:0:
375,261,67288,1,0,0:0:0:0:
306,345,67503,6,0,P|242:361|133:326,1,142.99999345398,8|0,0:3|0:0,0:0:0:0:
167,346,67824,1,0,0:0:0:0:
167,346,67931,1,8,0:0:0:0:
108,237,68146,1,8,0:3:0:0:
214,174,68360,1,8,0:3:0:0:
214,174,68467,1,8,0:0:0:0:
214,174,68574,1,8,0:0:0:0:
258,273,68788,5,8,0:0:0:0:
258,273,68896,2,0,P|253:188|285:49,1,214.49999018097,8|8,0:3|0:3,0:0:0:0:
279,62,69324,2,0,P|371:70|461:43,1,142.99999345398,8|8,0:0|0:3,0:0:0:0:
488,166,69646,2,0,P|427:155|300:170,1,142.99999345398,8|8,0:0|0:0,0:0:0:0:
310,182,69967,5,0,0:0:0:0:
289,219,70074,1,8,0:3:0:0:
295,261,70181,1,8,0:0:0:0:
320,295,70288,1,8,0:0:0:0:
307,336,70396,1,8,0:0:0:0:
267,353,70503,1,8,0:3:0:0:
229,333,70610,1,8,0:0:0:0:
220,291,70717,1,8,0:0:0:0:
179,277,70824,1,8,0:0:0:0:
144,302,70931,6,0,P|95:308|-19:299,1,142.99999345398,12|0,0:3|0:0,0:0:0:0:
0,130,71253,1,0,0:0:0:0:
0,130,71360,2,0,P|49:124|163:133,1,142.99999345398,8|0,0:0|0:0,0:0:0:0:
209,175,71681,1,0,0:0:0:0:
209,175,71788,6,0,L|203:266,1,71.4999967269899,0|8,0:0|0:0,0:0:0:0:
336,104,72003,2,0,L|264:108,1,71.4999967269899
344,333,72217,2,0,L|324:191,1,142.99999345398,8|0,0:0|0:0,0:0:0:0:
378,32,72538,1,0,0:0:0:0:
378,32,72646,6,0,P|482:50|494:185,1,214.49999018097,8|0,0:3|0:0,0:0:0:0:
452,212,73074,1,8,0:0:0:0:
452,212,73181,1,0,0:0:0:0:
452,212,73288,2,0,P|379:208|309:219,1,142.99999345398,8|0,0:3|0:0,0:0:0:0:
245,168,73610,1,8,0:0:0:0:
245,168,73717,6,0,P|241:126|272:58,1,71.4999967269899,8|0,0:3|0:0,0:0:0:0:
399,78,73931,1,8,0:0:0:0:
401,99,74038,1,8,0:3:0:0:
396,120,74146,1,0,0:0:0:0:
322,329,74360,6,0,P|337:265|316:160,1,142.99999345398,8|0,0:3|0:0,0:0:0:0:
328,189,74681,1,0,0:0:0:0:
328,189,74788,1,8,0:0:0:0:
189,255,75003,6,0,P|118:274|60:364,1,142.99999345398,8|0,0:3|0:0,0:0:0:0:
71,346,75324,1,8,0:0:0:0:
80,365,75431,1,8,0:3:0:0:
1,182,75646,5,8,0:0:0:0:
1,182,75753,2,0,P|71:174|150:162,1,142.99999345398,8|0,0:3|0:0,0:0:0:0:
159,133,76074,5,8,0:3:0:0:
229,235,76288,1,0,0:0:0:0:
229,235,76396,1,0,0:0:0:0:
229,235,76503,1,8,0:0:0:0:
371,94,76717,5,8,0:3:0:0:
269,146,76931,1,8,0:3:0:0:
269,146,77038,1,8,0:0:0:0:
269,146,77146,1,8,0:2:0:0:
388,336,77360,5,8,0:3:0:0:
388,336,77467,2,0,P|361:277|356:187,1,142.99999345398,8|0,0:0|0:0,0:0:0:0:
490,16,77788,6,0,P|442:49|334:16,1,142.99999345398,12|0,0:3|0:0,0:0:0:0:
177,79,78110,1,0,0:0:0:0:
177,79,78217,2,0,P|245:66|305:102,1,142.99999345398,8|0,0:0|0:0,0:0:0:0:
365,168,78538,1,0,0:0:0:0:
365,168,78646,6,0,L|353:255,1,71.4999967269899,0|8,0:0|0:0,0:0:0:0:
282,374,78860,2,0,L|291:303,1,71.4999967269899
280,285,79074,2,0,L|105:299,1,142.99999345398,8|0,0:0|0:0,0:0:0:0:
69,340,79396,1,0,0:0:0:0:
69,340,79503,6,0,P|52:277|68:170,1,142.99999345398,8|0,0:3|0:0,0:0:0:0:
132,157,79824,1,0,0:0:0:0:
132,157,79931,2,0,L|142:61,1,71.4999967269899,8|0,0:0|0:0,0:0:0:0:
206,37,80146,2,0,P|278:32|343:98,1,142.99999345398,8|0,0:3|0:0,0:0:0:0:
331,73,80467,1,8,0:0:0:0:
331,73,80574,1,8,0:3:0:0:
373,182,80788,5,8,0:0:0:0:
373,182,80896,1,8,0:3:0:0:
373,182,81003,2,0,L|478:167,1,71.4999967269899
431,199,81217,6,0,L|244:186,1,142.99999345398,12|0,0:3|0:0,0:0:0:0:
213,183,81538,1,0,0:0:0:0:
213,183,81646,1,8,0:0:0:0:
327,293,81860,5,0,0:0:0:0:
147,382,82074,1,0,0:0:0:0:
147,382,82181,1,8,0:0:0:0:
147,382,82288,1,8,0:3:0:0:
231,270,82503,5,8,0:0:0:0:
231,270,82610,1,8,0:3:0:0:
231,270,82717,2,0,L|225:357,1,71.4999967269899
63,355,82931,6,0,P|34:280|60:136,1,214.49999018097,12|0,0:3|0:0,0:0:0:0:
52,149,83360,1,8,0:0:0:0:
210,38,83574,2,0,L|191:193,1,142.99999345398
192,179,83896,1,8,0:0:0:0:
192,179,84003,1,8,0:3:0:0:
334,230,84217,6,0,L|324:145,1,71.4999967269899,8|8,0:3|0:0,0:0:0:0:
388,91,84431,1,8,0:3:0:0:
388,91,84538,1,8,0:0:0:0:
388,91,84646,6,0,L|378:6,1,71.4999967269899,8|0,0:3|0:0,0:0:0:0:
489,143,84860,2,0,L|497:214,1,71.4999967269899,8|8,0:0|0:0,0:0:0:0:
454,355,85074,2,0,L|445:283,1,71.4999967269899,8|8,0:0|0:0,0:0:0:0:
371,227,85288,5,8,0:0:0:0:
328,224,85395,1,8,0:0:0:0:
287,235,85502,1,8,0:0:0:0:
251,258,85609,1,8,0:0:0:0:
225,292,85716,1,8,0:0:0:0:
247,372,85931,5,8,0:0:0:0:
300,376,86038,1,8,0:0:0:0:
350,363,86145,1,8,0:0:0:0:
394,335,86252,1,8,0:0:0:0:
426,293,86359,1,12,0:3:0:0:
426,293,87003,5,0,0:0:0:0:
339,264,87217,1,0,0:0:0:0:
339,174,87432,1,0,0:0:0:0:
426,146,87646,1,0,0:0:0:0:
479,219,87860,1,0,0:0:0:0:
479,219,88074,5,4,0:0:0:0:
128,343,94931,6,0,P|176:329|304:327,1,165,2|2,0:0|0:0,0:0:0:0:
291,325,95360,1,8,0:0:0:0:
212,167,95574,2,0,P|203:223|225:312,1,110,2|0,0:0|0:0,0:0:0:0:
210,275,95896,1,8,0:0:0:0:
210,275,96003,5,0,0:0:0:0:
307,210,96217,1,10,0:0:0:0:
269,84,96431,1,2,0:0:0:0:
347,25,96646,6,0,P|408:46|425:157,1,165,2|2,0:0|0:0,0:0:0:0:
421,146,97074,1,8,0:0:0:0:
307,210,97289,2,0,P|252:210|198:224,1,110,2|0,0:0|0:0,0:0:0:0:
137,273,97610,1,2,0:0:0:0:
137,273,97717,2,0,L|128:354,1,55,2|2,0:0|0:0,0:0:0:0:
71,376,97931,1,10,0:0:0:0:
80,206,98146,2,0,L|71:125,1,55,2|2,0:0|0:0,0:0:0:0:
62,137,98360,6,0,L|202:123,1,110,2|0,0:0|0:0,0:0:0:0:
248,127,98681,1,0,0:0:0:0:
246,110,98789,1,8,0:0:0:0:
336,29,99003,1,0,0:0:0:0:
405,209,99217,5,0,0:0:0:0:
405,209,99324,2,0,P|367:177|346:106,1,110,8|0,0:0|0:0,0:0:0:0:
347,122,99646,1,10,0:0:0:0:
496,267,99860,1,2,0:0:0:0:
496,267,99967,1,2,0:0:0:0:
496,267,100074,6,0,P|414:264|312:300,1,165,2|0,0:0|0:0,0:0:0:0:
323,298,100503,1,8,0:0:0:0:
156,347,100717,1,2,0:0:0:0:
199,232,100931,5,0,0:0:0:0:
221,262,101038,1,2,0:0:0:0:
238,297,101145,1,2,0:0:0:0:
249,334,101252,1,2,0:0:0:0:
252,372,101359,1,10,0:0:0:0:
301,216,101574,1,2,0:0:0:0:
301,216,101788,6,0,P|302:155|338:83,1,110,2|0,0:0|0:0,0:0:0:0:
391,140,102110,1,2,0:0:0:0:
391,140,102217,2,0,P|395:93|349:34,1,110,10|2,0:0|0:0,0:0:0:0:
283,11,102539,1,2,0:0:0:0:
283,11,102646,6,0,L|228:20,1,55,2|8,0:3|0:0,0:0:0:0:
195,94,102860,2,0,L|141:87,1,55
74,35,103074,1,10,0:0:0:0:
74,35,103289,1,2,0:0:0:0:
9,176,103503,6,0,P|82:149|134:206,1,165,2|2,0:0|0:0,0:0:0:0:
133,224,103931,1,10,0:0:0:0:
218,321,104146,2,0,P|222:265|241:204,1,110,2|0,0:0|0:0,0:0:0:0:
236,214,104467,1,8,0:0:0:0:
236,214,104574,5,2,0:0:0:0:
329,289,104789,1,10,0:0:0:0:
388,191,105003,2,0,L|378:117,2,55,2|0|2,0:0|0:0|0:0,0:0:0:0:
470,147,105431,5,2,0:0:0:0:
302,174,105646,1,10,0:0:0:0:
412,41,105860,2,0,P|353:52|309:124,1,110,10|0,3:2|0:0,0:0:0:0:
319,86,106181,1,0,0:0:0:0:
319,86,106289,5,2,0:0:0:0:
331,245,106503,1,10,0:0:0:0:
471,134,106717,1,10,0:0:0:0:
441,261,106931,6,0,P|406:207|387:118,1,131.99999597168,10|0,0:0|0:0,0:0:0:0:
444,43,107360,1,10,0:0:0:0:
331,245,107574,6,0,P|277:292|132:333,1,165.000006294251,6|0,0:0|0:0,0:0:0:0:
125,287,107896,2,0,L|133:204,1,65.9999979858399,8|0,0:0|0:0,0:0:0:0:
192,167,108110,1,8,2:3:0:0:
208,158,108217,6,0,L|216:75,1,65.9999979858399,8|0,0:0|0:0,0:0:0:0:
340,20,108431,2,0,L|333:85,1,65.9999979858399,8|8,0:0|0:0,0:0:0:0:
418,207,108646,1,10,3:2:0:0:
112,279,109717,6,0,L|96:184,1,65.9999979858399,10|0,3:2|0:0,0:0:0:0:
209,187,110038,2,0,L|193:92,1,65.9999979858399,8|0,3:2|0:0,0:0:0:0:
332,275,110360,2,0,L|316:180,1,65.9999979858399,10|0,3:2|0:0,0:0:0:0:
461,62,111217,5,2,3:2:0:0:
461,62,111324,1,2,3:2:0:0:
461,62,111431,2,0,P|423:120|421:200,1,131.99999597168,10|0,3:2|0:0,0:0:0:0:
456,253,111753,2,0,P|392:218|295:222,1,131.99999597168,10|0,3:2|0:0,0:0:0:0:
274,263,112074,2,0,P|279:335|210:263,1,197.99999395752,14|0,3:2|0:0,0:0:0:0:
81,200,112717,6,0,P|71:174|75:112,2,65.9999979858399,0|2|2,0:0|3:2|3:2,0:0:0:0:
177,28,113146,2,0,P|182:93|157:154,1,131.99999597168,10|2,3:2|3:2,0:0:0:0:
220,224,113467,2,0,P|290:243|314:323,1,131.99999597168,10|0,3:2|0:0,0:0:0:0:
317,305,113788,5,14,3:2:0:0:
210,355,114003,1,0,0:0:0:0:
304,200,114217,1,0,0:0:0:0:
210,355,114431,1,8,0:0:0:0:
119,304,114646,6,0,P|94:253|144:149,1,131.99999597168,8|8,3:2|3:2,0:0:0:0:
135,152,114967,1,8,3:2:0:0:
174,147,115074,1,8,3:2:0:0:
209,163,115181,1,8,3:2:0:0:
232,194,115288,1,8,3:2:0:0:
271,202,115396,1,8,3:2:0:0:
305,182,115503,1,4,0:0:0:0:
436,43,115717,5,0,0:0:0:0:
436,43,115824,1,0,0:0:0:0:
436,43,115931,1,8,0:0:0:0:
266,106,116146,1,0,0:0:0:0:
418,225,116360,5,0,0:0:0:0:
425,206,116467,1,8,0:0:0:0:
357,92,116681,1,0,0:0:0:0:
350,111,116788,1,8,0:0:0:0:
499,153,117003,1,0,0:0:0:0:
334,256,117217,6,0,P|315:321|325:395,1,131.99999597168
321,384,117538,1,0,0:0:0:0:
321,384,117646,1,8,0:0:0:0:
67,321,117860,6,0,P|115:303|228:303,1,131.99999597168,4|0,0:0|0:0,0:0:0:0:
195,297,118181,2,0,P|213:235|186:163,1,131.99999597168,8|8,0:0|2:3,0:0:0:0:
193,172,118503,1,12,0:0:0:0:
78,46,118717,5,8,0:0:0:0:
78,46,118824,1,8,0:0:0:0:
78,46,118931,2,0,L|69:137,1,65.9999979858399,12|8,0:0|2:3,0:0:0:0:
111,196,119146,2,0,L|102:287,1,65.9999979858399,8|8,2:3|2:3,0:0:0:0:
20,376,119360,2,0,L|26:310,1,65.9999979858399,8|8,0:0|0:0,0:0:0:0:
204,258,119574,5,8,2:3:0:0:
241,244,119681,1,8,2:3:0:0:
280,249,119788,1,8,2:3:0:0:
310,274,119896,1,8,0:0:0:0:
333,305,120003,1,8,2:3:0:0:
370,316,120110,1,8,2:3:0:0:
408,307,120217,1,8,0:0:0:0:
428,273,120324,1,8,0:0:0:0:
428,233,120431,1,8,0:3:0:0:
402,202,120538,1,8,0:3:0:0:
363,192,120646,6,0,P|353:125|364:38,1,145.199999556885,4|0,0:0|0:0,0:0:0:0:
458,105,121717,6,0,L|454:143,3,36.6666666666667
307,130,122146,5,0,0:0:0:0:
377,341,122360,2,0,P|390:284|383:185,1,142.99999345398,4|0,2:3|0:0,0:0:0:0:
234,95,122681,1,0,0:0:0:0:
234,95,122789,2,0,P|291:82|390:89,1,142.99999345398,8|0,0:0|0:0,0:0:0:0:
474,50,123110,1,0,0:0:0:0:
474,50,123217,6,0,L|464:120,1,71.4999967269899,0|8,0:0|0:0,0:0:0:0:
294,238,123431,2,0,L|304:168,1,71.4999967269899
482,293,123646,2,1,L|312:309,1,142.99999345398,8|2,0:0|0:2,0:0:0:0:
268,363,123967,1,0,0:0:0:0:
268,363,124074,6,1,P|234:296|85:322,1,214.49999018097,2|2,0:3|0:3,0:0:0:0:
31,345,124503,1,8,0:0:0:0:
31,345,124610,1,0,0:0:0:0:
31,345,124717,2,0,P|62:296|49:197,1,142.99999345398,2|2,0:0|0:2,0:0:0:0:
150,96,125039,1,10,0:2:0:0:
150,96,125146,6,0,L|144:184,1,71.4999967269899,0|0,0:3|0:0,0:0:0:0:
0,131,125360,1,10,2:3:0:0:
0,131,125467,1,2,0:3:0:0:
0,131,125574,1,0,0:0:0:0:
221,4,125789,6,0,P|249:47|234:154,1,142.99999345398,2|0,0:3|0:0,0:0:0:0:
244,136,126110,1,2,0:2:0:0:
244,136,126217,1,8,0:0:0:0:
347,287,126431,6,0,P|375:244|360:137,1,142.99999345398,2|0,0:3|0:0,0:0:0:0:
371,156,126753,1,0,0:0:0:0:
371,156,126860,1,2,0:0:0:0:
243,249,127074,5,8,0:0:0:0:
243,249,127181,2,0,B|168:245|199:292|101:297,1,142.99999345398
95,298,127503,5,0,0:0:0:0:
277,160,127717,1,0,0:0:0:0:
277,160,127824,1,0,0:0:0:0:
277,160,127931,1,8,0:0:0:0:
119,206,128146,5,0,0:0:0:0:
301,330,128360,1,8,0:3:0:0:
301,330,128467,1,8,0:0:0:0:
301,330,128574,1,8,0:0:0:0:
175,352,128789,5,8,0:2:0:0:
175,352,128896,2,0,P|184:299|284:255,1,142.99999345398,8|0,0:3|0:0,0:0:0:0:
372,244,129217,6,1,P|353:312|357:384,1,142.99999345398,6|0,0:3|0:0,0:0:0:0:
473,285,129539,1,2,0:3:0:0:
473,285,129646,2,0,P|455:217|458:146,1,142.99999345398,10|0,0:3|0:0,0:0:0:0:
491,65,129967,1,2,0:0:0:0:
491,65,130074,6,0,P|453:59|398:89,1,71.4999967269899,2|0,0:3|0:0,0:0:0:0:
301,150,130288,2,0,P|336:156|371:147,1,71.4999967269899,0|2,0:0|0:3,0:0:0:0:
240,31,130503,2,0,P|222:99|225:170,1,142.99999345398,10|0,0:2|0:0,0:0:0:0:
298,247,130824,1,0,0:0:0:0:
298,247,130931,6,1,B|180:226|224:336|99:314,1,214.49999018097,2|2,0:3|0:3,0:0:0:0:
3,259,131360,1,10,0:0:0:0:
3,259,131467,1,2,0:3:0:0:
3,259,131574,2,0,P|67:237|53:151,1,142.99999345398,2|0,0:3|0:0,0:0:0:0:
159,59,131896,1,8,0:0:0:0:
159,59,132003,6,0,P|147:102|160:158,1,71.4999967269899
203,198,132217,1,8,0:0:0:0:
203,198,132324,1,2,0:3:0:0:
203,198,132431,1,0,0:0:0:0:
345,318,132646,6,0,P|361:254|326:145,1,142.99999345398,2|0,0:3|0:0,0:0:0:0:
346,179,132967,1,2,0:3:0:0:
346,179,133074,1,8,0:0:0:0:
237,120,133289,1,2,0:3:0:0:
174,226,133503,1,2,0:3:0:0:
174,226,133610,1,2,0:3:0:0:
174,226,133717,1,10,0:3:0:0:
84,148,133931,5,8,0:0:0:0:
84,148,134039,2,1,P|79:233|111:372,1,214.49999018097,8|2,0:3|0:3,0:0:0:0:
105,358,134467,2,0,P|197:350|287:377,1,142.99999345398,8|2,0:0|0:2,0:0:0:0:
326,384,134789,2,0,P|337:323|322:196,1,142.99999345398,8|2,0:0|0:0,0:0:0:0:
308,207,135110,5,8,0:0:0:0:
316,165,135217,1,2,0:3:0:0:
354,145,135324,1,8,0:0:0:0:
395,155,135431,1,8,0:0:0:0:
420,189,135538,1,8,0:0:0:0:
462,198,135646,1,10,0:2:0:0:
490,165,135753,1,8,0:0:0:0:
485,122,135860,1,8,0:0:0:0:
451,95,135967,1,8,0:0:0:0:
446,52,136074,6,0,P|381:42|272:61,1,142.99999345398,4|0,2:3|0:0,0:0:0:0:
214,6,136396,1,0,0:0:0:0:
214,6,136503,2,0,P|220:55|211:169,1,142.99999345398,8|0,0:0|0:0,0:0:0:0:
133,166,136824,1,0,0:0:0:0:
133,166,136931,6,0,L|42:160,1,71.4999967269899,0|8,0:0|0:0,0:0:0:0:
186,305,137146,2,0,L|190:233,1,71.4999967269899
268,212,137360,2,0,P|334:207|386:273,1,142.99999345398,8|2,0:0|0:2,0:0:0:0:
337,337,137681,1,0,0:3:0:0:
337,337,137789,6,1,P|386:273|518:318,1,214.49999018097,2|2,0:3|0:3,0:0:0:0:
486,186,138217,1,8,0:0:0:0:
486,186,138324,1,0,0:0:0:0:
486,186,138431,2,0,P|476:125|502:22,1,142.99999345398,2|2,0:0|0:2,0:0:0:0:
403,16,138753,1,10,0:2:0:0:
403,16,138860,6,0,P|363:4|290:20,1,71.4999967269899,0|0,0:3|0:0,0:0:0:0:
250,54,139074,1,10,0:3:0:0:
250,54,139181,1,2,0:3:0:0:
250,54,139289,1,0,0:0:0:0:
333,241,139503,6,0,P|348:177|327:72,1,142.99999345398,2|0,0:3|0:0,0:0:0:0:
339,101,139824,1,2,0:2:0:0:
339,101,139931,1,8,0:0:0:0:
162,1,140146,6,0,P|147:65|168:170,1,142.99999345398,2|0,0:3|0:0,0:0:0:0:
157,141,140467,1,0,0:0:0:0:
157,141,140574,1,2,0:0:0:0:
241,196,140789,5,8,0:0:0:0:
241,196,140896,2,0,L|221:345,1,142.99999345398,0|0,0:2|0:0,0:0:0:0:
221,337,141217,5,0,0:0:0:0:
252,111,141431,1,0,0:0:0:0:
252,111,141539,1,0,0:0:0:0:
252,111,141646,1,8,0:0:0:0:
115,233,141860,5,0,0:0:0:0:
353,200,142074,1,8,0:3:0:0:
353,200,142181,1,8,0:0:0:0:
353,200,142289,1,8,0:0:0:0:
191,14,142503,5,8,0:0:0:0:
191,14,142610,2,0,P|164:73|171:167,1,142.99999345398,8|0,0:3|0:0,0:0:0:0:
137,223,142931,6,1,P|185:190|293:223,1,142.99999345398,6|0,0:3|0:0,0:0:0:0:
374,110,143253,1,2,0:2:0:0:
374,110,143360,2,0,P|306:123|246:87,1,142.99999345398,10|2,0:0|0:3,0:0:0:0:
276,7,143681,1,0,0:0:0:0:
276,7,143789,6,0,L|363:19,1,71.4999967269899,8|10,0:3|0:2,0:0:0:0:
459,9,144003,2,0,L|450:80,1,71.4999967269899,0|0,0:3|0:2,0:0:0:0:
385,252,144217,2,0,L|371:77,1,142.99999345398,10|0,0:2|0:0,0:0:0:0:
482,171,144539,1,0,0:0:0:0:
482,171,144646,6,0,P|499:234|483:341,1,142.99999345398,2|2,0:3|0:3,0:0:0:0:
407,351,144967,1,0,0:0:0:0:
407,351,145074,2,0,L|311:361,1,71.4999967269899,8|0,0:0|0:0,0:0:0:0:
266,297,145289,2,0,P|210:255|141:261,1,142.99999345398,2|0,0:3|0:0,0:0:0:0:
140,261,145610,1,8,0:0:0:0:
140,261,145717,1,0,0:0:0:0:
21,160,145931,5,8,0:0:0:0:
21,160,146039,1,0,0:0:0:0:
21,160,146146,2,0,L|126:145,1,71.4999967269899,0|0,0:0|0:3,0:0:0:0:
171,86,146360,5,6,0:3:0:0:
250,188,146574,1,0,0:0:0:0:
250,188,146681,1,0,0:0:0:0:
250,188,146788,1,8,0:0:0:0:
360,126,147003,6,0,P|424:122|512:167,1,142.99999345398
495,152,147324,1,8,0:0:0:0:
495,152,147431,1,8,0:3:0:0:
399,299,147646,5,2,0:3:0:0:
399,299,147753,1,8,0:3:0:0:
399,299,147860,2,0,P|392:259|407:187,1,71.4999967269899,8|0,0:0|0:0,0:0:0:0:
418,204,148074,5,2,0:3:0:0:
443,377,148288,5,8,0:0:0:0:
303,270,148503,6,0,P|247:262|136:278,1,142.99999345398,8|8,0:0|0:3,0:0:0:0:
129,298,148824,1,8,0:0:0:0:
114,338,148931,1,8,0:3:0:0:
73,350,149038,1,0,0:0:0:0:
36,327,149146,1,8,0:0:0:0:
34,284,149253,1,0,0:0:0:0:
63,252,149360,1,8,0:3:0:0:
86,216,149467,1,8,0:0:0:0:
82,173,149574,1,8,0:0:0:0:
55,139,149681,1,8,0:0:0:0:
13,130,149788,5,6,0:2:0:0:
144,84,150003,2,0,P|149:55|152:-12,2,71.4999967269899,0|0|8,0:0|2:3|0:0,0:0:0:0:
225,256,150431,2,0,P|228:196|255:83,1,142.99999345398,10|0,0:3|0:0,0:0:0:0:
244,114,150753,2,0,P|279:119|358:123,1,71.4999967269899,8|0,0:0|0:3,0:0:0:0:
457,236,151074,5,10,0:2:0:0:
457,236,151181,2,0,P|406:220|295:221,1,142.99999345398
308,229,151503,1,2,0:2:0:0:
431,325,151717,1,0,0:0:0:0:
480,142,151931,1,8,0:0:0:0:
334,309,152146,6,0,P|285:329|154:353,1,142.99999345398,2|0,0:3|0:0,0:0:0:0:
197,349,152467,1,8,0:0:0:0:
197,349,152574,1,0,0:0:0:0:
108,199,152788,1,10,0:2:0:0:
108,199,152896,1,0,0:0:0:0:
260,225,153110,1,0,0:0:0:0:
260,225,153217,6,0,L|269:142,1,71.4999967269899,2|0,0:2|0:0,0:0:0:0:
360,176,153431,2,0,L|369:93,1,71.4999967269899
214,21,153646,2,0,L|206:92,1,71.4999967269899,8|0,0:0|0:0,0:0:0:0:
8,192,153860,2,0,P|44:140|157:112,1,142.99999345398,2|0,0:2|0:0,0:0:0:0:
115,109,154181,2,0,P|124:147|128:222,1,71.4999967269899,8|2,0:0|0:2,0:0:0:0:
347,295,154503,5,10,0:2:0:0:
347,295,154610,2,0,P|276:285|178:250,1,142.99999345398,10|0,2:3|0:0,0:0:0:0:
203,242,154931,1,2,0:3:0:0:
347,194,155146,1,2,0:2:0:0:
251,160,155360,1,10,0:2:0:0:
271,317,155574,1,2,0:2:0:0:
430,252,155788,5,0,0:0:0:0:
430,252,155896,1,8,0:0:0:0:
430,252,156003,2,0,L|412:333,1,71.4999967269899,2|2,2:3|2:3,0:0:0:0:
478,155,156217,5,10,2:2:0:0:
433,131,156324,1,2,2:3:0:0:
383,134,156431,1,2,2:2:0:0:
340,159,156538,1,2,2:3:0:0:
322,206,156646,2,0,P|259:186|245:53,1,214.49999018097,6|0,0:2|0:0,0:0:0:0:
243,54,157074,1,8,0:0:0:0:
151,229,157288,6,0,P|167:318|173:376,1,142.99999345398,2|0,0:3|0:0,0:0:0:0:
172,370,157610,1,0,0:0:0:0:
172,370,157717,1,0,0:0:0:0:
32,319,157931,1,10,0:2:0:0:
42,300,158038,1,0,0:3:0:0:
169,136,158253,1,0,0:0:0:0:
169,136,158360,6,0,L|7:151,1,142.99999345398,2|0,0:2|0:0,0:0:0:0:
208,46,158788,1,8,0:0:0:0:
261,226,159003,2,0,P|329:182|315:57,1,214.49999018097,2|8,0:3|0:0,0:0:0:0:
304,44,159431,1,8,2:3:0:0:
438,183,159646,5,10,2:2:0:0:
432,203,159753,1,2,0:3:0:0:
427,223,159860,1,2,0:2:0:0:
424,244,159967,1,0,0:0:0:0:
422,265,160074,1,6,0:2:0:0:
307,360,160288,5,0,0:0:0:0:
307,360,160396,2,0,P|343:351|401:359,1,71.4999967269899,0|8,0:0|0:0,0:0:0:0:
336,211,160717,2,0,P|266:250|149:279,1,142.99999345398,10|0,2:3|0:0,0:0:0:0:
206,269,161038,1,8,0:0:0:0:
206,269,161146,1,8,2:3:0:0:
111,384,161360,6,0,L|128:286,1,71.4999967269899,10|8,0:2|2:3,0:0:0:0:
91,161,161574,2,0,L|78:231,1,71.4999967269899,8|8,0:0|0:0,0:0:0:0:
70,246,161788,5,14,0:3:0:0:
109,228,161896,1,8,2:3:0:0:
151,230,162003,1,8,2:3:0:0:
184,256,162110,1,8,2:3:0:0:
206,292,162217,1,8,0:0:0:0:
245,307,162324,1,8,2:3:0:0:
283,289,162431,2,0,L|290:187,2,71.4999967269899,10|8|8,2:3|0:0|2:3,0:0:0:0:
356,324,162753,5,8,2:3:0:0:
399,350,162860,1,8,0:0:0:0:
447,337,162967,1,8,0:0:0:0:
470,293,163074,1,8,0:0:0:0:
458,252,163181,1,8,0:3:0:0:
426,237,163288,1,8,2:3:0:0:
413,211,163396,1,8,0:3:0:0:
416,190,163503,1,8,0:0:0:0:
142,189,176146,6,0,L|138:151,3,27.5,8|0|8|0,0:0|0:0|0:0|0:0,0:0:0:0:
142,189,176360,2,0,P|186:192|253:238,2,73.3333333333333,8|0|8,3:2|0:0|3:2,0:0:0:0:
197,291,176788,2,0,P|153:288|86:242,2,73.3333333333333,8|8|8,3:2|0:0|0:0,0:0:0:0:
272,354,177217,6,0,P|375:346|373:231,1,220,4|0,3:1|2:0,0:0:0:0:
386,246,177860,1,0,0:0:0:0:
481,72,178074,2,1,P|469:138|464:226,1,110,8|0,3:2|0:0,0:0:0:0:
219,106,178717,1,0,0:0:0:0:
254,34,178931,6,0,P|357:42|355:157,1,220,0|0,0:0|2:0,0:0:0:0:
267,208,179574,1,0,0:0:0:0:
267,208,179681,1,0,0:0:0:0:
267,208,179788,2,0,L|138:216,1,110,8|0,3:2|0:0,0:0:0:0:
32,345,180431,1,0,0:0:0:0:
32,345,180646,6,0,L|52:105,1,220,0|0,0:0|2:0,0:0:0:0:
138,43,181288,1,0,0:0:0:0:
224,129,181503,2,0,L|333:135,1,110,8|0,3:2|0:0,0:0:0:0:
390,368,182146,1,0,0:0:0:0:
390,368,182253,1,0,0:0:0:0:
390,368,182360,6,0,P|324:325|168:322,1,220
49,360,183003,1,8,3:2:0:0:
49,360,183110,1,8,3:2:0:0:
49,360,183217,2,0,L|56:260,1,65.9999979858399,8|0,3:2|0:0,0:0:0:0:
128,227,183431,5,0,0:0:0:0:
121,208,183538,1,0,0:0:0:0:
117,188,183646,1,8,0:2:0:0:
116,168,183753,1,8,0:2:0:0:
119,148,183860,1,8,0:2:0:0:
125,129,183967,1,8,0:2:0:0:
135,112,184074,1,4,2:1:0:0:
239,18,184288,5,0,0:0:0:0:
245,36,184396,1,0,0:0:0:0:
248,55,184503,1,8,0:0:0:0:
374,18,184717,6,0,P|459:42|511:177,1,197.99999395752,8|0,0:3|0:0,0:0:0:0:
499,146,185146,1,8,0:3:0:0:
362,262,185360,1,8,0:0:0:0:
362,262,185467,2,0,P|358:197|373:133,1,131.99999597168
452,221,185788,5,8,0:0:0:0:
452,221,185896,2,0,P|464:313|455:379,1,131.99999597168,8|8,0:0|0:3,0:0:0:0:
376,371,186217,2,0,P|309:350|198:350,1,131.99999597168,8|8,0:0|0:3,0:0:0:0:
247,344,186538,1,0,0:0:0:0:
247,344,186646,1,8,1:3:0:0:
78,250,186967,5,8,1:3:0:0:
153,72,187288,6,0,P|241:88|226:214,1,197.99999395752,12|0,1:2|0:0,0:0:0:0:
242,197,187717,1,8,0:0:0:0:
173,311,187931,2,0,P|153:222|153:141,1,131.99999597168,8|0,0:0|0:0,0:0:0:0:
161,164,188253,1,8,0:0:0:0:
308,245,188467,5,0,0:0:0:0:
315,263,188574,2,0,L|402:270,1,65.9999979858399,8|0,0:3|0:3,0:0:0:0:
435,173,188788,2,0,L|369:178,1,65.9999979858399,8|8,3:2|3:3,0:0:0:0:
458,285,189003,2,0,L|466:233,3,43.9999986572266,8|8|8|8,3:3|3:3|3:3|0:0,0:0:0:0:
236,57,189538,5,8,0:0:0:0:
72,311,189860,5,8,0:0:0:0:
72,311,190717,5,0,0:0:0:0:
142,376,190931,2,0,P|156:293|144:165,1,142.99999345398,12|0,0:3|0:0,0:0:0:0:
59,77,191253,1,0,0:0:0:0:
59,77,191360,2,0,P|73:160|61:288,1,142.99999345398,8|0,0:0|0:0,0:0:0:0:
156,148,191681,1,0,0:0:0:0:
156,148,191788,6,0,P|196:150|260:133,1,71.4999967269899,0|8,0:0|0:0,0:0:0:0:
371,119,192003,2,0,P|335:113|300:116,1,71.4999967269899
291,200,192217,2,0,P|357:203|485:176,1,142.99999345398,8|0,0:0|0:0,0:0:0:0:
509,235,192538,1,0,0:0:0:0:
509,235,192646,6,0,P|441:237|438:359,1,214.49999018097,10|2,0:3|0:3,0:0:0:0:
331,342,193074,1,8,0:0:0:0:
331,342,193181,1,0,0:0:0:0:
331,342,193288,2,0,B|258:326|271:379|184:357,1,142.99999345398,2|2,0:0|0:0,0:0:0:0:
114,339,193610,1,10,0:0:0:0:
114,339,193717,6,0,L|107:252,1,71.4999967269899,8|0,0:3|0:0,0:0:0:0:
179,170,193931,1,2,0:3:0:0:
179,170,194038,1,10,0:3:0:0:
179,170,194146,1,0,0:0:0:0:
280,252,194360,6,0,P|297:190|268:75,1,142.99999345398,10|0,0:3|0:0,0:0:0:0:
286,112,194681,1,2,0:0:0:0:
286,112,194788,1,8,0:0:0:0:
62,71,195003,6,0,P|124:54|239:83,1,142.99999345398,10|0,0:3|0:0,0:0:0:0:
201,64,195324,1,8,0:0:0:0:
201,64,195431,1,2,0:0:0:0:
362,0,195646,5,8,0:0:0:0:
362,0,195753,2,0,P|412:29|409:124,1,142.99999345398
410,127,196074,5,8,0:3:0:0:
298,220,196288,1,0,0:0:0:0:
303,199,196396,1,0,0:0:0:0:
308,178,196503,1,8,0:0:0:0:
393,286,196717,5,0,0:0:0:0:
188,247,196931,1,8,0:3:0:0:
193,226,197039,1,8,0:2:0:0:
198,205,197146,1,8,0:0:0:0:
245,59,197360,5,8,0:3:0:0:
245,59,197467,2,0,P|194:68|82:73,1,142.99999345398,8|0,0:3|0:0,0:0:0:0:
20,92,197788,6,0,P|83:114|123:236,1,142.99999345398,14|0,0:3|0:0,0:0:0:0:
188,247,198110,1,10,0:3:0:0:
188,247,198217,2,0,P|251:225|291:103,1,142.99999345398,10|0,0:3|0:0,0:0:0:0:
378,130,198538,1,2,0:2:0:0:
378,130,198646,6,0,L|370:212,1,71.4999967269899,2|8,0:3|0:0,0:0:0:0:
443,297,198860,2,0,L|449:225,1,71.4999967269899,0|2,0:0|0:3,0:0:0:0:
376,351,199074,2,0,L|214:380,1,142.99999345398,10|0,0:0|0:0,0:0:0:0:
162,346,199396,1,0,0:0:0:0:
162,346,199503,6,0,P|145:270|16:230,1,214.49999018097,10|2,0:3|0:3,0:0:0:0:
55,134,199931,1,10,0:0:0:0:
55,134,200038,1,2,0:3:0:0:
55,134,200146,2,0,P|109:137|204:62,1,142.99999345398,10|8,0:3|0:3,0:0:0:0:
197,77,200467,1,8,0:0:0:0:
175,74,200574,6,0,P|167:32|182:-17,1,71.4999967269899,8|0,0:3|0:0,0:0:0:0:
285,59,200788,1,8,0:0:0:0:
285,59,200896,1,10,0:3:0:0:
285,59,201003,1,0,0:0:0:0:
264,158,201217,6,0,L|252:312,1,142.99999345398,10|0,0:3|0:0,0:0:0:0:
263,318,201538,1,2,0:3:0:0:
274,336,201646,1,8,0:0:0:0:
155,280,201860,1,2,0:3:0:0:
349,244,202074,1,2,0:3:0:0:
349,244,202181,1,10,0:3:0:0:
349,244,202288,1,10,0:3:0:0:
382,353,202503,5,8,0:0:0:0:
382,353,202610,2,0,P|392:283|384:123,1,214.49999018097,8|10,0:3|0:3,0:0:0:0:
393,54,203038,2,0,P|330:72|225:71,1,142.99999345398,8|2,0:0|0:3,0:0:0:0:
204,12,203360,2,0,P|138:18|41:59,1,142.99999345398,8|10,0:0|0:0,0:0:0:0:
32,72,203681,5,8,0:3:0:0:
27,114,203788,1,10,0:3:0:0:
53,147,203896,1,8,0:0:0:0:
92,163,204003,1,8,0:0:0:0:
131,145,204110,1,8,0:0:0:0:
171,158,204217,1,10,0:0:0:0:
185,198,204324,1,8,0:0:0:0:
169,237,204431,1,8,0:0:0:0:
130,256,204538,1,8,0:0:0:0:
88,243,204646,6,0,P|74:308|72:390,1,142.99999345398,12|0,0:3|0:0,0:0:0:0:
163,338,204967,1,0,0:0:0:0:
163,338,205074,2,0,P|228:324|310:322,1,142.99999345398,8|0,0:0|0:0,0:0:0:0:
449,379,205396,1,0,0:0:0:0:
449,379,205503,6,0,P|417:384|355:380,1,71.4999967269899,8|8,0:3|0:0,0:0:0:0:
363,246,205717,2,0,P|395:241|457:245,1,71.4999967269899
434,241,205931,2,0,P|420:176|418:94,1,142.99999345398,8|2,0:0|0:0,0:0:0:0:
370,31,206253,1,0,0:0:0:0:
370,31,206360,6,0,P|272:23|253:140,1,214.49999018097,10|2,0:3|0:3,0:0:0:0:
177,179,206788,1,8,0:0:0:0:
177,179,206896,1,0,0:0:0:0:
177,179,207003,2,0,P|201:234|192:329,1,142.99999345398,2|2,0:0|0:0,0:0:0:0:
110,350,207324,1,10,0:0:0:0:
110,350,207431,6,0,L|122:249,1,71.4999967269899
291,287,207646,2,0,L|303:186,1,71.4999967269899,10|2,0:3|0:3,0:0:0:0:
270,67,207860,2,0,L|261:138,1,71.4999967269899
368,333,208074,6,0,P|441:288|408:145,1,214.49999018097,10|2,0:3|0:0,0:0:0:0:
419,156,208503,1,8,0:0:0:0:
293,204,208717,6,0,B|218:200|239:254|159:250,1,142.99999345398,10|0,0:3|0:0,0:0:0:0:
94,211,209038,1,10,0:0:0:0:
94,211,209146,6,0,P|87:169|103:105,1,71.4999967269899,8|0,0:3|0:0,0:0:0:0:
160,30,209360,1,8,0:0:0:0:
160,30,209467,2,0,P|176:99|168:170,1,142.99999345398,8|0,0:3|0:0,0:0:0:0:
167,170,209788,5,8,0:3:0:0:
320,67,210003,1,0,0:0:0:0:
340,61,210110,1,0,0:0:0:0:
361,57,210217,1,8,0:0:0:0:
416,262,210431,5,0,0:0:0:0:
315,170,210646,1,8,0:3:0:0:
295,168,210753,1,8,0:0:0:0:
274,164,210860,1,8,0:0:0:0:
155,294,211074,5,8,0:3:0:0:
155,294,211181,2,0,P|212:264|346:286,1,142.99999345398,8|0,0:2|0:0,0:0:0:0:
347,316,211503,6,0,B|418:294|408:356|486:329,1,142.99999345398,14|0,0:3|0:0,0:0:0:0:
462,251,211824,1,2,0:0:0:0:
462,251,211931,2,0,P|445:186|460:72,1,142.99999345398,10|2,0:0|0:3,0:0:0:0:
408,40,212253,1,0,0:0:0:0:
408,40,212360,6,0,P|383:66|376:147,1,71.4999967269899,0|10,0:0|0:0,0:0:0:0:
295,79,212574,2,0,P|295:115|346:178,1,71.4999967269899
259,215,212788,2,0,P|218:175|70:159,1,142.99999345398,10|0,0:0|0:0,0:0:0:0:
62,117,213110,1,0,0:0:0:0:
62,117,213217,6,0,P|103:163|88:280,1,142.99999345398,10|2,0:3|0:3,0:0:0:0:
40,354,213538,1,0,0:0:0:0:
40,354,213646,2,0,L|35:262,1,71.4999967269899,8|0,0:0|0:0,0:0:0:0:
184,261,213860,2,0,L|358:288,1,142.99999345398,2|0,0:3|0:0,0:0:0:0:
325,282,214181,1,0,0:0:0:0:
325,282,214288,1,8,0:3:0:0:
490,179,214503,5,8,0:0:0:0:
490,179,214610,1,8,0:3:0:0:
490,179,214717,2,0,L|389:198,1,71.4999967269899
349,152,214931,6,0,P|331:96|361:-8,1,142.99999345398,10|0,0:3|0:0,0:0:0:0:
367,17,215253,1,0,0:0:0:0:
386,25,215360,1,8,0:0:0:0:
250,97,215574,5,0,0:0:0:0:
296,244,215788,1,8,0:3:0:0:
296,244,215896,1,8,0:0:0:0:
296,244,216003,1,8,0:0:0:0:
403,133,216217,5,2,0:3:0:0:
403,133,216324,1,8,0:3:0:0:
403,133,216431,2,0,L|396:222,1,71.4999967269899,4|0,0:0|0:0,0:0:0:0:
370,311,216646,6,0,P|328:135|445:272,1,495.000018882752,14|0,0:3|0:0,0:0:0:0:
222,340,218146,5,8,0:3:0:0:
222,340,218253,1,0,0:3:0:0:
222,340,218360,2,0,L|233:249,1,71.4999967269899,14|8,0:3|0:0,0:0:0:0:
120,180,218574,2,0,L|111:250,1,71.4999967269899,8|8,0:0|0:0,0:0:0:0:
280,203,218788,2,0,L|291:112,1,71.4999967269899,8|8,0:0|0:0,0:0:0:0:
337,55,219003,5,8,0:0:0:0:
380,52,219110,1,8,0:0:0:0:
421,63,219217,1,8,0:0:0:0:
457,86,219324,1,8,0:0:0:0:
483,120,219431,1,8,0:0:0:0:
434,284,219646,5,10,0:0:0:0:
381,288,219753,1,8,0:0:0:0:
331,275,219860,1,8,0:3:0:0:
287,247,219967,1,8,0:3:0:0:
255,205,220074,1,10,0:3:0:0:
255,205,220717,5,0,0:0:0:0:
342,176,220931,1,0,0:0:0:0:
342,86,221146,1,0,0:0:0:0:
255,58,221360,1,2,2:0:0:0:
202,131,221574,1,0,0:3:0:0:
202,131,221788,5,4,0:0:0:0:
