osu file format v14

[General]
AudioFilename: audio.mp3
AudioLeadIn: 0
PreviewTime: 56896
Countdown: 0
SampleSet: Soft
StackLeniency: 0.4
Mode: 0
LetterboxInBreaks: 0
EpilepsyWarning: 1
WidescreenStoryboard: 1

[Editor]
Bookmarks: 216646
DistanceSpacing: 0.3
BeatDivisor: 4
GridSize: 4
TimelineZoom: 1.8

[Metadata]
Title:DEAR MY WAKER
TitleUnicode:DEAR MY WAKER
Artist:Yonekura Chihiro
ArtistUnicode:米倉千尋
Creator:Skystar
Version:Hard
Source:9-nine-ゆきいろゆきはなゆきのあと
Tags:collab captin1 nathan sukinathan ttmnzk tt mouse kuse ぱれっと palette yukiiro yukihana yukinoato eroge galgame visual novel flyingtuna japanese rock pop opening op KuBsNia_ZhoYL_ 堀江晶太 Amateurre Shizuku- shikibe mayu vahn10 Kazato Asa
BeatmapID:3323780
BeatmapSetID:1579180

[Difficulty]
HPDrainRate:4
CircleSize:4
OverallDifficulty:6
ApproachRate:7
SliderMultiplier:1.4
SliderTickRate:1

[Events]
//Background and Video events
0,0,"SPOILER_large_ev414a.jpg",0,0
//Break Periods
2,17788,28460
2,88074,94031
2,163702,175460
//Storyboard Layer 0 (Background)
//Storyboard Layer 1 (Fail)
//Storyboard Layer 2 (Pass)
//Storyboard Layer 3 (Foreground)
Sprite,Foreground,Centre,"sb\block.jpg",474,325 V,0,14360,,0.5,30 F,2,14360,15817,0.4,0 P,0,14360,15817,A
Sprite,Foreground,Centre,"sb\block.jpg",538,212 V,0,15431,,0.5,30 F,2,15431,16245,0.4,0 P,0,15431,16245,A
Sprite,Foreground,Centre,"sb\block.jpg",377,104 V,0,16074,,0.5,30 F,2,16074,16674,0.4,0 P,0,16074,16674,A
Sprite,Foreground,Centre,"sb\bubble.png",398,104 S,1,84646,84766,0.1,0.16 P,0,84646,85674,A F,2,84646,85774,0.1,0
Sprite,Foreground,Centre,"sb\bubble.png",465,246 S,1,85288,85408,0.1,0.16 P,0,85288,86316,A F,2,85288,86416,0.1,0
Sprite,Foreground,Centre,"sb\bubble.png",323,194 S,1,85931,86051,0.1,0.16 P,0,85931,86531,A F,2,85931,86631,0.1,0
Sprite,Foreground,Centre,"sb\bubble.png",304,192 S,1,86038,86158,0.1,0.16 P,0,86038,86638,A F,2,86038,86738,0.1,0
Sprite,Foreground,Centre,"sb\bubble.png",285,190 S,1,86146,86266,0.1,0.16 P,0,86146,86746,A F,2,86146,86846,0.1,0
Sprite,Foreground,Centre,"sb\bubble.png",266,188 S,1,86253,86373,0.1,0.16 P,0,86253,86853,A F,2,86253,86953,0.1,0
Sprite,Foreground,Centre,"sb\bubble.png",247,186 S,1,86360,86480,0.1,0.16 P,0,86360,86960,A F,2,86360,87060,0.1,0
Sprite,Foreground,Centre,"sb\f\lastSection\ja\0042.png",44.64999,0 S,0,228645,,0.3 C,0,228645,,45,45,45 F,7,228645,229245,0,0.8 MY,7,228645,229245,205.2,222.2 MY,0,229245,234138,222.2,230.2 F,7,234138,234738,0.8,0 MY,7,234138,234738,230.2,247.2
Sprite,Foreground,Centre,"sb\f\lastSection\ja\0065.png",55.89999,0 S,0,228678,,0.3 C,0,228678,,45,45,45 F,7,228678,229278,0,0.8 MY,7,228678,229278,207.45,224.45 MY,0,229278,234171,224.45,232.45 F,7,234171,234771,0.8,0 MY,7,234171,234771,232.45,249.45
Sprite,Foreground,Centre,"sb\f\lastSection\ja\0061.png",65.64999,0 S,0,228711,,0.3 C,0,228711,,45,45,45 F,7,228711,229311,0,0.8 MY,7,228711,229311,207.45,224.45 MY,0,229311,234204,224.45,232.45 F,7,234204,234804,0.8,0 MY,7,234204,234804,232.45,249.45
Sprite,Foreground,Centre,"sb\f\lastSection\ja\0074.png",73.3,0 S,0,228744,,0.3 C,0,228744,,45,45,45 F,7,228744,229344,0,0.8 MY,7,228744,229344,205.95,222.95 MY,0,229344,234237,222.95,230.95 F,7,234237,234837,0.8,0 MY,7,234237,234837,230.95,247.95
Sprite,Foreground,Centre,"sb\f\lastSection\ja\006d.png",84.25,0 S,0,228777,,0.3 C,0,228777,,45,45,45 F,7,228777,229377,0,0.8 MY,7,228777,229377,207.3,224.3 MY,0,229377,234270,224.3,232.3 F,7,234270,234870,0.8,0 MY,7,234270,234870,232.3,249.3
Sprite,Foreground,Centre,"sb\f\lastSection\ja\0061.png",96.24999,0 S,0,228810,,0.3 C,0,228810,,45,45,45 F,7,228810,229410,0,0.8 MY,7,228810,229410,207.45,224.45 MY,0,229410,234303,224.45,232.45 F,7,234303,234903,0.8,0 MY,7,234303,234903,232.45,249.45
Sprite,Foreground,Centre,"sb\f\lastSection\ja\0070.png",105.4,0 S,0,228843,,0.3 C,0,228843,,45,45,45 F,7,228843,229443,0,0.8 MY,7,228843,229443,208.65,225.65 MY,0,229443,234336,225.65,233.65 F,7,234336,234936,0.8,0 MY,7,234336,234936,233.65,250.65
Sprite,Foreground,Centre,"sb\f\lastSection\ja\003a.png",113.8,0 S,0,228876,,0.3 C,0,228876,,45,45,45 F,7,228876,229476,0,0.8 MY,7,228876,229476,207.3,224.3 MY,0,229476,234369,224.3,232.3 F,7,234369,234969,0.8,0 MY,7,234369,234969,232.3,249.3
Sprite,Foreground,Centre,"sb\f\lastSection\ja\0053.png",128.5,0 S,0,228942,,0.3 C,0,228942,,45,45,45 F,7,228942,229542,0,0.8 MY,7,228942,229542,205.2,222.2 MY,0,229542,234435,222.2,230.2 F,7,234435,235035,0.8,0 MY,7,234435,235035,230.2,247.2
Sprite,Foreground,Centre,"sb\f\lastSection\ja\006b.png",138.55,0 S,0,228975,,0.3 C,0,228975,,45,45,45 F,7,228975,229575,0,0.8 MY,7,228975,229575,204.9,221.9 MY,0,229575,234468,221.9,229.9 F,7,234468,235068,0.8,0 MY,7,234468,235068,229.9,246.9
Sprite,Foreground,Centre,"sb\f\lastSection\ja\0079.png",148.3,0 S,0,229008,,0.3 C,0,229008,,45,45,45 F,7,229008,229608,0,0.8 MY,7,229008,229608,208.95,225.95 MY,0,229608,234501,225.95,233.95 F,7,234501,235101,0.8,0 MY,7,234501,235101,233.95,250.95
Sprite,Foreground,Centre,"sb\f\lastSection\ja\0073.png",157.15,0 S,0,229041,,0.3 C,0,229041,,45,45,45 F,7,229041,229641,0,0.8 MY,7,229041,229641,207.45,224.45 MY,0,229641,234534,224.45,232.45 F,7,234534,235134,0.8,0 MY,7,234534,235134,232.45,249.45
Sprite,Foreground,Centre,"sb\f\lastSection\ja\0074.png",164.8,0 S,0,229074,,0.3 C,0,229074,,45,45,45 F,7,229074,229674,0,0.8 MY,7,229074,229674,205.95,222.95 MY,0,229674,234567,222.95,230.95 F,7,234567,235167,0.8,0 MY,7,234567,235167,230.95,247.95
Sprite,Foreground,Centre,"sb\f\lastSection\ja\0061.png",173.65,0 S,0,229107,,0.3 C,0,229107,,45,45,45 F,7,229107,229707,0,0.8 MY,7,229107,229707,207.45,224.45 MY,0,229707,234600,224.45,232.45 F,7,234600,235200,0.8,0 MY,7,234600,235200,232.45,249.45
Sprite,Foreground,Centre,"sb\f\lastSection\ja\0072.png",181.75,0 S,0,229140,,0.3 C,0,229140,,45,45,45 F,7,229140,229740,0,0.8 MY,7,229140,229740,207.3,224.3 MY,0,229740,234633,224.3,232.3 F,7,234633,235233,0.8,0 MY,7,234633,235233,232.3,249.3
Sprite,Foreground,Centre,"sb\f\lastSection\ja\0042.png",42.64999,0 S,0,228645,,0.3 F,7,228645,229245,0,0.8 MY,7,228645,229245,203.2,220.2 MY,0,229245,234138,220.2,228.2 F,7,234138,234738,0.8,0 MY,7,234138,234738,228.2,245.2
Sprite,Foreground,Centre,"sb\f\lastSection\ja\0065.png",53.89999,0 S,0,228678,,0.3 F,7,228678,229278,0,0.8 MY,7,228678,229278,205.45,222.45 MY,0,229278,234171,222.45,230.45 F,7,234171,234771,0.8,0 MY,7,234171,234771,230.45,247.45
Sprite,Foreground,Centre,"sb\f\lastSection\ja\0061.png",63.65,0 S,0,228711,,0.3 F,7,228711,229311,0,0.8 MY,7,228711,229311,205.45,222.45 MY,0,229311,234204,222.45,230.45 F,7,234204,234804,0.8,0 MY,7,234204,234804,230.45,247.45
Sprite,Foreground,Centre,"sb\f\lastSection\ja\0074.png",71.3,0 S,0,228744,,0.3 F,7,228744,229344,0,0.8 MY,7,228744,229344,203.95,220.95 MY,0,229344,234237,220.95,228.95 F,7,234237,234837,0.8,0 MY,7,234237,234837,228.95,245.95
Sprite,Foreground,Centre,"sb\f\lastSection\ja\006d.png",82.25,0 S,0,228777,,0.3 F,7,228777,229377,0,0.8 MY,7,228777,229377,205.3,222.3 MY,0,229377,234270,222.3,230.3 F,7,234270,234870,0.8,0 MY,7,234270,234870,230.3,247.3
Sprite,Foreground,Centre,"sb\f\lastSection\ja\0061.png",94.24999,0 S,0,228810,,0.3 F,7,228810,229410,0,0.8 MY,7,228810,229410,205.45,222.45 MY,0,229410,234303,222.45,230.45 F,7,234303,234903,0.8,0 MY,7,234303,234903,230.45,247.45
Sprite,Foreground,Centre,"sb\f\lastSection\ja\0070.png",103.4,0 S,0,228843,,0.3 F,7,228843,229443,0,0.8 MY,7,228843,229443,206.65,223.65 MY,0,229443,234336,223.65,231.65 F,7,234336,234936,0.8,0 MY,7,234336,234936,231.65,248.65
Sprite,Foreground,Centre,"sb\f\lastSection\ja\003a.png",111.8,0 S,0,228876,,0.3 F,7,228876,229476,0,0.8 MY,7,228876,229476,205.3,222.3 MY,0,229476,234369,222.3,230.3 F,7,234369,234969,0.8,0 MY,7,234369,234969,230.3,247.3
Sprite,Foreground,Centre,"sb\f\lastSection\ja\0053.png",126.5,0 S,0,228942,,0.3 F,7,228942,229542,0,0.8 MY,7,228942,229542,203.2,220.2 MY,0,229542,234435,220.2,228.2 F,7,234435,235035,0.8,0 MY,7,234435,235035,228.2,245.2
Sprite,Foreground,Centre,"sb\f\lastSection\ja\006b.png",136.55,0 S,0,228975,,0.3 F,7,228975,229575,0,0.8 MY,7,228975,229575,202.9,219.9 MY,0,229575,234468,219.9,227.9 F,7,234468,235068,0.8,0 MY,7,234468,235068,227.9,244.9
Sprite,Foreground,Centre,"sb\f\lastSection\ja\0079.png",146.3,0 S,0,229008,,0.3 F,7,229008,229608,0,0.8 MY,7,229008,229608,206.95,223.95 MY,0,229608,234501,223.95,231.95 F,7,234501,235101,0.8,0 MY,7,234501,235101,231.95,248.95
Sprite,Foreground,Centre,"sb\f\lastSection\ja\0073.png",155.15,0 S,0,229041,,0.3 F,7,229041,229641,0,0.8 MY,7,229041,229641,205.45,222.45 MY,0,229641,234534,222.45,230.45 F,7,234534,235134,0.8,0 MY,7,234534,235134,230.45,247.45
Sprite,Foreground,Centre,"sb\f\lastSection\ja\0074.png",162.8,0 S,0,229074,,0.3 F,7,229074,229674,0,0.8 MY,7,229074,229674,203.95,220.95 MY,0,229674,234567,220.95,228.95 F,7,234567,235167,0.8,0 MY,7,234567,235167,228.95,245.95
Sprite,Foreground,Centre,"sb\f\lastSection\ja\0061.png",171.65,0 S,0,229107,,0.3 F,7,229107,229707,0,0.8 MY,7,229107,229707,205.45,222.45 MY,0,229707,234600,222.45,230.45 F,7,234600,235200,0.8,0 MY,7,234600,235200,230.45,247.45
Sprite,Foreground,Centre,"sb\f\lastSection\ja\0072.png",179.75,0 S,0,229140,,0.3 F,7,229140,229740,0,0.8 MY,7,229140,229740,205.3,222.3 MY,0,229740,234633,222.3,230.3 F,7,234633,235233,0.8,0 MY,7,234633,235233,230.3,247.3
Sprite,Foreground,Centre,"sb\f\intro\0053.png",204.9,0 F,7,863,1463,0,0.8 MY,7,863,1463,291.425,266.425 S,0,1463,,0.45 MY,0,1463,3145,266.425,259.425 F,7,3145,3745,0.8,0 MY,7,3145,3745,258.425,246.425
Sprite,Foreground,Centre,"sb\f\intro\006b.png",220.2,0 F,7,896,1496,0,0.8 MY,7,896,1496,291.2,266.2 S,0,1496,,0.45 MY,0,1496,3145,266.2,259.2 F,7,3145,3745,0.8,0 MY,7,3145,3745,258.2,246.2
Sprite,Foreground,Centre,"sb\f\intro\0079.png",234.15,0 F,7,929,1529,0,0.8 MY,7,929,1529,298.175,273.175 S,0,1529,,0.45 MY,0,1529,3145,273.175,266.175 F,7,3145,3745,0.8,0 MY,7,3145,3745,265.175,253.175
Sprite,Foreground,Centre,"sb\f\intro\0073.png",245.85,0 F,7,962,1562,0,0.8 MY,7,962,1562,295.25,270.25 S,0,1562,,0.45 MY,0,1562,3145,270.25,263.25 F,7,3145,3745,0.8,0 MY,7,3145,3745,262.25,250.25
Sprite,Foreground,Centre,"sb\f\intro\0074.png",255.3,0 F,7,995,1595,0,0.8 MY,7,995,1595,293.225,268.225 S,0,1595,,0.45 MY,0,1595,3145,268.225,261.225 F,7,3145,3745,0.8,0 MY,7,3145,3745,260.225,248.225
Sprite,Foreground,Centre,"sb\f\intro\0061.png",265.875,0 F,7,1028,1628,0,0.8 MY,7,1028,1628,295.25,270.25 S,0,1628,,0.45 MY,0,1628,3145,270.25,263.25 F,7,3145,3745,0.8,0 MY,7,3145,3745,262.25,250.25
Sprite,Foreground,Centre,"sb\f\intro\0072.png",277.8,0 F,7,1061,1661,0,0.8 MY,7,1061,1661,295.25,270.25 S,0,1661,,0.45 MY,0,1661,3145,270.25,263.25 F,7,3145,3745,0.8,0 MY,7,3145,3745,262.25,250.25
//Storyboard Layer 4 (Overlay)
//Storyboard Sound Samples
Sample,122360,0,"storyboarded_hs/G#6.wav",90
Sample,127074,0,"storyboarded_hs/C7.wav",70
Sample,136074,0,"storyboarded_hs/G#6.wav",90
Sample,140896,0,"storyboarded_hs/C7.wav",66
Sample,190931,0,"storyboarded_hs/G#6.wav",90
Sample,195646,0,"storyboarded_hs/C7.wav",76
Sample,204646,0,"storyboarded_hs/G#6.wav",90
Sample,209360,0,"storyboarded_hs/C7.wav",76

[TimingPoints]
646,428.571428571429,4,2,3,28,1,0
646,-142.857142857143,4,2,3,28,0,0
7503,-83.3333333333333,4,1,2,70,0,0
13717,-83.3333333333333,4,1,2,60,0,0
13931,-83.3333333333333,4,1,2,75,0,0
14146,-83.3333333333333,4,1,2,90,0,0
14360,-142.857142857143,4,1,2,70,0,0
14467,-142.857142857143,4,2,3,50,0,0
29360,-142.857142857143,4,2,4,50,0,0
29788,-100,4,2,24,70,0,0
30753,-100,4,2,4,70,0,0
31074,-100,4,2,34,70,0,0
31181,-100,4,2,36,70,0,0
31288,-100,4,2,37,70,0,0
31396,-100,4,2,34,70,0,0
31503,-100,4,2,26,70,0,0
31931,-100,4,2,4,70,0,0
32146,-100,4,2,22,70,0,0
32467,-100,4,2,41,80,0,0
32574,-100,4,2,42,80,0,0
32681,-100,4,2,43,80,0,0
32788,-100,4,2,36,70,0,0
32896,-100,4,2,37,70,0,0
33003,-100,4,2,38,55,0,0
33110,-100,4,2,36,70,0,0
33217,-100,4,2,37,70,0,0
33646,-100,4,2,4,70,0,0
34503,-100,4,2,37,80,0,0
34610,-100,4,2,36,80,0,0
34717,-100,4,2,38,70,0,0
34824,-100,4,2,37,70,0,0
34931,-100,4,2,36,70,0,0
35360,-100,4,2,4,70,0,0
35574,-100,4,2,50,70,0,0
35896,-100,4,2,37,70,0,0
36003,-100,4,2,32,55,0,0
36110,-100,4,2,32,70,0,0
36217,-100,4,2,32,85,0,0
36324,-100,4,2,34,80,0,0
36431,-100,4,2,32,70,0,0
36538,-100,4,2,30,70,0,0
36646,-100,4,2,37,70,0,0
36967,-100,4,2,36,70,0,0
37074,-100,4,2,37,70,0,0
37288,-100,4,2,27,70,0,0
37931,-100,4,2,36,70,0,0
38038,-100,4,2,27,70,0,0
38360,-100,4,2,39,70,0,0
38574,-100,4,2,37,70,0,0
38681,-100,4,2,36,70,0,0
38788,-100,4,2,52,70,0,0
39003,-100,4,2,28,70,0,0
39324,-100,4,2,4,70,0,0
39431,-100,4,2,55,85,0,0
39646,-100,4,2,28,85,0,0
39860,-100,4,2,27,85,0,0
40074,-100,4,2,26,85,0,0
40288,-100,4,2,56,85,0,0
40396,-100,4,2,4,85,0,0
40503,-100,4,2,32,85,0,0
40717,-100,4,2,57,85,0,0
40824,-100,4,2,4,85,0,0
41146,-100,4,2,58,85,0,0
41360,-100,4,2,34,85,0,0
41467,-100,4,2,64,85,0,0
41574,-100,4,2,32,85,0,0
41681,-100,4,2,34,85,0,0
41788,-83.3333333333333,4,2,59,85,0,0
42110,-83.3333333333333,4,2,32,85,0,0
42217,-83.3333333333333,4,2,60,85,0,0
42431,-66.6666666666667,4,2,61,85,0,0
42753,-83.3333333333333,4,2,61,85,0,0
43503,-83.3333333333333,4,3,26,89,0,0
43610,-83.3333333333333,4,3,2,5,0,0
44574,-83.3333333333333,4,3,24,89,0,0
45217,-83.3333333333333,4,3,58,89,0,0
46074,-83.3333333333333,4,3,41,89,0,0
46181,-83.3333333333333,4,3,42,89,0,0
46288,-83.3333333333333,4,3,62,89,0,0
46503,-83.3333333333333,4,3,63,89,0,0
46610,-83.3333333333333,4,3,26,89,0,0
46931,-83.3333333333333,4,3,22,89,0,0
47574,-83.3333333333333,4,3,41,75,0,0
47646,-83.3333333333333,4,3,42,75,0,0
47717,-83.3333333333333,4,3,43,75,0,0
47788,-83.3333333333333,4,3,41,75,0,0
47860,-83.3333333333333,4,3,42,75,0,0
48217,-83.3333333333333,4,3,2,89,0,0
48646,-133.333333333333,4,3,61,89,0,0
49503,-133.333333333333,4,3,61,75,0,0
49610,-133.333333333333,4,3,61,40,0,0
49717,-100,4,3,61,55,0,0
49931,-100,4,3,2,45,0,0
50038,-100,4,3,2,50,0,0
50146,-100,4,3,2,55,0,0
50253,-100,4,3,2,60,0,0
50360,-100,4,2,4,70,0,0
53681,-100,4,2,4,45,0,0
53788,-100,4,2,4,75,0,0
53896,-100,4,2,4,45,0,0
54003,-100,4,2,4,55,0,0
54110,-100,4,2,4,65,0,0
54217,-100,4,2,4,75,0,0
54324,-100,4,2,4,55,0,0
54753,-100,4,2,4,75,0,0
54860,-100,4,2,4,45,0,0
55074,-100,4,2,4,75,0,0
55288,-100,4,2,4,55,0,0
55396,-100,4,2,4,45,0,0
55503,-100,4,2,4,35,0,0
56896,-100,4,2,0,5,0,0
57003,-100,4,2,10,45,0,0
57110,-100,4,2,0,5,0,0
57217,-76.9230769230769,4,2,68,80,0,1
57646,-76.9230769230769,4,2,70,80,0,1
58931,-76.9230769230769,4,2,72,80,0,1
59253,-76.9230769230769,4,2,70,80,0,1
60538,-76.9230769230769,4,2,70,60,0,1
60646,-76.9230769230769,4,2,78,80,0,1
60967,-76.9230769230769,4,2,70,80,0,1
61288,-76.9230769230769,4,2,103,80,0,1
61610,-76.9230769230769,4,2,70,80,0,1
62360,-76.9230769230769,4,2,80,80,0,1
62574,-76.9230769230769,4,2,70,80,0,1
63217,-76.9230769230769,4,2,17,80,0,1
63324,-76.9230769230769,4,2,70,80,0,1
63646,-76.9230769230769,4,2,18,80,0,1
63753,-76.9230769230769,4,2,70,80,0,1
63860,-76.9230769230769,4,2,70,55,0,1
63967,-76.9230769230769,4,2,0,5,0,1
64074,-76.9230769230769,4,2,66,80,0,1
64503,-76.9230769230769,4,2,70,80,0,1
65788,-76.9230769230769,4,2,85,80,0,1
66217,-76.9230769230769,4,2,70,80,0,1
66646,-76.9230769230769,4,2,19,80,0,1
66753,-76.9230769230769,4,2,70,80,0,1
67503,-76.9230769230769,4,2,90,80,0,1
67931,-76.9230769230769,4,2,70,80,0,1
69217,-76.9230769230769,4,2,76,80,0,1
69324,-76.9230769230769,4,2,70,80,0,1
70074,-76.9230769230769,4,2,79,80,0,1
70181,-76.9230769230769,4,2,70,80,0,1
70931,-76.9230769230769,4,2,68,80,0,1
71360,-76.9230769230769,4,2,70,80,0,1
72646,-76.9230769230769,4,2,72,80,0,1
72967,-76.9230769230769,4,2,70,80,0,1
74360,-76.9230769230769,4,2,78,80,0,1
74574,-76.9230769230769,4,2,70,80,0,1
75003,-76.9230769230769,4,2,103,80,0,1
75324,-76.9230769230769,4,2,70,80,0,1
76074,-76.9230769230769,4,2,80,80,0,1
76288,-76.9230769230769,4,2,70,80,0,1
76931,-76.9230769230769,4,2,17,80,0,1
77038,-76.9230769230769,4,2,70,80,0,1
77360,-76.9230769230769,4,2,18,80,0,1
77467,-76.9230769230769,4,2,70,80,0,1
77574,-76.9230769230769,4,2,70,55,0,1
77681,-76.9230769230769,4,2,0,5,0,1
77788,-76.9230769230769,4,2,92,80,0,1
78217,-76.9230769230769,4,2,70,80,0,1
79502,-76.9230769230769,4,2,94,80,0,1
79717,-76.9230769230769,4,2,70,80,0,1
81217,-76.9230769230769,4,2,97,80,0,1
81645,-76.9230769230769,4,2,70,80,0,1
82717,-76.9230769230769,4,2,70,55,0,1
82824,-76.9230769230769,4,2,0,5,0,1
82931,-76.9230769230769,4,2,98,80,0,1
83360,-76.9230769230769,4,2,70,80,0,1
84217,-76.9230769230769,4,2,21,80,0,1
84324,-76.9230769230769,4,2,70,60,0,1
84431,-76.9230769230769,4,2,70,80,0,1
84538,-76.9230769230769,4,2,70,60,0,1
84646,-76.9230769230769,4,2,67,80,0,1
84753,-76.9230769230769,4,2,70,60,0,1
84860,-76.9230769230769,4,2,70,75,0,1
84967,-76.9230769230769,4,2,70,85,0,1
85074,-76.9230769230769,4,2,70,90,0,1
85181,-76.9230769230769,4,2,70,60,0,1
85288,-76.9230769230769,4,2,70,90,0,1
85396,-76.9230769230769,4,2,70,60,0,1
85503,-76.9230769230769,4,2,70,90,0,1
85610,-76.9230769230769,4,2,70,80,0,1
85717,-76.9230769230769,4,2,70,70,0,1
85931,-76.9230769230769,4,2,70,80,0,1
86038,-76.9230769230769,4,2,70,60,0,1
86146,-76.9230769230769,4,2,70,70,0,1
86253,-76.9230769230769,4,2,70,80,0,1
86360,-76.9230769230769,4,2,99,80,0,0
87003,-133.333333333333,4,2,3,80,0,0
87110,-133.333333333333,4,2,3,5,0,0
87217,-133.333333333333,4,2,3,80,0,0
87324,-133.333333333333,4,2,3,5,0,0
87431,-133.333333333333,4,2,3,80,0,0
87538,-133.333333333333,4,2,3,5,0,0
87646,-133.333333333333,4,2,3,80,0,0
87753,-133.333333333333,4,2,3,5,0,0
87860,-133.333333333333,4,2,3,80,0,0
87967,-133.333333333333,4,2,3,5,0,0
88074,-133.333333333333,4,1,2,70,0,0
94181,-133.333333333333,4,1,2,50,0,0
94503,-133.333333333333,4,1,2,70,0,0
94931,-100,4,2,24,70,0,0
95360,-100,4,2,4,70,0,0
95574,-100,4,2,24,70,0,0
96217,-100,4,2,34,70,0,0
96324,-100,4,2,36,70,0,0
96431,-100,4,2,37,80,0,0
96538,-100,4,2,34,85,0,0
96646,-100,4,2,36,70,0,0
97074,-100,4,2,4,70,0,0
97288,-100,4,2,22,70,0,0
97610,-100,4,2,41,80,0,0
97717,-100,4,2,42,80,0,0
97824,-100,4,2,43,80,0,0
97931,-100,4,2,36,70,0,0
98038,-100,4,2,37,70,0,0
98146,-100,4,2,38,70,0,0
98253,-100,4,2,36,70,0,0
98360,-100,4,2,37,70,0,0
98788,-100,4,2,4,70,0,0
99646,-100,4,2,37,80,0,0
99753,-100,4,2,36,80,0,0
99860,-100,4,2,38,70,0,0
99967,-100,4,2,37,70,0,0
100074,-100,4,2,36,70,0,0
100503,-100,4,2,4,70,0,0
100717,-100,4,2,50,70,0,0
101038,-100,4,2,37,70,0,0
101146,-100,4,2,32,70,0,0
101467,-100,4,2,34,70,0,0
101574,-100,4,2,32,70,0,0
101681,-100,4,2,30,70,0,0
101788,-100,4,2,37,70,0,0
102110,-100,4,2,36,70,0,0
102217,-100,4,2,37,70,0,0
102431,-100,4,2,27,70,0,0
102860,-100,4,2,4,70,0,0
103074,-100,4,2,36,80,0,0
103288,-100,4,2,27,80,0,0
103503,-100,4,2,39,85,0,0
103717,-100,4,2,37,85,0,0
103824,-100,4,2,36,85,0,0
103931,-100,4,2,52,85,0,0
104146,-100,4,2,28,85,0,0
104467,-100,4,2,4,70,0,0
104574,-100,4,2,55,85,0,0
104788,-100,4,2,28,85,0,0
105003,-100,4,2,27,85,0,0
105217,-100,4,2,26,85,0,0
105431,-100,4,2,56,85,0,0
105646,-100,4,2,32,85,0,0
105860,-100,4,2,57,50,0,0
105967,-100,4,2,4,85,0,0
106288,-100,4,2,58,85,0,0
106503,-100,4,2,34,85,0,0
106610,-100,4,2,64,85,0,0
106717,-100,4,2,32,45,0,0
106824,-100,4,2,34,60,0,0
106931,-83.3333333333333,4,2,59,85,0,0
107253,-83.3333333333333,4,2,32,85,0,0
107360,-83.3333333333333,4,2,60,85,0,0
107574,-66.6666666666667,4,2,61,85,0,0
107896,-83.3333333333333,4,2,61,85,0,0
108110,-83.3333333333333,4,2,4,50,0,0
108217,-83.3333333333333,4,2,4,85,0,0
108646,-83.3333333333333,4,3,26,85,0,0
108860,-83.3333333333333,4,3,2,5,0,0
109717,-83.3333333333333,4,3,24,85,0,0
110360,-83.3333333333333,4,3,58,85,0,0
111217,-83.3333333333333,4,3,42,85,0,0
111324,-83.3333333333333,4,3,43,85,0,0
111431,-83.3333333333333,4,3,62,85,0,0
111646,-83.3333333333333,4,3,63,85,0,0
111753,-83.3333333333333,4,3,26,85,0,0
112074,-83.3333333333333,4,3,22,85,0,0
112396,-83.3333333333333,4,3,2,5,0,0
112824,-83.3333333333333,4,3,41,85,0,0
112931,-83.3333333333333,4,3,43,85,0,0
113146,-83.3333333333333,4,3,58,85,0,0
113360,-83.3333333333333,4,3,43,85,0,0
113467,-83.3333333333333,4,3,22,85,0,0
113789,-133.333333333333,4,3,61,85,0,0
114431,-133.333333333333,4,3,2,45,0,0
114646,-83.3333333333333,4,3,2,65,0,0
115074,-83.3333333333333,4,3,2,45,0,0
115181,-83.3333333333333,4,3,2,50,0,0
115289,-83.3333333333333,4,3,2,55,0,0
115396,-83.3333333333333,4,3,2,60,0,0
115503,-100,4,2,4,70,0,0
118396,-100,4,2,4,55,0,0
118503,-100,4,2,4,70,0,0
118931,-100,4,2,4,45,0,0
119360,-100,4,2,4,70,0,0
119467,-100,4,2,4,45,0,0
119896,-83.3333333333333,4,2,4,75,0,0
120003,-83.3333333333333,4,2,4,45,0,0
120217,-83.3333333333333,4,2,4,85,0,0
120324,-83.3333333333333,4,2,4,75,0,0
120431,-83.3333333333333,4,2,4,60,0,0
120646,-303.030303030303,4,2,4,60,0,0
121610,-303.030303030303,4,2,0,5,0,0
121717,-100,4,3,2,70,0,0
122146,-76.9230769230769,4,2,70,35,0,0
122253,-76.9230769230769,4,2,0,5,0,0
122360,-76.9230769230769,4,2,68,80,0,1
122788,-76.9230769230769,4,2,70,80,0,1
123860,-76.9230769230769,4,2,71,80,0,1
124074,-76.9230769230769,4,2,72,80,0,1
124396,-76.9230769230769,4,2,73,80,0,1
124503,-76.9230769230769,4,2,70,80,0,1
124717,-76.9230769230769,4,2,74,80,0,1
124931,-76.9230769230769,4,2,71,80,0,1
125038,-76.9230769230769,4,2,75,80,0,1
125146,-76.9230769230769,4,2,70,80,0,1
125360,-76.9230769230769,4,2,102,80,0,1
125467,-76.9230769230769,4,2,77,80,0,1
125681,-76.9230769230769,4,2,77,60,0,1
125788,-76.9230769230769,4,2,78,80,0,1
126110,-76.9230769230769,4,2,75,80,0,1
126431,-76.9230769230769,4,2,79,80,0,1
126860,-76.9230769230769,4,2,74,80,0,1
127074,-76.9230769230769,4,2,70,80,0,1
127503,-76.9230769230769,4,2,80,80,0,1
127931,-76.9230769230769,4,2,70,80,0,1
129003,-76.9230769230769,4,2,74,55,0,1
129110,-76.9230769230769,4,2,0,5,0,1
129217,-76.9230769230769,4,2,72,80,0,1
129538,-76.9230769230769,4,2,81,80,0,1
129646,-76.9230769230769,4,2,101,80,0,1
129967,-76.9230769230769,4,2,82,80,0,1
130074,-76.9230769230769,4,2,72,80,0,1
130396,-76.9230769230769,4,2,83,80,0,1
130503,-76.9230769230769,4,2,84,80,0,1
130931,-76.9230769230769,4,2,85,80,0,1
131253,-76.9230769230769,4,2,86,80,0,1
131360,-76.9230769230769,4,2,82,80,0,1
131467,-76.9230769230769,4,2,87,80,0,1
131574,-76.9230769230769,4,2,88,80,0,1
131896,-76.9230769230769,4,2,70,80,0,1
132324,-76.9230769230769,4,2,89,80,0,1
132646,-76.9230769230769,4,2,90,80,0,1
132967,-76.9230769230769,4,2,89,80,0,1
133074,-76.9230769230769,4,2,70,80,0,1
133288,-76.9230769230769,4,2,91,80,0,1
133503,-76.9230769230769,4,2,89,80,0,1
133610,-76.9230769230769,4,2,91,80,0,1
133717,-76.9230769230769,4,2,89,80,0,1
133931,-76.9230769230769,4,2,70,80,0,1
134360,-76.9230769230769,4,2,76,80,0,1
134467,-76.9230769230769,4,2,70,80,0,1
134681,-76.9230769230769,4,2,75,80,0,1
135003,-76.9230769230769,4,2,74,80,0,1
135110,-76.9230769230769,4,2,70,70,0,1
135217,-76.9230769230769,4,2,79,80,0,1
135324,-76.9230769230769,4,2,70,70,0,1
135431,-76.9230769230769,4,2,70,80,0,1
135646,-76.9230769230769,4,2,84,80,0,1
135753,-76.9230769230769,4,2,70,80,0,1
136074,-76.9230769230769,4,2,68,80,0,1
136503,-76.9230769230769,4,2,70,80,0,1
137574,-76.9230769230769,4,2,71,80,0,1
137788,-76.9230769230769,4,2,72,80,0,1
138110,-76.9230769230769,4,2,73,80,0,1
138217,-76.9230769230769,4,2,70,80,0,1
138431,-76.9230769230769,4,2,74,80,0,1
138646,-76.9230769230769,4,2,71,80,0,1
138753,-76.9230769230769,4,2,75,80,0,1
138860,-76.9230769230769,4,2,70,80,0,1
139074,-76.9230769230769,4,2,102,80,0,1
139181,-76.9230769230769,4,2,77,80,0,1
139503,-76.9230769230769,4,2,78,80,0,1
139824,-76.9230769230769,4,2,75,80,0,1
140146,-76.9230769230769,4,2,79,80,0,1
140574,-76.9230769230769,4,2,74,80,0,1
140788,-76.9230769230769,4,2,70,80,0,1
140896,-76.9230769230769,4,2,80,80,0,1
141217,-76.9230769230769,4,2,70,80,0,1
142717,-76.9230769230769,4,2,74,55,0,1
142824,-76.9230769230769,4,2,0,5,0,1
142931,-76.9230769230769,4,2,92,80,0,1
143253,-76.9230769230769,4,2,71,80,0,1
143360,-76.9230769230769,4,2,74,80,0,1
143574,-76.9230769230769,4,2,79,80,0,1
143788,-76.9230769230769,4,2,70,80,0,1
143896,-76.9230769230769,4,2,75,80,0,1
144110,-76.9230769230769,4,2,70,80,0,1
144217,-76.9230769230769,4,2,93,80,0,1
144646,-76.9230769230769,4,2,94,80,0,1
144860,-76.9230769230769,4,2,95,80,0,1
145074,-76.9230769230769,4,2,70,80,0,1
145288,-76.9230769230769,4,2,96,80,0,1
145610,-76.9230769230769,4,2,70,80,0,1
146360,-76.9230769230769,4,2,97,80,0,1
146788,-76.9230769230769,4,2,70,80,0,1
147646,-76.9230769230769,4,2,79,80,0,1
147753,-76.9230769230769,4,2,70,80,0,1
148074,-76.9230769230769,4,2,98,80,0,1
148288,-76.9230769230769,4,2,70,80,0,1
149146,-76.9230769230769,4,2,70,75,0,1
149253,-76.9230769230769,4,2,70,85,0,1
149360,-76.9230769230769,4,2,70,80,0,1
149788,-76.9230769230769,4,2,10,92,0,0
150217,-76.9230769230769,4,2,70,92,0,0
150431,-76.9230769230769,4,2,11,92,0,0
150860,-76.9230769230769,4,2,70,92,0,0
151074,-76.9230769230769,4,2,12,92,0,0
151503,-76.9230769230769,4,2,13,92,0,0
151931,-76.9230769230769,4,2,70,92,0,0
152146,-76.9230769230769,4,2,11,92,0,0
152574,-76.9230769230769,4,2,70,92,0,0
152788,-76.9230769230769,4,2,12,92,0,0
152896,-76.9230769230769,4,2,70,92,0,0
153217,-76.9230769230769,4,2,75,92,0,0
154181,-76.9230769230769,4,2,70,92,0,0
154288,-76.9230769230769,4,2,14,92,0,0
154503,-76.9230769230769,4,2,75,92,0,0
154610,-76.9230769230769,4,2,73,92,0,0
154931,-76.9230769230769,4,2,15,92,0,0
155146,-76.9230769230769,4,2,75,92,0,0
155360,-76.9230769230769,4,2,14,92,0,0
155574,-76.9230769230769,4,2,100,92,0,0
156003,-76.9230769230769,4,2,6,92,0,0
156110,-76.9230769230769,4,2,7,92,0,0
156217,-76.9230769230769,4,2,8,92,0,0
156324,-76.9230769230769,4,2,9,92,0,0
156431,-76.9230769230769,4,2,8,92,0,0
156538,-76.9230769230769,4,2,5,92,0,0
156646,-76.9230769230769,4,2,13,92,0,0
157288,-76.9230769230769,4,2,11,92,0,0
157931,-76.9230769230769,4,2,12,92,0,0
158360,-76.9230769230769,4,2,13,92,0,0
158788,-76.9230769230769,4,2,70,92,0,0
159003,-76.9230769230769,4,2,11,92,0,0
159431,-76.9230769230769,4,2,70,92,0,0
159646,-76.9230769230769,4,2,71,92,0,0
159753,-76.9230769230769,4,2,83,92,0,0
159860,-76.9230769230769,4,2,14,92,0,0
160074,-76.9230769230769,4,2,100,92,0,0
160503,-76.9230769230769,4,2,70,92,0,0
160717,-76.9230769230769,4,2,11,92,0,0
161146,-76.9230769230769,4,2,70,92,0,0
161360,-76.9230769230769,4,2,100,65,0,0
161467,-76.9230769230769,4,2,70,65,0,0
161574,-76.9230769230769,4,2,70,80,0,0
161788,-76.9230769230769,4,2,16,65,0,0
161896,-76.9230769230769,4,2,70,65,0,0
162003,-76.9230769230769,4,2,70,70,0,0
162110,-76.9230769230769,4,2,70,75,0,0
162217,-76.9230769230769,4,2,70,80,0,0
162324,-76.9230769230769,4,2,70,75,0,0
162431,-76.9230769230769,4,2,11,70,0,0
162753,-76.9230769230769,4,2,70,70,0,0
162860,-76.9230769230769,4,2,70,92,0,0
162967,-76.9230769230769,4,2,70,70,0,0
163288,-76.9230769230769,4,2,70,65,0,0
163396,-76.9230769230769,4,2,70,55,0,0
163503,-76.9230769230769,4,2,70,45,0,0
176146,-100,4,3,2,50,0,0
176431,-100,4,3,2,5,0,0
176503,-100,4,3,2,50,0,0
176574,-100,4,3,2,5,0,0
176646,-100,4,3,2,50,0,0
176717,-100,4,3,2,5,0,0
176788,-100,4,3,2,70,0,0
176860,-100,4,3,2,5,0,0
176896,-100,4,3,2,60,0,0
177003,-100,4,3,2,5,0,0
177056,-100,4,3,2,45,0,0
177146,-100,4,3,2,5,0,0
177217,-100,4,3,2,80,0,0
183217,-83.3333333333333,4,3,2,80,0,0
183646,-83.3333333333333,4,3,2,60,0,0
183753,-83.3333333333333,4,3,2,65,0,0
183860,-83.3333333333333,4,3,2,70,0,0
183967,-83.3333333333333,4,3,2,75,0,0
184074,-83.3333333333333,4,2,4,90,0,0
185146,-83.3333333333333,4,2,4,80,0,0
188574,-83.3333333333333,4,2,4,65,0,0
188788,-83.3333333333333,4,2,4,80,0,0
188896,-83.3333333333333,4,2,4,75,0,0
189003,-83.3333333333333,4,2,4,65,0,0
189217,-83.3333333333333,4,2,4,80,0,0
190717,-83.3333333333333,4,2,4,45,0,0
190824,-83.3333333333333,4,2,0,5,0,0
190931,-76.9230769230769,4,2,68,80,0,1
191360,-76.9230769230769,4,2,70,80,0,1
192431,-76.9230769230769,4,2,71,80,0,1
192646,-76.9230769230769,4,2,72,80,0,1
192967,-76.9230769230769,4,2,73,80,0,1
193074,-76.9230769230769,4,2,70,80,0,1
193288,-76.9230769230769,4,2,74,80,0,1
193503,-76.9230769230769,4,2,71,80,0,1
193610,-76.9230769230769,4,2,75,80,0,1
193931,-76.9230769230769,4,2,76,80,0,1
194038,-76.9230769230769,4,2,77,80,0,1
194360,-76.9230769230769,4,2,78,80,0,1
194681,-76.9230769230769,4,2,75,80,0,1
195003,-76.9230769230769,4,2,103,80,0,1
195324,-76.9230769230769,4,2,70,80,0,1
195431,-76.9230769230769,4,2,74,80,0,1
195646,-76.9230769230769,4,2,70,80,0,1
196074,-76.9230769230769,4,2,80,80,0,1
196396,-76.9230769230769,4,2,70,80,0,1
196931,-76.9230769230769,4,2,17,80,0,1
197038,-76.9230769230769,4,2,70,80,0,1
197360,-76.9230769230769,4,2,18,80,0,1
197467,-76.9230769230769,4,2,70,80,0,1
197574,-76.9230769230769,4,2,74,55,0,1
197681,-76.9230769230769,4,2,0,5,0,1
197788,-76.9230769230769,4,2,66,80,0,1
198110,-76.9230769230769,4,2,81,80,0,1
198217,-76.9230769230769,4,2,101,80,0,1
198538,-76.9230769230769,4,2,82,80,0,1
198646,-76.9230769230769,4,2,72,80,0,1
198753,-76.9230769230769,4,2,70,80,0,1
198967,-76.9230769230769,4,2,83,80,0,1
199074,-76.9230769230769,4,2,84,80,0,1
199503,-76.9230769230769,4,2,85,80,0,1
199824,-76.9230769230769,4,2,86,80,0,1
199931,-76.9230769230769,4,2,82,80,0,1
200038,-76.9230769230769,4,2,87,80,0,1
200146,-76.9230769230769,4,2,88,80,0,1
200360,-76.9230769230769,4,2,19,80,0,1
200467,-76.9230769230769,4,2,70,80,0,1
200896,-76.9230769230769,4,2,89,70,0,1
201217,-76.9230769230769,4,2,90,80,0,1
201538,-76.9230769230769,4,2,89,80,0,1
201646,-76.9230769230769,4,2,70,80,0,1
201860,-76.9230769230769,4,2,91,80,0,1
202074,-76.9230769230769,4,2,89,80,0,1
202181,-76.9230769230769,4,2,91,80,0,1
202288,-76.9230769230769,4,2,89,80,0,1
202503,-76.9230769230769,4,2,70,80,0,1
202931,-76.9230769230769,4,2,90,80,0,1
203038,-76.9230769230769,4,2,70,80,0,1
203253,-76.9230769230769,4,2,76,80,0,1
203360,-76.9230769230769,4,2,70,80,0,1
203574,-76.9230769230769,4,2,75,80,0,1
203788,-76.9230769230769,4,2,79,80,0,1
203896,-76.9230769230769,4,2,70,60,0,1
204003,-76.9230769230769,4,2,70,65,0,1
204110,-76.9230769230769,4,2,70,75,0,1
204217,-76.9230769230769,4,2,84,80,0,1
204646,-76.9230769230769,4,2,68,90,0,1
204967,-76.9230769230769,4,2,70,90,0,1
206146,-76.9230769230769,4,2,71,90,0,1
206360,-76.9230769230769,4,2,72,90,0,1
206681,-76.9230769230769,4,2,73,90,0,1
206788,-76.9230769230769,4,2,70,90,0,1
207003,-76.9230769230769,4,2,74,90,0,1
207217,-76.9230769230769,4,2,71,90,0,1
207324,-76.9230769230769,4,2,75,90,0,1
207646,-76.9230769230769,4,2,102,90,0,1
207753,-76.9230769230769,4,2,77,90,0,1
207860,-76.9230769230769,4,2,70,90,0,1
208074,-76.9230769230769,4,2,78,90,0,1
208396,-76.9230769230769,4,2,75,90,0,1
208717,-76.9230769230769,4,2,103,95,0,1
209039,-76.9230769230769,4,2,74,90,0,1
209146,-76.9230769230769,4,2,70,90,0,1
209360,-76.9230769230769,4,2,93,90,0,1
209467,-76.9230769230769,4,2,70,90,0,1
209788,-76.9230769230769,4,2,80,90,0,1
210217,-76.9230769230769,4,2,70,90,0,1
210646,-76.9230769230769,4,2,17,90,0,1
210753,-76.9230769230769,4,2,70,90,0,1
211074,-76.9230769230769,4,2,18,90,0,1
211181,-76.9230769230769,4,2,70,90,0,1
211288,-76.9230769230769,4,2,74,65,0,1
211396,-76.9230769230769,4,2,0,5,0,1
211503,-76.9230769230769,4,2,92,90,0,1
211824,-76.9230769230769,4,2,71,90,0,1
211931,-76.9230769230769,4,2,74,90,0,1
212146,-76.9230769230769,4,2,79,90,0,1
212360,-76.9230769230769,4,2,70,90,0,1
212467,-76.9230769230769,4,2,75,90,0,1
212682,-76.9230769230769,4,2,70,90,0,1
212788,-76.9230769230769,4,2,93,90,0,1
213217,-76.9230769230769,4,2,94,90,0,1
213431,-76.9230769230769,4,2,95,90,0,1
213538,-76.9230769230769,4,2,70,90,0,1
213860,-76.9230769230769,4,2,96,95,0,1
214182,-76.9230769230769,4,2,70,90,0,1
214931,-76.9230769230769,4,2,97,90,0,1
215360,-76.9230769230769,4,2,70,90,0,1
216217,-76.9230769230769,4,2,79,90,0,1
216324,-76.9230769230769,4,2,70,90,0,1
216431,-76.9230769230769,4,2,70,65,0,1
216538,-76.9230769230769,4,2,0,5,0,1
216646,-76.9230769230769,4,2,98,90,0,1
218038,-76.9230769230769,4,2,70,90,0,1
218146,-76.9230769230769,4,2,70,90,0,1
218360,-76.9230769230769,4,3,93,90,0,1
218467,-76.9230769230769,4,2,70,65,0,1
218574,-76.9230769230769,4,2,70,75,0,1
218681,-76.9230769230769,4,2,70,83,0,1
218788,-76.9230769230769,4,2,70,89,0,1
219110,-76.9230769230769,4,2,70,64,0,1
219217,-76.9230769230769,4,2,70,68,0,1
219324,-76.9230769230769,4,2,70,72,0,1
219431,-76.9230769230769,4,2,70,76,0,1
219646,-76.9230769230769,4,2,84,80,0,1
219753,-76.9230769230769,4,2,84,70,0,1
219860,-76.9230769230769,4,2,84,60,0,1
219967,-76.9230769230769,4,2,84,50,0,1
220074,-76.9230769230769,4,2,99,76,0,0
220717,-76.9230769230769,4,2,3,80,0,0
220824,-76.9230769230769,4,2,0,5,0,0
220931,-76.9230769230769,4,2,3,80,0,0
221038,-76.9230769230769,4,2,0,5,0,0
221146,-76.9230769230769,4,2,3,80,0,0
221253,-76.9230769230769,4,2,0,5,0,0
221360,-76.9230769230769,4,2,100,80,0,0
221467,-76.9230769230769,4,2,100,50,0,0
221788,-83.3333333333333,4,1,2,70,0,0
228646,-83.3333333333333,4,1,44,75,0,0
228860,-83.3333333333333,4,1,45,83,0,0
229074,-83.3333333333333,4,1,2,70,0,0
229181,-83.3333333333333,4,1,46,83,0,0
229288,-83.3333333333333,4,1,47,83,0,0
229717,-83.3333333333333,4,1,2,70,0,0
233788,-66.6666666666667,4,1,2,70,0,0
234753,-83.3333333333333,4,1,2,50,0,0
235074,-83.3333333333333,4,1,2,70,0,0
235503,-83.3333333333333,4,2,3,40,0,0
237003,-83.3333333333333,4,3,2,40,0,0
237217,-83.3333333333333,4,2,2,40,0,0
237646,-83.3333333333333,4,2,1,36,0,0
238074,-83.3333333333333,4,2,2,31,0,0
238503,-83.3333333333333,4,2,1,28,0,0
238931,-83.3333333333333,4,2,2,25,0,0
239360,-83.3333333333333,4,2,1,22,0,0
239788,-83.3333333333333,4,2,2,19,0,0
240217,-83.3333333333333,4,2,1,16,0,0
240646,-83.3333333333333,4,2,2,13,0,0
241074,-83.3333333333333,4,2,1,8,0,0
241503,-83.3333333333333,4,2,2,5,0,0

[Colours]
Combo1 : 252,78,177
Combo2 : 255,190,125
Combo3 : 188,188,188
Combo4 : 149,149,255

[HitObjects]
133,83,646,6,0,P|136:130|131:174,2,73.4999977569581,0|0|2,0:0|0:0|0:0,0:0:0:0:
306,115,1717,1,0,0:0:0:0:
274,197,1931,2,0,P|273:214|280:242,2,24.4999992523194,0|0|2,0:0|0:0|0:0,0:0:0:0:
362,198,2360,6,0,P|396:192|447:200,2,73.4999977569581,0|0|2,0:0|0:0|0:0,0:0:0:0:
234,320,3431,1,0,0:0:0:0:
157,276,3646,1,0,0:0:0:0:
75,309,3860,1,0,0:0:0:0:
92,222,4074,6,0,P|95:175|90:131,2,73.4999977569581,0|0|2,0:0|0:0|0:0,0:0:0:0:
266,197,5145,1,0,0:0:0:0:
234,115,5359,2,0,P|233:98|240:70,2,24.4999992523194,0|0|2,0:0|0:0|0:0,0:0:0:0:
322,114,5788,6,0,P|356:120|407:112,2,73.4999977569581,0|0|2,0:0|0:0|0:0,0:0:0:0:
420,278,7503,6,0,P|366:278|297:328,1,125.999996154785,4|0,0:0|0:0,0:0:0:0:
303,327,7931,1,8,0:0:0:0:
233,374,8146,2,0,L|138:364,1,83.9999974365235
142,354,8467,1,8,0:0:0:0:
135,343,8574,1,0,0:0:0:0:
217,287,8788,2,0,L|225:239,2,41.9999987182618,2|2|0,1:1|1:1|0:0,0:0:0:0:
331,201,9217,6,0,P|317:246|315:332,1,125.999996154785,8|8,1:3|1:3,0:0:0:0:
313,324,9646,2,0,P|356:310|418:328,1,83.9999974365235,8|8,0:0|1:3,0:0:0:0:
469,251,10074,2,0,L|479:189,2,41.9999987182618
364,114,10503,1,8,0:0:0:0:
371,124,10610,2,0,L|385:227,1,83.9999974365235
373,215,10931,6,0,P|306:198|237:208,1,125.999996154785
240,211,11360,1,8,0:0:0:0:
156,232,11574,2,0,P|151:190|156:148,1,83.9999974365235
165,138,11896,1,8,0:0:0:0:
173,128,12003,1,0,0:0:0:0:
60,126,12217,2,0,L|51:76,2,41.9999987182618,10|2|0,1:1|1:1|0:0,0:0:0:0:
33,234,12646,6,0,L|26:283,1,41.9999987182618,8|8,1:3|0:0,0:0:0:0:
165,222,12967,6,0,L|158:271,1,41.9999987182618,8|8,1:3|0:0,0:0:0:0:
297,210,13288,6,0,L|290:259,5,41.9999987182618,8|8|0|8|8|8,1:3|0:0|0:0|0:0|0:0|0:0,0:0:0:0:
366,285,13931,5,8,0:0:0:0:
377,281,14038,1,8,0:0:0:0:
388,277,14146,1,8,0:0:0:0:
399,273,14253,1,8,0:0:0:0:
410,269,14360,6,0,P|426:268|447:279,8,24.4999992523194,0|0|0|0|0|0|0|0|2,1:2|0:0|0:0|0:0|0:0|0:0|0:0|0:0|0:0,0:0:0:0:
474,156,15431,2,0,P|462:159|450:158,2,24.4999992523194,0|0|2,0:0|0:0|0:0,0:0:0:0:
313,48,16074,5,2,0:0:0:0:
181,149,29360,6,0,L|184:91,1,48.9999985046387,8|0,0:0|0:0,0:0:0:0:
89,147,29788,6,0,P|107:189|96:269,1,105,6|2,0:0|0:0,0:0:0:0:
90,250,30217,2,0,L|86:333,1,70,8|2,0:0|0:0,0:0:0:0:
197,352,30646,2,0,L|186:297,2,35,0|8|0,0:0|0:0|0:0,0:0:0:0:
284,243,31074,2,0,L|276:283,3,35,10|2|2|2,0:0|0:0|0:0|0:0,0:0:0:0:
285,292,31503,6,0,P|340:281|408:292,1,105,2|2,0:0|0:0,0:0:0:0:
398,295,31931,1,8,0:0:0:0:
463,235,32146,2,0,L|449:150,1,70,2|0,0:0|0:0,0:0:0:0:
457,153,32467,1,2,0:0:0:0:
463,140,32574,1,2,0:0:0:0:
469,127,32681,1,2,0:0:0:0:
475,114,32788,1,10,0:0:0:0:
400,47,33003,1,2,0:0:0:0:
400,47,33110,1,2,0:0:0:0:
400,47,33217,6,0,P|371:53|278:41,1,105,2|0,0:0|0:0,0:0:0:0:
285,37,33646,2,0,P|276:78|282:123,1,70,8|0,0:0|0:0,0:0:0:0:
196,137,34074,2,0,P|191:117|195:85,2,35,0|8|0,0:0|0:0|0:0,0:0:0:0:
138,16,34503,2,0,P|129:36|94:55,3,35,10|2|2|2,0:0|0:0|0:0|0:0,0:0:0:0:
107,51,34931,6,0,P|86:87|82:150,1,105,2|0,0:0|0:0,0:0:0:0:
92,158,35360,1,8,0:0:0:0:
32,225,35574,2,0,P|58:251|71:301,1,70,2|0,0:0|0:0,0:0:0:0:
63,294,35896,1,2,0:0:0:0:
57,306,36003,1,2,0:0:0:0:
51,318,36110,1,2,0:0:0:0:
45,330,36217,1,10,0:0:0:0:
133,363,36431,1,2,0:0:0:0:
133,363,36646,6,0,P|183:340|240:347,1,105,2|2,0:0|0:0,0:0:0:0:
244,349,37074,1,10,0:0:0:0:
285,272,37288,1,2,0:0:0:0:
367,309,37503,2,0,L|361:349,2,35,0|8|0,0:0|0:0|0:0,0:0:0:0:
430,243,37931,1,10,0:0:0:0:
396,160,38146,1,0,0:0:0:0:
458,96,38360,6,0,P|425:76|356:80,1,105,2|2,0:0|0:0,0:0:0:0:
350,87,38788,1,10,0:0:0:0:
267,112,39003,2,0,P|263:73|267:20,1,70,2|0,0:0|0:0,0:0:0:0:
272,30,39324,1,0,0:0:0:0:
284,24,39431,1,2,0:0:0:0:
350,87,39646,1,10,0:0:0:0:
332,170,39860,1,2,0:0:0:0:
332,170,40074,6,0,L|339:267,1,70,2|2,0:0|0:0,0:0:0:0:
404,304,40503,1,10,0:0:0:0:
276,381,40717,6,0,L|270:311,1,70,2|0,0:0|0:0,0:0:0:0:
262,299,41038,1,0,0:0:0:0:
253,287,41146,1,2,0:0:0:0:
158,322,41360,2,0,L|112:316,3,35,10|2|2|2,0:0|0:0|0:0|0:0,0:0:0:0:
108,326,41788,6,0,P|84:258|107:149,1,167.999994873047,6|10,0:0|0:0,0:0:0:0:
171,43,42431,2,0,P|198:80|198:159,1,105.000004005432,6|0,0:0|0:0,0:0:0:0:
195,152,42753,1,8,0:0:0:0:
278,196,42967,1,0,0:0:0:0:
292,204,43074,2,0,L|364:193,4,41.9999987182618,8|0|8|8|10,0:0|0:0|0:0|0:0|3:2,0:0:0:0:
142,272,44574,6,0,B|204:257|197:304|265:285,2,125.999996154785,10|8|10,3:2|3:2|3:2,0:0:0:0:
370,88,46074,5,2,3:2:0:0:
370,88,46181,1,2,3:2:0:0:
370,88,46288,2,0,P|361:130|369:181,1,83.9999974365235,10|2,3:2|3:2,0:0:0:0:
374,185,46610,2,0,P|332:176|281:184,1,83.9999974365235,10|0,3:2|0:0,0:0:0:0:
282,194,46931,1,6,3:2:0:0:
91,316,47574,6,0,L|96:281,3,27.9999991455078,2|2|2|2,3:2|3:2|3:2|3:2,0:0:0:0:
35,51,48646,6,0,P|105:36|180:147,1,210.000008010865,6|8,3:2|3:2,0:0:0:0:
128,209,49717,1,0,0:0:0:0:
128,209,49824,1,0,0:0:0:0:
128,209,49931,2,0,L|124:255,3,35,8|8|8|8,3:2|3:2|3:2|3:2,0:0:0:0:
124,257,50360,6,0,P|92:294|92:367,1,105,4|0,0:0|0:0,0:0:0:0:
94,358,50788,1,8,0:0:0:0:
177,320,51003,2,0,P|217:321|268:343,1,70
255,339,51324,1,8,0:0:0:0:
262,350,51431,1,0,0:0:0:0:
328,230,51646,2,0,P|294:239|259:239,1,70,8|0,0:0|0:0,0:0:0:0:
374,303,52074,6,0,P|404:264|399:189,1,105
402,196,52503,1,8,0:0:0:0:
337,128,52717,1,0,0:0:0:0:
427,93,52931,2,0,L|442:46,2,35
337,128,53360,2,0,L|238:116,1,70,8|0,0:0|0:0,0:0:0:0:
157,57,53788,6,0,L|155:97,3,35,12|8|8|8,0:0|0:0|0:0|0:0,0:0:0:0:
88,140,54217,6,0,L|86:174,3,35,8|8|8|0,0:0|0:0|0:3|0:0,0:0:0:0:
166,215,54646,6,0,L|164:255,3,35,8|8|8|8,0:3|0:3|0:3|0:3,0:0:0:0:
68,279,55074,5,8,0:0:0:0:
67,292,55181,1,8,0:0:0:0:
66,306,55288,1,8,0:0:0:0:
65,320,55395,1,8,0:0:0:0:
65,334,55502,1,8,0:0:0:0:
256,192,55610,12,0,56788,0:0:0:0:
336,313,57217,6,0,P|297:299|221:310,1,90.9999958343508,12|0,2:3|0:0,0:0:0:0:
236,314,57538,1,0,0:0:0:0:
224,328,57646,2,0,P|178:329|135:315,1,90.9999958343508,8|0,0:0|0:0,0:0:0:0:
52,218,58074,1,0,0:0:0:0:
70,214,58181,1,8,0:0:0:0:
88,209,58288,1,0,0:0:0:0:
193,237,58503,2,0,P|197:197|192:122,1,90.9999958343508,8|0,0:0|2:3,0:0:0:0:
187,130,58824,1,0,0:0:0:0:
173,118,58931,6,0,P|244:110|333:128,1,136.499993751526,8|0,2:3|2:3,0:0:0:0:
374,159,59360,2,0,P|383:133|380:96,2,45.4999979171754,8|0|0,0:0|0:0|2:3,0:0:0:0:
279,229,59788,1,0,2:3:0:0:
277,247,59896,1,8,2:2:0:0:
275,265,60003,1,8,0:3:0:0:
187,346,60217,1,8,2:0:0:0:
178,330,60324,2,0,P|136:316|72:320,1,90.9999958343508,8|0,2:3|2:3,0:0:0:0:
79,330,60646,6,0,P|57:266|65:192,1,136.499993751526,8|8,2:3|0:3,0:0:0:0:
71,182,61074,1,8,0:0:0:0:
183,92,61288,2,0,P|205:156|197:230,1,136.499993751526,8|8,2:3|0:0,0:0:0:0:
191,240,61716,1,0,2:3:0:0:
258,326,61931,2,0,P|291:305|363:306,1,90.9999958343508,8|0,2:0|0:0,0:0:0:0:
443,339,62360,5,8,0:3:0:0:
430,230,62574,2,0,L|444:171,2,45.4999979171754,0|0|8,0:0|0:0|0:0,0:0:0:0:
325,197,63003,1,0,0:0:0:0:
227,245,63217,2,0,L|204:179,2,45.4999979171754,8|8|8,0:3|0:0|0:2,0:0:0:0:
173,340,63646,1,8,0:3:0:0:
173,340,63753,2,0,P|136:358|67:354,1,90.9999958343508,8|0,0:0|0:0,0:0:0:0:
71,350,64074,6,0,P|60:303|69:244,1,90.9999958343508,12|0,0:3|0:0,0:0:0:0:
76,248,64396,1,0,0:0:0:0:
89,235,64503,2,0,P|92:189|81:145,1,90.9999958343508,8|0,0:0|0:0,0:0:0:0:
55,34,64931,1,0,0:0:0:0:
72,37,65038,1,8,0:0:0:0:
90,40,65146,1,0,0:0:0:0:
180,100,65360,2,0,L|291:77,1,90.9999958343508,8|0,0:0|0:0,0:0:0:0:
285,73,65681,1,0,0:0:0:0:
301,64,65788,6,0,P|324:114|314:201,1,136.499993751526,8|0,0:3|0:0,0:0:0:0:
255,237,66217,2,0,P|245:217|244:195,2,45.4999979171754,8|0|8,0:0|0:0|0:3,0:0:0:0:
362,300,66646,1,8,0:3:0:0:
380,297,66753,1,8,0:0:0:0:
397,300,66860,1,0,0:0:0:0:
481,211,67074,1,8,0:0:0:0:
470,196,67181,2,0,P|461:148|475:94,1,90.9999958343508,8|0,0:3|0:0,0:0:0:0:
484,96,67503,5,8,0:3:0:0:
379,44,67717,2,0,L|387:113,2,45.4999979171754,0|0|8,0:0|0:0|0:0,0:0:0:0:
321,153,68146,1,8,0:3:0:0:
227,111,68360,2,0,L|235:42,2,45.4999979171754,8|8|8,0:3|0:0|0:0,0:0:0:0:
126,31,68788,1,8,0:0:0:0:
126,31,68896,2,0,P|80:65|84:145,1,136.499993751526,8|8,0:3|0:3,0:0:0:0:
94,149,69324,6,0,P|138:159|179:206,1,90.9999958343508,8|8,0:0|0:3,0:0:0:0:
173,207,69646,1,8,0:0:0:0:
89,259,69860,1,8,0:0:0:0:
85,276,69967,1,0,0:0:0:0:
82,293,70074,2,0,P|61:303|29:301,3,45.4999979171754,8|8|8|8,0:3|0:0|0:0|0:0,0:0:0:0:
144,356,70503,2,0,P|165:346|197:348,3,45.4999979171754,8|8|8|8,0:3|0:0|0:0|0:0,0:0:0:0:
261,372,70931,6,0,P|271:341|261:268,1,90.9999958343508,12|0,0:3|0:0,0:0:0:0:
254,269,71253,1,0,0:0:0:0:
241,255,71360,2,0,L|344:238,1,90.9999958343508,8|0,0:0|0:0,0:0:0:0:
412,334,71788,1,0,0:0:0:0:
393,335,71896,1,8,0:0:0:0:
376,328,72003,1,0,0:0:0:0:
420,246,72217,2,0,P|415:201|427:157,1,90.9999958343508,8|0,0:0|0:0,0:0:0:0:
439,144,72538,1,0,0:0:0:0:
451,130,72646,6,0,P|399:118|306:130,1,136.499993751526,8|0,0:3|0:0,0:0:0:0:
250,162,73074,2,0,P|242:136|250:94,2,45.4999979171754,8|0|8,0:0|0:0|0:3,0:0:0:0:
157,37,73503,1,0,0:0:0:0:
153,54,73610,1,8,0:0:0:0:
149,71,73717,1,8,0:3:0:0:
65,131,73931,1,8,0:0:0:0:
50,120,74038,2,0,P|36:167|47:225,1,90.9999958343508,8|0,0:3|0:0,0:0:0:0:
53,221,74360,6,0,P|120:231|174:294,1,136.499993751526,8|0,0:3|0:0,0:0:0:0:
168,295,74788,1,8,0:0:0:0:
203,377,75003,2,0,P|258:337|340:345,1,136.499993751526,8|8,0:3|0:0,0:0:0:0:
337,350,75431,1,8,0:3:0:0:
414,260,75646,2,0,P|383:246|306:256,1,90.9999958343508,8|0,0:0|0:0,0:0:0:0:
237,171,76074,5,8,0:3:0:0:
354,126,76288,1,0,0:0:0:0:
340,114,76396,1,0,0:0:0:0:
326,102,76503,2,0,L|339:9,1,90.9999958343508,8|8,0:0|0:3,0:0:0:0:
473,39,76931,1,8,0:3:0:0:
459,51,77039,1,8,0:0:0:0:
445,63,77146,2,0,L|458:156,1,90.9999958343508,8|8,0:2|0:3,0:0:0:0:
464,169,77467,2,0,P|443:217|454:276,1,90.9999958343508,8|0,0:0|0:0,0:0:0:0:
456,269,77788,5,12,0:3:0:0:
376,345,78003,1,0,0:0:0:0:
376,345,78110,1,0,0:0:0:0:
376,345,78217,2,0,P|339:334|275:343,1,90.9999958343508,8|0,0:0|0:0,0:0:0:0:
274,351,78538,1,0,0:0:0:0:
261,364,78646,2,0,L|202:358,2,45.4999979171754,0|8|0,0:0|0:0|0:0,0:0:0:0:
228,183,79074,2,0,P|238:231|238:295,1,90.9999958343508,8|0,0:0|0:0,0:0:0:0:
239,272,79396,1,0,0:0:0:0:
239,272,79503,6,0,P|193:253|100:270,1,136.499993751526,8|0,0:3|0:0,0:0:0:0:
40,297,79931,2,0,P|33:270|49:217,2,45.4999979171754,8|0|8,0:0|0:0|0:3,0:0:0:0:
108,128,80360,2,0,P|101:155|117:208,2,45.4999979171754,0|8|8,0:0|0:0|0:3,0:0:0:0:
201,159,80788,1,8,0:0:0:0:
201,159,80896,2,0,P|246:162|295:194,1,90.9999958343508,8|0,0:3|0:0,0:0:0:0:
293,200,81217,5,12,0:3:0:0:
384,148,81431,2,0,L|374:95,2,45.4999979171754,0|0|8,0:0|0:0|0:0,0:0:0:0:
381,251,81860,2,0,L|364:358,1,90.9999958343508
350,348,82181,1,8,0:0:0:0:
333,355,82288,1,8,0:3:0:0:
252,292,82503,1,8,0:0:0:0:
252,292,82610,2,0,P|217:308|189:367,1,90.9999958343508,8|0,0:3|0:0,0:0:0:0:
184,368,82931,6,0,P|118:360|92:247,1,181.999991668702,12|8,0:3|0:0,0:0:0:0:
155,134,83574,2,0,P|169:178|170:255,1,90.9999958343508
173,222,83896,1,8,0:0:0:0:
173,222,84003,1,8,0:3:0:0:
254,131,84217,2,0,L|262:78,3,45.4999979171754,8|8|8|8,0:3|0:0|0:3|0:0,0:0:0:0:
334,48,84646,6,0,P|356:41|404:55,4,45.4999979171754,8|0|8|8|8,0:3|0:0|0:0|0:0|0:0,0:0:0:0:
401,190,85288,2,0,P|379:197|331:183,4,45.4999979171754,8|8|8|8|8,0:0|0:0|0:0|0:0|0:0,0:0:0:0:
259,138,85931,5,8,0:0:0:0:
240,136,86038,1,8,0:0:0:0:
221,134,86146,1,8,0:0:0:0:
202,132,86253,1,8,0:0:0:0:
183,130,86360,1,12,0:3:0:0:
423,236,94931,6,0,P|405:194|416:114,1,105,2|2,0:0|0:0,0:0:0:0:
422,133,95360,2,0,L|426:50,1,70,8|2,0:0|0:0,0:0:0:0:
315,31,95789,2,0,L|326:86,2,35,0|8|0,0:0|0:0|0:0,0:0:0:0:
228,140,96217,2,0,L|236:100,3,35,10|2|2|2,0:0|0:0|0:0|0:0,0:0:0:0:
227,91,96646,6,0,P|172:102|104:91,1,105,2|2,0:0|0:0,0:0:0:0:
114,88,97074,1,8,0:0:0:0:
49,148,97289,2,0,L|63:233,1,70,2|0,0:0|0:0,0:0:0:0:
55,230,97610,1,2,0:0:0:0:
49,243,97717,1,2,0:0:0:0:
43,256,97824,1,2,0:0:0:0:
37,269,97931,1,10,0:0:0:0:
112,336,98146,1,2,0:0:0:0:
112,336,98253,1,2,0:0:0:0:
112,336,98360,6,0,P|141:330|234:342,1,105,2|0,0:0|0:0,0:0:0:0:
227,346,98789,2,0,P|236:305|230:260,1,70,8|0,0:0|0:0,0:0:0:0:
316,246,99217,2,0,P|321:266|317:298,2,35,0|8|0,0:0|0:0|0:0,0:0:0:0:
374,367,99646,2,0,P|383:347|418:328,3,35,10|2|2|2,0:0|0:0|0:0|0:0,0:0:0:0:
405,332,100074,6,0,P|426:296|430:233,1,105,2|0,0:0|0:0,0:0:0:0:
420,225,100503,1,8,0:0:0:0:
480,158,100717,2,0,P|454:132|441:82,1,70,2|0,0:0|0:0,0:0:0:0:
449,89,101039,1,2,0:0:0:0:
455,77,101146,1,2,0:0:0:0:
461,65,101253,1,2,0:0:0:0:
467,53,101360,1,10,0:0:0:0:
379,20,101574,1,2,0:0:0:0:
379,20,101789,6,0,P|329:43|272:36,1,105,2|2,0:0|0:0,0:0:0:0:
268,34,102217,1,10,0:0:0:0:
227,111,102431,1,2,0:0:0:0:
145,74,102646,2,0,L|151:34,2,35,2|8|0,0:3|0:0|0:0,0:0:0:0:
82,140,103074,1,10,0:0:0:0:
116,223,103289,1,2,0:0:0:0:
54,287,103503,6,0,P|87:307|156:303,1,105,2|2,0:0|0:0,0:0:0:0:
162,296,103931,1,10,0:0:0:0:
245,271,104146,2,0,P|249:310|245:363,1,70,2|0,0:0|0:0,0:0:0:0:
240,353,104467,1,8,0:0:0:0:
228,359,104574,1,2,0:0:0:0:
162,296,104789,1,10,0:0:0:0:
180,213,105003,1,2,0:0:0:0:
180,213,105217,6,0,L|173:116,1,70,2|2,0:0|0:0,0:0:0:0:
108,79,105646,1,10,0:0:0:0:
236,2,105860,6,0,L|242:72,1,70,10|0,3:2|0:0,0:0:0:0:
250,84,106181,1,0,0:0:0:0:
259,96,106289,1,2,0:0:0:0:
354,61,106503,2,0,L|400:67,3,35,10|2|10|10,0:0|0:0|0:0|0:0,0:0:0:0:
404,58,106931,6,0,P|428:126|405:235,1,167.999994873047,10|10,0:0|0:0,0:0:0:0:
341,341,107574,2,0,P|314:304|314:225,1,105.000004005432,6|0,0:0|0:0,0:0:0:0:
317,232,107896,1,8,0:0:0:0:
234,188,108110,1,8,2:3:0:0:
220,180,108217,2,0,L|148:191,4,41.9999987182618,8|0|8|8|10,0:0|0:0|0:0|0:0|3:2,0:0:0:0:
370,112,109717,6,0,B|308:127|315:80|247:99,2,125.999996154785,10|8|10,3:2|3:2|3:2,0:0:0:0:
142,296,111217,5,2,3:2:0:0:
142,296,111324,1,2,3:2:0:0:
142,296,111431,2,0,P|151:254|143:203,1,83.9999974365235,10|0,3:2|0:0,0:0:0:0:
138,199,111753,2,0,P|180:208|231:200,1,83.9999974365235,10|0,3:2|0:0,0:0:0:0:
230,190,112074,1,14,3:2:0:0:
393,257,113146,6,0,B|399:204|399:204|406:188|406:188|414:115,2,125.999996154785,10|10|14,3:2|3:2|3:2,0:0:0:0:
121,283,114431,5,8,0:0:0:0:
187,241,114646,2,0,L|254:244,3,41.9999987182618,8|8|8|8,3:2|3:2|3:2|3:2,0:0:0:0:
292,200,115074,2,0,L|359:203,3,41.9999987182618,8|8|8|8,3:2|3:2|3:2|3:2,0:0:0:0:
388,257,115503,6,0,P|420:294|420:367,1,105,4|0,0:0|0:0,0:0:0:0:
418,358,115931,1,8,0:0:0:0:
335,320,116146,2,0,P|295:321|244:343,1,70
257,339,116467,1,8,0:0:0:0:
250,350,116574,1,0,0:0:0:0:
184,230,116789,2,0,P|218:239|253:239,1,70,8|0,0:0|0:0,0:0:0:0:
138,303,117217,6,0,P|108:264|113:189,1,105
110,196,117646,1,8,0:0:0:0:
175,128,117860,1,4,0:0:0:0:
85,93,118074,2,0,L|70:46,2,35,0|8|0,0:0|0:0|0:0,0:0:0:0:
175,128,118503,2,0,L|274:116,1,70,12|8,0:0|0:0,0:0:0:0:
355,57,118931,6,0,L|357:97,3,35,12|8|8|8,0:0|2:3|2:3|2:3,0:0:0:0:
424,140,119360,6,0,L|426:174,3,35,8|8|8|8,0:0|0:0|2:3|2:3,0:0:0:0:
346,215,119789,6,0,L|348:255,3,35,8|8|8|8,2:3|0:0|2:3|2:3,0:0:0:0:
444,279,120217,5,8,0:0:0:0:
445,292,120324,1,8,0:0:0:0:
446,306,120431,1,8,0:3:0:0:
447,320,120538,1,8,0:3:0:0:
447,334,120645,1,4,0:0:0:0:
256,192,120753,12,0,121931,0:0:0:0:
176,71,122360,6,0,P|215:85|291:74,1,90.9999958343508,4|0,2:3|0:0,0:0:0:0:
276,70,122681,1,0,0:0:0:0:
288,56,122789,2,0,P|334:55|377:69,1,90.9999958343508,8|0,0:0|0:0,0:0:0:0:
460,166,123217,1,0,0:0:0:0:
442,170,123324,1,8,0:0:0:0:
424,175,123431,1,0,0:0:0:0:
319,147,123646,2,1,P|315:187|320:262,1,90.9999958343508,8|2,0:0|0:2,0:0:0:0:
325,254,123967,1,0,0:0:0:0:
339,266,124074,6,1,P|268:274|179:256,1,136.499993751526,2|2,0:3|0:3,0:0:0:0:
138,225,124503,2,0,P|129:251|132:288,2,45.4999979171754,8|0|2,0:0|0:0|0:0,0:0:0:0:
233,155,124931,1,2,0:2:0:0:
235,137,125039,1,10,0:2:0:0:
237,119,125146,1,0,0:3:0:0:
325,38,125360,1,10,2:3:0:0:
334,54,125467,2,0,P|376:68|440:64,1,90.9999958343508,2|2,0:3|0:3,0:0:0:0:
433,54,125789,6,0,P|455:118|447:192,1,136.499993751526,2|2,0:3|0:2,0:0:0:0:
441,202,126217,1,8,0:0:0:0:
329,292,126431,2,0,P|307:228|315:154,1,136.499993751526,2|0,0:3|0:0,0:0:0:0:
321,144,126859,1,2,0:0:0:0:
254,58,127074,2,0,P|221:79|149:78,1,90.9999958343508,8|0,0:0|0:0,0:0:0:0:
69,45,127503,5,0,0:0:0:0:
82,154,127717,2,0,L|68:213,2,45.4999979171754,0|0|8,0:0|0:0|0:0,0:0:0:0:
187,187,128146,1,0,0:0:0:0:
285,139,128360,2,0,L|308:205,2,45.4999979171754,8|8|8,0:3|0:0|0:0,0:0:0:0:
339,44,128789,1,8,0:2:0:0:
339,44,128896,2,0,P|376:26|445:30,1,90.9999958343508,8|0,0:3|0:0,0:0:0:0:
441,34,129217,6,1,P|452:81|443:140,1,90.9999958343508,6|0,0:3|0:0,0:0:0:0:
436,136,129539,1,2,0:3:0:0:
423,149,129646,2,0,P|420:195|431:239,1,90.9999958343508,10|0,0:3|0:0,0:0:0:0:
457,350,130074,1,2,0:3:0:0:
440,347,130181,1,0,0:0:0:0:
422,344,130289,1,0,0:0:0:0:
332,284,130503,2,0,L|221:307,1,90.9999958343508,10|0,0:2|0:0,0:0:0:0:
227,311,130824,1,0,0:0:0:0:
211,320,130931,6,1,P|188:270|198:183,1,136.499993751526,2|2,0:3|0:3,0:0:0:0:
257,147,131360,2,0,P|267:167|268:189,2,45.4999979171754,10|2|2,0:0|0:3|0:3,0:0:0:0:
150,84,131789,1,0,0:0:0:0:
132,87,131896,1,8,0:0:0:0:
115,84,132003,1,0,0:0:0:0:
31,173,132217,1,8,0:0:0:0:
42,188,132324,2,0,P|51:236|37:290,1,90.9999958343508,2|0,0:3|0:3,0:0:0:0:
28,288,132646,5,2,0:3:0:0:
133,340,132860,2,0,L|125:271,2,45.4999979171754,0|2|8,0:0|0:3|0:0,0:0:0:0:
191,231,133289,1,2,0:3:0:0:
285,273,133503,2,0,L|277:342,2,45.4999979171754,2|2|10,0:3|0:3|0:3,0:0:0:0:
386,353,133931,1,8,0:0:0:0:
386,353,134039,2,1,P|432:319|428:239,1,136.499993751526,8|2,0:3|0:3,0:0:0:0:
418,235,134467,6,0,P|374:225|333:178,1,90.9999958343508,8|2,0:0|0:2,0:0:0:0:
339,177,134789,1,8,0:0:0:0:
423,125,135003,1,2,0:0:0:0:
427,108,135110,1,8,0:0:0:0:
430,91,135217,2,0,P|451:81|483:83,3,45.4999979171754,2|8|8|8,0:3|0:0|0:0|0:0,0:0:0:0:
368,28,135646,2,0,P|347:38|315:36,3,45.4999979171754,10|8|8|8,0:2|0:0|0:0|0:0,0:0:0:0:
251,12,136074,6,0,P|241:43|251:116,1,90.9999958343508,4|0,2:3|0:0,0:0:0:0:
258,115,136396,1,0,0:0:0:0:
271,129,136503,2,0,L|168:146,1,90.9999958343508,8|0,0:0|0:0,0:0:0:0:
100,50,136931,1,0,0:0:0:0:
119,49,137039,1,8,0:0:0:0:
136,56,137146,1,0,0:0:0:0:
92,138,137360,2,0,P|97:183|85:227,1,90.9999958343508,8|2,0:0|0:2,0:0:0:0:
73,240,137681,1,0,0:3:0:0:
61,254,137789,6,1,P|113:266|206:254,1,136.499993751526,2|2,0:3|0:3,0:0:0:0:
262,222,138217,2,0,P|270:248|262:290,2,45.4999979171754,8|0|2,0:0|0:0|0:0,0:0:0:0:
355,347,138646,1,2,0:2:0:0:
359,330,138753,1,10,0:2:0:0:
363,313,138860,1,0,0:3:0:0:
447,253,139074,1,10,0:3:0:0:
462,264,139181,2,0,P|476:217|465:159,1,90.9999958343508,2|0,0:3|0:0,0:0:0:0:
459,163,139503,6,0,P|392:153|338:90,1,136.499993751526,2|2,0:3|0:2,0:0:0:0:
344,89,139931,1,8,0:0:0:0:
309,7,140146,2,0,P|254:47|172:39,1,136.499993751526,2|0,0:3|0:0,0:0:0:0:
175,34,140574,1,2,0:0:0:0:
98,124,140789,2,0,P|129:138|206:128,1,90.9999958343508,8|0,0:0|0:0,0:0:0:0:
275,213,141217,5,0,0:0:0:0:
158,258,141431,1,0,0:0:0:0:
172,270,141539,1,0,0:0:0:0:
186,282,141646,2,0,L|173:375,1,90.9999958343508,8|0,0:0|0:0,0:0:0:0:
39,345,142074,1,8,0:3:0:0:
53,333,142182,1,8,0:0:0:0:
67,321,142289,2,0,L|54:228,1,90.9999958343508,8|8,0:0|0:0,0:0:0:0:
48,215,142610,2,0,P|69:167|58:108,1,90.9999958343508,8|0,0:3|0:0,0:0:0:0:
56,115,142931,5,6,0:3:0:0:
136,39,143146,1,0,0:0:0:0:
136,39,143253,1,2,0:2:0:0:
136,39,143360,2,0,P|173:50|237:41,1,90.9999958343508,10|2,0:0|0:3,0:0:0:0:
238,33,143681,1,0,0:0:0:0:
251,20,143789,2,0,L|310:26,2,45.4999979171754,8|10|0,0:3|0:2|0:3,0:0:0:0:
284,201,144217,2,0,P|274:153|274:89,1,90.9999958343508,10|0,0:2|0:0,0:0:0:0:
273,112,144539,1,0,0:0:0:0:
273,112,144646,6,0,P|319:131|412:114,1,136.499993751526,2|0,0:3|0:0,0:0:0:0:
472,87,145074,2,0,P|479:114|463:167,2,45.4999979171754,8|0|2,0:0|0:0|0:3,0:0:0:0:
404,256,145503,2,0,P|411:229|395:176,2,45.4999979171754,0|8|0,0:0|0:0|0:0,0:0:0:0:
311,225,145931,1,8,0:0:0:0:
311,225,146039,2,0,P|266:222|217:190,1,90.9999958343508,0|0,0:0|0:3,0:0:0:0:
219,184,146360,5,6,0:3:0:0:
128,236,146574,2,0,L|138:289,2,45.4999979171754,0|0|8,0:0|0:0|0:0,0:0:0:0:
131,133,147003,2,0,L|148:26,1,90.9999958343508
162,36,147324,1,8,0:0:0:0:
179,29,147431,1,8,0:3:0:0:
260,92,147646,1,2,0:3:0:0:
260,92,147753,2,0,P|295:76|323:17,1,90.9999958343508,8|0,0:3|0:0,0:0:0:0:
328,16,148074,5,2,0:3:0:0:
425,83,148288,1,8,0:0:0:0:
371,189,148503,2,0,L|361:297,1,90.9999958343508,8|8,0:0|0:3,0:0:0:0:
368,296,148824,1,8,0:0:0:0:
374,313,148931,1,8,0:3:0:0:
268,356,149146,1,8,0:0:0:0:
272,338,149253,1,0,0:0:0:0:
277,320,149360,2,0,P|251:308|206:318,3,45.4999979171754,8|8|8|8,0:3|0:0|0:0|0:0,0:0:0:0:
219,318,149788,5,6,0:2:0:0:
125,280,150003,2,0,P|117:256|121:199,2,45.4999979171754,0|0|8,0:0|2:3|0:0,0:0:0:0:
216,223,150431,2,0,P|227:190|208:106,1,90.9999958343508,10|0,0:3|0:0,0:0:0:0:
208,122,150753,1,8,0:0:0:0:
189,121,150860,1,0,0:3:0:0:
296,73,151074,1,10,0:2:0:0:
296,73,151181,2,0,P|344:78|411:100,1,90.9999958343508
396,103,151503,5,2,0:2:0:0:
323,211,151717,2,0,P|324:189|330:167,2,45.4999979171754,0|0|8,0:0|0:0|0:0,0:0:0:0:
413,202,152146,2,0,P|421:248|417:318,1,90.9999958343508,2|0,0:3|0:0,0:0:0:0:
404,299,152467,1,8,0:0:0:0:
386,294,152574,1,0,0:0:0:0:
284,315,152788,1,10,0:2:0:0:
284,315,152896,2,0,P|242:314|178:344,1,90.9999958343508
183,343,153217,5,2,0:2:0:0:
100,301,153431,1,0,0:0:0:0:
100,301,153538,1,0,0:0:0:0:
100,301,153646,1,8,0:0:0:0:
149,221,153860,2,0,P|156:167|136:78,1,136.499993751526,2|8,0:2|0:0,0:0:0:0:
126,74,154288,1,2,0:2:0:0:
240,118,154503,1,10,0:2:0:0:
240,118,154610,2,0,P|291:129|344:126,1,90.9999958343508,10|0,2:3|0:0,0:0:0:0:
341,114,154931,5,2,0:3:0:0:
426,82,155146,1,2,0:2:0:0:
481,153,155360,1,10,0:2:0:0:
446,236,155574,2,0,P|435:279|436:347,1,90.9999958343508,2|0,0:2|0:0,0:0:0:0:
433,325,155896,1,8,0:0:0:0:
433,325,156003,1,2,2:3:0:0:
328,357,156217,2,0,L|337:297,2,45.4999979171754,10|2|2,2:2|2:3|2:2,0:0:0:0:
265,250,156646,6,0,P|224:234|121:255,1,136.499993751526,6|0,0:2|0:0,0:0:0:0:
125,262,157074,1,8,0:0:0:0:
59,198,157288,2,0,P|65:165|67:80,1,90.9999958343508,2|0,0:3|0:0,0:0:0:0:
60,91,157610,1,0,0:0:0:0:
47,78,157717,1,0,0:0:0:0:
155,37,157931,1,10,0:2:0:0:
155,37,158038,2,0,P|169:86|168:150,1,90.9999958343508,0|0,0:3|0:0,0:0:0:0:
165,143,158360,6,0,P|210:149|271:190,1,90.9999958343508,2|0,0:2|0:0,0:0:0:0:
310,95,158788,1,8,0:0:0:0:
346,185,159003,2,0,P|312:235|313:361,1,181.999991668702,2|8,0:3|2:3,0:0:0:0:
448,345,159646,2,0,P|458:315|451:276,3,45.4999979171754,10|2|2|0,2:2|0:3|0:2|0:0,0:0:0:0:
448,285,160074,6,0,P|404:267|337:280,1,90.9999958343508,6|0,0:2|0:0,0:0:0:0:
361,269,160396,1,0,0:0:0:0:
361,269,160503,1,8,0:0:0:0:
302,193,160717,2,0,P|257:210|218:266,1,90.9999958343508,10|0,2:3|0:0,0:0:0:0:
228,260,161038,1,8,0:0:0:0:
236,276,161146,1,8,2:3:0:0:
130,239,161360,2,0,P|132:211|153:168,2,45.4999979171754,10|8|8,0:2|2:3|0:0,0:0:0:0:
55,61,161788,6,0,L|114:65,3,45.4999979171754,14|8|8|8,0:3|2:3|2:3|2:3,0:0:0:0:
162,112,162217,6,0,L|221:116,3,45.4999979171754,8|8|10|8,0:0|2:3|2:3|0:0,0:0:0:0:
266,51,162646,6,0,L|325:55,3,45.4999979171754,8|8|8|8,2:3|2:3|0:0|0:0,0:0:0:0:
353,147,163074,5,8,0:0:0:0:
371,148,163181,1,8,0:3:0:0:
389,149,163288,1,8,2:3:0:0:
407,150,163395,1,8,0:3:0:0:
425,151,163502,1,8,0:0:0:0:
130,93,176360,6,0,L|136:17,2,46.6666666666667,8|0|8,3:2|0:0|3:2,0:0:0:0:
214,80,176788,6,0,L|220:4,2,46.6666666666667,8|8|8,3:2|0:0|0:0,0:0:0:0:
183,158,177217,6,0,P|158:214|174:305,1,140,4|0,3:1|2:0,0:0:0:0:
244,322,177860,1,0,0:0:0:0:
292,253,178074,2,1,P|351:247|417:298,1,140,8|0,3:2|2:0,0:0:0:0:
476,235,178717,1,0,0:0:0:0:
491,152,178931,6,0,P|463:105|441:9,1,140,0|0,0:0|2:0,0:0:0:0:
369,65,179574,1,0,0:0:0:0:
369,65,179681,1,0,0:0:0:0:
369,65,179788,2,0,P|319:40|217:36,1,140,8|0,3:2|2:0,0:0:0:0:
197,107,180431,1,0,0:0:0:0:
271,146,180646,6,0,P|293:209|287:296,1,140,0|0,0:0|2:0,0:0:0:0:
206,279,181288,1,0,0:0:0:0:
142,333,181503,2,0,P|107:275|119:181,1,140,8|0,3:2|2:0,0:0:0:0:
158,137,182146,1,0,0:0:0:0:
158,137,182253,1,0,0:0:0:0:
158,137,182360,6,0,P|218:169|311:152,1,140
355,112,183003,1,8,3:2:0:0:
432,144,183217,2,0,P|435:165|428:200,3,41.9999987182618,8|0|0|0,3:2|0:0|0:0|0:0,0:0:0:0:
421,198,183646,1,8,0:2:0:0:
414,213,183753,1,8,0:2:0:0:
411,229,183860,1,8,0:2:0:0:
411,245,183967,1,8,0:2:0:0:
415,261,184074,6,0,P|362:245|273:260,1,125.999996154785,4|0,2:1|0:0,0:0:0:0:
283,266,184503,1,8,0:0:0:0:
203,312,184717,2,0,P|193:271|202:208,1,83.9999974365235,8|0,0:3|0:0,0:0:0:0:
261,163,185146,1,8,0:3:0:0:
290,75,185360,2,0,P|249:65|186:74,1,83.9999974365235,8|0,0:0|0:0,0:0:0:0:
115,69,185788,5,8,0:0:0:0:
115,69,185896,2,0,P|125:113|123:175,1,83.9999974365235,8|8,0:0|0:3,0:0:0:0:
116,165,186217,1,8,0:0:0:0:
56,235,186431,1,8,0:3:0:0:
106,312,186646,6,0,P|154:312|240:350,2,125.999996154785,8|8|12,1:3|1:3|1:2,0:0:0:0:
241,186,187717,5,8,0:0:0:0:
306,250,187931,2,0,P|328:196|309:113,2,125.999996154785,8|8|8,0:0|0:0|0:3,0:0:0:0:
216,274,188788,1,8,3:2:0:0:
157,345,189003,6,0,P|156:360|162:378,3,27.9999991455078,8|8|8|8,3:3|3:3|3:3|0:0,0:0:0:0:
57,198,189538,1,8,0:0:0:0:
217,75,189860,1,8,0:0:0:0:
217,75,190717,5,0,0:0:0:0:
299,25,190931,6,0,P|313:64|302:140,1,90.9999958343508,12|0,0:3|0:0,0:0:0:0:
298,125,191252,1,0,0:0:0:0:
284,137,191360,2,0,P|283:183|297:226,1,90.9999958343508,8|0,0:0|0:0,0:0:0:0:
302,363,191788,1,0,0:0:0:0:
306,345,191895,1,8,0:0:0:0:
311,327,192002,1,0,0:0:0:0:
223,284,192217,2,0,P|177:282|132:286,1,90.9999958343508,8|0,0:0|0:0,0:0:0:0:
117,296,192538,1,0,0:0:0:0:
105,310,192645,6,0,P|97:239|115:150,1,136.499993751526,10|2,0:3|0:3,0:0:0:0:
144,107,193074,2,0,P|118:98|81:101,2,45.4999979171754,8|0|2,0:0|0:0|0:0,0:0:0:0:
256,65,193502,1,2,0:0:0:0:
254,83,193610,1,10,0:0:0:0:
252,101,193717,1,8,0:3:0:0:
316,190,193931,1,2,0:3:0:0:
325,174,194038,2,0,P|367:160|431:164,1,90.9999958343508,10|0,0:3|0:0,0:0:0:0:
429,167,194360,6,0,P|407:231|415:305,1,136.499993751526,10|2,0:3|0:0,0:0:0:0:
421,315,194788,1,8,0:0:0:0:
247,349,195002,2,0,P|269:285|261:211,1,136.499993751526,10|8,0:3|0:0,0:0:0:0:
255,201,195430,1,2,0:0:0:0:
129,124,195645,2,0,P|162:103|234:104,1,90.9999958343508,8|0,0:0|0:0,0:0:0:0:
320,123,196074,5,8,0:3:0:0:
255,201,196288,1,0,0:0:0:0:
238,209,196396,1,0,0:0:0:0:
222,217,196503,2,0,L|213:316,1,90.9999958343508,8|0,0:0|0:0,0:0:0:0:
364,373,196931,1,8,0:3:0:0:
347,365,197039,1,8,0:2:0:0:
331,357,197146,2,0,L|322:258,1,90.9999958343508,8|8,0:0|0:3,0:0:0:0:
335,253,197467,2,0,P|372:235|441:239,1,90.9999958343508,8|0,0:3|0:0,0:0:0:0:
437,240,197788,6,0,P|426:193|435:134,1,90.9999958343508,14|0,0:3|0:0,0:0:0:0:
442,138,198110,1,10,0:3:0:0:
455,125,198217,2,0,P|458:79|447:35,1,90.9999958343508,10|0,0:3|0:0,0:0:0:0:
318,64,198645,1,2,0:3:0:0:
335,67,198752,1,8,0:0:0:0:
353,70,198860,1,0,0:0:0:0:
307,160,199074,2,0,L|196:183,1,90.9999958343508,10|0,0:0|0:0,0:0:0:0:
202,187,199395,1,0,0:0:0:0:
186,196,199502,6,0,P|163:146|173:59,1,136.499993751526,10|2,0:3|0:3,0:0:0:0:
234,26,199931,2,0,P|244:46|245:68,2,45.4999979171754,10|2|10,0:0|0:3|0:3,0:0:0:0:
298,152,200360,1,8,0:3:0:0:
316,149,200467,1,8,0:0:0:0:
333,152,200574,1,8,0:3:0:0:
428,204,200788,1,8,0:0:0:0:
417,219,200895,2,0,P|408:267|422:321,1,90.9999958343508,10|0,0:3|0:3,0:0:0:0:
431,319,201217,5,10,0:3:0:0:
326,371,201431,2,0,L|334:302,2,45.4999979171754,0|2|8,0:0|0:3|0:0,0:0:0:0:
268,262,201860,1,2,0:3:0:0:
174,304,202074,2,0,L|182:373,2,45.4999979171754,2|10|10,0:3|0:3|0:3,0:0:0:0:
73,384,202502,1,8,0:0:0:0:
73,384,202610,2,0,P|27:350|31:270,1,136.499993751526,8|10,0:3|0:3,0:0:0:0:
41,266,203038,6,0,P|85:256|126:209,1,90.9999958343508,8|2,0:0|0:3,0:0:0:0:
120,208,203360,1,8,0:0:0:0:
184,131,203574,1,10,0:0:0:0:
201,135,203681,1,8,0:3:0:0:
218,138,203788,2,0,P|228:159|226:191,3,45.4999979171754,10|8|8|8,0:3|0:0|0:0|0:0,0:0:0:0:
281,76,204217,2,0,P|271:55|273:23,3,45.4999979171754,10|8|8|8,0:0|0:0|0:0|0:0,0:0:0:0:
368,87,204645,6,0,P|378:118|368:191,1,90.9999958343508,12|0,0:3|0:0,0:0:0:0:
361,190,204967,1,0,0:0:0:0:
348,204,205074,2,0,L|451:221,1,90.9999958343508,8|0,0:0|0:0,0:0:0:0:
328,305,205502,1,8,0:3:0:0:
309,304,205610,1,8,0:0:0:0:
292,311,205717,1,0,0:0:0:0:
199,347,205931,2,0,P|194:302|206:258,1,90.9999958343508,8|2,0:0|0:0,0:0:0:0:
218,245,206252,1,0,0:0:0:0:
230,231,206360,6,0,P|178:219|85:231,1,136.499993751526,10|2,0:3|0:3,0:0:0:0:
29,263,206788,2,0,P|21:237|29:195,2,45.4999979171754,8|0|2,0:0|0:0|0:0,0:0:0:0:
136,97,207217,1,2,0:0:0:0:
132,114,207324,1,10,0:0:0:0:
128,131,207431,1,0,0:0:0:0:
248,137,207645,1,10,0:3:0:0:
237,122,207752,2,0,P|284:108|342:119,1,90.9999958343508,2|0,0:3|0:0,0:0:0:0:
338,125,208074,6,0,P|348:192|411:246,1,136.499993751526,10|2,0:3|0:0,0:0:0:0:
412,240,208502,1,8,0:0:0:0:
330,296,208717,2,0,P|262:295|208:334,1,136.499993751526,10|10,0:3|0:0,0:0:0:0:
205,352,209145,1,8,0:3:0:0:
138,287,209360,2,0,P|124:256|134:179,1,90.9999958343508,8|0,0:0|0:0,0:0:0:0:
200,133,209788,5,8,0:3:0:0:
288,36,210003,2,0,L|277:110,2,45.4999979171754,0|0|8,0:0|0:0|0:0,0:0:0:0:
346,153,210431,1,0,0:0:0:0:
434,56,210646,2,0,L|423:130,2,45.4999979171754,8|8|8,0:3|0:0|0:0,0:0:0:0:
492,173,211074,1,8,0:3:0:0:
492,173,211181,2,0,P|475:207|475:293,1,90.9999958343508,8|0,0:2|0:0,0:0:0:0:
475,275,211503,5,14,0:3:0:0:
420,351,211717,1,0,0:0:0:0:
420,351,211824,1,2,0:0:0:0:
420,351,211931,2,0,P|383:362|319:353,1,90.9999958343508,10|2,0:0|0:3,0:0:0:0:
318,345,212252,1,0,0:0:0:0:
305,332,212360,2,0,L|246:338,2,45.4999979171754,0|10|0,0:0|0:0|0:0,0:0:0:0:
167,309,212788,2,0,P|157:261|157:197,1,90.9999958343508,10|0,0:0|0:0,0:0:0:0:
156,220,213110,1,0,0:0:0:0:
156,220,213217,6,0,P|202:239|295:222,1,136.499993751526,10|0,0:3|0:0,0:0:0:0:
355,195,213645,2,0,P|362:222|346:275,2,45.4999979171754,8|0|2,0:0|0:0|0:3,0:0:0:0:
273,96,214074,2,0,P|280:69|264:16,2,45.4999979171754,0|0|8,0:0|0:0|0:3,0:0:0:0:
180,65,214502,1,8,0:0:0:0:
180,65,214610,2,0,P|135:62|86:30,1,90.9999958343508,8|0,0:3|0:0,0:0:0:0:
88,22,214931,5,10,0:3:0:0:
8,130,215145,2,0,L|18:77,2,45.4999979171754,0|0|8,0:0|0:0|0:0,0:0:0:0:
106,146,215574,2,0,L|123:253,1,90.9999958343508,0|8,0:0|0:3,0:0:0:0:
137,243,215895,1,8,0:0:0:0:
154,250,216002,1,8,0:0:0:0:
235,187,216217,1,2,0:3:0:0:
235,187,216324,2,0,P|270:203|298:262,1,90.9999958343508,8|0,0:3|0:0,0:0:0:0:
300,264,216645,6,0,P|366:256|392:143,1,181.999991668702,14|0,0:3|0:0,0:0:0:0:
355,79,217288,2,0,P|311:93|234:94,1,90.9999958343508
267,97,217610,1,0,0:0:0:0:
267,97,217717,1,0,0:0:0:0:
201,173,217931,2,0,L|193:226,3,45.4999979171754,0|8|8|0,0:0|0:2|0:3|0:3,0:0:0:0:
121,256,218360,6,0,P|99:263|51:249,4,45.4999979171754,14|8|8|8|8,0:3|0:0|0:0|0:0|0:0,0:0:0:0:
54,114,219002,2,0,P|76:107|124:121,4,45.4999979171754,8|8|8|8|8,0:0|0:0|0:0|0:0|0:0,0:0:0:0:
196,166,219645,5,10,0:0:0:0:
215,168,219752,1,8,0:0:0:0:
234,170,219860,1,8,0:3:0:0:
253,172,219967,1,8,0:3:0:0:
272,174,220074,1,10,0:3:0:0:
272,174,221788,5,4,0:0:0:0:
