osu file format v14

[General]
AudioFilename: audio.mp3
AudioLeadIn: 0
PreviewTime: 56943
Countdown: 0
SampleSet: Soft
StackLeniency: 0.7
Mode: 0
LetterboxInBreaks: 0
WidescreenStoryboard: 1

[Editor]
Bookmarks: 16068,29782,53568
DistanceSpacing: 1
BeatDivisor: 4
GridSize: 16
TimelineZoom: 1.7

[Metadata]
Title:DEAR MY WAKER
TitleUnicode:DEAR MY WAKER
Artist:Yonekura Chihiro
ArtistUnicode:米倉千尋
Creator:HeTo
Version:HARD
Source:9-nine-ゆきいろゆきはなゆきのあと
Tags:ぱれっと palette yukiiro yukihana yukinoato japanese eroge visual novel game opening theme video episode.4 bellicose rock jrock j-rock
BeatmapID:2612363
BeatmapSetID:1257060

[Difficulty]
HPDrainRate:5
CircleSize:3.8
OverallDifficulty:6.2
ApproachRate:7.6
SliderMultiplier:1.8
SliderTickRate:1

[Events]
//Background and Video events
0,0,"bg.jpg",0,0
Video,103,"op.avi"
//Break Periods
//Storyboard Layer 0 (Background)
//Storyboard Layer 1 (Fail)
//Storyboard Layer 2 (Pass)
//Storyboard Layer 3 (Foreground)
//Storyboard Layer 4 (Overlay)
//Storyboard Sound Samples

[TimingPoints]
580,428.571428571429,4,2,2,30,1,0
580,-142.857142857143,4,2,2,30,0,0
6794,-142.857142857143,4,2,2,5,0,0
7437,-100,4,2,2,65,0,0
14294,-142.857142857143,4,2,2,30,0,0
17722,-142.857142857143,4,2,2,40,0,0
29294,-142.857142857143,4,2,2,55,0,0
29615,-142.857142857143,4,2,2,5,0,0
29722,-100,4,2,2,55,0,0
41722,-90.9090909090909,4,2,2,60,0,0
43437,-100,4,2,2,55,0,0
55437,-166.666666666667,4,2,2,55,0,0
56830,-100,4,2,2,5,0,0
56937,-100,4,2,2,55,0,0
57151,-88.4955752212389,4,2,2,80,0,1
84580,-100,4,2,2,80,0,0
85865,-100,4,2,2,80,0,0
86294,-142.857142857143,4,2,2,80,0,0
87580,-142.857142857143,4,2,2,25,0,0
88008,-100,4,2,2,65,0,0
101722,-142.857142857143,4,2,2,20,0,0
103437,-133.333333333333,4,2,2,65,0,0
105151,-133.333333333333,4,2,2,45,0,0
106008,-133.333333333333,4,2,2,25,0,0
106865,-133.333333333333,4,2,2,15,0,0
108151,-133.333333333333,4,2,2,5,0,0

[Colours]
Combo1 : 45,81,157
Combo2 : 171,18,184
Combo3 : 250,95,245
Combo4 : 157,107,173
Combo5 : 192,192,192

[HitObjects]
20,29,580,6,0,P|71:26|124:60,1,94.499997116089,2|0,0:0|0:0,0:0:0:0:
210,113,1222,1,2,0:0:0:0:
210,113,1651,2,0,P|198:167|195:193,1,62.9999980773926,0|2,0:0|0:0,0:0:0:0:
247,239,2080,1,0,0:0:0:0:
300,177,2294,6,0,P|350:167|402:160,1,94.499997116089,2|0,0:0|0:0,0:0:0:0:
481,246,2937,1,2,0:0:0:0:
481,246,3365,2,0,P|470:304|466:327,1,62.9999980773926,0|2,0:0|0:0,0:0:0:0:
412,367,3794,1,2,0:0:0:0:
348,315,4008,6,0,P|301:305|254:298,1,94.499997116089,2|0,0:0|0:0,0:0:0:0:
145,355,4651,1,2,0:0:0:0:
145,355,5080,2,0,P|137:296|136:285,1,62.9999980773926,0|2,0:0|0:0,0:0:0:0:
199,240,5508,1,0,0:0:0:0:
254,298,5722,6,0,P|302:297|328:239,1,94.499997116089,2|0,0:0|0:0,0:0:0:0:
325,139,6365,2,0,P|269:119|204:163,1,125.999996154785,2|0,0:0|0:0,0:0:0:0:
483,373,7437,6,0,B|489:318|489:318|469:287|469:287|479:213,1,135,6|0,1:2|1:2,0:0:0:0:
484,200,7865,1,10,0:0:0:0:
458,113,8080,2,0,P|405:74|330:91,1,135,2|8,1:2|0:0,0:0:0:0:
312,119,8508,1,2,1:2:0:0:
273,200,8722,2,0,P|280:246|288:305,1,90,10|2,0:0|1:2,0:0:0:0:
237,365,9151,6,0,P|180:375|118:323,1,135,2|0,1:2|1:2,0:0:0:0:
89,299,9580,1,10,0:0:0:0:
55,215,9794,2,0,B|142:224|87:169|204:182,1,135,2|8,1:2|0:0,0:0:0:0:
225,180,10222,1,2,1:2:0:0:
294,237,10437,1,10,0:0:0:0:
370,190,10651,1,2,0:0:0:0:
447,235,10865,6,0,P|478:169|452:107,1,135,2|0,1:2|1:2,0:0:0:0:
431,77,11294,1,10,0:0:0:0:
357,25,11508,2,0,P|290:40|239:52,1,90,2|0,1:2|0:0,0:0:0:0:
224,50,11830,1,8,0:0:0:0:
224,50,11937,1,2,1:2:0:0:
191,133,12151,2,0,P|184:198|180:240,1,90,10|2,0:0|0:0,0:0:0:0:
131,297,12580,5,2,1:2:0:0:
131,297,12687,2,0,B|91:318|91:318|29:285,1,90,8|0,0:0|1:2,0:0:0:0:
7,289,13008,2,0,P|11:240|20:168,1,90,8|2,0:0|1:2,0:0:0:0:
9,154,13330,1,8,0:0:0:0:
9,154,13437,2,0,B|3:127|3:127|18:103,3,45,0|8|8|8,1:2|1:2|0:0|0:0,0:0:0:0:
38,75,13865,2,0,L|91:66,1,45,8|8,0:0|0:0,0:0:0:0:
122,88,14080,2,0,L|175:97,1,45,8|8,0:0|0:0,0:0:0:0:
203,77,14294,5,6,1:2:0:0:
312,308,15151,1,2,0:0:0:0:
377,257,15580,1,2,0:0:0:0:
326,181,16008,1,2,0:0:0:0:
326,181,17722,5,2,0:0:0:0:
512,315,19437,1,2,0:0:0:0:
499,63,20294,1,2,0:0:0:0:
294,209,21151,6,0,B|118:225|226:125|42:144,1,251.999992309571,2|2,0:0|0:0,0:0:0:0:
192,358,22865,5,2,0:0:0:0:
429,153,24580,2,0,P|421:74|252:49,1,251.999992309571,2|2,0:0|0:0,0:0:0:0:
72,183,26294,5,2,0:0:0:0:
146,335,28008,1,2,0:0:0:0:
398,53,29294,6,0,B|352:50|352:50|338:39|338:39|286:35,1,94.499997116089,10|0,0:0|0:0,0:0:0:0:
271,11,29722,6,0,B|146:0|225:66|99:55,1,180,6|8,1:2|0:0,0:0:0:0:
41,122,30365,1,2,1:2:0:0:
77,204,30580,2,0,P|144:193|199:183,1,90,2|2,0:0|1:2,0:0:0:0:
250,218,31008,2,0,P|317:229|372:239,1,90,10|2,0:0|0:0,0:0:0:0:
419,193,31437,6,0,P|450:244|409:336,1,135,2|2,1:2|1:2,0:0:0:0:
400,343,31865,1,8,0:0:0:0:
315,366,32080,2,0,B|192:384|266:306|123:323,1,180,2|0,1:2|1:2,0:0:0:0:
64,349,32722,1,10,0:0:0:0:
9,277,32937,1,2,0:0:0:0:
9,277,33044,1,2,0:0:0:0:
9,277,33151,6,0,P|17:203|25:133,1,135,2|0,1:2|1:2,0:0:0:0:
22,97,33580,2,0,P|47:54|98:44,1,90,8|2,0:0|1:2,0:0:0:0:
166,75,34008,2,0,B|197:142|197:142|166:213,1,135,2|2,0:0|0:0,0:0:0:0:
134,222,34437,2,0,B|114:264|114:264|124:306,1,90,10|2,0:0|0:0,0:0:0:0:
181,375,34865,6,0,P|242:349|343:354,1,135,2|0,1:2|1:2,0:0:0:0:
352,361,35294,1,8,0:0:0:0:
436,329,35508,2,0,B|464:213|395:261|428:126,1,180,0|0,1:2|1:2,0:0:0:0:
476,81,36151,2,0,P|434:56|389:64,1,90,10|2,0:0|0:0,0:0:0:0:
328,124,36580,6,0,P|259:167|189:141,1,135,2|2,1:2|1:2,0:0:0:0:
189,116,37008,2,0,P|137:107|91:129,1,90,10|0,0:0|1:2,0:0:0:0:
49,192,37437,2,0,P|59:249|65:296,1,90,2|0,0:0|1:2,0:0:0:0:
70,370,37865,1,10,0:0:0:0:
159,379,38080,1,2,0:0:0:0:
201,299,38294,6,0,P|211:217|220:145,1,135,2|2,1:2|1:2,0:0:0:0:
225,120,38722,1,8,0:0:0:0:
272,43,38937,2,0,P|324:7|432:50,1,180,2|2,1:2|0:0,0:0:0:0:
495,100,39580,2,0,P|484:157|476:221,1,90,10|2,0:0|0:0,0:0:0:0:
444,271,40008,6,0,P|398:258|338:247,1,90,2|2,1:2|0:0,0:0:0:0:
271,278,40437,1,10,0:0:0:0:
209,210,40651,2,0,P|221:133|225:104,1,90,2|8,1:2|0:0,0:0:0:0:
231,76,40972,1,8,0:0:0:0:
231,76,41080,1,0,1:2:0:0:
163,17,41294,2,0,P|108:12|58:53,1,90,10|2,0:0|0:0,0:0:0:0:
24,132,41722,6,0,P|37:245|42:299,1,148.50000453186,6|0,1:2|1:2,0:0:0:0:
35,329,42151,1,10,0:0:0:0:
122,375,42365,2,0,B|172:376|172:376|206:338|206:338|283:341,1,148.50000453186,6|10,1:2|0:0,0:0:0:0:
299,358,42794,1,0,0:0:0:0:
364,284,43008,1,8,0:0:0:0:
364,254,43115,1,8,0:0:0:0:
364,224,43222,1,8,0:0:0:0:
364,194,43330,1,8,0:0:0:0:
363,164,43437,5,4,1:2:0:0:
363,164,44508,2,0,P|435:150|472:181,1,90,14|0,0:0|0:0,0:0:0:0:
477,188,44830,1,10,0:0:0:0:
409,304,45151,1,14,0:0:0:0:
115,34,46008,1,2,0:0:0:0:
115,34,46115,1,2,0:0:0:0:
115,34,46222,2,0,P|104:101|94:159,1,90,14|0,0:0|0:0,0:0:0:0:
97,168,46544,1,14,0:0:0:0:
152,290,46865,5,6,1:2:0:0:
505,330,48580,6,0,B|380:345|465:271|320:286,1,180,6|0,1:2|0:0,0:0:0:0:
205,164,49437,1,10,0:0:0:0:
257,90,49651,1,8,0:0:0:0:
194,25,49865,2,0,L|140:19,3,45,8|8|8|8,0:0|0:0|0:0|0:0,0:0:0:0:
110,43,50294,6,0,P|62:86|55:198,1,180,6|8,1:2|0:0,0:0:0:0:
104,270,50937,1,2,1:2:0:0:
176,217,51151,2,0,P|212:194|263:199,1,90,2|0,0:0|0:0,0:0:0:0:
287,230,51472,1,2,0:0:0:0:
287,230,51580,2,0,P|323:253|374:248,1,90,8|2,0:0|0:0,0:0:0:0:
448,208,52008,6,0,P|482:143|428:57,1,180,0|8,1:2|0:0,0:0:0:0:
353,13,52651,1,2,1:2:0:0:
288,75,52865,2,0,P|219:62|190:55,1,90,2|0,1:2|1:2,0:0:0:0:
157,73,53187,1,2,0:0:0:0:
157,72,53294,2,0,P|88:85|59:92,1,90,10|2,0:0|0:0,0:0:0:0:
15,162,53722,6,0,B|-5:206|-5:206|16:247,1,90,6|8,1:2|0:0,0:0:0:0:
68,315,54151,2,0,L|121:305,3,45,8|8|8|8,0:0|0:0|0:0|0:0,0:0:0:0:
152,326,54580,2,0,P|203:318|242:313,1,90,8|0,0:0|1:2,0:0:0:0:
291,238,55008,1,8,0:0:0:0:
289,211,55115,1,8,0:0:0:0:
287,184,55222,1,4,0:3:0:0:
287,156,55330,1,4,0:3:0:0:
286,123,55437,6,0,P|337:68|479:220,1,350.99998928833,2|0,1:2|0:0,0:0:0:0:
457,254,56937,1,2,0:0:0:0:
486,351,57151,6,0,B|378:368|453:300|315:316,1,152.550000465546,6|2,1:2|1:2,0:0:0:0:
295,323,57580,1,10,0:0:0:0:
199,293,57794,1,0,1:2:0:0:
189,191,58008,1,2,0:0:0:0:
189,191,58115,2,0,P|199:134|210:81,1,101.700000310364,8|0,0:0|0:0,0:0:0:0:
201,40,58437,2,0,P|150:23|101:48,1,101.700000310364,10|0,0:0|0:0,0:0:0:0:
19,90,58865,6,0,P|29:158|41:262,1,152.550000465546,2|2,1:2|1:2,0:0:0:0:
19,288,59294,2,0,P|10:312|5:351,2,50.8500001551819,10|2|2,0:0|0:0|1:2,0:0:0:0:
117,261,59722,1,0,0:0:0:0:
117,261,59830,1,4,0:3:0:0:
117,261,59937,2,0,B|162:239|162:239|211:261,1,101.700000310364,8|8,0:0|0:0,0:0:0:0:
292,318,60365,1,2,0:0:0:0:
353,236,60580,6,0,P|343:166|329:76,1,152.550000465546,2|0,1:2|1:2,0:0:0:0:
331,34,61008,1,10,0:0:0:0:
427,1,61222,2,0,P|481:21|503:134,1,152.550000465546,2|2,1:2|1:2,0:0:0:0:
486,148,61651,1,2,1:2:0:0:
430,233,61865,1,10,0:0:0:0:
494,312,62080,1,2,0:0:0:0:
413,371,62294,6,0,B|382:341|345:331|345:331|317:373|248:364,1,152.550000465546,2|0,1:2|1:2,0:0:0:0:
233,365,62722,1,10,0:0:0:0:
133,343,62937,2,0,P|102:287|191:199,1,203.400000620728,0|0,1:2|1:2,0:0:0:0:
283,228,63580,2,0,L|301:307,2,50.8500001551819,8|4|2,1:2|0:3|0:0,0:0:0:0:
370,176,64008,6,0,P|376:106|380:61,1,101.700000310364,6|2,1:2|0:0,0:0:0:0:
382,25,64330,1,2,1:2:0:0:
382,25,64437,2,0,P|326:3|263:41,1,101.700000310364,10|0,0:0|1:2,0:0:0:0:
202,69,64865,2,0,P|206:119|210:170,1,101.700000310364,2|0,0:0|1:2,0:0:0:0:
185,214,65187,1,2,0:0:0:0:
185,214,65294,2,0,P|136:225|91:203,1,101.700000310364,10|2,0:0|1:2,0:0:0:0:
35,118,65722,6,0,P|48:64|121:26,1,101.700000310364,2|2,1:2|0:0,0:0:0:0:
176,71,66151,2,0,L|180:143,2,50.8500001551819,10|2|2,0:0|0:0|1:2,0:0:0:0:
261,15,66580,1,0,0:0:0:0:
261,15,66687,1,8,0:0:0:0:
261,15,66794,1,0,1:2:0:0:
361,32,67008,2,0,P|420:31|453:56,1,101.700000310364,8|2,0:0|0:0,0:0:0:0:
506,142,67437,6,0,P|493:224|488:262,1,101.700000310364,6|0,1:2|0:0,0:0:0:0:
484,292,67758,2,0,P|399:283|383:232,1,101.700000310364,2|0,1:2|0:0,0:0:0:0:
364,234,68080,1,2,1:2:0:0:
325,139,68294,2,0,P|272:126|215:167,1,101.700000310364,2|0,0:0|1:2,0:0:0:0:
159,215,68722,1,8,0:0:0:0:
224,293,68937,1,2,0:0:0:0:
160,371,69151,5,2,1:2:0:0:
160,371,69258,2,0,P|105:359|58:349,1,101.700000310364,8|2,0:0|1:2,0:0:0:0:
12,332,69580,1,8,0:0:0:0:
1,230,69794,1,8,0:0:0:0:
1,230,69901,1,8,0:0:0:0:
1,230,70008,2,0,L|5:172,3,50.8500001551819,0|8|8|8,1:2|0:0|0:0|0:0,0:0:0:0:
40,143,70437,2,0,L|36:85,3,50.8500001551819,8|8|8|8,0:0|0:0|0:0|0:0,0:0:0:0:
59,47,70865,6,0,B|156:32|101:93|242:80,1,152.550000465546,6|2,1:2|1:2,0:0:0:0:
248,58,71294,1,10,0:0:0:0:
330,116,71508,1,0,1:0:0:0:
265,194,71722,1,2,0:0:0:0:
265,194,71830,2,0,B|242:237|242:237|263:292,1,101.700000310364,8|0,0:0|0:0,0:0:0:0:
288,329,72151,2,0,P|368:316|397:312,1,101.700000310364,10|0,0:0|0:0,0:0:0:0:
490,307,72580,6,0,P|497:227|504:127,1,152.550000465546,2|0,1:2|1:2,0:0:0:0:
488,105,73008,2,0,P|491:74|510:44,2,50.8500001551819,10|2|2,0:0|0:0|1:2,0:0:0:0:
396,150,73437,1,0,0:0:0:0:
396,150,73544,1,8,0:0:0:0:
396,150,73651,1,0,1:2:0:0:
321,80,73865,2,0,P|269:71|222:108,1,101.700000310364,8|2,0:0|0:0,0:0:0:0:
166,176,74294,6,0,P|113:177|53:92,1,152.550000465546,2|2,1:2|1:2,0:0:0:0:
54,54,74722,1,10,0:0:0:0:
144,6,74937,2,0,P|219:15|311:35,1,152.550000465546,2|2,1:2|1:2,0:0:0:0:
340,51,75365,1,2,1:2:0:0:
290,140,75580,1,10,0:0:0:0:
349,222,75794,1,2,0:0:0:0:
287,302,76008,6,0,B|253:295|209:300|209:300|201:291|169:262|169:262|130:269|74:261,1,203.400000620728,2|8,1:2|0:0,0:0:0:0:
23,329,76651,2,0,P|-11:277|57:181,1,152.550000465546,0|8,1:2|0:0,0:0:0:0:
41,151,77080,1,0,1:2:0:0:
109,76,77294,1,8,0:0:0:0:
109,76,77401,1,0,1:2:0:0:
109,76,77508,1,2,0:0:0:0:
186,142,77722,6,0,B|290:153|222:95|362:112,1,152.550000465546,6|2,1:2|1:2,0:0:0:0:
363,148,78151,2,0,P|351:216|343:272,1,101.700000310364,10|0,0:0|1:2,0:0:0:0:
388,340,78580,2,0,P|453:353|495:263,1,152.550000465546,2|0,0:0|0:0,0:0:0:0:
505,239,79008,2,0,P|497:188|488:138,1,101.700000310364,10|0,0:0|0:0,0:0:0:0:
497,88,79330,1,2,0:0:0:0:
497,88,79437,6,0,P|441:39|363:52,1,152.550000465546,2|2,1:2|1:2,0:0:0:0:
337,89,79865,2,0,L|348:161,2,50.8500001551819,10|0|2,0:0|0:0|1:2,0:0:0:0:
252,31,80294,1,0,0:0:0:0:
252,31,80401,1,8,0:0:0:0:
252,31,80508,1,0,1:2:0:0:
177,99,80722,2,0,P|188:165|195:212,1,101.700000310364,8|2,0:0|0:0,0:0:0:0:
141,287,81151,6,0,P|57:291|22:228,1,152.550000465546,6|2,1:2|1:2,0:0:0:0:
12,189,81580,1,10,0:0:0:0:
40,91,81794,1,2,1:2:0:0:
139,109,82008,2,0,L|152:175,2,50.8500001551819,0|8|0,0:0|0:0|1:2,0:0:0:0:
204,30,82437,2,0,P|259:14|310:34,1,101.700000310364,8|2,0:0|0:0,0:0:0:0:
371,125,82865,6,0,P|359:194|345:297,1,152.550000465546,6|0,1:2|1:2,0:0:0:0:
327,322,83294,1,8,0:0:0:0:
241,377,83508,2,0,P|179:365|104:350,1,101.700000310364,0|0,1:2|0:0,0:0:0:0:
92,342,83830,1,8,0:0:0:0:
92,342,83937,1,0,1:2:0:0:
51,248,84151,2,0,L|61:187,3,50.8500001551819,8|0|8|8,0:0|1:2|0:0|0:0,0:0:0:0:
72,154,84580,6,0,B|116:135|116:135|170:152,1,90,6|8,1:2|0:0,0:0:0:0:
214,215,85008,2,0,L|271:207,3,45,8|8|8|8,1:2|0:0|0:0|0:0,0:0:0:0:
299,188,85437,2,0,L|356:196,1,45,0|8,1:2|0:0,0:0:0:0:
380,220,85651,1,8,0:0:0:0:
468,202,85865,2,0,L|472:144,1,45,8|8,0:0|0:0,0:0:0:0:
482,113,86080,2,0,L|478:55,1,45,4|4,0:3|0:3,0:0:0:0:
471,37,86294,6,0,B|276:18|407:133|220:120|220:120|265:113|303:65,1,377.999988464356,6|0,1:2|0:0,0:0:0:0:
119,54,88008,6,0,P|126:128|133:210,1,135,6|0,1:2|1:2,0:0:0:0:
130,233,88437,1,10,0:0:0:0:
161,317,88651,2,0,P|210:335|293:255,1,180,2|2,1:2|1:2,0:0:0:0:
325,172,89294,2,0,P|377:156|413:172,1,90,10|2,0:0|0:0,0:0:0:0:
474,228,89722,6,0,P|487:156|501:85,1,135,6|0,1:2|1:2,0:0:0:0:
506,50,90151,1,8,0:0:0:0:
424,12,90365,2,0,B|300:-11|373:59|243:44,1,180,2|2,1:2|1:2,0:0:0:0:
197,114,91008,1,10,0:0:0:0:
253,184,91222,1,2,0:0:0:0:
212,264,91437,6,0,P|150:304|81:279,1,135,6|0,1:2|1:2,0:0:0:0:
61,255,91865,1,8,0:0:0:0:
7,182,92080,2,0,P|20:99|25:61,1,90,2|0,1:2|0:0,0:0:0:0:
27,48,92401,1,8,0:0:0:0:
27,48,92508,1,2,1:2:0:0:
116,36,92722,2,0,P|157:13|220:26,1,90,10|2,0:0|0:0,0:0:0:0:
274,92,93151,6,0,B|266:149|266:149|279:167|279:167|273:237,1,135,14|10,1:2|0:0,0:0:0:0:
267,266,93580,2,0,B|257:290|257:290|262:317,2,45,8|8|10,0:0|0:0|0:0,0:0:0:0:
341,315,94008,2,0,L|394:307,3,45,0|8|8|8,1:2|0:0|0:0|0:0,0:0:0:0:
423,282,94437,2,0,L|476:290,3,45,8|8|8|8,0:0|0:0|0:0|0:0,0:0:0:0:
499,316,94865,6,0,P|508:212|515:167,1,135,6|0,1:2|1:2,0:0:0:0:
509,136,95294,1,8,0:0:0:0:
480,50,95508,2,0,P|414:40|348:132,1,180,2|2,1:2|1:2,0:0:0:0:
287,187,96151,2,0,P|226:177|207:145,1,90,10|2,0:0|0:0,0:0:0:0:
191,69,96580,6,0,B|89:64|157:115|28:111,1,135,2|0,1:2|1:2,0:0:0:0:
23,98,97008,1,10,0:0:0:0:
1,185,97222,2,4,P|13:264|28:363,1,180,2|2,1:2|1:2,0:0:0:0:
112,332,97865,1,10,0:0:0:0:
187,381,98080,1,2,1:2:0:0:
259,327,98294,6,0,B|261:267|261:267|275:249|275:249|279:168,1,135,2|0,1:2|1:2,0:0:0:0:
273,152,98722,1,8,0:0:0:0:
307,68,98937,2,0,P|340:34|460:69,1,180,2|2,1:2|1:2,0:0:0:0:
502,140,99580,2,0,P|495:213|491:258,1,90,10|2,0:0|0:0,0:0:0:0:
486,353,100008,6,0,B|432:359|432:359|402:329|402:329|343:331,1,135,14|0,0:0|1:2,0:0:0:0:
313,350,100437,2,0,L|262:351,2,45,8|8|8,0:0|0:0|0:0,0:0:0:0:
322,260,100865,2,0,L|328:212,3,45,0|8|8|8,1:2|1:2|0:0|0:0,0:0:0:0:
303,176,101294,2,0,L|301:119,1,45,10|10,0:0|0:0,0:0:0:0:
330,97,101508,2,0,L|332:40,1,45,10|10,0:0|0:0,0:0:0:0:
321,22,101722,5,2,0:0:0:0:
167,222,102580,1,2,0:0:0:0:
102,171,103009,1,2,0:0:0:0:
204,54,103437,5,6,1:2:0:0:
256,192,103544,12,0,108151,0:0:0:0:
