osu file format v14

[General]
AudioFilename: audio.mp3
AudioLeadIn: 0
PreviewTime: 56943
Countdown: 0
SampleSet: Soft
StackLeniency: 0.6
Mode: 0
LetterboxInBreaks: 0
WidescreenStoryboard: 0

[Editor]
Bookmarks: 16068,29782,53568,108211
DistanceSpacing: 1.2
BeatDivisor: 4
GridSize: 8
TimelineZoom: 1.7

[Metadata]
Title:DEAR MY WAKER
TitleUnicode:DEAR MY WAKER
Artist:Yonekura Chihiro
ArtistUnicode:米倉千尋
Creator:HeTo
Version:BELLICOSE'S INSANE
Source:9-nine-ゆきいろゆきはなゆきのあと
Tags:ぱれっと palette yukiiro yukihana yukinoato japanese eroge visual novel game opening theme video episode.4 bellicose rock jrock j-rock
BeatmapID:2615137
BeatmapSetID:1257060

[Difficulty]
HPDrainRate:5.5
CircleSize:4
OverallDifficulty:8
ApproachRate:9
SliderMultiplier:2
SliderTickRate:1

[Events]
//Background and Video events
0,0,"bg.jpg",0,0
Video,103,"op.avi"
//Break Periods
//Storyboard Layer 0 (Background)
//Storyboard Layer 1 (Fail)
//Storyboard Layer 2 (Pass)
//Storyboard Layer 3 (Foreground)
//Storyboard Layer 4 (Overlay)
//Storyboard Sound Samples

[TimingPoints]
580,428.571428571429,4,2,2,30,1,0
580,-125,4,2,2,30,0,0
794,-125,4,2,2,5,0,0
901,-125,4,2,2,30,0,0
2508,-125,4,2,2,5,0,0
2615,-125,4,2,2,30,0,0
4222,-125,4,2,2,5,0,0
4330,-125,4,2,2,30,0,0
5937,-125,4,2,2,5,0,0
6044,-125,4,2,2,30,0,0
6365,-181.818181818182,4,2,2,30,0,0
7008,-125,4,2,2,5,0,0
7437,-83.3333333333333,4,2,2,65,0,0
7865,-83.3333333333333,4,2,2,65,0,0
8080,-83.3333333333333,4,2,2,65,0,0
9151,-83.3333333333333,4,2,2,65,0,0
9580,-83.3333333333333,4,2,2,65,0,0
9794,-83.3333333333333,4,2,2,65,0,0
10865,-83.3333333333333,4,2,2,65,0,0
11294,-83.3333333333333,4,2,2,65,0,0
11508,-83.3333333333333,4,2,2,65,0,0
14294,-166.666666666667,4,2,2,30,0,0
15151,-166.666666666667,4,2,2,30,0,0
15365,-166.666666666667,4,2,2,30,0,0
17722,-166.666666666667,4,2,2,40,0,0
29294,-125,4,2,2,55,0,0
29722,-100,4,2,2,55,0,0
41722,-83.3333333333333,4,2,2,60,0,0
42365,-71.4285714285714,4,2,2,60,0,0
42794,-83.3333333333333,4,2,2,60,0,0
43437,-83.3333333333333,4,2,2,55,0,0
47508,-100,4,2,2,55,0,0
48151,-100,4,2,2,55,0,0
48472,-100,4,2,2,5,0,0
48580,-100,4,2,2,55,0,0
49437,-100,4,2,2,55,0,0
55437,-100,4,2,2,55,0,0
56830,-100,4,2,2,5,0,0
56937,-100,4,2,2,55,0,0
57151,-76.9230769230769,4,2,2,80,0,1
62294,-66.6666666666667,4,2,2,80,0,1
62722,-71.4285714285714,4,2,2,80,0,1
63365,-76.9230769230769,4,2,2,80,0,1
69151,-71.4285714285714,4,2,2,80,0,1
70865,-76.9230769230769,4,2,2,80,0,1
76008,-66.6666666666667,4,2,2,80,0,1
76437,-71.4285714285714,4,2,2,80,0,1
77080,-76.9230769230769,4,2,2,80,0,1
79437,-71.4285714285714,4,2,2,80,0,1
80080,-66.6666666666667,4,2,2,80,0,1
80508,-76.9230769230769,4,2,2,80,0,1
84580,-76.9230769230769,4,2,2,80,0,0
85865,-76.9230769230769,4,2,2,80,0,0
86294,-200,4,2,2,80,0,0
87580,-100,4,2,2,5,0,0
88008,-83.3333333333333,4,2,2,65,0,0
88437,-83.3333333333333,4,2,2,65,0,0
88651,-83.3333333333333,4,2,2,65,0,0
89722,-83.3333333333333,4,2,2,65,0,0
90151,-83.3333333333333,4,2,2,65,0,0
90365,-83.3333333333333,4,2,2,65,0,0
91865,-83.3333333333333,4,2,2,65,0,0
92080,-83.3333333333333,4,2,2,65,0,0
93151,-76.9230769230769,4,2,2,65,0,0
94865,-83.3333333333333,4,2,2,65,0,0
95294,-83.3333333333333,4,2,2,65,0,0
95508,-83.3333333333333,4,2,2,65,0,0
97008,-83.3333333333333,4,2,2,65,0,0
97222,-83.3333333333333,4,2,2,65,0,0
98722,-83.3333333333333,4,2,2,65,0,0
98937,-83.3333333333333,4,2,2,65,0,0
100008,-66.6666666666667,4,2,2,65,0,0
100330,-62.5,4,2,2,65,0,0
100651,-58.8235294117647,4,2,2,65,0,0
101294,-83.3333333333333,4,2,2,65,0,0
101722,-83.3333333333333,4,2,2,25,0,0
103222,-133.333333333333,4,2,2,65,0,0
105151,-133.333333333333,4,2,2,55,0,0
106008,-133.333333333333,4,2,2,35,0,0
106865,-133.333333333333,4,2,2,35,0,0
107722,-133.333333333333,4,2,2,25,0,0
108151,-133.333333333333,4,2,2,15,0,0
108580,-133.333333333333,4,2,2,5,0,0

[Colours]
Combo1 : 45,81,157
Combo2 : 171,18,184
Combo3 : 250,95,245
Combo4 : 157,107,173
Combo5 : 192,192,192

[HitObjects]
171,125,580,6,0,P|115:136|23:146,2,120,2|0|2,0:0|0:0|0:0,0:0:0:0:
341,259,1651,6,0,P|397:248|454:240,1,80,0|2,0:0|0:0,0:0:0:0:
419,244,1972,1,0,0:0:0:0:
419,244,2080,1,0,0:0:0:0:
494,359,2294,6,0,P|501:299|512:240,1,120,2|0,0:0|0:0,0:0:0:0:
358,35,2937,2,0,P|420:33|437:136,1,160,2|0,0:0|0:0,0:0:0:0:
383,216,3580,5,2,0:0:0:0:
250,168,3794,5,2,0:0:0:0:
383,216,4008,6,0,P|439:205|531:195,2,120,2|0|2,0:0|0:0|0:0,0:0:0:0:
199,90,5080,6,0,P|238:84|277:76,1,80,0|2,0:0|0:0,0:0:0:0:
277,76,5401,1,0,0:0:0:0:
277,76,5508,1,0,0:0:0:0:
295,218,5722,6,0,P|242:254|253:320,1,120,2|0,0:0|0:0,0:0:0:0:
97,178,6365,2,0,P|76:76|52:-1,1,165.000005035401,2|0,0:0|0:0,0:0:0:0:
6,322,7437,6,0,P|98:300|128:295,1,119.999996337891,6|0,1:2|0:0,0:0:0:0:
161,296,7758,1,0,1:2:0:0:
161,296,7865,1,10,0:0:0:0:
260,139,8080,2,0,B|279:226|311:153|331:286,1,119.999996337891,2|0,1:2|0:0,0:0:0:0:
318,276,8401,1,8,0:0:0:0:
318,276,8508,1,2,1:2:0:0:
208,78,8722,5,10,0:0:0:0:
235,54,8830,1,2,0:0:0:0:
270,60,8937,1,2,1:2:0:0:
161,188,9151,6,0,P|69:210|39:215,1,119.999996337891,2|0,1:2|0:0,0:0:0:0:
7,223,9472,1,0,1:2:0:0:
7,223,9580,1,10,0:0:0:0:
113,3,9794,2,0,B|72:31|72:31|67:87|116:121,1,119.999996337891,2|0,1:2|0:0,0:0:0:0:
114,123,10115,1,8,0:0:0:0:
114,123,10222,1,2,1:2:0:0:
421,185,10437,5,10,0:0:0:0:
386,193,10544,1,0,1:2:0:0:
220,345,10758,5,0,1:0:0:0:
255,353,10865,2,0,B|290:338|290:338|305:289|252:241,1,119.999996337891,2|0,1:2|0:0,0:0:0:0:
248,236,11187,1,0,1:2:0:0:
248,236,11294,1,10,0:0:0:0:
365,98,11508,2,0,P|306:117|219:130,1,119.999996337891,2|0,1:2|0:0,0:0:0:0:
214,130,11830,1,8,0:0:0:0:
214,130,11937,1,2,1:2:0:0:
424,43,12151,5,10,0:0:0:0:
446,71,12258,1,2,0:0:0:0:
444,106,12365,1,2,0:0:0:0:
445,317,12580,5,2,1:2:0:0:
421,290,12687,2,0,P|418:218|472:203,1,119.999996337891,8|0,0:0|1:2,0:0:0:0:
493,207,13008,1,8,0:0:0:0:
283,275,13222,1,2,1:2:0:0:
283,275,13330,1,8,0:0:0:0:
283,275,13437,5,0,1:2:0:0:
250,240,13544,1,8,1:2:0:0:
202,235,13651,1,8,0:0:0:0:
160,259,13758,1,8,0:0:0:0:
139,302,13865,1,8,0:0:0:0:
111,341,13972,1,8,0:0:0:0:
63,351,14080,1,8,0:0:0:0:
21,326,14187,1,8,0:0:0:0:
15,308,14294,6,0,B|145:272|95:405|252:354,1,239.999992675781,6|2,1:2|0:0,0:0:0:0:
96,192,15580,1,2,0:0:0:0:
96,192,16008,2,0,P|137:80|30:58,1,239.999992675781,2|0,0:0|0:0,0:0:0:0:
256,192,17722,5,2,0:0:0:0:
398,57,19437,5,2,0:0:0:0:
480,160,20294,2,0,P|458:208|382:195,1,119.999996337891,2|0,0:0|0:0,0:0:0:0:
228,312,21151,2,0,P|278:316|472:359,1,239.999992675781,2|0,0:0|0:0,0:0:0:0:
114,235,22865,5,2,0:0:0:0:
84,368,24580,6,0,B|90:231|193:312|170:155,1,239.999992675781,2|2,0:0|0:0,0:0:0:0:
354,27,26080,1,0,0:0:0:0:
354,27,26187,1,0,0:0:0:0:
354,27,26294,2,0,P|319:93|293:277,1,239.999992675781,2|0,0:0|0:0,0:0:0:0:
183,54,28008,6,0,P|135:70|89:75,2,89.9999972534181,2|0|0,0:0|0:0|0:0,0:0:0:0:
256,27,28865,1,2,0:0:0:0:
256,27,29294,6,0,B|295:67|295:67|272:139,1,120,10|0,0:0|0:0,0:0:0:0:
208,200,29722,6,0,B|262:223|262:223|305:208|377:197,1,150,6|0,1:2|1:2,0:0:0:0:
378,204,30151,1,8,0:0:0:0:
500,315,30365,2,0,P|475:355|427:354,1,100,2|2,1:2|0:0,0:0:0:0:
408,338,30687,1,8,0:0:0:0:
408,338,30794,1,2,1:2:0:0:
477,208,31008,2,0,P|493:124|499:101,1,100,10|2,0:0|0:0,0:0:0:0:
313,14,31437,6,0,P|323:79|421:72,2,150,2|2|2,1:2|1:2|1:2,0:0:0:0:
496,109,32294,2,0,L|478:188,2,50,0|0|0,3:0|1:2|1:2,0:0:0:0:
459,43,32722,1,10,0:0:0:0:
380,222,32937,1,2,0:0:0:0:
380,222,33044,1,2,0:0:0:0:
380,222,33151,6,0,B|341:191|292:201|292:201|269:274|180:244,1,200,2|8,1:2|0:0,0:0:0:0:
53,324,33794,2,0,P|144:339|166:345,1,100,2|2,1:2|0:0,0:0:0:0:
177,349,34115,1,8,0:0:0:0:
177,349,34222,1,0,0:0:0:0:
124,172,34437,2,0,P|33:157|11:151,1,100,10|2,0:0|0:0,0:0:0:0:
213,251,34865,6,0,P|243:147|209:95,1,150,2|0,1:2|1:2,0:0:0:0:
209,94,35294,1,8,0:0:0:0:
335,0,35508,2,0,P|350:91|356:113,1,100,0|0,1:2|0:0,0:0:0:0:
361,128,35830,1,8,0:0:0:0:
361,128,35937,2,0,P|406:118|443:114,1,50,0|0,1:2|0:0,0:0:0:0:
487,110,36151,1,10,0:0:0:0:
414,360,36580,6,0,B|429:335|428:314|428:314|454:298|467:297|467:297|481:269|482:209,1,150,2|2,1:2|1:2,0:0:0:0:
476,216,37008,1,10,0:0:0:0:
337,319,37222,2,0,P|281:328|273:329,1,50,0|2,1:0|0:0,0:0:0:0:
194,183,37437,2,0,P|203:127|204:119,1,50,2|8,0:0|0:0,0:0:0:0:
272,240,37651,1,2,1:2:0:0:
363,209,37865,2,0,P|388:150|351:106,1,100,10|2,0:0|0:0,0:0:0:0:
176,278,38294,6,0,B|71:302|144:339|32:367,2,150,2|2|2,1:2|1:2|1:2,0:0:0:0:
248,189,39151,1,0,0:0:0:0:
248,189,39258,1,8,0:0:0:0:
248,189,39365,2,0,L|232:111,1,50,2|0,0:0|0:0,0:0:0:0:
102,22,39580,2,0,P|125:102|128:143,1,100,10|2,0:0|0:0,0:0:0:0:
116,152,39901,1,2,0:0:0:0:
116,152,40008,6,0,P|36:163|24:256,1,150,2|0,1:2|1:2,0:0:0:0:
22,249,40437,1,10,0:0:0:0:
176,369,40651,2,0,P|96:352|-4:348,1,150,2|8,1:2|0:0,0:0:0:0:
0,348,41080,1,0,1:2:0:0:
148,254,41294,2,0,P|228:271|280:273,1,100,10|2,0:0|0:0,0:0:0:0:
332,161,41722,6,0,P|276:74|188:115,1,179.999994506836,6|0,1:2|1:2,0:0:0:0:
193,109,42151,2,0,P|205:147|211:171,1,59.9999981689454,10|0,0:0|0:0,0:0:0:0:
367,368,42365,6,0,B|327:308|366:256|366:256|420:242|425:181,1,209.999993591309,6|10,1:2|0:0,0:0:0:0:
490,9,42901,1,0,1:2:0:0:
511,36,43008,2,0,P|504:70|501:120,1,59.9999981689454,8|8,0:0|0:0,0:0:0:0:
332,161,43222,2,0,P|339:127|342:77,1,59.9999981689454,8|8,0:0|0:0,0:0:0:0:
477,293,43437,1,4,1:2:0:0:
176,238,44508,6,0,P|114:244|44:257,1,119.999996337891,14|0,0:0|0:0,0:0:0:0:
31,272,44830,2,0,P|41:212|47:153,1,119.999996337891,10|0,0:0|0:0,0:0:0:0:
26,83,45151,5,14,0:0:0:0:
280,9,46008,5,2,0:0:0:0:
280,9,46115,1,2,0:0:0:0:
280,9,46222,6,0,P|269:68|263:127,1,119.999996337891,14|2,0:0|0:0,0:0:0:0:
282,147,46544,2,0,P|357:174|331:251,1,119.999996337891,10|0,1:2|0:0,0:0:0:0:
375,293,46865,6,0,B|457:271|402:246|475:233,1,119.999996337891,6|0,1:2|0:0,0:0:0:0:
484,17,47508,6,0,L|490:51,3,33.3333333333333,2|2|2|2,0:0|0:0|0:0|0:0,0:0:0:0:
461,79,47830,1,2,0:0:0:0:
461,79,47937,2,0,P|471:116|477:145,1,50,2|0,0:0|0:0,0:0:0:0:
333,38,48151,2,0,P|280:86|305:174,1,150,2|0,0:0|0:0,0:0:0:0:
331,243,48580,6,0,B|380:257|435:228|463:166|386:133|317:147|256:193|363:320|171:303,1,400,6|10,1:2|0:0,0:0:0:0:
148,195,49651,2,0,L|225:203,1,50,8|8,0:0|0:0,0:0:0:0:
38,333,49865,2,0,L|44:283,1,50,8|8,0:0|0:0,0:0:0:0:
146,297,50080,1,8,0:0:0:0:
190,304,50187,1,8,0:0:0:0:
234,312,50294,5,6,1:2:0:0:
50,53,50615,1,0,1:2:0:0:
50,53,50722,1,8,0:0:0:0:
19,126,50937,2,0,P|82:128|131:44,1,150,2|8,1:2|0:0,0:0:0:0:
130,37,51365,1,0,0:0:0:0:
284,0,51580,2,0,P|261:88|258:114,1,100,8|2,0:0|0:0,0:0:0:0:
349,261,52008,6,0,B|411:282|411:282|455:252|512:231,1,150,0|0,1:2|1:2,0:0:0:0:
512,245,52437,1,8,0:0:0:0:
265,200,52651,2,0,P|217:212|145:223,1,100,2|2,1:2|1:2,0:0:0:0:
378,93,53080,1,0,1:2:0:0:
378,93,53187,1,2,0:0:0:0:
378,93,53294,2,0,P|418:138|401:181,1,100,8|2,0:0|0:0,0:0:0:0:
156,258,53722,5,6,1:2:0:0:
124,225,53830,1,8,0:0:0:0:
124,180,53937,1,8,0:0:0:0:
150,144,54044,1,8,0:0:0:0:
193,133,54151,2,0,L|180:56,3,50,8|8|8|8,0:0|0:0|0:0|0:0,0:0:0:0:
170,11,54580,5,8,0:0:0:0:
190,57,54687,1,8,0:0:0:0:
233,86,54794,1,8,0:0:0:0:
284,82,54901,1,8,0:0:0:0:
328,53,55008,1,8,0:0:0:0:
379,54,55115,1,8,0:0:0:0:
421,85,55222,1,4,0:3:0:0:
445,131,55330,1,4,0:3:0:0:
436,182,55437,5,2,1:2:0:0:
256,192,55544,12,2,56937,0:0:0:0:
459,44,57151,6,0,P|376:65|285:69,1,129.999994049073,6|0,1:2|0:0,0:0:0:0:
259,65,57472,1,2,1:2:0:0:
259,65,57580,1,10,0:0:0:0:
366,242,57794,1,0,1:0:0:0:
366,242,57901,2,0,B|374:331|427:265|434:400,1,129.999994049073,2|8,0:0|0:0,0:0:0:0:
345,363,58222,2,0,L|259:356,1,64.9999970245363,0|0,1:2|0:0,0:0:0:0:
448,236,58437,2,0,L|534:243,1,64.9999970245363,10|0,0:0|0:0,0:0:0:0:
265,282,58758,5,2,0:0:0:0:
265,282,58865,2,0,P|197:224|279:134,1,194.999991073609,2|2,1:2|1:2,0:0:0:0:
307,115,59294,1,10,0:0:0:0:
96,5,59508,2,0,P|120:87|127:142,1,129.999994049073,2|0,1:2|0:0,0:0:0:0:
116,209,59830,1,4,0:3:0:0:
116,209,59937,1,8,0:0:0:0:
225,58,60151,1,8,0:0:0:0:
233,13,60258,1,0,1:2:0:0:
116,209,60472,5,2,0:0:0:0:
116,209,60580,2,0,B|66:234|66:234|45:285|114:340,1,129.999994049073,2|0,1:2|0:0,0:0:0:0:
152,358,60901,1,0,1:2:0:0:
152,358,61008,2,0,P|162:316|168:280,1,64.9999970245363,10|0,0:0|0:0,0:0:0:0:
373,149,61222,2,0,P|353:232|342:321,1,129.999994049073,2|0,1:2|0:0,0:0:0:0:
261,343,61544,1,8,0:0:0:0:
243,360,61651,2,0,P|275:363|307:369,1,64.9999970245363,2|0,1:2|0:0,0:0:0:0:
270,228,61865,2,0,P|224:222|182:212,1,64.9999970245363,10|0,0:0|0:0,0:0:0:0:
486,147,62080,1,2,0:0:0:0:
486,147,62294,6,0,P|454:71|278:97,1,225.000008583069,2|0,1:2|1:2,0:0:0:0:
269,106,62722,1,10,0:0:0:0:
269,106,62937,2,0,P|204:63|237:0,1,139.999995727539,0|0,1:2|0:0,0:0:0:0:
353,131,63258,1,8,0:0:0:0:
353,131,63365,2,0,P|343:186|339:214,1,64.9999970245363,0|0,1:2|0:0,0:0:0:0:
466,319,63580,1,8,1:2:0:0:
476,274,63687,1,4,0:3:0:0:
221,216,63901,5,2,0:0:0:0:
221,216,64008,2,0,B|182:207|162:229|162:229|151:268|96:279,1,129.999994049073,6|2,1:2|0:0,0:0:0:0:
44,290,64330,1,2,1:2:0:0:
44,290,64437,2,0,B|130:307|58:344|179:364,1,129.999994049073,10|0,0:0|1:2,0:0:0:0:
223,380,64758,1,2,0:0:0:0:
223,380,64865,2,0,P|236:325|247:297,1,64.9999970245363,2|8,0:0|0:0,0:0:0:0:
95,126,65080,2,0,P|82:181|71:209,1,64.9999970245363,0|2,1:2|0:0,0:0:0:0:
254,17,65294,2,0,B|207:50|207:50|231:87|247:137,1,129.999994049073,10|2,0:0|1:2,0:0:0:0:
180,183,65615,1,8,0:0:0:0:
165,202,65722,6,0,P|282:217|321:227,1,129.999994049073,2|2,1:2|0:0,0:0:0:0:
485,20,66151,1,10,0:0:0:0:
485,20,66258,1,2,0:0:0:0:
485,20,66365,2,0,P|421:116|345:83,1,194.999991073609,2|8,1:2|0:0,0:0:0:0:
333,31,66794,1,0,1:2:0:0:
502,188,67008,1,8,0:0:0:0:
502,188,67115,1,0,1:2:0:0:
502,188,67222,2,0,P|484:243|480:276,1,64.9999970245363,2|0,0:0|0:0,0:0:0:0:
351,384,67437,6,0,P|369:329|386:251,1,129.999994049073,6|0,1:2|0:0,0:0:0:0:
390,184,67758,1,2,1:2:0:0:
390,184,67865,1,10,0:0:0:0:
201,279,68080,2,0,P|277:242|252:184,1,129.999994049073,2|2,1:2|0:0,0:0:0:0:
218,159,68401,1,8,0:0:0:0:
201,142,68509,2,0,P|206:109|212:77,1,64.9999970245363,0|0,1:2|0:0,0:0:0:0:
307,24,68722,1,8,0:0:0:0:
324,41,68830,2,0,P|318:73|312:105,1,64.9999970245363,0|2,1:2|0:0,0:0:0:0:
40,18,69151,5,2,1:2:0:0:
57,1,69259,2,0,P|89:6|129:13,1,69.9999978637696,8|0,0:0|0:0,0:0:0:0:
201,142,69472,1,2,1:2:0:0:
184,159,69580,2,0,P|152:154|112:147,1,69.9999978637696,8|0,0:0|0:0,0:0:0:0:
7,302,69794,1,8,0:0:0:0:
7,302,69901,1,8,0:0:0:0:
7,302,70008,5,0,1:2:0:0:
37,340,70115,1,8,0:0:0:0:
85,349,70222,1,8,0:0:0:0:
129,327,70330,1,8,0:0:0:0:
175,260,70437,5,8,0:0:0:0:
239,232,70544,1,8,0:0:0:0:
304,255,70651,1,8,0:0:0:0:
330,319,70758,1,8,0:0:0:0:
266,376,70865,6,0,P|287:259|296:175,1,194.999991073609,6|2,1:2|1:2,0:0:0:0:
286,106,71294,1,10,0:0:0:0:
93,54,71508,1,0,1:0:0:0:
93,54,71615,2,0,B|138:72|138:72|183:68|236:21,1,129.999994049073,2|8,0:0|0:0,0:0:0:0:
286,106,71937,2,0,P|340:118|378:124,1,64.9999970245363,0|0,1:2|0:0,0:0:0:0:
117,219,72151,2,0,P|63:207|25:201,1,64.9999970245363,10|0,0:0|0:0,0:0:0:0:
238,367,72472,5,2,0:0:0:0:
238,367,72580,2,0,P|304:307|245:222,1,194.999991073609,2|0,1:2|1:2,0:0:0:0:
192,184,73008,2,0,P|198:152|205:120,1,64.9999970245363,10|2,0:0|0:0,0:0:0:0:
291,14,73222,2,0,B|304:58|304:58|335:70|335:70|351:124,1,129.999994049073,2|0,1:2|0:0,0:0:0:0:
372,196,73544,1,8,0:0:0:0:
372,196,73651,1,0,1:2:0:0:
199,35,73865,1,8,0:0:0:0:
154,43,73972,1,0,1:2:0:0:
372,196,74187,5,2,0:0:0:0:
372,196,74294,2,0,B|434:199|464:170|464:170|473:111,1,129.999994049073,2|0,1:2|0:0,0:0:0:0:
491,50,74615,1,2,1:2:0:0:
491,50,74722,2,0,P|440:63|407:68,1,64.9999970245363,10|0,0:0|0:0,0:0:0:0:
202,254,74937,2,0,B|216:327|255:278|269:369,1,129.999994049073,2|0,1:2|0:0,0:0:0:0:
284,226,75258,1,8,0:0:0:0:
273,196,75365,2,0,P|260:145|255:112,1,64.9999970245363,2|0,1:2|0:0,0:0:0:0:
131,41,75580,2,0,P|144:92|149:125,1,64.9999970245363,10|0,0:0|0:0,0:0:0:0:
32,352,75794,1,2,0:0:0:0:
32,352,76008,6,0,P|119:282|37:190,1,225.000008583069,2|0,1:2|1:2,0:0:0:0:
5,174,76437,1,8,0:0:0:0:
5,174,76651,2,0,P|72:162|157:139,1,139.999995727539,0|0,1:2|0:0,0:0:0:0:
347,214,76972,1,8,0:0:0:0:
347,214,77080,2,0,P|280:226|236:238,1,64.9999970245363,0|0,1:2|0:0,0:0:0:0:
177,378,77294,1,8,0:0:0:0:
222,371,77401,1,0,1:2:0:0:
435,252,77615,5,2,0:0:0:0:
435,252,77722,2,0,B|476:222|476:222|487:181|494:85,1,129.999994049073,6|0,1:2|0:0,0:0:0:0:
423,113,78044,1,2,1:2:0:0:
423,113,78151,2,0,P|359:74|372:17,1,129.999994049073,10|0,0:0|1:2,0:0:0:0:
440,9,78472,1,2,0:0:0:0:
440,9,78580,2,0,P|487:2|521:-4,1,64.9999970245363,2|8,0:0|0:0,0:0:0:0:
292,195,78794,2,0,P|339:188|373:182,1,64.9999970245363,0|0,1:2|0:0,0:0:0:0:
157,64,79008,2,0,P|96:75|6:88,1,129.999994049073,10|0,0:0|0:0,0:0:0:0:
241,21,79330,1,2,0:0:0:0:
256,41,79437,6,0,B|245:75|250:103|250:103|231:125|199:141|199:141|206:185|173:244,1,209.999993591309,2|2,1:2|1:2,0:0:0:0:
64,344,79865,1,10,0:0:0:0:
29,338,79972,1,0,0:0:0:0:
9,308,80080,2,0,B|49:265|91:253|91:253|121:320|211:325,1,225.000008583069,2|8,1:2|0:0,0:0:0:0:
260,286,80508,1,0,1:2:0:0:
68,164,80722,2,0,P|63:125|55:83,1,64.9999970245363,8|0,0:0|1:2,0:0:0:0:
246,22,80937,1,2,0:0:0:0:
246,22,81044,1,2,0:0:0:0:
246,22,81151,6,0,P|185:50|208:135,1,129.999994049073,6|0,1:2|0:0,0:0:0:0:
222,175,81472,1,2,1:2:0:0:
222,175,81580,2,0,P|311:162|358:157,1,129.999994049073,10|2,0:0|1:2,0:0:0:0:
501,32,82008,2,0,P|487:86|488:125,1,64.9999970245363,0|8,0:0|0:0,0:0:0:0:
409,18,82222,1,0,1:2:0:0:
207,237,82437,2,0,P|221:183|220:144,1,64.9999970245363,8|0,0:0|1:2,0:0:0:0:
299,251,82651,1,2,0:0:0:0:
476,200,82865,6,0,B|343:172|445:129|300:97,1,194.999991073609,6|0,1:2|1:2,0:0:0:0:
242,86,83294,1,8,0:0:0:0:
47,269,83508,2,0,P|73:149|88:56,1,194.999991073609,0|8,1:2|0:0,0:0:0:0:
86,4,83937,1,0,1:2:0:0:
221,174,84151,2,0,P|287:182|311:187,1,64.9999970245363,8|0,0:0|1:2,0:0:0:0:
492,72,84365,2,0,P|426:64|402:59,1,64.9999970245363,8|8,0:0|0:0,0:0:0:0:
307,4,84580,5,6,1:2:0:0:
307,4,84687,1,8,0:0:0:0:
307,4,84794,2,0,P|299:70|294:94,1,64.9999970245363,8|8,0:0|0:0,0:0:0:0:
404,246,85008,2,0,P|412:180|417:156,1,64.9999970245363,8|8,1:2|0:0,0:0:0:0:
271,308,85222,2,0,P|263:374|258:398,1,64.9999970245363,8|8,0:0|0:0,0:0:0:0:
498,267,85437,5,0,1:2:0:0:
503,228,85544,1,8,0:0:0:0:
508,189,85651,1,8,0:0:0:0:
299,68,85865,5,8,0:0:0:0:
290,127,85972,1,8,0:0:0:0:
247,170,86080,1,4,0:3:0:0:
188,179,86187,1,4,0:3:0:0:
134,150,86294,5,6,1:2:0:0:
445,38,88008,6,0,P|429:91|416:162,1,119.999996337891,6|0,1:2|0:0,0:0:0:0:
412,195,88330,1,0,1:2:0:0:
412,195,88437,1,10,0:0:0:0:
224,262,88651,2,0,B|268:279|268:279|278:308|278:308|339:335,1,119.999996337891,2|0,1:2|0:0,0:0:0:0:
353,345,88972,1,8,0:0:0:0:
353,345,89080,1,2,1:2:0:0:
164,207,89294,5,10,0:0:0:0:
142,235,89401,1,2,0:0:0:0:
142,270,89508,1,2,0:0:0:0:
267,174,89722,6,0,P|251:99|242:34,1,119.999996337891,6|0,1:2|0:0,0:0:0:0:
240,21,90044,1,0,1:2:0:0:
240,21,90151,1,8,0:0:0:0:
34,96,90365,2,0,B|72:70|72:70|128:77|155:122,1,119.999996337891,2|0,1:2|0:0,0:0:0:0:
167,124,90687,1,8,0:0:0:0:
167,124,90794,1,2,1:2:0:0:
380,39,91008,5,10,0:0:0:0:
345,47,91115,1,0,1:2:0:0:
187,240,91330,5,0,1:0:0:0:
222,248,91437,2,0,B|231:203|231:203|257:187|257:187|271:113,1,119.999996337891,6|0,1:2|0:0,0:0:0:0:
271,104,91758,1,0,1:2:0:0:
271,104,91865,1,8,0:0:0:0:
408,212,92080,2,0,P|415:277|428:351,1,119.999996337891,2|0,1:2|0:0,0:0:0:0:
431,364,92401,1,8,0:0:0:0:
431,364,92508,1,2,1:2:0:0:
434,138,92722,5,10,0:0:0:0:
400,125,92830,1,2,0:0:0:0:
368,143,92937,1,2,0:0:0:0:
199,335,93151,6,0,B|233:340|233:340|263:322,1,64.9999970245363,14|0,1:2|0:0,0:0:0:0:
324,278,93365,1,8,0:0:0:0:
315,240,93472,1,10,0:0:0:0:
171,19,93687,1,8,0:0:0:0:
180,57,93794,2,0,P|189:100|196:138,1,64.9999970245363,10|0,0:0|0:0,0:0:0:0:
57,264,94008,5,0,1:2:0:0:
75,229,94115,1,8,0:0:0:0:
110,214,94222,1,8,0:0:0:0:
148,220,94330,1,8,0:0:0:0:
219,215,94437,5,8,0:0:0:0:
279,177,94544,1,8,0:0:0:0:
300,108,94651,1,8,0:0:0:0:
264,45,94758,1,8,0:0:0:0:
171,19,94865,6,0,P|194:104|204:157,1,119.999996337891,6|0,1:2|0:0,0:0:0:0:
219,215,95187,1,0,1:2:0:0:
219,215,95294,1,8,0:0:0:0:
375,300,95508,2,0,B|300:312|360:350|259:363,1,119.999996337891,2|0,1:2|0:1,0:1:0:0:
242,367,95830,1,8,0:0:0:0:
242,367,95937,1,2,1:2:0:0:
453,324,96151,5,10,0:0:0:0:
460,288,96258,1,2,0:0:0:0:
444,255,96365,1,2,0:0:0:0:
344,147,96580,6,0,P|438:164|485:171,1,119.999996337891,2|0,1:2|0:0,0:0:0:0:
500,177,96901,1,0,1:2:0:0:
500,177,97008,1,10,0:0:0:0:
354,8,97222,2,4,P|441:33|448:66,1,119.999996337891,2|0,1:2|0:0,0:0:0:0:
449,80,97544,1,8,0:0:0:0:
449,80,97651,1,2,1:2:0:0:
324,281,97865,5,10,0:0:0:0:
359,289,97972,1,0,1:2:0:0:
158,136,98187,5,0,1:0:0:0:
123,144,98294,2,0,B|84:165|84:165|60:212|112:257,1,119.999996337891,2|0,1:2|0:0,0:0:0:0:
115,260,98615,1,0,1:2:0:0:
115,260,98722,1,8,0:0:0:0:
262,160,98937,2,0,P|248:71|243:21,1,119.999996337891,2|0,1:2|0:0,0:0:0:0:
243,6,99258,1,8,0:0:0:0:
243,6,99365,1,2,1:2:0:0:
237,239,99580,5,10,0:0:0:0:
272,243,99687,1,2,0:0:0:0:
305,230,99794,1,2,0:0:0:0:
122,288,100008,6,0,P|88:353|17:329,1,150.000005722046,14|0,0:0|0:0,0:0:0:0:
15,194,100330,6,0,B|46:203|67:217|67:217|111:190|199:165,1,160,0|8,1:2|0:0,0:0:0:0:
242,77,100651,6,0,B|206:53|206:53|129:58|64:106,1,170.000003242493,8|0,0:0|1:2,0:0:0:0:
244,161,100972,1,8,1:2:0:0:
244,261,101080,2,0,P|252:220|266:180,1,85.0000016212464,8|8,0:0|0:0,0:0:0:0:
388,146,101294,1,10,0:0:0:0:
453,174,101401,1,10,0:0:0:0:
474,242,101508,1,10,0:0:0:0:
449,309,101615,1,10,0:0:0:0:
380,329,101722,5,6,1:2:0:0:
97,174,103222,5,4,0:3:0:0:
97,174,103294,1,4,0:3:0:0:
97,174,103365,1,4,0:3:0:0:
97,174,103437,6,0,B|56:173|8:211|15:241|-5:260|-5:260|20:259|37:280|88:276|117:251|125:240|125:240|104:277|113:337|142:346|148:373|148:373|160:351|186:346|208:303|201:265|196:251|196:251|215:289|273:311|295:290|321:298|321:298|309:277|319:252|291:210|256:198|241:195|241:195|282:196|331:158|322:128|342:109|342:109|316:110|301:90|249:93|221:119|213:128|213:128|234:93|225:32|196:24|190:-2|190:-2|177:20|150:23|128:71|138:108|142:120|142:120|122:84|64:61|42:83|16:75|16:75|31:99|16:127|59:179|101:177|101:177,1,1650.00006294251,6|0,1:2|0:0,0:0:0:0:
