osu file format v14

[General]
AudioFilename: audio.ogg
AudioLeadIn: 0
PreviewTime: 56924
Countdown: 0
SampleSet: Soft
StackLeniency: 0.7
Mode: 3
LetterboxInBreaks: 0
SpecialStyle: 0
WidescreenStoryboard: 1

[Editor]
DistanceSpacing: 1.4
BeatDivisor: 4
GridSize: 32
TimelineZoom: 1.7

[Metadata]
Title:DEAR MY WAKER
TitleUnicode:DEAR MY WAKER
Artist:Yonekura Chihiro
ArtistUnicode:米倉千尋
Creator:Antipole
Version:Fawcro's HARD
Source:9-nine-ゆきいろゆきはなゆきのあと
Tags:symmatrix- doctortetravoid fawcro32 nabi- ぱれっと palette yukiiro yukihana yukinoato japanese eroge visual novel vn video game opening theme episode.4 rock jrock j-rock Sekai Project くじょう みやこ Miyako Kujo 九條都 こうさか はるか Haruka Kousaka 香坂春風 ゆうき のあ Noa Yuuki 結城希亜 にいみ そら Sora Niimi 新海天
BeatmapID:3585245
BeatmapSetID:1752211

[Difficulty]
HPDrainRate:8
CircleSize:4
OverallDifficulty:8
ApproachRate:5
SliderMultiplier:1.4
SliderTickRate:1

[Events]
//Background and Video events
Video,-13,"noa uwu.mp4"
0,0,"bg.jpg",0,0
//Break Periods
//Storyboard Layer 0 (Background)
//Storyboard Layer 1 (Fail)
//Storyboard Layer 2 (Pass)
//Storyboard Layer 3 (Foreground)
//Storyboard Layer 4 (Overlay)
//Storyboard Sound Samples

[TimingPoints]
567,428.571428571429,4,2,1,70,1,0
57138,-100,4,2,1,70,0,1
70424,-100,4,2,1,70,0,0
70852,-100,4,2,1,70,0,1
86281,-100,4,2,1,70,0,0

[HitObjects]
64,192,567,5,0,0:0:0:0:
320,192,567,1,0,0:0:0:0:
192,192,888,1,0,0:0:0:0:
64,192,1209,1,0,0:0:0:0:
448,192,1209,1,0,0:0:0:0:
320,192,1638,1,0,0:0:0:0:
192,192,1852,1,0,0:0:0:0:
320,192,1906,1,0,0:0:0:0:
448,192,1959,1,0,0:0:0:0:
64,192,2067,1,0,0:0:0:0:
192,192,2281,1,0,0:0:0:0:
448,192,2281,1,0,0:0:0:0:
320,192,2602,1,0,0:0:0:0:
64,192,2924,1,0,0:0:0:0:
448,192,2924,1,0,0:0:0:0:
320,192,3352,1,0,0:0:0:0:
192,192,3567,1,0,0:0:0:0:
64,192,3781,1,0,0:0:0:0:
320,192,3995,1,0,0:0:0:0:
448,192,3995,1,0,0:0:0:0:
192,192,4317,1,0,0:0:0:0:
64,192,4638,1,0,0:0:0:0:
448,192,4638,1,0,0:0:0:0:
192,192,5067,1,0,0:0:0:0:
320,192,5281,1,0,0:0:0:0:
192,192,5334,1,0,0:0:0:0:
64,192,5388,1,0,0:0:0:0:
448,192,5495,1,0,0:0:0:0:
64,192,5709,1,0,0:0:0:0:
192,192,5709,1,0,0:0:0:0:
320,192,6031,1,0,0:0:0:0:
64,192,6352,1,0,0:0:0:0:
448,192,6352,1,0,0:0:0:0:
64,192,7424,1,2,0:0:0:33:
320,192,7424,1,4,0:0:0:33:
448,192,7424,128,0,7745:0:0:0:0:
64,192,7745,1,2,0:0:0:66:
192,192,7745,1,0,0:0:0:0:
320,192,7852,1,8,0:0:0:66:
448,192,7852,1,0,0:0:0:0:
64,192,8067,128,2,8388:0:0:0:66:
192,192,8067,1,0,0:0:0:0:
320,192,8281,1,0,0:0:0:0:
192,192,8388,1,8,0:0:0:66:
448,192,8388,1,0,0:0:0:0:
64,192,8495,1,2,0:0:0:66:
320,192,8495,1,0,0:0:0:0:
64,192,8709,1,8,0:0:0:66:
192,192,8709,1,0,0:0:0:0:
320,192,8763,1,0,0:0:0:0:
448,192,8817,1,2,0:0:0:66:
192,192,8924,1,2,0:0:0:66:
320,192,9138,128,2,9459:0:0:0:66:
448,192,9138,1,0,0:0:0:0:
64,192,9352,1,0,0:0:0:0:
192,192,9459,1,2,0:0:0:66:
448,192,9459,1,0,0:0:0:0:
64,192,9567,1,8,0:0:0:66:
320,192,9567,1,0,0:0:0:0:
192,192,9781,128,2,10102:0:0:0:66:
448,192,9781,1,0,0:0:0:0:
64,192,9995,1,0,0:0:0:0:
320,192,10102,1,0,0:0:0:66:tom.wav
448,192,10102,1,0,0:0:0:0:
64,192,10209,128,2,10424:0:0:0:66:
192,192,10209,1,0,0:0:0:0:
320,192,10424,1,8,0:0:0:66:
448,192,10424,128,0,10638:0:0:0:0:
64,192,10531,1,2,0:0:0:66:
192,192,10638,128,0,10852:0:0:0:0:
64,192,10852,128,2,11174:0:0:0:66:
448,192,10852,1,0,0:0:0:0:
192,192,11067,1,0,0:0:0:0:
320,192,11174,1,2,0:0:0:66:
448,192,11174,1,0,0:0:0:0:
64,192,11281,1,8,0:0:0:66:
192,192,11281,1,0,0:0:0:0:
320,192,11495,1,2,0:0:0:66:
448,192,11495,128,0,11817:0:0:0:0:
192,192,11709,1,0,0:0:0:0:
64,192,11817,1,0,0:0:0:66:tom.wav
320,192,11817,1,0,0:0:0:0:
192,192,11924,1,2,0:0:0:66:
448,192,11924,1,0,0:0:0:0:
320,192,12138,1,8,0:0:0:66:
448,192,12138,1,0,0:0:0:0:
192,192,12192,1,0,0:0:0:0:
64,192,12245,1,2,0:0:0:66:
320,192,12352,1,0,0:0:0:0:
64,192,12567,1,2,0:0:0:66:
192,192,12567,1,0,0:0:0:0:
320,192,12674,1,8,0:0:0:66:
448,192,12674,1,0,0:0:0:0:
64,192,12888,1,2,0:0:0:66:
192,192,12888,1,0,0:0:0:0:
320,192,12995,1,8,0:0:0:66:
448,192,12995,1,0,0:0:0:0:
64,192,13209,1,2,0:0:0:66:
192,192,13317,1,8,0:0:0:66:
64,192,13424,1,2,0:0:0:66:
448,192,13424,1,0,0:0:0:0:
320,192,13531,1,0,0:0:0:66:tom.wav
192,192,13638,1,8,0:0:0:66:
320,192,13745,1,8,0:0:0:66:
64,192,13852,1,8,0:0:0:66:
448,192,13852,1,0,0:0:0:0:
192,192,13959,1,8,0:0:0:66:
320,192,14067,1,8,0:0:0:66:
448,192,14174,1,8,0:0:0:66:
64,192,14281,1,2,0:0:0:33:
192,192,14281,1,4,0:0:0:33:
320,192,14388,1,0,0:0:0:0:
448,192,14495,1,0,0:0:0:0:
64,192,14602,1,0,0:0:0:0:
192,192,14709,1,0,0:0:0:0:
320,192,14817,1,0,0:0:0:0:
192,192,14924,1,0,0:0:0:0:
64,192,15031,1,0,0:0:0:0:
320,192,15138,1,0,0:0:0:0:
448,192,15138,1,0,0:0:0:0:
192,192,15245,1,0,0:0:0:0:
448,192,15352,1,0,0:0:0:0:
320,192,15459,1,0,0:0:0:0:
64,192,15567,1,0,0:0:0:0:
192,192,15567,1,0,0:0:0:0:
64,192,15995,1,0,0:0:0:0:
320,192,15995,1,0,0:0:0:0:
192,192,16638,128,0,16852:0:0:0:0:
320,192,16852,128,0,17067:0:0:0:0:
448,192,17067,128,0,17281:0:0:0:0:
192,192,17281,128,0,17495:0:0:0:0:
320,192,17495,128,0,17709:0:0:0:0:
64,192,17709,128,0,17924:0:0:0:0:
448,192,17709,1,0,0:0:0:0:
320,192,17924,128,0,18031:0:0:0:0:
192,192,18031,128,0,18245:0:0:0:0:
64,192,18245,128,0,18352:0:0:0:0:
448,192,18352,128,0,18995:0:0:0:0:
320,192,19209,128,0,19317:0:0:0:0:
192,192,19317,128,0,19424:0:0:0:0:
64,192,19424,128,0,19745:0:0:0:0:
448,192,19424,1,0,0:0:0:0:
320,192,20067,128,0,20281:0:0:0:0:
64,192,20281,1,0,0:0:0:0:
448,192,20281,128,0,20549:0:0:0:0:
192,192,20549,1,0,0:0:0:0:
192,192,20709,128,0,20924:0:0:0:0:
64,192,20924,128,0,21138:0:0:0:0:
320,192,21138,1,0,0:0:0:0:
448,192,21138,128,0,21781:0:0:0:0:
64,192,21995,1,0,0:0:0:0:
320,192,22638,128,0,22852:0:0:0:0:
192,192,22852,1,0,0:0:0:0:
448,192,22852,128,0,23067:0:0:0:0:
64,192,23174,128,0,23281:0:0:0:0:
320,192,23281,128,0,23602:0:0:0:0:
192,192,23602,128,0,23709:0:0:0:0:
448,192,23709,128,0,23924:0:0:0:0:
320,192,23924,128,0,24138:0:0:0:0:
192,192,24138,128,0,24352:0:0:0:0:
64,192,24352,128,0,24567:0:0:0:0:
320,192,24567,1,0,0:0:0:0:
448,192,24567,128,0,24888:0:0:0:0:
192,192,24888,128,0,25209:0:0:0:0:
320,192,25209,128,0,25852:0:0:0:0:
64,192,25424,1,0,0:0:0:0:
192,192,26067,128,0,26174:0:0:0:0:
320,192,26174,128,0,26281:0:0:0:0:
64,192,26281,128,0,26602:0:0:0:0:
448,192,26281,1,0,0:0:0:0:
320,192,26924,128,0,27138:0:0:0:0:
192,192,27138,128,0,27459:0:0:0:0:
448,192,27781,128,0,27995:0:0:0:0:
64,192,27995,1,0,0:0:0:0:
320,192,27995,128,0,28317:0:0:0:0:
192,192,28317,128,0,28638:0:0:0:0:
448,192,28638,128,0,28852:0:0:0:0:
64,192,28852,128,0,29281:0:0:0:0:
192,192,29281,1,8,0:0:0:66:
320,192,29281,1,0,0:0:0:0:
448,192,29281,1,0,0:0:0:0:
64,192,29709,1,2,0:0:0:33:
192,192,29709,1,4,0:0:0:33:
448,192,29709,1,0,0:0:0:0:
320,192,29924,1,0,0:0:0:0:
64,192,30031,1,2,0:0:0:66:
192,192,30031,1,0,0:0:0:0:
320,192,30138,1,8,0:0:0:66:
448,192,30138,1,0,0:0:0:0:
64,192,30352,1,2,0:0:0:66:
448,192,30352,1,0,0:0:0:0:
320,192,30567,1,0,0:0:0:0:
64,192,30674,1,0,0:0:0:66:tom.wav
192,192,30674,1,0,0:0:0:0:
448,192,30781,1,2,0:0:0:66:
320,192,30888,1,0,0:0:0:0:
64,192,30995,1,8,0:0:0:66:
448,192,30995,1,0,0:0:0:0:
192,192,31209,1,0,0:0:0:0:
320,192,31317,1,0,0:0:0:0:
64,192,31424,1,2,0:0:0:66:
448,192,31424,1,0,0:0:0:0:
192,192,31638,1,0,0:0:0:0:
320,192,31745,1,2,0:0:0:66:
448,192,31745,1,0,0:0:0:0:
64,192,31852,1,8,0:0:0:66:
192,192,31852,1,0,0:0:0:0:
320,192,32067,1,2,0:0:0:66:
448,192,32067,1,0,0:0:0:0:
192,192,32174,1,0,0:0:0:0:
64,192,32281,1,0,0:0:0:0:
320,192,32388,1,0,0:0:0:0:
64,192,32495,1,0,0:0:0:0:
320,192,32602,1,0,0:0:0:0:
64,192,32709,1,8,0:0:0:66:
192,192,32709,1,0,0:0:0:0:
320,192,32924,1,0,0:0:0:0:
192,192,33031,1,0,0:0:0:0:
64,192,33138,1,2,0:0:0:66:
448,192,33138,1,0,0:0:0:0:
320,192,33352,1,0,0:0:0:0:
64,192,33459,1,2,0:0:0:66:
192,192,33459,1,0,0:0:0:0:
320,192,33567,1,8,0:0:0:66:
448,192,33567,1,0,0:0:0:0:
64,192,33781,1,2,0:0:0:66:
192,192,33781,1,0,0:0:0:0:
448,192,33888,1,0,0:0:0:0:
320,192,33995,1,0,0:0:0:0:
64,192,34102,1,8,0:0:0:66:
192,192,34102,1,0,0:0:0:0:
448,192,34209,1,0,0:0:0:0:
64,192,34317,1,0,0:0:0:0:
320,192,34424,1,8,0:0:0:66:
448,192,34424,1,0,0:0:0:0:
192,192,34638,1,0,0:0:0:0:
320,192,34745,1,0,0:0:0:0:
64,192,34852,1,2,0:0:0:66:
448,192,34852,1,0,0:0:0:0:
192,192,35067,1,0,0:0:0:0:
320,192,35174,1,2,0:0:0:66:
448,192,35174,1,0,0:0:0:0:
64,192,35281,1,8,0:0:0:66:
192,192,35281,1,0,0:0:0:0:
320,192,35495,1,2,0:0:0:66:
448,192,35495,1,0,0:0:0:0:
192,192,35602,1,0,0:0:0:0:
64,192,35709,1,0,0:0:0:0:
448,192,35817,1,0,0:0:0:66:tom.wav
64,192,35924,1,2,0:0:0:66:
320,192,35924,1,0,0:0:0:0:
320,192,36138,1,8,0:0:0:66:
448,192,36138,1,0,0:0:0:0:
192,192,36352,1,0,0:0:0:0:
320,192,36459,1,0,0:0:0:0:
64,192,36567,1,2,0:0:0:66:
448,192,36567,1,0,0:0:0:0:
320,192,36781,1,0,0:0:0:0:
64,192,36888,1,2,0:0:0:66:
192,192,36888,1,0,0:0:0:0:
320,192,36995,1,8,0:0:0:66:
448,192,36995,1,0,0:0:0:0:
64,192,37209,1,2,0:0:0:66:
448,192,37209,1,0,0:0:0:0:
192,192,37317,1,0,0:0:0:0:
320,192,37424,1,0,0:0:0:0:
64,192,37531,1,8,0:0:0:66:
192,192,37531,1,0,0:0:0:0:
448,192,37638,1,2,0:0:0:66:
64,192,37745,1,0,0:0:0:0:
320,192,37852,1,8,0:0:0:66:
448,192,37852,1,0,0:0:0:0:
192,192,38067,1,0,0:0:0:0:
64,192,38174,1,0,0:0:0:0:
320,192,38281,1,2,0:0:0:66:
448,192,38281,1,0,0:0:0:0:
64,192,38495,1,0,0:0:0:0:
320,192,38602,1,2,0:0:0:66:
448,192,38602,1,0,0:0:0:0:
64,192,38709,1,8,0:0:0:66:
192,192,38709,1,0,0:0:0:0:
320,192,38924,1,2,0:0:0:66:
448,192,38924,1,0,0:0:0:0:
192,192,39031,1,0,0:0:0:0:
64,192,39138,1,0,0:0:0:0:
320,192,39245,1,0,0:0:0:0:
192,192,39352,1,0,0:0:0:0:
448,192,39459,1,0,0:0:0:0:
64,192,39567,1,8,0:0:0:66:
320,192,39567,1,0,0:0:0:0:
192,192,39781,1,0,0:0:0:0:
64,192,39888,1,0,0:0:0:0:
320,192,39995,1,2,0:0:0:66:
448,192,39995,1,0,0:0:0:0:
64,192,40209,1,0,0:0:0:0:
192,192,40317,1,2,0:0:0:66:
320,192,40317,1,0,0:0:0:0:
64,192,40424,1,8,0:0:0:66:
448,192,40424,1,0,0:0:0:0:
192,192,40638,1,2,0:0:0:66:
320,192,40638,1,0,0:0:0:0:
448,192,40745,1,0,0:0:0:0:
64,192,40852,1,0,0:0:0:0:
192,192,40959,1,0,0:0:0:66:tom.wav
320,192,41067,1,2,0:0:0:66:
192,192,41174,1,0,0:0:0:0:
64,192,41281,1,8,0:0:0:66:
448,192,41281,1,0,0:0:0:0:
192,192,41495,1,0,0:0:0:0:
320,192,41602,1,0,0:0:0:0:
64,192,41709,1,2,0:0:0:33:
192,192,41709,1,4,0:0:0:33:
448,192,41709,1,0,0:0:0:0:
320,192,42031,1,2,0:0:0:66:
448,192,42031,1,0,0:0:0:0:
64,192,42138,1,8,0:0:0:66:
192,192,42138,1,0,0:0:0:0:
64,192,42352,1,2,0:0:0:33:
320,192,42352,1,4,0:0:0:33:
448,192,42352,1,0,0:0:0:0:
320,192,42674,1,8,0:0:0:66:
448,192,42674,1,0,0:0:0:0:
64,192,42781,1,2,0:0:0:66:
320,192,42888,1,0,0:0:0:66:tom.wav
64,192,42995,1,8,0:0:0:66:
192,192,42995,1,0,0:0:0:0:
448,192,43102,1,2,0:0:0:66:
192,192,43209,1,8,0:0:0:66:
320,192,43317,1,8,0:0:0:66:
64,192,43424,1,4,0:0:0:33:
448,192,43424,1,2,0:0:0:33:
64,192,43638,128,0,43852:0:0:0:0:
448,192,43852,128,0,44138:0:0:0:0:
192,192,44138,128,0,44281:0:0:0:0:
320,192,44281,128,0,44495:0:0:0:0:
64,192,44495,128,8,44709:0:0:0:66:
448,192,44495,1,0,0:0:0:0:
320,192,44709,128,0,44924:0:0:0:0:
64,192,44817,1,8,0:0:0:66:
192,192,44817,1,0,0:0:0:0:
448,192,44924,128,0,45138:0:0:0:0:
64,192,45138,128,8,45352:0:0:0:33:
320,192,45138,1,2,0:0:0:33:
192,192,45352,128,0,45567:0:0:0:0:
448,192,45567,128,0,45781:0:0:0:0:
320,192,45781,128,0,45995:0:0:0:0:
64,192,45995,128,0,46209:0:0:0:0:
192,192,46209,1,8,0:0:0:66:
448,192,46209,128,0,46424:0:0:0:0:
192,192,46424,128,2,46638:0:0:0:66:
320,192,46531,1,8,0:0:0:66:
448,192,46531,1,0,0:0:0:0:
64,192,46638,128,0,46852:0:0:0:0:
192,192,46852,1,4,0:0:0:33:
320,192,46852,1,2,0:0:0:33:
448,192,46852,1,0,0:0:0:0:
64,192,47067,128,0,47281:0:0:0:0:
320,192,47281,128,0,47567:0:0:0:0:
192,192,47567,128,0,47709:0:0:0:0:
448,192,47709,128,0,47924:0:0:0:0:
64,192,47924,1,0,0:0:0:0:
320,192,48138,128,0,48352:0:0:0:0:
192,192,48352,128,0,48567:0:0:0:0:
64,192,48567,128,2,48781:0:0:0:33:
320,192,48567,1,4,0:0:0:33:
448,192,48567,1,0,0:0:0:0:
192,192,48781,128,0,48995:0:0:0:0:
320,192,48995,128,0,49209:0:0:0:0:
64,192,49209,128,0,49424:0:0:0:0:
320,192,49424,1,8,0:0:0:66:
448,192,49424,1,0,0:0:0:0:
64,192,49638,1,0,0:0:0:66:tom.wav
320,192,49745,1,0,0:0:0:66:tom.wav
64,192,49852,1,2,0:0:0:66:
448,192,49959,1,2,0:0:0:66:
192,192,50067,1,8,0:0:0:66:
320,192,50174,1,8,0:0:0:66:
64,192,50281,1,4,0:0:0:33:
192,192,50281,1,2,0:0:0:33:
448,192,50281,1,0,0:0:0:0:
320,192,50495,1,0,0:0:0:0:
64,192,50602,1,2,0:0:0:66:
192,192,50602,1,0,0:0:0:0:
320,192,50709,1,8,0:0:0:66:
448,192,50709,1,0,0:0:0:0:
64,192,50924,1,2,0:0:0:66:
448,192,50924,1,0,0:0:0:0:
192,192,51031,1,0,0:0:0:0:
320,192,51138,1,0,0:0:0:0:
64,192,51245,1,0,0:0:0:66:tom.wav
192,192,51245,1,0,0:0:0:0:
448,192,51352,1,2,0:0:0:66:
320,192,51459,1,0,0:0:0:0:
64,192,51567,1,8,0:0:0:66:
192,192,51567,1,0,0:0:0:0:
64,192,51781,128,0,52209:0:0:0:0:
192,192,51995,1,2,0:0:0:66:
448,192,51995,1,0,0:0:0:0:
320,192,52209,1,0,0:0:0:0:
448,192,52317,1,2,0:0:0:66:
64,192,52424,1,8,0:0:0:66:
192,192,52424,1,0,0:0:0:0:
320,192,52638,1,2,0:0:0:66:
448,192,52638,1,0,0:0:0:0:
64,192,52745,1,0,0:0:0:0:
192,192,52852,1,0,0:0:0:0:
448,192,52959,1,0,0:0:0:0:
192,192,53067,1,2,0:0:0:66:
320,192,53174,1,0,0:0:0:0:
64,192,53281,1,8,0:0:0:66:
448,192,53281,1,0,0:0:0:0:
448,192,53495,128,0,55424:0:0:0:0:
64,192,53709,1,2,0:0:0:33:
320,192,53709,1,4,0:0:0:33:
192,192,53817,1,8,0:0:0:66:
64,192,53924,1,8,0:0:0:66:
320,192,54031,1,2,0:0:0:66:
192,192,54138,1,8,0:0:0:66:
320,192,54245,1,2,0:0:0:66:
64,192,54352,1,2,0:0:0:66:
192,192,54459,1,2,0:0:0:66:
320,192,54567,1,0,0:0:0:66:tom.wav
64,192,54674,1,8,0:0:0:66:
320,192,54781,1,2,0:0:0:66:
64,192,54888,1,2,0:0:0:66:
192,192,54995,1,8,0:0:0:66:
320,192,55102,1,8,0:0:0:66:
64,192,55209,1,0,0:0:0:66:tom.wav
192,192,55317,1,0,0:0:0:66:tom.wav
64,192,55424,128,2,56817:0:0:0:66:
320,192,55424,128,0,56817:0:0:0:0:
192,192,56924,128,0,57138:0:0:0:0:
64,192,57138,1,2,0:0:0:33:
320,192,57138,128,4,57459:0:0:0:33:
448,192,57138,1,0,0:0:0:0:
64,192,57459,128,2,57567:0:0:0:66:
192,192,57459,1,0,0:0:0:0:
320,192,57567,1,8,0:0:0:66:
448,192,57567,128,0,57995:0:0:0:0:
64,192,57781,1,2,0:0:0:66:
192,192,57888,128,0,57995:0:0:0:0:
320,192,57995,128,0,58424:0:0:0:0:
64,192,58102,1,8,0:0:0:66:
192,192,58209,1,2,0:0:0:66:
64,192,58424,128,8,58745:0:0:0:66:
448,192,58424,1,0,0:0:0:0:
448,192,58745,128,0,58852:0:0:0:0:
64,192,58852,1,2,0:0:0:66:
192,192,58852,128,0,59067:0:0:0:0:
320,192,59067,128,0,59281:0:0:0:0:
64,192,59174,1,2,0:0:0:66:
192,192,59281,1,8,0:0:0:66:
448,192,59281,128,0,59495:0:0:0:0:
64,192,59495,128,2,59817:0:0:0:66:
320,192,59495,1,0,0:0:0:0:
192,192,59709,1,0,0:0:0:0:
320,192,59817,1,8,0:0:0:66:
448,192,59817,1,0,0:0:0:0:
64,192,59924,1,2,0:0:0:0:
192,192,59924,1,0,0:0:0:0:
64,192,60138,1,8,0:0:0:66:
192,192,60138,1,0,0:0:0:0:
320,192,60245,1,0,0:0:0:66:tom.wav
448,192,60245,1,0,0:0:0:0:
64,192,60352,128,0,60567:0:0:0:0:
192,192,60567,128,2,60888:0:0:0:66:
448,192,60567,1,0,0:0:0:0:
320,192,60888,128,2,61209:0:0:0:66:
448,192,60888,1,0,0:0:0:0:
64,192,60995,1,8,0:0:0:66:
192,192,60995,1,0,0:0:0:0:
64,192,61209,128,2,61531:0:0:0:66:
448,192,61209,1,0,0:0:0:0:
192,192,61424,1,0,0:0:0:0:
320,192,61531,1,8,0:0:0:66:
448,192,61531,1,0,0:0:0:0:
192,192,61638,128,2,61852:0:0:0:66:
64,192,61852,1,8,0:0:0:66:
320,192,61852,128,0,62067:0:0:0:0:
192,192,61959,1,2,0:0:0:66:
448,192,62067,128,0,63138:0:0:0:0:
64,192,62281,1,2,0:0:0:66:
192,192,62281,1,0,0:0:0:0:
320,192,62495,1,0,0:0:0:0:
192,192,62602,1,2,0:0:0:66:
64,192,62709,1,8,0:0:0:66:
320,192,62709,1,0,0:0:0:0:
192,192,62924,1,2,0:0:0:66:
64,192,63138,1,0,0:0:0:0:
320,192,63245,1,0,0:0:0:66:tom.wav
448,192,63245,1,0,0:0:0:0:
64,192,63352,1,2,0:0:0:66:
192,192,63352,1,0,0:0:0:0:
64,192,63567,1,8,0:0:0:66:
192,192,63567,1,0,0:0:0:0:
320,192,63674,1,2,0:0:0:66:
448,192,63674,1,0,0:0:0:0:
192,192,63781,128,0,63995:0:0:0:0:
64,192,63995,128,4,64209:0:0:0:33:
320,192,63995,1,2,0:0:0:33:
448,192,63995,1,0,0:0:0:0:
320,192,64317,128,2,64424:0:0:0:66:
448,192,64317,1,0,0:0:0:0:
64,192,64424,1,8,0:0:0:66:
192,192,64424,128,0,64638:0:0:0:0:
64,192,64638,1,0,0:0:0:66:tom.wav
448,192,64638,1,0,0:0:0:0:
320,192,64745,128,0,64852:0:0:0:0:
448,192,64852,128,0,65067:0:0:0:0:
64,192,64959,1,8,0:0:0:66:
192,192,64959,1,0,0:0:0:0:
320,192,65067,1,2,0:0:0:66:
192,192,65174,128,0,65281:0:0:0:0:
64,192,65281,128,8,65495:0:0:0:66:
448,192,65281,1,0,0:0:0:0:
320,192,65495,128,2,65709:0:0:0:66:
192,192,65602,1,2,0:0:0:66:
64,192,65709,1,0,0:0:0:66:tom.wav
448,192,65709,128,0,65924:0:0:0:0:
320,192,65924,128,0,66138:0:0:0:0:
192,192,66031,1,2,0:0:0:66:
64,192,66138,128,8,66245:0:0:0:66:
448,192,66245,128,0,66352:0:0:0:0:
64,192,66352,1,2,0:0:0:66:
192,192,66352,128,0,66781:0:0:0:0:
448,192,66567,1,0,0:0:0:0:
320,192,66674,1,0,0:0:0:0:
64,192,66781,1,0,0:0:0:66:tom.wav
448,192,66888,1,2,0:0:0:66:
64,192,66995,1,8,0:0:0:66:
320,192,66995,1,0,0:0:0:0:
192,192,67102,1,2,0:0:0:66:
320,192,67209,128,0,67424:0:0:0:0:
64,192,67317,1,0,0:0:0:0:
192,192,67424,1,2,0:0:0:66:
448,192,67424,128,0,67745:0:0:0:0:
64,192,67745,128,2,68067:0:0:0:66:
192,192,67745,1,0,0:0:0:0:
320,192,67852,1,8,0:0:0:66:
448,192,67852,1,0,0:0:0:0:
192,192,68067,128,2,68281:0:0:0:66:
448,192,68067,1,0,0:0:0:0:
320,192,68281,128,0,68709:0:0:0:0:
64,192,68388,1,8,0:0:0:66:
192,192,68388,1,0,0:0:0:0:
448,192,68495,1,0,0:0:0:66:tom.wav
64,192,68709,1,8,0:0:0:66:
192,192,68709,1,0,0:0:0:0:
320,192,68817,1,2,0:0:0:66:
448,192,68817,1,0,0:0:0:0:
64,192,68924,128,0,69138:0:0:0:0:
320,192,69138,1,2,0:0:0:66:
448,192,69138,128,0,69459:0:0:0:0:
64,192,69245,1,8,0:0:0:66:
192,192,69245,1,0,0:0:0:0:
64,192,69459,1,0,0:0:0:66:tom.wav
192,192,69459,128,0,69781:0:0:0:0:
320,192,69567,1,8,0:0:0:66:
448,192,69567,1,0,0:0:0:0:
320,192,69781,128,0,69995:0:0:0:0:
64,192,69888,1,2,0:0:0:66:
192,192,69995,1,0,0:0:0:66:tom.wav
448,192,69995,1,0,0:0:0:0:
320,192,70102,1,2,0:0:0:66:
192,192,70209,1,8,0:0:0:66:
320,192,70317,1,8,0:0:0:66:
64,192,70424,1,8,0:0:0:66:
448,192,70424,1,0,0:0:0:0:
192,192,70531,1,8,0:0:0:66:
320,192,70638,1,0,0:0:0:66:tom.wav
192,192,70745,1,0,0:0:0:66:tom.wav
64,192,70852,128,2,71174:0:0:0:33:
320,192,70852,1,4,0:0:0:33:
448,192,70852,1,0,0:0:0:0:
320,192,71174,1,2,0:0:0:66:
448,192,71174,1,0,0:0:0:0:
64,192,71281,1,8,0:0:0:66:
192,192,71281,128,0,71495:0:0:0:0:
320,192,71495,1,2,0:0:0:66:
448,192,71495,1,0,0:0:0:0:
64,192,71602,128,0,71709:0:0:0:0:
320,192,71709,128,0,72031:0:0:0:0:
64,192,71817,1,8,0:0:0:66:
192,192,71817,1,0,0:0:0:0:
448,192,71924,1,2,0:0:0:66:
192,192,72031,128,0,72138:0:0:0:0:
64,192,72138,1,8,0:0:0:66:
448,192,72138,128,0,72567:0:0:0:0:
320,192,72352,128,0,72567:0:0:0:0:
64,192,72567,128,2,72888:0:0:0:66:
192,192,72567,1,0,0:0:0:0:
320,192,72888,1,2,0:0:0:66:
448,192,72888,1,0,0:0:0:0:
64,192,72995,1,8,0:0:0:66:
192,192,72995,128,0,73102:0:0:0:0:
320,192,73102,128,0,73209:0:0:0:0:
64,192,73209,1,2,0:0:0:66:
448,192,73209,128,0,73531:0:0:0:0:
192,192,73424,1,0,0:0:0:0:
64,192,73531,1,8,0:0:0:66:
320,192,73531,1,0,0:0:0:0:
192,192,73638,1,0,0:0:0:66:tom.wav
448,192,73638,1,0,0:0:0:0:
64,192,73852,1,8,0:0:0:66:
192,192,73852,1,0,0:0:0:0:
320,192,73959,1,2,0:0:0:66:
448,192,73959,1,0,0:0:0:0:
64,192,74067,128,0,74281:0:0:0:0:
192,192,74174,1,0,0:0:0:0:
320,192,74281,128,2,74602:0:0:0:66:
448,192,74281,1,0,0:0:0:0:
64,192,74602,1,2,0:0:0:66:
192,192,74602,128,0,74924:0:0:0:0:
320,192,74709,1,8,0:0:0:66:
448,192,74709,1,0,0:0:0:0:
64,192,74924,1,2,0:0:0:66:
448,192,74924,128,0,75245:0:0:0:0:
320,192,75138,1,0,0:0:0:0:
64,192,75245,1,8,0:0:0:66:
192,192,75245,1,0,0:0:0:0:
320,192,75352,128,2,75567:0:0:0:66:
448,192,75352,1,0,0:0:0:0:
64,192,75567,1,8,0:0:0:66:
192,192,75567,128,0,75781:0:0:0:0:
448,192,75674,1,2,0:0:0:66:
64,192,75781,128,0,76852:0:0:0:0:
320,192,75995,1,2,0:0:0:66:
448,192,75995,1,0,0:0:0:0:
192,192,76209,1,0,0:0:0:0:
320,192,76317,1,2,0:0:0:66:
192,192,76424,1,8,0:0:0:66:
448,192,76424,1,0,0:0:0:0:
320,192,76638,1,2,0:0:0:66:
448,192,76852,1,0,0:0:0:0:
64,192,76959,1,8,0:0:0:66:
192,192,76959,1,0,0:0:0:0:
320,192,77067,1,0,0:0:0:66:tom.wav
448,192,77067,1,0,0:0:0:0:
320,192,77281,1,8,0:0:0:66:
448,192,77281,1,0,0:0:0:0:
64,192,77388,1,2,0:0:0:66:
192,192,77388,1,0,0:0:0:0:
320,192,77495,128,0,77709:0:0:0:0:
64,192,77709,1,4,0:0:0:33:
192,192,77709,1,2,0:0:0:33:
448,192,77709,128,0,77924:0:0:0:0:
64,192,78031,1,2,0:0:0:66:
192,192,78031,128,0,78138:0:0:0:0:
320,192,78138,128,8,78352:0:0:0:66:
448,192,78138,1,0,0:0:0:0:
64,192,78352,1,2,0:0:0:66:
448,192,78352,1,0,0:0:0:0:
192,192,78459,128,0,78567:0:0:0:0:
64,192,78567,128,0,78781:0:0:0:0:
320,192,78674,1,8,0:0:0:66:
448,192,78674,1,0,0:0:0:0:
192,192,78781,1,2,0:0:0:66:
320,192,78888,128,0,78995:0:0:0:0:
64,192,78995,1,8,0:0:0:66:
448,192,78995,128,0,79209:0:0:0:0:
192,192,79102,1,2,0:0:0:66:
320,192,79209,1,0,0:0:0:0:
64,192,79317,128,0,79424:0:0:0:0:
192,192,79424,128,2,79638:0:0:0:66:
448,192,79424,1,0,0:0:0:0:
448,192,79745,128,2,79852:0:0:0:66:
64,192,79852,1,8,0:0:0:66:
320,192,79852,128,0,79959:0:0:0:0:
192,192,79959,128,0,80067:0:0:0:0:
64,192,80067,1,2,0:0:0:66:
448,192,80067,128,0,80388:0:0:0:0:
320,192,80281,1,0,0:0:0:0:
64,192,80388,1,8,0:0:0:66:
192,192,80388,1,0,0:0:0:0:
320,192,80495,1,2,0:0:0:66:
448,192,80495,1,0,0:0:0:0:
320,192,80709,1,8,0:0:0:66:
448,192,80709,1,0,0:0:0:0:
64,192,80817,1,0,0:0:0:66:tom.wav
192,192,80817,1,0,0:0:0:0:
448,192,80924,128,0,81031:0:0:0:0:
320,192,81031,128,0,81138:0:0:0:0:
64,192,81138,1,2,0:0:0:33:
192,192,81138,128,4,81459:0:0:0:33:
448,192,81138,1,0,0:0:0:0:
320,192,81459,1,2,0:0:0:66:
448,192,81459,128,0,81781:0:0:0:0:
64,192,81567,1,8,0:0:0:66:
192,192,81567,1,0,0:0:0:0:
64,192,81781,128,2,81995:0:0:0:66:
320,192,81781,1,0,0:0:0:0:
320,192,81995,128,0,82424:0:0:0:0:
64,192,82102,1,8,0:0:0:66:
192,192,82102,1,0,0:0:0:0:
448,192,82209,1,0,0:0:0:66:tom.wav
64,192,82424,1,8,0:0:0:66:
192,192,82424,1,0,0:0:0:0:
320,192,82531,1,2,0:0:0:66:
448,192,82531,1,0,0:0:0:0:
64,192,82638,128,0,82852:0:0:0:0:
320,192,82852,128,2,84138:0:0:0:66:
448,192,82852,1,0,0:0:0:0:
192,192,83174,1,2,0:0:0:66:
64,192,83281,1,8,0:0:0:66:
448,192,83281,1,0,0:0:0:0:
192,192,83495,1,2,0:0:0:66:
64,192,83817,1,8,0:0:0:66:
192,192,83817,1,0,0:0:0:0:
448,192,83924,1,2,0:0:0:66:
64,192,84138,1,8,0:0:0:66:
192,192,84138,1,0,0:0:0:0:
320,192,84245,1,2,0:0:0:66:
192,192,84352,1,8,0:0:0:66:
320,192,84459,1,8,0:0:0:66:
64,192,84567,1,2,0:0:0:33:
448,192,84567,1,4,0:0:0:33:
192,192,84674,1,8,0:0:0:66:
320,192,84781,1,8,0:0:0:66:
64,192,84995,1,8,0:0:0:33:
192,192,84995,1,2,0:0:0:33:
320,192,85209,1,0,0:0:0:66:tom.wav
448,192,85209,1,0,0:0:0:0:
192,192,85317,1,8,0:0:0:66:
64,192,85424,1,2,0:0:0:66:
192,192,85531,1,8,0:0:0:66:
320,192,85638,1,8,0:0:0:66:
448,192,85638,1,0,0:0:0:0:
64,192,85852,1,8,0:0:0:66:
192,192,85852,1,0,0:0:0:0:
320,192,85959,1,2,0:0:0:66:
192,192,86067,1,0,0:0:0:66:tom.wav
320,192,86174,1,0,0:0:0:66:tom.wav
64,192,86281,1,4,0:0:0:33:
192,192,86281,1,2,0:0:0:33:
448,192,86281,1,0,0:0:0:0:
320,192,86924,128,0,87138:0:0:0:0:
448,192,87138,128,0,87352:0:0:0:0:
64,192,87352,128,0,87567:0:0:0:0:
192,192,87567,128,0,87781:0:0:0:0:
320,192,87781,128,0,87995:0:0:0:0:
64,192,87995,128,2,88317:0:0:0:33:
192,192,87995,1,4,0:0:0:33:
448,192,87995,1,0,0:0:0:0:
320,192,88317,1,2,0:0:0:66:
448,192,88317,1,0,0:0:0:0:
64,192,88424,1,8,0:0:0:66:
192,192,88424,1,0,0:0:0:0:
320,192,88638,1,2,0:0:0:66:
448,192,88638,128,0,88959:0:0:0:0:
192,192,88852,1,0,0:0:0:0:
64,192,88959,1,8,0:0:0:66:
320,192,88959,1,0,0:0:0:0:
192,192,89067,1,2,0:0:0:66:
448,192,89067,1,0,0:0:0:0:
320,192,89281,1,8,0:0:0:66:
448,192,89281,1,0,0:0:0:0:
192,192,89334,1,0,0:0:0:0:
64,192,89388,1,2,0:0:0:66:
320,192,89495,1,2,0:0:0:66:
64,192,89709,1,2,0:0:0:66:
192,192,89709,128,0,90031:0:0:0:0:
448,192,89924,1,0,0:0:0:0:
64,192,90031,1,2,0:0:0:66:
320,192,90031,1,0,0:0:0:0:
192,192,90138,1,8,0:0:0:66:
448,192,90138,1,0,0:0:0:0:
64,192,90352,1,2,0:0:0:66:
320,192,90352,128,0,90674:0:0:0:0:
448,192,90567,1,0,0:0:0:0:
64,192,90674,1,8,0:0:0:66:
192,192,90674,1,0,0:0:0:0:
320,192,90781,1,2,0:0:0:0:
448,192,90781,128,0,90995:0:0:0:0:
64,192,90995,128,8,91209:0:0:0:66:
192,192,90995,1,0,0:0:0:0:
448,192,91102,1,2,0:0:0:66:
320,192,91209,128,0,91424:0:0:0:0:
64,192,91424,1,2,0:0:0:66:
448,192,91424,128,0,91745:0:0:0:0:
320,192,91638,1,0,0:0:0:0:
64,192,91745,1,2,0:0:0:66:
192,192,91745,1,0,0:0:0:0:
320,192,91852,1,8,0:0:0:66:
448,192,91852,1,0,0:0:0:0:
64,192,92067,128,2,92388:0:0:0:66:
192,192,92067,1,0,0:0:0:0:
320,192,92281,1,0,0:0:0:0:
192,192,92388,1,8,0:0:0:66:
448,192,92388,1,0,0:0:0:0:
64,192,92495,1,2,0:0:0:0:
320,192,92495,1,0,0:0:0:0:
64,192,92709,1,8,0:0:0:66:
192,192,92709,1,0,0:0:0:0:
320,192,92763,1,0,0:0:0:0:
448,192,92817,1,2,0:0:0:66:
192,192,92924,1,0,0:0:0:0:
64,192,93138,1,2,0:0:0:33:
448,192,93138,1,4,0:0:0:33:
64,192,93352,1,0,0:0:0:66:tom.wav
192,192,93352,1,0,0:0:0:0:
320,192,93459,1,8,0:0:0:66:
448,192,93459,1,0,0:0:0:0:
320,192,93674,1,8,0:0:0:66:
448,192,93674,1,0,0:0:0:0:
64,192,93781,1,8,0:0:0:66:
192,192,93781,1,0,0:0:0:0:
64,192,93995,1,0,0:0:0:66:tom.wav
320,192,93995,1,0,0:0:0:0:
192,192,94102,1,8,0:0:0:66:
448,192,94209,1,10,0:0:0:33:
320,192,94317,1,8,0:0:0:66:
64,192,94424,1,8,0:0:0:33:
192,192,94424,1,0,0:0:0:33:tom.wav
448,192,94531,1,8,0:0:0:66:
192,192,94638,1,10,0:0:0:33:
320,192,94745,1,8,0:0:0:66:
64,192,94852,128,2,95174:0:0:0:22:
192,192,94852,1,4,0:0:0:22:
448,192,94852,1,0,0:0:0:0:
320,192,95174,1,2,0:0:0:66:
448,192,95174,1,0,0:0:0:0:
64,192,95281,1,8,0:0:0:66:
192,192,95281,1,0,0:0:0:0:
64,192,95495,1,2,0:0:0:66:
320,192,95495,128,0,95817:0:0:0:0:
192,192,95709,1,0,0:0:0:0:
64,192,95817,1,8,0:0:0:66:
448,192,95817,1,0,0:0:0:0:
192,192,95924,1,2,0:0:0:66:
320,192,95924,1,0,0:0:0:0:
320,192,96138,1,8,0:0:0:66:
448,192,96138,1,0,0:0:0:0:
192,192,96192,1,0,0:0:0:0:
64,192,96245,1,0,0:0:0:0:
448,192,96352,1,0,0:0:0:0:
64,192,96567,1,2,0:0:0:66:
192,192,96567,128,0,96888:0:0:0:0:
320,192,96888,1,2,0:0:0:66:
448,192,96888,1,0,0:0:0:0:
64,192,96995,1,8,0:0:0:66:
192,192,96995,1,0,0:0:0:0:
64,192,97209,1,2,0:0:0:66:
448,192,97209,128,0,97531:0:0:0:0:
192,192,97424,1,0,0:0:0:0:
64,192,97531,1,8,0:0:0:66:
320,192,97531,1,0,0:0:0:0:
192,192,97638,128,2,97852:0:0:0:0:
448,192,97638,1,0,0:0:0:0:
64,192,97852,1,8,0:0:0:66:
320,192,97852,128,0,98067:0:0:0:0:
192,192,97959,1,2,0:0:0:66:
448,192,98067,128,0,98281:0:0:0:0:
64,192,98281,128,2,98602:0:0:0:66:
192,192,98281,1,0,0:0:0:0:
320,192,98602,1,2,0:0:0:66:
448,192,98602,1,0,0:0:0:0:
64,192,98709,1,8,0:0:0:66:
192,192,98709,1,0,0:0:0:0:
192,192,98924,1,2,0:0:0:66:
448,192,98924,128,0,99245:0:0:0:0:
64,192,99138,1,0,0:0:0:0:
192,192,99245,1,8,0:0:0:66:
320,192,99245,1,0,0:0:0:0:
64,192,99352,1,2,0:0:0:0:
448,192,99352,1,0,0:0:0:0:
320,192,99567,1,8,0:0:0:66:
448,192,99567,1,0,0:0:0:0:
192,192,99620,1,0,0:0:0:0:
64,192,99674,1,2,0:0:0:66:
320,192,99781,1,0,0:0:0:0:
64,192,99995,1,2,0:0:0:33:
192,192,99995,1,4,0:0:0:33:
320,192,100209,1,0,0:0:0:0:
64,192,100317,1,2,0:0:0:66:
448,192,100317,1,0,0:0:0:0:
320,192,100531,1,8,0:0:0:66:
448,192,100531,1,0,0:0:0:0:
64,192,100638,1,8,0:0:0:66:
192,192,100638,1,0,0:0:0:0:
64,192,100852,1,2,0:0:0:66:
448,192,100852,1,0,0:0:0:0:
320,192,100959,1,2,0:0:0:66:
448,192,101067,1,0,0:0:0:66:tom.wav
192,192,101174,1,2,0:0:0:66:
320,192,101281,1,8,0:0:0:66:
448,192,101281,1,0,0:0:0:0:
64,192,101388,1,8,0:0:0:66:
320,192,101495,1,8,0:0:0:66:
64,192,101602,1,8,0:0:0:66:
192,192,101602,1,0,0:0:0:0:
448,192,101709,1,0,0:0:0:0:
320,192,101817,1,0,0:0:0:0:
192,192,101924,1,0,0:0:0:0:
64,192,102031,1,0,0:0:0:0:
320,192,102138,1,0,0:0:0:0:
192,192,102245,1,0,0:0:0:0:
448,192,102352,1,0,0:0:0:0:
320,192,102459,1,0,0:0:0:0:
64,192,102567,1,0,0:0:0:0:
192,192,102567,1,0,0:0:0:0:
448,192,102674,1,0,0:0:0:0:
64,192,102781,1,0,0:0:0:0:
192,192,102888,1,0,0:0:0:0:
320,192,102995,1,0,0:0:0:0:
448,192,102995,1,0,0:0:0:0:
64,192,103209,1,0,0:0:0:66:tom.wav
192,192,103281,1,0,0:0:0:66:tom.wav
320,192,103352,1,0,0:0:0:66:tom.wav
64,192,103424,128,4,108138:0:0:0:0:
448,192,103424,128,2,108138:0:0:0:0:
