osu file format v14

[General]
AudioFilename: audio.mp3
AudioLeadIn: 0
PreviewTime: 63900
Countdown: 1
SampleSet: Soft
StackLeniency: 0.7
Mode: 0
LetterboxInBreaks: 0
WidescreenStoryboard: 0

[Editor]
Bookmarks: 47062,89255
DistanceSpacing: 0.6
BeatDivisor: 4
GridSize: 4
TimelineZoom: 2.899999

[Metadata]
Title:Ketsubetsu no Tabi
TitleUnicode:決別の旅
Artist:Yonder Voice feat. YooSanHyakurei
ArtistUnicode:Yonder Voice feat. 瑶山百霊
Creator:- Angelia
Version:Insane
Source:東方Project
Tags:thzz Hanazawa_Kana _Yiiiii 少女秘封倶楽部 蓮台野夜行 童祭_~_Innocent_Treasures 夢違科学世紀 ネクロファンタジア 東方妖々夢 Touhou Toho LEMiao 苍罗杏 CP15
BeatmapID:1113852
BeatmapSetID:524818

[Difficulty]
HPDrainRate:6
CircleSize:4
OverallDifficulty:7
ApproachRate:8
SliderMultiplier:1.6
SliderTickRate:1

[Events]
//Background and Video events
0,0,"1f097e8b94e364cb57fafd3d6d6148db.jpg",0,0
//Break Periods
//Storyboard Layer 0 (Background)
//Storyboard Layer 1 (Fail)
//Storyboard Layer 2 (Pass)
//Storyboard Layer 3 (Foreground)
//Storyboard Sound Samples

[TimingPoints]
998,387.096774193548,4,2,2,50,1,0
2159,-133.333333333333,4,2,3,50,0,0
2546,-133.333333333333,4,2,2,50,0,0
11836,-100,4,2,1,50,0,0
14933,-100,4,2,1,50,0,0
27320,-133.333333333333,4,2,1,50,0,0
39707,-111.111111111111,4,2,3,50,0,0
52094,-111.111111111111,4,2,1,50,0,0
58288,-100,4,2,1,50,0,0
64094,-133.333333333333,4,2,1,50,0,0
64481,-83.3333333333333,4,2,1,70,0,1
76288,-83.3333333333333,4,2,1,70,0,0
82675,-83.3333333333333,4,2,1,65,0,0

[HitObjects]
142,47,2159,6,0,L|136:106,1,60.0000022888184
200,176,2547,2,0,P|276:184|324:144,2,120.000004577637,2|0|0,0:0|0:0|0:0,0:0:0:0:
21,111,3708,1,0,0:0:0:0:
21,111,3901,2,0,P|73:95|149:115,1,120.000004577637,2|0,0:0|0:0,0:0:0:0:
200,176,4482,6,0,B|188:216|200:244|200:244|212:276|192:320,1,120.000004577637,2|0,0:0|0:0,0:0:0:0:
280,208,5256,1,0,0:0:0:0:
280,208,5450,2,0,P|368:204|388:116,1,180.000006866455,2|0,0:0|0:0,0:0:0:0:
82,184,6418,2,0,B|122:196|150:180|150:180|182:168|218:180,1,120.000004577637,2|0,0:0|0:0,0:0:0:0:
272,128,6998,6,0,L|280:8,1,120.000004577637,2|0,0:0|0:0,0:0:0:0:
199,175,7579,2,0,P|223:215|243:231,1,60.0000022888184
391,126,7966,2,0,L|252:128,1,120.000004577637,2|0,0:0|0:0,0:0:0:0:
299,271,8740,6,0,L|419:270,2,120.000004577637,2|0|0,0:0|0:0|0:0,0:0:0:0:
224,308,9901,2,0,P|216:352|216:376,1,60.0000022888184
232,228,10289,2,0,L|224:92,1,120.000004577637,2|0,0:0|0:0,0:0:0:0:
36,64,11063,2,0,B|64:72|100:64|100:64|128:52|172:56,1,120.000004577637,2|0,0:0|0:0,0:0:0:0:
232,24,11837,1,4,0:0:0:0:
256,192,11934,12,2,14547,0:0:0:0:
100,128,14934,6,0,B|136:140|136:140|200:132,1,80,8|0,0:0|0:0,0:0:0:0:
244,80,15321,1,0,0:0:0:0:
264,172,15514,2,0,L|260:336,1,160,2|0,0:0|0:0,0:0:0:0:
176,304,16095,2,0,L|180:220,1,80,2|0,0:0|0:0,0:0:0:0:
264,172,16482,6,0,L|360:188,1,80,8|0,0:0|0:0,0:0:0:0:
177,134,16869,1,0,0:0:0:0:
179,224,17063,2,0,L|176:304,1,80,2|0,0:0|0:0,0:0:0:0:
264,172,17450,1,0,0:0:0:0:
177,134,17643,2,0,L|92:136,1,80,2|0,0:0|0:0,0:0:0:0:
264,172,18030,6,0,B|304:180|304:180|372:168,1,80,8|0,0:0|0:0,0:0:0:0:
404,108,18418,1,0,0:0:0:0:
264,172,18611,2,0,L|268:344,1,160,2|0,0:0|0:0,0:0:0:0:
179,224,19192,2,0,L|176:136,1,80,2|0,0:0|0:0,0:0:0:0:
340,93,19579,6,0,L|342:182,1,80,8|0,0:0|0:0,0:0:0:0:
257,218,19966,2,0,B|216:228|216:228|173:222,1,80,2|0,0:0|0:0,0:0:0:0:
340,272,20353,2,0,B|360:308|360:308|364:356,1,80,6|0,0:0|0:0,0:0:0:0:
252,312,20740,1,2,0:0:0:0:
428,224,20934,1,0,0:0:0:0:
260,132,21127,5,8,0:0:0:0:
260,132,21321,2,0,L|84:152,1,160,0|0,0:0|0:0,0:0:0:0:
48,228,21901,2,0,B|40:268|40:268|56:320,1,80,2|0,0:0|0:0,0:0:0:0:
12,144,22289,2,0,L|4:56,1,80,0|0,0:0|0:0,0:0:0:0:
136,236,22676,5,8,0:0:0:0:
136,236,22869,2,0,L|296:248,1,160
368,192,23450,2,0,B|376:156|376:156|368:112,1,80,2|0,0:0|0:0,0:0:0:0:
384,284,23837,2,0,L|484:284,1,80
280,160,24224,6,0,L|172:164,1,80,8|0,0:0|0:0,0:0:0:0:
65,206,24611,1,2,0:0:0:0:
149,91,24805,1,0,0:0:0:0:
149,234,24998,1,0,0:0:0:0:
65,118,25192,1,0,0:0:0:0:
200,162,25385,2,0,L|280:160,1,80,2|0,0:0|0:0,0:0:0:0:
339,50,25772,5,8,0:0:0:0:
364,134,25966,1,0,0:0:0:0:
255,75,26159,1,2,0:0:0:0:
424,72,26353,1,0,0:0:0:0:
280,240,26547,2,0,P|280:148|280:152,1,80,0|0,0:0|0:0,0:0:0:0:
224,384,26934,2,0,P|224:292|224:296,1,80,2|0,0:0|0:0,0:0:0:0:
280,160,27321,6,0,P|368:128|320:12,1,240.000009155274,6|0,0:0|0:0,0:0:0:0:
36,44,28482,1,0,0:0:0:0:
36,44,28869,2,0,B|108:40|108:40|192:80|192:80|280:72,1,240.000009155274,2|0,0:0|0:0,0:0:0:0:
108,272,30418,6,0,B|92:216|92:216|112:144,1,120.000004577637,2|0,0:0|0:0,0:0:0:0:
292,200,31192,2,0,P|244:224|164:200,1,120.000004577637,2|0,0:0|0:0,0:0:0:0:
204,0,31966,2,0,L|192:136,1,120.000004577637,2|0,0:0|0:0,0:0:0:0:
295,319,32740,2,0,L|291:195,1,120.000004577637,6|0,0:0|0:0,0:0:0:0:
400,164,33514,6,0,B|352:184|288:152|288:152|240:124|144:152,1,240.000009155274,2|0,0:0|0:0,0:0:0:0:
228,344,34676,1,0,0:0:0:0:
228,344,34869,1,0,0:0:0:0:
228,344,35063,2,0,L|236:216,1,120.000004577637,2|0,0:0|0:0,0:0:0:0:
392,44,35837,2,0,L|400:176,1,120.000004577637,2|0,0:0|0:0,0:0:0:0:
320,224,36611,6,0,B|240:204|148:236|148:236|200:188,1,240.000009155274,4|0,0:0|0:0,0:0:0:0:
284,12,37772,1,0,0:0:0:0:
284,12,38159,2,0,L|272:140,1,120.000004577637,2|0,0:0|0:0,0:0:0:0:
207,311,38934,2,0,L|195:183,1,120.000004577637,2|0,0:0|0:0,0:0:0:0:
272,131,39708,6,0,B|344:115|344:115|432:139,1,143.999995605469,8|0,0:0|0:0,0:0:0:0:
336,280,40289,1,0,0:0:0:0:
336,280,40482,2,0,L|340:180,1,71.9999978027344,2|0,0:0|0:0,0:0:0:0:
409,61,40869,2,0,L|413:165,1,71.9999978027344,4|0,0:0|0:0,0:0:0:0:
338,208,41256,6,0,P|264:204|178:240,1,143.999995605469,8|4,0:0|0:0,0:0:0:0:
143,302,41837,1,0,0:0:0:0:
143,150,42030,1,2,0:0:0:0:
198,226,42224,1,0,0:0:0:0:
53,179,42418,1,4,0:0:0:0:
232,144,42611,1,0,0:0:0:0:
364,208,42805,6,0,L|263:213,1,71.9999978027344,8|0,0:0|0:0,0:0:0:0:
392,120,43192,2,0,L|291:125,1,71.9999978027344
160,140,43579,2,0,L|261:145,1,71.9999978027344,2|0,0:0|0:0,0:0:0:0:
132,52,43966,2,0,L|233:57,1,71.9999978027344,4|0,0:0|0:0,0:0:0:0:
296,76,44353,6,0,P|376:88|444:36,1,143.999995605469,8|0,0:0|0:0,0:0:0:0:
484,136,44934,1,0,0:0:0:0:
484,136,45127,2,0,P|492:196|480:240,1,71.9999978027344,2|0,0:0|0:0,0:0:0:0:
448,348,45514,2,0,L|444:264,1,71.9999978027344,4|0,0:0|0:0,0:0:0:0:
404,200,45901,6,0,P|340:188|248:228,1,143.999995605469,8|0,0:0|0:0,0:0:0:0:
216,276,46482,2,0,P|260:184|192:80,1,215.999993408203,8|4,0:0|0:0,0:0:0:0:
8,160,47450,6,0,L|164:140,1,143.999995605469,8|0,0:0|0:0,0:0:0:0:
210,90,48030,1,0,0:0:0:0:
210,90,48224,2,0,L|198:266,1,143.999995605469,8|0,0:0|0:0,0:0:0:0:
92,212,48998,2,0,P|100:296|308:252,1,359.999989013672,10|0,0:0|0:0,0:0:0:0:
208,160,50159,2,0,L|194:266,1,71.9999978027344,4|0,0:0|0:0,0:0:0:0:
306,264,50547,6,0,P|386:276|458:248,1,143.999995605469,8|0,0:0|0:0,0:0:0:0:
436,160,51127,1,0,0:0:0:0:
436,160,51321,2,0,P|356:148|294:172,1,143.999995605469,8|0,0:0|0:0,0:0:0:0:
198,369,52095,6,0,B|218:317|218:317|194:213,1,143.999995605469,12|0,0:0|0:0,0:0:0:0:
116,168,52676,2,0,P|184:192|308:112,1,215.999993408203,6|0,0:0|0:0,0:0:0:0:
301,125,53643,6,0,L|297:268,1,143.999995605469,10|0,0:0|0:0,0:0:0:0:
248,340,54224,2,0,P|320:356|380:244,1,215.999993408203,6|0,0:0|0:0,0:0:0:0:
297,268,55192,6,0,B|193:252|193:252|117:280|117:280|13:260,2,287.999991210938,10|2|10,0:0|0:0|0:0,0:0:0:0:
296,268,57127,1,0,0:0:0:0:
364,200,57514,2,0,P|372:140|372:120,1,71.9999978027344,2|0,0:0|0:0,0:0:0:0:
296,268,57901,2,0,B|296:316|312:360,1,71.9999978027344,2|0,0:0|0:0,0:0:0:0:
296,68,58289,6,0,L|104:80,1,160,12|0,0:0|0:0,0:0:0:0:
80,232,58869,2,0,P|92:164|76:132,1,80,2|0,0:0|0:0,0:0:0:0:
8,180,59256,1,0,0:0:0:0:
136,77,59450,2,0,L|308:65,1,160,6|8,0:0|0:0,0:0:0:0:
280,224,60224,6,0,B|272:188|272:188|280:136,1,80
356,120,60611,2,0,P|428:112|472:28,1,160,2|0,0:0|0:0,0:0:0:0:
295,65,61192,2,0,B|239:53|207:69|207:69|163:89|111:69,1,160,12|0,0:0|0:0,0:0:0:0:
68,24,61772,5,0,0:0:0:0:
68,24,61966,1,0,0:0:0:0:
252,228,62159,2,0,L|256:144,1,80,2|0,0:0|0:0,0:0:0:0:
60,116,62547,2,0,L|52:228,1,80
188,296,62934,2,0,P|256:320|336:248,2,160,10|0|4,0:0|0:0|0:0,0:0:0:0:
60,116,64094,6,0,L|52:192,1,60.0000022888184,2|0,0:0|0:0,0:0:0:0:
0,236,64481,6,0,P|56:216|192:264,1,191.999994140625,8|0,0:0|0:0,0:0:0:0:
272,316,65063,1,0,0:0:0:0:
280,212,65256,2,0,P|292:140|272:100,1,95.9999970703126,6|0,0:0|0:0,0:0:0:0:
179,251,65643,2,0,P|167:311|183:363,1,95.9999970703126
272,316,66030,6,0,L|476:304,1,191.999994140625,8|0,0:0|0:0,0:0:0:0:
400,172,66611,1,0,0:0:0:0:
278,220,66805,2,0,P|270:288|274:336,1,95.9999970703126,6|0,0:0|0:0,0:0:0:0:
400,172,67192,2,0,L|396:64,1,95.9999970703126
272,316,67579,6,0,L|476:304,1,191.999994140625,8|0,0:0|0:0,0:0:0:0:
192,264,68159,1,0,0:0:0:0:
192,264,68353,2,0,B|128:236|48:268|48:268|80:232,1,191.999994140625,6|0,0:0|0:0,0:0:0:0:
152,72,68934,6,0,L|144:172,1,95.9999970703126,0|8,0:0|0:0,0:0:0:0:
83,330,69321,1,0,0:0:0:0:
83,330,69514,2,0,L|75:214,1,95.9999970703126,2|0,0:0|0:0,0:0:0:0:
56,68,69901,2,0,L|264:80,1,191.999994140625,6|0,0:0|0:0,0:0:0:0:
364,224,70482,1,0,0:0:0:0:
364,224,70676,6,0,L|368:116,1,95.9999970703126,8|0,0:0|0:0,0:0:0:0:
172,256,71063,2,0,L|180:368,1,95.9999970703126
280,184,71450,1,6,0:0:0:0:
148,112,71643,1,0,0:0:0:0:
77,272,71837,2,0,L|213:248,1,95.9999970703126
280,184,72224,6,0,B|336:200|376:180|376:180|424:160|484:172,2,191.999994140625,8|0|6,0:0|0:0|0:0,0:0:0:0:
188,112,73192,1,0,0:0:0:0:
416,256,73385,2,0,L|404:352,1,95.9999970703126
328,108,73772,2,0,L|316:8,1,95.9999970703126,8|0,0:0|0:0,0:0:0:0:
93,109,74159,6,0,P|157:117|213:101,1,95.9999970703126
416,256,74547,2,0,L|304:264,1,95.9999970703126,6|0,0:0|0:0,0:0:0:0:
124,200,74934,1,0,0:0:0:0:
256,336,75127,1,0,0:0:0:0:
304,128,75321,6,0,P|316:72|304:20,1,95.9999970703126,8|0,0:0|0:0,0:0:0:0:
124,200,75708,2,0,L|232:192,1,95.9999970703126
412,248,76095,2,0,L|292:236,1,95.9999970703126,6|0,0:0|0:0,0:0:0:0:
368,152,76482,1,0,0:0:0:0:
312,348,76676,1,0,0:0:0:0:
164,284,76869,6,0,L|56:296,1,95.9999970703126,8|0,0:0|0:0,0:0:0:0:
219,192,77256,2,0,L|327:202,1,95.9999970703126
388,264,77643,2,0,P|348:184|396:84,1,191.999994140625,2|0,0:0|0:0,0:0:0:0:
476,288,78224,2,0,P|428:344|304:284,1,191.999994140625,4|0,0:0|0:0,0:0:0:0:
68,294,78805,6,0,L|184:280,1,95.9999970703126
240,216,79192,2,0,P|292:144|216:40,1,191.999994140625,2|0,0:0|0:0,0:0:0:0:
32,64,79772,2,0,P|116:140|196:116,1,191.999994140625,6|0,0:0|0:0,0:0:0:0:
350,56,80353,2,0,L|250:56,1,95.9999970703126
272,280,80740,2,0,B|312:196|280:136|280:136|248:192,1,191.999994140625
188,316,81321,6,0,P|252:368|364:308,1,191.999994140625,6|0,0:0|0:0,0:0:0:0:
283,184,81901,2,0,L|271:284,1,95.9999970703126
352,120,82289,2,0,P|260:148|164:84,1,191.999994140625,4|0,0:0|0:0,0:0:0:0:
88,136,82869,6,0,P|76:212|80:248,1,95.9999970703126,6|8,0:0|0:0,0:0:0:0:
136,296,83256,1,0,0:0:0:0:
136,296,83450,2,0,L|272:300,1,95.9999970703126
312,344,83837,2,0,P|400:316|396:204,1,191.999994140625
312,252,84418,5,0,0:0:0:0:
411,227,84611,2,0,L|427:27,1,191.999994140625,14|0,0:0|0:0,0:0:0:0:
85,35,85385,2,0,L|101:227,1,191.999994140625,14|0,0:0|0:0,0:0:0:0:
40,296,85966,1,0,0:0:0:0:
40,296,86159,6,0,P|116:248|220:276,1,191.999994140625,12|0,0:0|0:0,0:0:0:0:
280,336,86740,1,2,0:0:0:0:
396,224,86934,1,0,0:0:0:0:
240,184,87127,1,0,0:0:0:0:
368,312,87321,1,2,0:0:0:0:
328,160,87514,1,0,0:0:0:0:
212,268,87708,5,14,0:0:0:0:
368,312,87901,1,0,0:0:0:0:
464,200,88095,1,2,0:0:0:0:
308,244,88288,1,0,0:0:0:0:
204,132,88482,1,14,0:0:0:0:
360,176,88675,1,0,0:0:0:0:
464,64,88869,1,2,0:0:0:0:
308,108,89062,1,0,0:0:0:0:
512,132,89256,5,14,0:0:0:0:
